<?xml version="1.0" standalone="no"?>
<!DOCTYPE svg PUBLIC "-//W3C//DTD SVG 1.1//EN" "http://www.w3.org/Graphics/SVG/1.1/DTD/svg11.dtd">
<svg xmlns="http://www.w3.org/2000/svg">
<defs >
<font id="Asap" horiz-adv-x="536" ><font-face
    font-family="Asap Medium"
    units-per-em="1000"
    panose-1="0 0 0 0 0 0 0 0 0 0"
    ascent="934"
    descent="-212"
    alphabetic="0" />
<glyph unicode=" " horiz-adv-x="240" />
<glyph unicode="!" horiz-adv-x="294" d="M125 208Q104 208 98 214T92 233L138 677Q141 702 186 702H213Q237 702 247 696T255 677L175 233Q173 221 165 215T136 208H125ZM99 -2Q74 -2 65 4T55 23L63 96Q64 109 75 115T111 121H132Q157 121 167 115T176 96L168
23Q165 -2 120 -2H99Z" />
<glyph unicode="&quot;" horiz-adv-x="319" d="M111 470Q87 470 87 487V676Q87 702 135 702H144Q193 702 186 674L144 487Q140 470 116 470H111ZM245 470Q220 470 220 487V676Q220 702 268 702H277Q326 702 319 674L277 487Q273 470 250 470H245Z" />
<glyph unicode="#" horiz-adv-x="534" d="M75 -2Q39 -2 45 21L94 192H29Q17 192 12 200T8 227L9 241Q11 261 18 270T38 279H119L158 415H87Q76 415 71 423T67 449L68 464Q70 484 77 493T96 502H182L228 661Q232 674 242 680T279 686H286Q322 686 316 666L267 502H379L425
661Q428 674 438 680T475 686H483Q518 686 512 666L466 502H523Q536 502 540 494T544 467L543 453Q541 432 534 424T514 415H441L402 279H467Q479 279 484 271T487 244L486 230Q485 210 478 201T458 192H376L328 23Q325 11 315 5T278 -2H272Q236 -2 242 21L291
192H180L131 23Q128 11 118 5T81 -2H75ZM205 279H316L355 415H244L205 279Z" />
<glyph unicode="$" horiz-adv-x="500" d="M213 -70Q203 -70 200 -65T196 -50Q196 -47 197 -32T200 -6Q179 -5 150 -2T93 10T50 33Q36 46 36 60Q36 95 39 111T46 132T55 138Q58 138 63 135T76 127Q94 117 127 104T210 90L234 314Q204 326 174 340T120 374T80 423T65
494Q65 556 92 601T167 672T275 705L279 738Q281 749 285 753T301 758H308Q324 758 324 738Q324 736 323 726T321 706Q344 706 369 702T417 691T454 672Q472 657 472 644Q472 636 464 621T445 593T427 580Q423 580 418 582T406 589Q391 596 369 604T311 614L289
408Q328 391 367 369T432 312T458 219Q458 168 442 128T396 60T329 16T245 -5L241 -50Q240 -70 219 -70H213ZM255 90Q296 99 323 128T350 202Q350 237 329 258T277 294L255 90ZM246 426L265 611Q222 603 197 577T172 509Q172 478 193 460T246 426Z" />
<glyph unicode="%" horiz-adv-x="765" d="M199 378Q170 378 141 388T93 427T73 509Q73 571 88 609T127 669T180 699T233 707Q263 707 292 697T340 657T359 574Q359 529 349 493T317 431T267 392T199 378ZM534 -7Q505 -7 476 3T428 42T409 124Q409 186 423 224T462
284T515 314T568 322Q598 322 627 311T675 272T694 188Q694 143 684 107T652 46T602 7T534 -7ZM540 56Q571 56 588 77T612 128T619 186Q619 214 608 236T561 258Q535 258 520 244T497 208T487 164T485 125Q485 99 496 78T540 56ZM205 441Q237 441 254 462T277 514T284
572Q284 599 273 621T227 643Q200 643 185 629T162 594T152 550T150 511Q150 484 161 463T205 441ZM141 -1Q117 -1 117 6Q117 10 123 18L588 693Q596 702 615 702H622Q636 702 641 701T646 695Q646 690 639 681L178 12Q173 4 166 2T146 -1H141Z" />
<glyph unicode="&amp;" horiz-adv-x="624" d="M228 -7Q190 -7 154 3T88 36T42 92T25 176Q25 233 45 276T99 347T168 386L169 390Q132 405 108 438T83 518Q83 580 113 622T193 685T305 707Q321 707 341 705T376 697T392 676Q392 664 387 650T374 625T360 615Q354
615 342 618T305 622Q268 622 245 611T208 582T190 546T185 513Q185 489 196 466T233 428T300 413H412L430 504Q433 518 442 524T476 531H483Q506 531 514 524T521 503L512 413H577Q591 413 595 405T598 377L596 364Q592 328 570 328H503L484 135Q480 101 492 89T525
77Q546 77 555 80T569 84Q576 84 576 74Q576 66 575 55T571 32Q567 10 544 2T497 -7Q471 -7 444 1T400 35Q369 18 327 6T228 -7ZM250 78Q283 78 317 88T380 112Q380 120 382 144T388 200T395 266T402 328H285Q240 328 205 315T150 270T130 187Q130 146 148 122T194
88T250 78Z" />
<glyph unicode="&apos;" horiz-adv-x="183" d="M110 470Q85 470 85 487V676Q85 702 133 702H142Q192 702 185 674L143 487Q139 470 115 470H110Z" />
<glyph unicode="(" horiz-adv-x="301" d="M303 783Q313 783 325 775T337 754Q337 743 327 731Q269 661 227 575T163 392T140 191Q140 92 163 4T232 -158Q238 -165 238 -174Q238 -180 232 -189T217 -204T198 -211Q187 -211 176 -198Q116 -127 83 -25T49 197Q49
312 78 418T158 615T279 771Q290 783 303 783Z" />
<glyph unicode=")" horiz-adv-x="301" d="M101 784Q112 784 123 771Q183 700 216 598T250 377Q250 267 223 161T144 -37T20 -198Q10 -210 -3 -210Q-14 -210 -26 -201T-38 -180Q-38 -172 -30 -162Q35 -85 76 5T138 192T159 382Q159 449 149 509T118 625T67 731Q63
735 62 739T60 747Q60 754 66 762T81 777T101 784Z" />
<glyph unicode="*" horiz-adv-x="373" d="M113 413Q106 413 98 420T90 434Q90 443 97 451L174 544L85 574Q71 579 71 589Q71 601 78 610T95 619Q97 619 99 619T105 617L195 587L205 686Q207 709 230 709Q243 709 247 704T251 686L240 587L336 617Q338 618 340
618T346 619Q352 619 358 613T364 595Q364 579 346 574L251 544L308 451Q313 442 313 438Q313 430 304 422T285 413Q275 413 269 424L210 520L131 424Q121 413 113 413Z" />
<glyph unicode="+" horiz-adv-x="560" d="M248 -1Q228 -1 221 4T215 23L232 193H63Q53 193 48 200T43 224L45 240Q47 258 53 264T71 271H241L259 443Q260 455 268 460T297 466H306Q325 466 333 460T339 441L321 271H491Q501 271 506 265T510 242L509 225Q508 207
500 200T482 193H313L295 21Q293 -1 257 -1H248Z" />
<glyph unicode="," horiz-adv-x="198" d="M27 -119Q17 -119 6 -116T-5 -103Q-5 -98 -3 -94T3 -83Q24 -49 38 -11T58 86Q60 102 72 111T107 121H119Q142 121 151 113T161 90Q158 57 148 26T121 -31T88 -77T54 -107T27 -119Z" />
<glyph unicode="-" horiz-adv-x="320" d="M61 224Q50 224 45 231T40 257L41 273Q43 292 50 299T69 306H261Q271 306 277 299T281 274L280 258Q278 238 270 231T252 224H61Z" />
<glyph unicode="." horiz-adv-x="198" d="M95 121Q120 121 129 115T139 96L131 23Q129 -2 83 -2H61Q36 -2 27 4T18 23L26 96Q28 121 74 121H95Z" />
<glyph unicode="/" horiz-adv-x="422" d="M14 -79Q-4 -79 -10 -76T-16 -67Q-16 -65 -15 -62T-11 -54L367 684Q372 694 380 698T407 702H415Q435 702 441 699T448 690Q448 686 441 671L67 -58Q61 -69 52 -74T23 -79H14Z" />
<glyph unicode="0" horiz-adv-x="535" d="M239 -7Q183 -7 139 23T68 115T42 270Q42 381 65 463T127 600T214 680T314 707Q371 707 416 677T487 584T513 427Q513 316 490 235T427 100T339 20T239 -7ZM248 78Q275 78 303 98T355 160T394 268T409 430Q409 498 395
540T358 602T305 622Q279 622 251 602T199 540T161 429T146 266Q146 199 160 158T197 97T248 78Z" />
<glyph unicode="1" horiz-adv-x="535" d="M47 0Q35 0 30 9T27 35L28 49Q32 85 55 85H217L271 598L108 571Q94 570 90 585T85 616Q85 633 89 641T109 653L350 703Q363 703 373 696T382 679L320 85H456Q468 85 472 76T476 50L475 36Q471 0 447 0H47Z" />
<glyph unicode="2" horiz-adv-x="535" d="M48 0Q43 0 38 11T30 36T26 62Q26 70 28 73L331 406Q361 440 376 473T392 536Q392 576 364 598T286 621Q244 621 215 609T168 585T141 573Q129 573 118 592T107 625Q107 644 127 659T178 684T241 701T299 707Q361 707
405 687T474 632T498 551Q498 514 489 484T459 421T404 350L161 84H435Q458 84 454 48L453 36Q449 0 427 0H48Z" />
<glyph unicode="3" horiz-adv-x="535" d="M218 -7Q184 -7 154 -3T99 10T62 30T48 56Q48 68 54 80T68 101T82 110Q90 110 103 102T143 86T215 78Q239 78 264 85T311 110T346 156T360 227Q360 283 326 305T232 328H200Q175 328 179 360L181 377Q183 397 189 404T209
412H235Q272 412 298 425T340 459T364 500T372 541Q372 560 363 578T333 609T273 621Q230 621 203 614T159 598T133 589Q127 589 120 599T107 623T101 646Q101 660 120 671T169 690T231 702T291 707Q376 707 426 668T476 554Q476 491 443 450T361 390L360 386Q389
377 413 356T451 303T465 229Q465 166 443 122T384 50T304 7T218 -7Z" />
<glyph unicode="4" horiz-adv-x="535" d="M343 -2Q322 -2 315 4T307 23L321 160H29Q23 160 19 169T11 192T8 217Q8 222 9 227T11 234L378 687Q385 695 396 698T421 702H441Q462 702 470 696T477 677L432 245H493Q505 245 509 238T512 213L510 196Q507 175 502
168T483 160H423L408 23Q407 11 397 5T368 -2H343ZM124 245H330L348 415Q353 453 359 489T370 550L366 552L124 245Z" />
<glyph unicode="5" horiz-adv-x="535" d="M197 -7Q165 -7 136 -3T85 10T49 29T35 53Q35 68 39 82T50 105T63 114Q71 114 87 105T132 87T205 78Q274 78 317 116T361 232Q361 286 323 314T210 342H118Q103 342 96 349T91 376L138 667Q141 685 150 692T178 700H454Q466
700 470 694T473 668L471 651Q469 630 463 623T444 615H230L198 427H242Q284 427 324 418T396 389T447 333T466 245Q466 171 441 122T376 45T288 5T197 -7Z" />
<glyph unicode="6" horiz-adv-x="535" d="M237 -6Q177 -6 133 17T65 86T41 200Q41 286 65 356T127 482T211 579T299 647T377 689T425 703Q437 703 443 692T453 667T456 644Q456 639 455 635T446 627Q349 587 282 524T181 381Q208 396 239 404T309 412Q343 412
374 401T429 367T467 311T482 234Q482 176 462 132T407 57T328 10T237 -6ZM250 79Q278 79 307 95T357 142T378 222Q378 259 363 282T324 316T271 327Q236 327 207 317T155 296Q151 274 148 252T144 204Q144 155 159 128T199 90T250 79Z" />
<glyph unicode="7" horiz-adv-x="535" d="M118 -2Q98 -2 85 1T72 14Q72 21 78 30L416 615H115Q103 615 99 621T96 647L98 664Q100 685 106 692T125 700H514Q521 700 526 691T534 670T537 645Q537 632 534 625L185 15Q180 7 168 3T138 -2H118Z" />
<glyph unicode="8" horiz-adv-x="535" d="M245 -7Q182 -7 135 14T63 76T37 175Q37 220 50 260T93 331T165 379Q137 399 119 431T100 511Q100 571 127 615T203 683T313 707Q367 707 408 688T473 634T497 549Q497 503 482 471T441 417T386 382Q414 369 436 350T471
300T485 225Q485 171 468 129T418 56T343 10T245 -7ZM254 78Q285 78 314 93T362 138T381 212Q381 254 361 277T308 314T239 343Q194 318 168 282T142 189Q142 135 174 107T254 78ZM306 415Q344 436 369 465T395 538Q395 581 369 601T302 622Q263 622 233 598T202
521Q202 489 216 470T254 438T306 415Z" />
<glyph unicode="9" horiz-adv-x="535" d="M125 -2Q114 -2 107 9T97 34T94 57Q94 62 95 66T105 74Q201 115 269 177T369 320Q342 306 311 298T241 289Q207 289 177 300T122 334T83 390T69 467Q69 524 89 569T144 644T223 691T314 707Q374 707 417 684T485 615T509
500Q509 416 486 345T423 219T339 122T251 53T174 12T125 -2ZM280 374Q314 374 344 384T395 405Q400 427 403 449T406 497Q406 547 391 573T352 611T301 622Q273 622 243 606T193 559T173 479Q173 442 187 419T226 385T280 374Z" />
<glyph unicode=":" horiz-adv-x="198" d="M137 525Q162 525 171 519T180 500L172 427Q169 402 124 402H103Q78 402 69 408T59 427L67 500Q70 525 115 525H137ZM94 121Q119 121 128 115T138 96L130 23Q127 -2 82 -2H60Q36 -2 27 4T17 23L25 96Q27 121 73 121H94Z" />
<glyph unicode=";" horiz-adv-x="198" d="M143 525Q168 525 177 519T186 500L178 427Q175 402 130 402H109Q84 402 75 408T65 427L73 500Q75 525 121 525H143ZM10 -119Q0 -119 -11 -116T-22 -103Q-22 -98 -20 -94T-14 -83Q6 -49 20 -11T41 86Q43 102 55 111T90
121H102Q124 121 134 113T144 90Q141 57 130 26T104 -31T70 -77T37 -107T10 -119Z" />
<glyph unicode="&lt;" horiz-adv-x="560" d="M472 7Q465 7 451 12L63 186Q50 192 44 199T38 221L40 239Q42 258 50 266T69 278L508 455Q515 458 520 458Q537 458 534 428L532 411Q530 390 523 381T502 365L141 231L475 96Q486 91 491 82T493 51V41Q491 24 486 16T472 7Z" />
<glyph unicode="=" horiz-adv-x="560" d="M72 268Q62 268 56 275T52 301L53 317Q55 336 61 343T81 350H499Q509 350 514 344T518 319L517 302Q516 282 508 275T489 268H72ZM55 101Q44 101 39 108T34 134L35 150Q37 169 44 176T63 183H481Q491 183 496 177T501
152L500 135Q498 115 490 108T471 101H55Z" />
<glyph unicode="&gt;" horiz-adv-x="560" d="M40 8Q30 8 27 16T23 41Q23 67 29 80T53 100L408 233L91 362Q72 370 67 381T62 410Q62 436 67 446T85 457Q89 457 97 454T112 448L496 277Q507 272 513 265T518 242L517 229Q516 210 509 202T486 186L60 12Q55 11 50 10T40 8Z" />
<glyph unicode="?" horiz-adv-x="445" d="M162 208Q144 208 137 213T129 231Q129 268 158 311T230 392Q274 433 304 466T334 539Q334 616 232 616Q202 616 176 608T133 591T108 583Q101 583 93 593T80 618T74 641Q74 657 91 669T136 689T196 702T257 707Q319 707
362 687T426 632T448 555Q448 510 429 475T380 410T319 354Q286 325 258 296T221 230Q217 218 208 213T180 208H162ZM138 -2Q113 -2 105 4T96 23L104 96Q106 121 152 121H173Q198 121 207 115T216 96L209 23Q206 -2 160 -2H138Z" />
<glyph unicode="@" horiz-adv-x="974" d="M410 -125Q313 -125 240 -79T125 48T84 238Q84 337 118 422T214 570T357 670T534 706Q635 706 709 666T825 552T867 381Q867 313 851 254T806 150T738 80T650 55Q602 55 577 79T548 139Q525 96 491 76T418 55Q395 55 370
64T324 94T289 150T276 237Q276 316 301 376T373 471T480 506Q519 506 547 490T588 459Q595 481 600 491T628 502H636Q652 502 658 496T665 480Q665 480 663 458T657 401T649 326T641 250T635 189T633 157Q633 139 639 131T655 120T671 117Q699 117 723 138T767
195T798 280T810 381Q810 465 776 527T679 624T534 659Q452 659 381 627T255 537T171 403T141 238Q141 144 175 73T269 -38T410 -78Q456 -78 487 -70T537 -54T562 -46Q566 -46 566 -54Q566 -57 566 -64T563 -80Q560 -91 545 -99T506 -113T457 -122T410 -125ZM443
128Q461 128 480 138T519 174T554 242Q557 269 559 299T566 358T573 403Q561 413 541 423T492 433Q444 433 416 407T376 338T364 243Q364 179 387 154T443 128Z" />
<glyph unicode="A" horiz-adv-x="613" d="M29 -2Q-16 -2 -16 15Q-16 21 -11 32L288 685Q293 694 305 698T335 702H370Q387 702 399 698T414 685L577 31Q578 28 578 25T579 19Q579 10 569 4T532 -2H513Q496 -2 484 2T470 15L432 167H156L88 15Q83 6 72 2T45 -2H29ZM198
259H410L348 523Q344 537 343 552T341 583H339Q335 568 330 553T317 523L198 259Z" />
<glyph unicode="B" horiz-adv-x="593" d="M86 0Q70 0 63 6T56 26L123 667Q126 700 159 700H347Q454 700 506 657T559 545Q559 501 541 466T494 407T431 371L430 367Q438 365 458 357T500 331T539 286T555 219Q555 108 481 54T273 0H86ZM169 92H305Q375 92 409
126T444 220Q444 265 411 289T312 313H193L169 92ZM202 405H308Q371 405 409 436T447 525Q447 608 327 608H223L202 405Z" />
<glyph unicode="C" horiz-adv-x="619" d="M330 -7Q183 -7 111 62T39 275Q39 485 133 596T408 707Q441 707 473 702T531 689T575 670Q584 665 590 658T597 644Q597 636 591 625T577 602T561 582T547 574Q541 574 524 584T477 604T399 614Q277 614 214 532T150 289Q150
186 197 136T339 85Q390 85 426 97T485 120T514 132Q523 132 531 120T544 93T549 70Q549 61 539 51T513 32Q492 22 463 13T400 -1T330 -7Z" />
<glyph unicode="D" horiz-adv-x="695" d="M88 0Q72 0 65 6T59 29L125 667Q128 700 161 700H379Q462 700 525 671T623 579T659 414Q659 303 631 224T554 95T441 23T306 0H88ZM172 92H310Q357 92 400 109T476 164T529 259T549 400Q549 475 526 521T460 587T364 608H226L172
92Z" />
<glyph unicode="E" horiz-adv-x="546" d="M73 0Q57 0 50 7T44 31L110 666Q113 700 146 700H502Q514 700 519 692T523 663L522 649Q520 626 513 617T492 608H211L189 404H440Q453 404 458 396T461 367L460 353Q459 330 451 321T430 312H180L157 92H440Q452 92 457
83T461 55L460 41Q458 18 450 9T430 0H73Z" />
<glyph unicode="F" horiz-adv-x="503" d="M90 -2Q77 -2 67 0T52 8T47 23L114 667Q118 700 151 700H471Q484 700 489 692T492 663L491 649Q490 626 482 617T462 608H216L192 384H431Q444 384 449 375T452 347L451 333Q450 310 442 301T421 292H182L154 23Q152 -2
106 -2H90Z" />
<glyph unicode="G" horiz-adv-x="672" d="M330 -7Q192 -7 121 62T49 275Q49 423 94 518T221 660T417 707Q452 707 486 702T547 687T591 667T607 644Q607 636 602 625T588 602T572 582T557 574Q552 574 535 584T485 604T403 614Q281 614 221 530T160 291Q160 231
177 185T235 112T344 85Q378 85 408 88T459 97L479 277H371Q359 277 354 286T350 314L351 328Q353 351 361 360T380 369H563Q579 369 587 362T593 339L564 67Q562 45 540 31T483 8T408 -3T330 -7Z" />
<glyph unicode="H" horiz-adv-x="733" d="M111 -2Q98 -2 88 0T72 8T68 24L136 677Q138 702 184 702H199Q213 702 223 700T238 693T243 677L214 404H550L578 677Q581 702 627 702H642Q656 702 666 700T681 693T686 677L617 23Q615 -2 569 -2H554Q541 -2 531 0T515
8T510 24L540 312H204L175 23Q172 -2 126 -2H111Z" />
<glyph unicode="I" horiz-adv-x="283" d="M107 -2Q94 -2 84 0T69 8T64 23L132 677Q134 702 180 702H196Q209 702 218 700T233 693T239 677L171 23Q169 -2 123 -2H107Z" />
<glyph unicode="J" horiz-adv-x="402" d="M78 -7Q57 -7 36 -4T1 7T-13 29Q-13 57 -11 72T-4 93T4 99Q12 99 25 95T69 90Q132 90 162 118T199 208L249 677Q252 702 297 702H313Q326 702 336 700T351 693T357 677L307 204Q297 110 243 52T78 -7Z" />
<glyph unicode="K" horiz-adv-x="576" d="M85 -2Q60 -2 51 4T41 23L110 677Q112 702 158 702H174Q199 702 208 696T217 677L186 382H190L446 687Q454 695 469 698T503 702H524Q564 702 564 689Q564 680 552 668L290 363L528 30Q533 24 534 20T535 13Q534 5 523
2T487 -2H465Q442 -2 429 1T409 13L185 330L181 329L149 23Q146 -2 101 -2H85Z" />
<glyph unicode="L" horiz-adv-x="484" d="M76 0Q58 0 52 7T46 31L114 677Q116 702 162 702H178Q191 702 201 700T216 693T221 677L160 92H430Q442 92 447 83T451 55L450 41Q448 18 440 9T420 0H76Z" />
<glyph unicode="M" horiz-adv-x="843" d="M103 -2Q78 -2 69 5T60 24L128 677Q130 702 176 702H215Q234 702 245 697T262 681L408 367Q413 357 418 341T427 310Q432 322 440 337T456 363L670 681Q676 691 688 696T719 702H759Q784 702 793 696T803 677L734 23Q732
-2 686 -2H673Q648 -2 639 5T630 24L677 477Q679 489 680 502T683 527L680 528Q675 518 668 508T655 487L462 202Q452 187 433 187H396Q378 187 370 204L240 483Q235 493 229 507T217 534L213 532Q214 522 213 504T210 467L164 23Q162 -2 116 -2H103Z" />
<glyph unicode="N" horiz-adv-x="719" d="M101 -2Q76 -2 67 4T57 23L126 677Q128 702 174 702H201Q219 702 230 698T248 681L479 271Q495 242 504 225T517 198T524 180L529 181Q528 199 529 220T534 274L576 677Q578 702 624 702H637Q662 702 671 696T681 677L612
23Q610 -2 564 -2H539Q523 -2 513 2T497 16L253 448Q233 482 226 499T215 529L210 528Q211 512 210 490T206 447L162 23Q160 -2 114 -2H101Z" />
<glyph unicode="O" horiz-adv-x="731" d="M347 -7Q211 -7 135 71T59 312Q59 388 75 458T130 585T235 674T402 707Q489 707 554 673T654 567T690 384Q690 263 650 176T534 41T347 -7ZM355 85Q461 85 520 163T579 376Q579 501 530 557T393 614Q281 614 225 537T169
325Q169 200 219 143T355 85Z" />
<glyph unicode="P" horiz-adv-x="570" d="M89 -2Q64 -2 55 5T46 27L113 667Q116 700 149 700H336Q450 700 507 653T564 514Q564 411 502 350T326 288H180L152 23Q151 12 140 5T104 -2H89ZM190 380H331Q390 380 421 413T453 502Q453 555 421 581T322 608H214L190 380Z" />
<glyph unicode="Q" horiz-adv-x="731" d="M632 -158Q628 -158 597 -146T518 -115T417 -73T312 -28T224 13Q141 52 100 124T59 312Q59 382 76 451T132 579T237 672T402 707Q539 707 614 630T690 384Q690 230 629 136T461 11L460 7L642 -52Q655 -57 655 -74Q655
-111 652 -129T643 -153T632 -158ZM355 85Q461 85 520 163T579 376Q579 501 530 557T393 614Q286 614 228 536T169 318Q169 232 191 181T256 108T355 85Z" />
<glyph unicode="R" horiz-adv-x="610" d="M105 -2Q80 -2 71 5T63 27L129 667Q133 700 165 700H338Q451 700 507 654T564 517Q564 471 547 435T501 374T431 340V336Q452 329 470 307T498 251L565 31Q567 21 567 17Q567 8 556 3T518 -2H499Q482 -2 470 2T455 15L399
211Q389 245 376 264T339 290T276 298H198L169 23Q167 -2 121 -2H105ZM207 391L331 390Q391 390 422 421T454 502Q454 557 423 582T328 608H230L207 391Z" />
<glyph unicode="S" horiz-adv-x="500" d="M209 -7Q191 -7 163 -4T107 6T58 25Q46 32 40 43T33 80Q33 101 35 111T42 124T52 127Q57 127 66 123T90 112Q110 103 141 94T212 85Q247 85 276 98T325 138T344 201Q344 232 327 252T281 286T220 315Q183 331 147 351T86
405T62 494Q62 545 81 585T133 652T212 693T309 707Q346 707 386 698T449 672Q469 659 469 644Q469 636 462 621T444 593T424 580Q419 580 412 584T393 594Q379 601 357 607T302 614Q263 614 234 602T188 567T172 512Q172 481 189 462T233 430T292 404Q333 387
370 365T431 308T455 219Q455 162 436 120T382 50T304 8T209 -7Z" />
<glyph unicode="T" horiz-adv-x="549" d="M241 -2Q228 -2 218 0T203 9T199 26L259 608H77Q65 608 60 617T56 645L57 659Q59 682 67 691T87 700H555Q568 700 573 692T576 663L575 649Q574 626 566 617T546 608H366L305 23Q303 -2 257 -2H241Z" />
<glyph unicode="U" horiz-adv-x="712" d="M329 -7Q198 -7 131 49T75 215L123 677Q125 702 172 702H187Q212 702 221 696T230 677L182 216Q176 157 214 121T338 85Q421 85 469 122T525 228L572 677Q574 702 621 702H636Q661 702 670 696T678 677L631 227Q620 117
541 55T329 -7Z" />
<glyph unicode="V" horiz-adv-x="617" d="M263 -2Q246 -2 234 2T220 17L60 676Q54 702 110 702H127Q144 702 156 698T171 682L280 215Q284 198 288 172T294 123H298Q304 144 312 169T328 210L538 682Q543 693 555 697T585 702H598Q619 702 631 698T644 684Q644
678 640 668L346 15Q342 6 330 2T300 -2H263Z" />
<glyph unicode="W" horiz-adv-x="882" d="M198 -2Q180 -2 168 2T154 16L53 678Q51 693 66 697T104 702H118Q137 702 150 698T164 682L225 274Q232 222 235 184T240 123H244Q250 148 260 182T279 242L436 684Q440 694 450 698T480 702H503Q520 702 532 698T545
684L604 274Q611 222 614 185T619 123H623Q630 152 640 186T658 244L813 682Q817 693 830 697T863 702H870Q895 702 907 696T914 676L674 15Q671 6 658 2T628 -2H578Q561 -2 549 2T535 15L486 335Q481 370 478 405T473 472T471 523H467Q461 490 450 451T422 366L293
15Q289 6 276 2T247 -2H198Z" />
<glyph unicode="X" horiz-adv-x="611" d="M36 -2Q14 -2 3 1T-9 15Q-9 23 2 36L259 368L98 664Q96 670 94 674T92 682Q92 693 103 697T140 702H156Q173 702 185 699T202 686L326 453L502 687Q509 696 522 699T552 702H569Q591 702 604 699T618 685Q618 681 615
676T608 664L376 366L555 36Q558 31 559 27T561 19Q561 7 550 3T513 -2H497Q478 -2 467 1T450 14L309 279L114 22Q102 6 88 2T58 -2H36Z" />
<glyph unicode="Y" horiz-adv-x="559" d="M244 -2Q219 -2 210 4T201 23L235 352L62 664Q56 674 56 682Q56 693 69 697T108 702H127Q145 702 156 699T173 686L300 449L480 687Q487 695 500 698T531 702H549Q562 702 571 701T586 695T592 685Q592 681 589 676T582
664L342 349L308 23Q306 -2 260 -2H244Z" />
<glyph unicode="Z" horiz-adv-x="616" d="M44 0Q35 0 30 10T21 33T17 59Q17 64 19 70T25 80L465 608H129Q117 608 112 617T107 647L109 662Q111 685 119 692T139 700H590Q599 700 604 690T612 667T615 641Q615 629 610 623L168 92H533Q546 92 551 83T555 55L553
41Q551 18 544 9T524 0H44Z" />
<glyph unicode="[" horiz-adv-x="291" d="M68 -138Q51 -138 44 -131T38 -106L127 735Q130 768 163 768H283Q296 768 302 763T306 738L305 726Q304 709 297 703T275 696H208L128 -66H195Q205 -66 212 -72T219 -94L218 -108Q217 -126 210 -132T192 -138H68Z" />
<glyph unicode="\" horiz-adv-x="422" d="M328 -79Q310 -79 300 -74T287 -58L69 671Q67 679 66 683T64 690Q64 696 71 699T99 702H107Q125 702 133 698T144 684L366 -54Q367 -58 368 -61T369 -67Q369 -72 362 -75T336 -79H328Z" />
<glyph unicode="]" horiz-adv-x="291" d="M15 -138Q2 -138 -4 -132T-9 -108L-8 -96Q-6 -79 1 -73T23 -66H89L169 696H102Q92 696 85 702T79 724L80 738Q82 756 89 762T106 768H230Q247 768 254 761T259 736L171 -105Q167 -138 135 -138H15Z" />
<glyph unicode="^" horiz-adv-x="450" d="M83 319Q67 319 61 322T54 332Q54 336 56 341T62 355L220 662Q233 685 259 685H282Q295 685 303 680T316 662L407 355Q410 347 411 342T412 332Q412 327 405 323T378 319H373Q355 319 347 323T335 340L250 632L280 631L130
339Q125 328 117 324T92 319H83Z" />
<glyph unicode="_" horiz-adv-x="534" d="M-40 -139Q-51 -139 -55 -133T-59 -111L-58 -99Q-57 -85 -51 -80T-35 -74H497Q508 -74 512 -79T516 -101L515 -113Q513 -128 507 -133T490 -139H-40Z" />
<glyph unicode="`" horiz-adv-x="170" d="M175 575Q154 575 141 580T115 601L72 655Q58 674 52 683T46 699Q46 710 58 714T97 718Q121 718 134 715T153 706T164 688L195 616Q199 606 201 600T204 589Q204 582 197 579T175 575Z" />
<glyph unicode="a" horiz-adv-x="545" d="M201 -7Q173 -7 144 4T91 39T51 106T35 209Q35 303 64 375T148 488T274 529Q320 529 351 510T399 476Q404 491 409 502T423 519T450 525H458Q477 525 485 518T491 494L453 119Q451 98 458 88T480 77Q493 77 502 80T515
84Q521 84 521 75Q521 73 521 62T516 32Q512 10 489 2T448 -7Q400 -7 377 18T351 92Q323 41 284 17T201 -7ZM231 80Q251 80 274 93T319 136T359 217L374 349Q376 368 378 381T382 408Q369 419 344 431T281 444Q234 444 203 413T157 329T141 216Q141 166 152 136T184
93T231 80Z" />
<glyph unicode="b" horiz-adv-x="569" d="M256 -7Q210 -7 177 12T127 47Q123 33 118 22T103 5T78 -2H69Q50 -2 42 4T35 22L109 728Q112 753 157 753H168Q192 753 202 746T212 728L181 439Q210 486 248 508T329 530Q360 530 393 520T453 485T498 419T515 315Q515
222 483 150T393 35T256 -7ZM241 79Q289 79 321 97T373 148T401 221T410 309Q410 360 396 389T357 430T300 443Q279 443 256 431T209 389T168 308L154 175Q152 160 150 145T145 114Q158 103 182 91T241 79Z" />
<glyph unicode="c" horiz-adv-x="485" d="M266 -7Q155 -7 99 44T43 206Q43 360 114 445T317 530Q351 530 384 524T438 505T460 479Q460 470 452 455T433 428T415 416Q414 416 411 417T402 421Q390 427 367 436T309 445Q232 445 192 386T151 215Q151 144 180 111T275
78Q309 78 335 87T377 104Q382 106 385 107T391 108Q399 108 406 98T418 75T423 52Q423 39 408 29T368 10T317 -2T266 -7Z" />
<glyph unicode="d" horiz-adv-x="565" d="M220 -7Q190 -7 158 4T98 39T54 106T37 210Q37 304 67 376T153 489T282 530Q330 530 360 516T410 486L436 728Q439 753 484 753H495Q520 753 530 746T539 724L476 119Q474 98 480 88T503 77Q516 77 525 80T537 84Q544
84 544 75Q544 73 544 62T539 32Q535 10 512 2T471 -7Q423 -7 400 18T374 92Q346 41 306 17T220 -7ZM250 80Q271 80 294 93T341 135T382 216L402 410Q388 421 364 432T301 444Q256 444 226 426T177 377T151 304T143 217Q143 141 171 111T250 80Z" />
<glyph unicode="e" horiz-adv-x="539" d="M313 530Q366 530 401 516T456 481T484 436T493 393Q493 342 471 307T413 250T331 220T239 210Q199 210 173 213T125 222L147 261V214Q147 162 164 132T211 90T282 78Q325 78 357 90T410 114T437 126Q440 126 442 125T444
113Q444 107 443 91T438 59Q434 40 415 28T368 8T315 -3T271 -7Q227 -7 186 3T113 36T61 101T42 204Q42 302 72 375T163 489T313 530ZM308 445Q244 445 204 403T153 290H217Q232 290 253 292T298 299T342 314T376 340T389 382Q389 411 367 428T308 445Z" />
<glyph unicode="f" horiz-adv-x="325" d="M107 -2Q83 -2 73 4T63 23L106 438H72Q49 438 53 472L54 487Q58 523 81 523H116L125 617Q131 672 154 702T209 745T274 757Q287 757 305 755T338 746T352 722Q352 716 348 702T337 677T323 666Q319 666 311 669T281 672Q259
672 245 660T227 610L218 523H290Q316 523 312 487L310 474Q307 438 284 438H209L166 23Q163 -2 117 -2H107Z" />
<glyph unicode="g" horiz-adv-x="546" d="M216 -212Q165 -212 126 -201T63 -174T40 -141Q40 -100 45 -89T56 -77Q62 -77 79 -89T128 -114T207 -127Q277 -127 314 -75T361 95L365 146L378 128Q351 63 307 32T211 1Q182 1 152 11T97 46T55 110T39 211Q39 304 69
376T155 489T284 530Q330 530 363 511T412 476Q418 492 423 502T437 519T463 525H471Q490 525 497 519T505 503L463 97Q452 -17 422 -85T341 -182T216 -212ZM241 88Q262 88 286 101T333 144T374 226L387 348Q389 365 391 380T396 409Q381 420 357 432T299 444Q255
444 225 426T178 377T152 304T144 218Q144 170 156 142T191 101T241 88Z" />
<glyph unicode="h" horiz-adv-x="565" d="M458 -7Q410 -7 382 20T360 117L384 363Q389 405 373 423T323 442Q298 442 272 431T221 391T178 313L147 23Q144 -2 99 -2H88Q65 -2 55 5T45 22L119 728Q122 753 167 753H178Q202 753 213 746T222 728L191 441Q227 486
270 508T358 530Q429 530 462 492T488 380L462 119Q460 98 467 88T489 77Q502 77 511 80T524 84Q531 84 531 75Q531 73 530 62T526 32Q521 10 498 2T458 -7Z" />
<glyph unicode="i" horiz-adv-x="265" d="M146 -7Q103 -7 76 20T55 118L93 500Q96 525 141 525H152Q176 525 186 519T196 500L158 119Q156 96 162 87T183 77Q196 77 205 80T218 84Q224 84 224 75Q224 73 224 62T219 32Q215 10 191 2T146 -7ZM153 589Q125 589 113
595T102 614L109 679Q110 691 123 697T165 704Q193 704 204 698T214 679L208 614Q205 589 153 589Z" />
<glyph unicode="j" horiz-adv-x="276" d="M10 -212Q-10 -212 -28 -208T-57 -195T-68 -172Q-68 -135 -64 -124T-55 -113Q-49 -113 -38 -120T-5 -127Q17 -127 31 -114T50 -62L109 500Q112 525 157 525H168Q191 525 201 519T211 500L151 -67Q146 -123 125 -154T73
-199T10 -212ZM170 589Q142 589 131 595T120 614L127 679Q128 691 141 697T183 704Q211 704 222 698T232 679L225 614Q223 589 170 589Z" />
<glyph unicode="k" horiz-adv-x="521" d="M89 -2Q64 -2 55 4T46 23L120 728Q122 753 168 753H179Q204 753 213 747T223 728L177 295H181L381 510Q389 519 404 522T437 525H451Q491 525 491 512Q491 504 479 491L278 278L460 30Q467 20 467 15Q467 5 456 2T418
-2H403Q385 -2 370 0T348 13L176 248L172 247L148 23Q145 -2 100 -2H89Z" />
<glyph unicode="l" horiz-adv-x="297" d="M163 -7Q109 -7 85 25T66 129L128 729Q130 741 140 747T173 753H190Q212 753 222 747T230 729L167 119Q165 98 172 88T194 77Q207 77 216 80T229 84Q235 84 235 75Q235 73 235 62T231 32Q226 10 203 2T163 -7Z" />
<glyph unicode="m" horiz-adv-x="848" d="M737 -7Q685 -7 659 23T639 120L664 356Q668 402 649 422T595 442Q571 442 544 426T492 374T449 277L469 365L434 23Q432 -2 386 -2H375Q352 -2 341 5T331 24L366 363Q371 405 352 423T298 442Q278 442 255 431T209 393T167
320L137 23Q134 -2 89 -2H78Q55 -2 44 5T34 24Q39 66 45 117T56 220T66 318T74 399T77 449Q77 467 76 475T75 489Q75 500 88 506T119 514T149 516Q160 516 166 505T174 477T177 445Q177 431 176 414T173 383L159 405Q178 445 207 473T270 515T340 530Q401 530 432
503T470 431Q500 479 545 504T637 530Q709 530 742 492T767 380L742 119Q740 98 746 88T769 77Q782 77 791 80T803 84Q810 84 810 75Q810 73 810 62T805 32Q801 10 778 2T737 -7Z" />
<glyph unicode="n" horiz-adv-x="557" d="M455 -7Q408 -7 380 21T358 120L382 363Q386 405 368 423T313 442Q292 442 267 430T217 390T175 310L145 23Q143 -2 97 -2H86Q63 -2 53 5T43 23L76 333Q80 368 82 401T85 449Q85 467 84 475T83 489Q83 500 96 506T127
514T157 516Q173 516 179 494T185 446Q185 428 183 410T179 382L165 406Q189 447 219 474T285 516T356 530Q427 530 460 492T486 380L460 119Q458 98 465 88T487 77Q500 77 509 80T522 84Q528 84 528 75Q528 73 528 62T523 32Q519 10 496 2T455 -7Z" />
<glyph unicode="o" horiz-adv-x="569" d="M267 -7Q162 -7 105 52T48 218Q48 279 62 335T106 435T185 504T307 530Q409 530 465 471T521 303Q521 150 454 72T267 -7ZM274 78Q415 78 415 300Q415 370 385 407T295 445Q223 445 188 387T153 222Q153 153 184 116T274 78Z" />
<glyph unicode="p" horiz-adv-x="573" d="M62 -207Q39 -207 29 -200T19 -184L77 376Q80 402 81 421T82 449Q82 467 82 475T81 489Q81 500 94 506T125 514T154 516Q161 516 167 511T178 490T182 444Q182 430 181 414T177 385L165 403Q192 467 237 498T334 530Q365
530 397 519T457 484T502 419T519 317Q519 222 488 149T402 35T272 -7Q226 -7 194 10T145 43L121 -183Q118 -207 73 -207H62ZM253 78Q299 78 329 96T378 147T405 221T413 310Q413 359 399 388T361 430T305 443Q284 443 260 430T212 388T171 307L153 117Q165 107
190 93T253 78Z" />
<glyph unicode="q" horiz-adv-x="566" d="M389 -207Q365 -207 355 -201T346 -181L373 84Q344 38 306 16T225 -7Q194 -7 162 4T102 39T58 106T41 210Q41 304 73 376T162 489T298 530Q344 530 377 512T427 476Q432 491 437 501T452 518T476 525H485Q505 525 512
519T520 502L448 -183Q445 -207 400 -207H389ZM255 80Q276 80 299 93T346 135T387 215L400 333Q404 365 409 394T421 443L424 395Q417 403 402 414T366 435T313 444Q265 444 233 426T182 377T155 304T146 217Q146 166 160 136T198 93T255 80Z" />
<glyph unicode="r" horiz-adv-x="366" d="M95 -2Q73 -2 62 5T52 23L89 368Q91 389 91 404T92 432Q92 456 91 468T89 487Q89 502 108 509T168 516Q186 516 191 494T195 448Q217 483 249 506T322 530Q335 530 346 525T364 512T371 489Q371 476 367 461T356 435T341
424Q334 424 323 429T287 434Q265 434 238 420T190 371L155 24Q152 -2 106 -2H95Z" />
<glyph unicode="s" horiz-adv-x="413" d="M168 -7Q142 -7 117 -2T71 11T39 31T27 56Q27 80 32 96T45 112Q52 112 66 104T104 87T161 78Q203 78 230 96T257 148Q257 173 245 187T212 211T169 229Q140 241 113 259T68 304T51 372Q51 423 76 458T143 511T236 530Q255
530 278 527T321 518T355 503T368 479Q368 470 361 457T345 433T328 422Q320 422 301 433T240 445Q200 445 177 430T153 386Q153 363 167 348T203 324T248 304Q276 292 302 276T345 233T362 164Q362 114 338 76T270 15T168 -7Z" />
<glyph unicode="t" horiz-adv-x="342" d="M194 -7Q172 -7 150 -2T110 19T84 63T79 137L111 438H68Q44 438 48 472L50 487Q55 523 78 523H121L141 624Q144 638 154 644T186 650H194Q217 650 225 643T232 622L222 523H293Q307 523 311 515T314 487L313 474Q309 438
286 438H212L181 135Q178 101 190 89T223 77Q243 77 252 80T267 84Q273 84 273 75Q273 73 273 62T268 32Q264 10 241 2T194 -7Z" />
<glyph unicode="u" horiz-adv-x="557" d="M181 -7Q109 -7 76 31T51 143L86 500Q89 525 134 525H145Q169 525 179 519T189 500L154 159Q151 118 169 100T223 81Q244 81 269 93T319 135T362 217L391 500Q394 525 439 525H450Q474 525 484 519T494 500L456 119Q454
98 460 88T483 77Q496 77 505 80T517 84Q524 84 524 75Q524 73 524 62T519 32Q515 10 492 2T451 -7Q403 -7 377 21T350 121L372 123Q349 80 318 51T252 8T181 -7Z" />
<glyph unicode="v" horiz-adv-x="485" d="M198 -2Q181 -2 169 2T155 18L44 500Q38 525 93 525H105Q122 525 134 521T149 508L199 278Q208 237 215 196T228 116H232Q245 154 260 196T291 279L391 508Q395 517 405 521T434 525H451Q469 525 481 522T493 508Q493
500 489 491L278 15Q274 6 262 2T232 -2H198Z" />
<glyph unicode="w" horiz-adv-x="747" d="M178 -2Q160 -2 148 2T134 17L52 501Q48 525 101 525H116Q134 525 146 521T159 507L203 229Q209 195 212 168T215 129H219Q222 141 231 168T251 228L351 506Q356 517 367 521T396 525H412Q429 525 441 521T454 506L496
229Q502 195 505 168T508 129H512Q516 146 525 173T544 228L644 499Q650 513 658 519T691 525H703Q726 525 734 521T743 507Q743 501 739 491L559 15Q555 6 543 2T514 -2H476Q458 -2 447 2T434 16L395 277Q392 297 390 323T387 368H383Q381 357 375 334T358 283L261
15Q258 6 245 2T215 -2H178Z" />
<glyph unicode="x" horiz-adv-x="485" d="M36 -2Q22 -2 11 -1T-7 4T-13 14Q-13 24 -3 35L180 267L56 487Q49 500 49 507Q51 517 64 521T102 525H117Q135 525 147 522T164 509L221 408Q234 384 240 370T250 345Q256 356 264 370T290 405L372 510Q379 519 392 522T421
525H434Q456 525 469 522T483 509Q483 501 473 488L299 269L433 36Q440 25 440 16Q439 6 426 2T387 -2H372Q354 -2 342 1T325 14L257 134Q244 158 239 171T231 192Q227 182 219 170T196 139L98 13Q90 4 78 1T48 -2H36Z" />
<glyph unicode="y" horiz-adv-x="481" d="M96 -207Q57 -207 57 -191Q57 -185 64 -173L183 62L191 -76L43 480Q41 489 39 495T37 505Q37 515 48 520T86 525H102Q119 525 131 521T145 508L210 254Q215 235 220 211T230 162H232Q241 185 250 210T269 254L387 508Q392
517 404 521T434 525H444Q467 525 477 521T488 508Q488 501 484 491L163 -186Q158 -198 145 -202T111 -207H96Z" />
<glyph unicode="z" horiz-adv-x="489" d="M33 0Q28 0 23 9T15 30T12 54Q12 66 18 72L329 438H93Q82 438 77 446T74 473L76 492Q77 507 84 515T102 523H452Q458 523 462 514T468 492T471 468Q471 457 463 447L155 85H410Q422 85 427 77T429 50L427 28Q425 14 419
7T401 0H33Z" />
<glyph unicode="{" horiz-adv-x="274" d="M131 -138Q115 -138 97 -129T68 -95T60 -27L80 178Q83 205 79 223T65 253T41 271Q31 276 24 283T18 303L20 327Q21 341 28 347T50 360Q82 374 94 404T112 485L130 652Q135 696 150 721T185 757T226 768H268Q283 768 290
763T295 739L293 727Q291 709 284 703T262 697H250Q232 697 224 683T214 643L196 469Q191 423 174 392T136 341T104 314Q114 309 129 294T156 252T163 185L146 -22Q144 -46 150 -56T170 -67H182Q193 -67 200 -72T206 -94L205 -108Q204 -125 197 -131T177 -138H131Z"
/>
<glyph unicode="|" horiz-adv-x="250" d="M184 769Q201 769 207 764T213 745L123 -115Q120 -139 89 -139H77Q61 -139 54 -133T48 -115L139 745Q141 769 172 769H184Z" />
<glyph unicode="}" horiz-adv-x="274" d="M6 -138Q-9 -138 -15 -132T-21 -109L-19 -97Q-17 -79 -10 -73T12 -67H24Q42 -67 50 -53T60 -13L78 161Q83 207 100 238T137 289T170 316Q160 322 145 337T119 379T111 445L128 652Q130 677 125 687T104 697H92Q81 697
74 702T68 724L69 738Q71 755 78 761T97 768H143Q159 768 177 759T207 725T214 657L194 452Q190 412 201 391T233 359Q243 354 250 347T256 327L254 303Q253 289 247 283T224 270Q192 257 180 226T162 145L144 -22Q139 -65 124 -91T89 -127T48 -138H6Z" />
<glyph unicode="~" horiz-adv-x="560" d="M99 212Q92 212 83 218T73 229Q73 234 75 240T80 252Q91 278 115 299T187 321Q221 321 256 311T323 290T383 279Q409 279 423 290T446 311T461 322Q467 322 478 316T489 304Q489 300 487 296T482 286Q464 249 439 231T371
213Q340 213 306 224T237 245T176 255Q151 255 137 245T114 223T99 212Z" />
<glyph unicode="&#xa0;" horiz-adv-x="240" />
<glyph unicode="&#xa1;" horiz-adv-x="294" d="M80 -179Q56 -179 46 -173T38 -153L118 290Q120 303 128 309T157 315H168Q188 315 195 309T201 290L155 -154Q152 -179 107 -179H80ZM160 402Q135 402 126 408T117 427L125 500Q127 525 173 525H194Q219 525 229
519T237 500L230 427Q227 402 181 402H160Z" />
<glyph unicode="&#xa2;" horiz-adv-x="470" d="M242 -74Q217 -74 218 -54L284 568Q286 588 312 588H317Q343 588 341 568L275 -54Q274 -74 247 -74H242ZM257 -7Q146 -7 90 44T34 206Q34 360 105 445T308 530Q342 530 375 524T429 505T451 479Q451 470 443 455T424
428T407 416Q406 416 403 417T393 421Q382 427 359 436T300 445Q224 445 183 386T142 215Q142 144 171 111T267 78Q300 78 326 87T368 104Q374 106 377 107T382 108Q390 108 397 98T409 75T415 52Q415 39 399 29T359 10T308 -2T257 -7Z" />
<glyph unicode="&#xa3;" horiz-adv-x="530" d="M54 0Q27 0 31 33L33 50Q35 65 48 73T79 91T111 117T128 164L146 331H98Q86 331 80 339T75 365L76 379Q78 399 85 407T104 416H155L164 502Q174 597 229 652T395 707Q409 707 426 706T460 702T486 691T497 672Q497
665 492 652T480 626T464 614Q458 614 442 618T399 623Q337 623 304 595T265 504L256 416H388Q400 416 405 408T409 382L408 367Q406 348 399 340T380 331H248L238 242Q232 189 220 158T192 110T162 85H431Q453 85 452 51L450 34Q449 15 442 8T422 0H54Z" />
<glyph unicode="&#xa4;" horiz-adv-x="550" d="M453 504Q464 504 472 496L482 485Q490 476 490 467Q490 455 476 442L448 416Q459 397 465 376T471 331Q471 297 459 266T426 209L448 185Q457 175 457 163Q457 153 447 144L435 132Q425 123 413 123Q408 123 403
126T392 134L370 158Q346 142 319 134T263 126Q234 126 208 134T162 157L136 133Q124 123 112 123Q108 123 104 126T94 133L84 144Q77 152 77 160Q77 172 91 185L116 208Q95 245 95 290Q95 325 106 357T139 418L117 442Q108 453 108 463Q108 474 118 484L129 494Q139
503 151 503Q156 503 162 501T172 493L195 468Q219 483 246 491T302 500Q331 500 356 492T403 468L430 493Q443 504 453 504ZM294 424Q262 424 234 407T188 362T171 300Q171 259 199 231T271 202Q303 202 331 218T376 263T394 323Q394 365 366 394T294 424Z" />
<glyph unicode="&#xa5;" horiz-adv-x="600" d="M100 348Q90 348 85 354T81 379L82 388Q84 405 91 411T108 417H283L315 397L349 417H533Q542 417 547 411T550 386L549 377Q548 361 542 355T525 348H100ZM82 193Q72 193 67 199T64 224L65 233Q67 249 73 255T90
262H515Q525 262 530 256T533 231L532 222Q530 205 524 199T507 193H82ZM264 -2Q239 -2 230 4T221 23L255 352L82 664Q76 674 76 682Q76 693 89 697T128 702H147Q165 702 176 699T193 686L320 449L500 687Q507 695 520 698T551 702H569Q582 702 591 701T606 695T612
685Q612 681 609 676T602 664L362 349L328 23Q326 -2 280 -2H264Z" />
<glyph unicode="&#xa6;" horiz-adv-x="250" d="M183 770Q200 770 206 764T212 745Q212 742 210 719T205 658T197 579T188 495T178 421Q175 396 144 396H133Q117 396 111 402T104 420Q104 423 106 447T113 508T121 587T130 671T138 745Q140 770 172 770H183ZM127
233Q144 233 150 227T156 208Q156 205 154 181T148 121T140 42T131 -42T122 -115Q119 -140 88 -140H77Q59 -140 54 -134T48 -115Q48 -111 50 -87T57 -27T65 51T74 134T82 208Q84 233 116 233H127Z" />
<glyph unicode="&#xa7;" horiz-adv-x="429" d="M173 -6Q143 -6 114 -1T66 15T46 39Q46 49 53 63T71 90T87 102Q93 102 114 90T173 78Q212 78 233 94T254 135Q254 156 240 168T204 187T156 204Q119 219 88 250T56 334Q56 375 72 410T118 470Q105 483 97 501T88
547Q88 594 111 630T177 686T275 707Q306 707 335 701T383 685T402 661Q402 653 395 638T377 611T361 599Q355 599 334 610T274 622Q236 622 215 607T194 566Q194 545 207 534T242 515T288 498Q315 489 338 473T377 431T392 368Q392 318 372 284T329 231Q343 218
351 200T360 153Q360 108 337 72T272 15T173 -6ZM243 273Q267 282 280 302T293 348Q293 373 281 387T248 411T205 428Q181 419 168 398T155 351Q155 316 181 300T243 273Z" />
<glyph unicode="&#xa8;" horiz-adv-x="258" d="M244 592Q218 592 207 598T197 617L203 676Q205 688 217 694T255 700Q281 700 292 694T302 676L295 617Q294 605 282 599T244 592ZM85 592Q58 592 48 598T38 617L44 676Q46 688 57 694T95 700Q121 700 132 694T142
676L136 617Q135 605 123 599T85 592Z" />
<glyph unicode="&#xa9;" horiz-adv-x="739" d="M369 708Q443 708 508 681T622 604T700 491T728 351Q728 277 700 212T623 98T508 21T369 -7Q294 -7 229 21T115 98T38 212T10 351Q10 426 38 491T115 604T229 680T369 708ZM386 558Q414 558 440 552T484 538T501
520Q501 514 497 505T486 488T475 480Q472 480 462 486T433 498T386 504Q321 504 290 467T258 349Q258 269 289 231T384 193Q414 193 434 200T467 214T483 221Q489 221 494 214T504 197T508 184Q508 173 490 163T444 147T384 140Q288 140 241 190T194 349Q194 558
386 558ZM369 655Q306 655 251 632T153 567T87 470T63 351Q63 288 87 233T153 136T250 70T369 45Q433 45 488 69T585 135T651 232T676 351Q676 415 652 470T586 567T489 632T369 655Z" />
<glyph unicode="&#xaa;" horiz-adv-x="319" d="M152 440Q132 440 111 450T74 484T59 548Q59 619 94 663T189 708Q213 708 231 699T256 681Q260 693 264 699T282 706H291Q309 706 308 691L289 503Q288 482 302 482Q310 482 314 483T320 485Q323 485 323 481Q323
480 323 475T321 459Q319 449 308 445T287 440Q264 440 252 452T239 494Q222 466 200 453T152 440ZM168 491Q185 491 204 505T237 553L243 614Q244 623 245 629T247 642Q241 647 229 652T196 658Q166 658 149 644T125 606T118 554Q118 519 132 505T168 491Z" />
<glyph unicode="&#xab;" horiz-adv-x="471" d="M183 57Q171 57 161 70L49 225Q43 233 41 241T38 256Q38 266 41 273T55 291L201 446Q213 458 225 458Q232 458 241 454T257 441T264 423Q264 413 253 401L128 258L223 114Q226 110 228 104T230 93Q230 88 223 79T205
64T183 57ZM363 57Q351 57 341 70L228 225Q218 240 218 253Q218 264 221 272T234 291L380 446Q393 458 405 458Q412 458 421 454T436 441T443 423Q443 413 433 401L307 258L402 114Q406 110 408 104T410 93Q410 88 403 79T385 64T363 57Z" />
<glyph unicode="&#xac;" horiz-adv-x="560" d="M454 76Q434 76 427 82T420 102L436 258H61Q50 258 45 265T41 292L42 307Q45 341 69 341H498Q531 341 528 307L506 100Q505 89 495 83T467 76H454Z" />
<glyph unicode="&#xad;" horiz-adv-x="320" d="M61 224Q50 224 45 231T40 257L41 273Q43 292 50 299T69 306H261Q271 306 277 299T281 274L280 258Q278 238 270 231T252 224H61Z" />
<glyph unicode="&#xae;" horiz-adv-x="739" d="M369 -7Q294 -7 229 21T115 98T38 212T10 352Q10 427 38 491T115 605T229 681T369 709Q443 709 508 681T622 605T700 492T728 352Q728 277 700 212T623 98T508 21T369 -7ZM369 46Q433 46 488 70T585 136T651 233T676
352Q676 416 652 471T586 567T489 632T369 656Q306 656 251 633T153 568T87 471T63 352Q63 289 87 234T153 136T250 70T369 46ZM274 147Q247 147 247 162V536Q247 555 266 555H368Q438 555 473 530T509 451Q509 415 491 391T441 355V351Q458 345 469 328T491 285L538
167Q539 163 539 161T540 157Q540 147 513 147H502Q480 147 476 157L431 271Q420 301 403 311T353 322H308V162Q308 147 282 147H274ZM308 375H379Q407 375 426 394T445 441Q445 472 426 487T375 502H308V375Z" />
<glyph unicode="&#xaf;" horiz-adv-x="268" d="M60 608Q36 608 40 641L41 652Q43 668 49 676T67 685H289Q313 685 309 652L308 641Q306 624 300 616T282 608H60Z" />
<glyph unicode="&#xb0;" horiz-adv-x="345" d="M213 707Q264 707 298 673T333 588Q333 546 314 513T261 461T186 442Q133 442 100 476T66 561Q66 600 84 633T136 686T213 707ZM208 657Q170 657 145 629T120 564Q120 534 140 513T191 491Q227 491 252 517T278 583Q278
614 259 635T208 657Z" />
<glyph unicode="&#xb1;" horiz-adv-x="560" d="M262 131Q243 131 236 137T230 156L247 323H77Q67 323 62 330T57 354L58 370Q60 388 66 394T85 401H255L273 573Q274 585 282 590T311 596H320Q340 596 348 590T354 571L335 401H505Q515 401 520 395T524 372L523
355Q522 337 514 330T496 323H327L309 154Q308 131 271 131H262ZM44 0Q34 0 29 7T24 32L26 47Q28 65 34 72T52 79H471Q480 79 485 73T490 49L488 33Q487 14 479 7T461 0H44Z" />
<glyph unicode="&#xb2;" horiz-adv-x="310" d="M50 350Q45 350 43 357T40 374Q40 383 42 388T48 398L213 580Q237 606 246 623T256 663Q256 687 240 700T194 713Q170 713 153 707T124 693T108 686Q102 686 96 697T89 716Q91 730 110 740T156 756T203 762Q257 762
287 738T317 672Q317 631 299 603T258 550L122 399H285Q291 399 295 395T297 378L296 370Q295 359 291 355T279 350H50Z" />
<glyph unicode="&#xb3;" horiz-adv-x="310" d="M161 344Q130 344 103 349T59 362T42 380Q42 386 47 394T58 408T69 415Q77 415 99 405T159 394Q192 394 217 412T242 476Q242 513 219 526T166 540H148Q136 540 137 562V569Q138 580 142 585T153 590H168Q196 590
214 601T240 628T249 662Q249 679 235 696T187 713Q149 713 133 704T109 694Q104 694 97 706T90 727Q90 738 108 746T152 758T197 763Q246 763 278 738T311 669Q311 632 291 607T242 573V571Q268 562 286 539T304 478Q304 418 264 381T161 344Z" />
<glyph unicode="&#xb4;" horiz-adv-x="170" d="M60 575Q47 575 41 578T34 587Q34 592 38 599T49 616L96 689Q103 699 109 705T129 714T168 718Q192 718 204 715T216 703Q216 695 208 685T184 659L125 601Q111 587 99 581T60 575Z" />
<glyph unicode="&#xb5;" horiz-adv-x="566" d="M83 -207Q60 -207 50 -200T40 -183L111 500Q114 525 159 525H170Q193 525 203 519T213 500L178 149Q174 116 193 99T247 81Q269 81 294 93T344 135T386 217L416 500Q419 525 464 525H475Q498 525 509 519T518 500L480
117Q478 100 483 92T497 81T514 78Q524 78 531 81T542 84Q548 84 548 76Q548 75 548 63T543 32Q539 10 516 2T475 -7Q427 -7 404 18T378 93Q346 48 305 22T213 -4Q190 -4 166 6T127 31L145 46Q152 -11 151 -68T142 -183Q139 -207 94 -207H83Z" />
<glyph unicode="&#xb6;" horiz-adv-x="515" d="M217 -173Q206 -173 203 -167T201 -149L241 247Q159 258 110 315T61 457Q61 531 96 585T189 670T313 700H526Q538 700 541 696T544 680L542 658Q541 638 520 638H484L401 -151Q400 -160 395 -166T379 -173H357Q337
-173 340 -149L422 638H344L261 -151Q260 -160 255 -166T239 -173H217Z" />
<glyph unicode="&#xb7;" horiz-adv-x="267" d="M140 303Q118 303 103 318T87 355Q87 381 103 399T147 417Q169 417 184 402T200 364Q200 336 183 320T140 303Z" />
<glyph unicode="&#xb8;" horiz-adv-x="236" d="M73 -211Q49 -211 22 -206T-25 -191T-45 -166Q-45 -156 -38 -146T-21 -136Q-9 -136 15 -146T72 -156Q98 -156 111 -147T125 -123Q125 -109 115 -103T91 -94T66 -89T55 -77Q55 -73 60 -57T82 3H135L111 -58L99 -51Q145
-51 170 -67T196 -120Q196 -160 163 -185T73 -211Z" />
<glyph unicode="&#xb9;" horiz-adv-x="310" d="M175 348Q165 348 158 352T151 364L187 703L112 687Q104 686 102 695T99 713Q99 725 102 729T112 735L233 762Q240 764 246 760T251 749L210 364Q209 356 201 352T183 348H175Z" />
<glyph unicode="&#xba;" horiz-adv-x="337" d="M192 441Q85 441 85 562Q85 633 118 670T213 707Q318 707 318 583Q318 441 192 441ZM196 491Q260 491 260 580Q260 657 207 657Q142 657 142 566Q142 491 196 491Z" />
<glyph unicode="&#xbb;" horiz-adv-x="471" d="M287 458Q299 458 309 445L421 290Q427 282 429 274T432 259Q432 249 429 242T415 224L269 69Q257 57 245 57Q239 57 230 61T213 74T206 92Q206 102 217 114L342 257L247 401Q244 406 242 411T240 422Q240 428 247
436T266 451T287 458ZM107 458Q119 458 129 445L242 290Q252 275 252 262Q252 252 249 244T236 224L90 69Q77 57 65 57Q58 57 49 61T34 74T27 92Q27 102 37 114L163 257L68 401Q64 406 62 411T60 422Q60 428 67 436T86 451T107 458Z" />
<glyph unicode="&#xbc;" horiz-adv-x="750" d="M152 288Q142 288 135 292T128 304L164 643L88 627Q81 626 79 635T76 653Q76 665 79 669T89 675L210 702Q217 704 223 700T228 689L187 304Q186 296 178 292T160 288H152ZM591 -2Q570 -2 571 13L579 92H413Q406 92
402 103T397 123Q397 131 402 136L613 400Q617 405 623 407T637 409H649Q672 409 670 394L643 141H678Q684 141 687 137T689 120L688 111Q687 92 671 92H638L629 13Q628 -2 606 -2H591ZM463 141H585L599 275Q601 290 602 298T609 322L607 323L463 141ZM131 -1Q106
-1 106 6Q106 10 112 18L578 693Q585 702 605 702H611Q625 702 630 701T635 695Q635 690 629 681L168 12Q162 4 155 2T135 -1H131Z" />
<glyph unicode="&#xbd;" horiz-adv-x="750" d="M152 288Q142 288 135 292T128 304L164 643L88 627Q81 626 79 635T76 653Q76 665 79 669T89 675L210 702Q217 704 223 700T228 689L187 304Q186 296 178 292T160 288H152ZM431 0Q426 0 424 7T421 24Q421 33 423 38T429
48L594 230Q618 256 627 273T637 313Q637 337 621 350T575 363Q551 363 534 357T505 343T489 336Q483 336 477 347T470 366Q472 380 491 390T537 406T584 412Q638 412 668 388T698 322Q698 281 680 253T639 200L503 49H666Q672 49 676 45T678 28L677 20Q676 9 672
5T660 0H431ZM110 -1Q85 -1 85 6Q85 10 91 18L557 693Q564 702 584 702H590Q604 702 609 701T614 695Q614 690 608 681L147 12Q141 4 134 2T114 -1H110Z" />
<glyph unicode="&#xbe;" horiz-adv-x="750" d="M142 284Q112 284 85 289T40 302T23 320Q23 326 28 334T39 348T50 355Q58 355 80 345T141 334Q173 334 198 352T224 416Q224 453 201 466T148 480H129Q117 480 118 502L119 509Q119 520 123 525T135 530H150Q177
530 195 541T222 568T231 602Q231 619 217 636T169 653Q130 653 114 644T90 634Q85 634 79 646T72 667Q72 678 90 686T133 698T178 703Q228 703 260 678T292 609Q292 572 272 547T224 513V511Q249 502 267 479T285 418Q285 358 245 321T142 284ZM591 -2Q570 -2
571 13L579 92H413Q406 92 402 103T397 123Q397 131 402 136L613 400Q617 405 623 407T637 409H649Q672 409 670 394L643 141H678Q684 141 687 137T689 120L688 111Q687 92 671 92H638L629 13Q628 -2 606 -2H591ZM463 141H585L599 275Q601 290 602 298T609 322L607
323L463 141ZM152 -1Q127 -1 127 6Q127 10 133 18L599 693Q606 702 626 702H632Q647 702 651 701T656 695Q656 690 650 681L189 12Q183 4 176 2T157 -1H152Z" />
<glyph unicode="&#xbf;" horiz-adv-x="425" d="M291 315Q310 315 317 310T324 292Q324 255 295 213T223 131Q179 91 149 58T119 -16Q119 -93 221 -93Q253 -93 278 -85T321 -68T346 -60Q353 -60 361 -70T374 -95T380 -118Q380 -133 363 -145T317 -166T258 -179T197
-184Q135 -184 92 -164T27 -109T5 -32Q5 13 24 48T74 113T135 169Q169 198 196 227T233 293Q236 305 245 310T274 315H291ZM315 525Q341 525 349 519T358 500L350 427Q348 402 302 402H280Q256 402 247 408T237 427L245 500Q248 525 294 525H315Z" />
<glyph unicode="&#xc0;" horiz-adv-x="613" d="M29 -2Q-16 -2 -16 15Q-16 21 -11 32L288 685Q293 694 305 698T335 702H370Q387 702 399 698T414 685L577 31Q578 28 578 25T579 19Q579 10 569 4T532 -2H513Q496 -2 484 2T470 15L432 167H156L88 15Q83 6 72 2T45
-2H29ZM198 259H410L348 523Q344 537 343 552T341 583H339Q335 568 330 553T317 523L198 259ZM409 751Q384 751 371 755T339 772L279 811Q259 825 253 832T246 847Q246 858 262 862T306 867Q339 867 356 861T390 834L431 784Q436 779 438 775T440 765Q440 758 432
755T409 751Z" />
<glyph unicode="&#xc1;" horiz-adv-x="613" d="M29 -2Q-16 -2 -16 15Q-16 21 -11 32L288 685Q293 694 305 698T335 702H370Q387 702 399 698T414 685L577 31Q578 28 578 25T579 19Q579 10 569 4T532 -2H513Q496 -2 484 2T470 15L432 167H156L88 15Q83 6 72 2T45
-2H29ZM198 259H410L348 523Q344 537 343 552T341 583H339Q335 568 330 553T317 523L198 259ZM297 751Q269 751 269 763Q269 768 273 773T282 784L343 842Q358 857 375 862T424 867Q450 867 465 863T481 850Q481 842 472 834T439 811L372 772Q352 759 338 755T297
751Z" />
<glyph unicode="&#xc2;" horiz-adv-x="613" d="M29 -2Q-16 -2 -16 15Q-16 21 -11 32L288 685Q293 694 305 698T335 702H370Q387 702 399 698T414 685L577 31Q578 28 578 25T579 19Q579 10 569 4T532 -2H513Q496 -2 484 2T470 15L432 167H156L88 15Q83 6 72 2T45
-2H29ZM198 259H410L348 523Q344 537 343 552T341 583H339Q335 568 330 553T317 523L198 259ZM244 740Q232 740 227 742T222 749Q222 754 226 760T241 776L300 833Q313 847 325 851T357 856H378Q399 856 410 851T431 833L477 778Q492 759 492 751Q492 746 486 743T466
740Q451 740 440 744T419 754L361 793L297 755Q285 748 272 744T244 740Z" />
<glyph unicode="&#xc3;" horiz-adv-x="613" d="M29 -2Q-16 -2 -16 15Q-16 21 -11 32L288 685Q293 694 305 698T335 702H370Q387 702 399 698T414 685L577 31Q578 28 578 25T579 19Q579 10 569 4T532 -2H513Q496 -2 484 2T470 15L432 167H156L88 15Q83 6 72 2T45
-2H29ZM198 259H410L348 523Q344 537 343 552T341 583H339Q335 568 330 553T317 523L198 259ZM436 755Q405 755 377 764T325 784T282 794Q261 794 249 785T229 766T211 756Q203 756 191 763T179 778Q179 781 180 785T183 795Q196 825 223 844T287 864Q317 864 344
855T397 835T443 824Q465 824 478 834T500 854T516 864Q522 864 529 861T541 853T547 843Q547 841 546 837T542 826Q528 794 500 775T436 755Z" />
<glyph unicode="&#xc4;" horiz-adv-x="613" d="M29 -2Q-16 -2 -16 15Q-16 21 -11 32L288 685Q293 694 305 698T335 702H370Q387 702 399 698T414 685L577 31Q578 28 578 25T579 19Q579 10 569 4T532 -2H513Q496 -2 484 2T470 15L432 167H156L88 15Q83 6 72 2T45
-2H29ZM198 259H410L348 523Q344 537 343 552T341 583H339Q335 568 330 553T317 523L198 259ZM441 755Q417 755 407 759T396 769T394 779L400 839Q401 842 403 848T416 859T453 864Q477 864 486 860T498 850T500 839L494 779Q494 775 491 770T477 760T441 755ZM274
755Q251 755 240 759T228 769T226 779L233 839Q234 843 236 849T250 859T285 864Q310 864 319 860T331 849T332 839L326 779Q326 777 324 771T311 760T274 755Z" />
<glyph unicode="&#xc5;" horiz-adv-x="613" d="M29 -2Q-16 -2 -16 15Q-16 21 -11 32L288 685Q293 694 305 698T335 702H370Q387 702 399 698T414 685L577 31Q578 28 578 25T579 19Q579 10 569 4T532 -2H513Q496 -2 484 2T470 15L432 167H156L88 15Q83 6 72 2T45
-2H29ZM198 259H410L348 523Q344 537 343 552T341 583H339Q335 568 330 553T317 523L198 259ZM357 739Q322 739 299 762T276 819Q276 859 304 887T373 916Q408 916 431 893T455 835Q455 795 427 767T357 739ZM361 788Q377 788 389 801T402 831Q402 846 393 856T369
866Q353 866 341 853T329 823Q329 808 338 798T361 788Z" />
<glyph unicode="&#xc6;" horiz-adv-x="915" d="M1 -2Q-20 -2 -32 2T-44 15Q-44 23 -37 33L351 673Q367 700 396 700H846Q860 700 866 694T871 668L869 644Q868 624 860 616T836 608H489L511 404H785Q799 404 805 398T810 372L808 348Q807 328 799 320T775 312H520L544
92H783Q798 92 804 86T809 60L806 36Q805 15 797 8T773 0H475Q459 0 452 7T442 29L428 167H148L58 15Q52 7 41 3T15 -2H1ZM204 259H418L393 524L395 589H392L363 524L204 259Z" />
<glyph unicode="&#xc7;" horiz-adv-x="619" d="M330 -7Q183 -7 111 62T39 275Q39 485 133 596T408 707Q441 707 473 702T531 689T575 670Q584 665 590 658T597 644Q597 636 591 625T577 602T561 582T547 574Q541 574 524 584T477 604T399 614Q277 614 214 532T150
289Q150 186 197 136T339 85Q390 85 426 97T485 120T514 132Q523 132 531 120T544 93T549 70Q549 61 539 51T513 32Q492 22 463 13T400 -1T330 -7ZM281 -211Q256 -211 229 -206T182 -191T163 -166Q163 -156 169 -146T186 -136Q198 -136 222 -146T280 -156Q306 -156
319 -147T333 -123Q333 -109 323 -103T298 -94T274 -89T263 -77Q263 -73 268 -57T290 3H343L319 -58L307 -51Q353 -51 378 -67T404 -120Q404 -160 371 -185T281 -211Z" />
<glyph unicode="&#xc8;" horiz-adv-x="546" d="M73 0Q57 0 50 7T44 31L110 666Q113 700 146 700H502Q514 700 519 692T523 663L522 649Q520 626 513 617T492 608H211L189 404H440Q453 404 458 396T461 367L460 353Q459 330 451 321T430 312H180L157 92H440Q452
92 457 83T461 55L460 41Q458 18 450 9T430 0H73ZM379 751Q354 751 341 755T309 772L249 811Q229 825 223 832T216 847Q216 858 232 862T276 867Q309 867 326 861T360 834L401 784Q406 779 408 775T410 765Q410 758 402 755T379 751Z" />
<glyph unicode="&#xc9;" horiz-adv-x="546" d="M73 0Q57 0 50 7T44 31L110 666Q113 700 146 700H502Q514 700 519 692T523 663L522 649Q520 626 513 617T492 608H211L189 404H440Q453 404 458 396T461 367L460 353Q459 330 451 321T430 312H180L157 92H440Q452
92 457 83T461 55L460 41Q458 18 450 9T430 0H73ZM267 751Q239 751 239 763Q239 768 243 773T252 784L313 842Q328 857 345 862T394 867Q420 867 435 863T451 850Q451 842 442 834T409 811L342 772Q322 759 308 755T267 751Z" />
<glyph unicode="&#xca;" horiz-adv-x="546" d="M73 0Q57 0 50 7T44 31L110 666Q113 700 146 700H502Q514 700 519 692T523 663L522 649Q520 626 513 617T492 608H211L189 404H440Q453 404 458 396T461 367L460 353Q459 330 451 321T430 312H180L157 92H440Q452
92 457 83T461 55L460 41Q458 18 450 9T430 0H73ZM214 740Q202 740 197 742T192 749Q192 754 196 760T211 776L270 833Q283 847 295 851T327 856H348Q369 856 380 851T401 833L447 778Q462 759 462 751Q462 746 456 743T436 740Q421 740 410 744T389 754L331 793L267
755Q255 748 242 744T214 740Z" />
<glyph unicode="&#xcb;" horiz-adv-x="546" d="M73 0Q57 0 50 7T44 31L110 666Q113 700 146 700H502Q514 700 519 692T523 663L522 649Q520 626 513 617T492 608H211L189 404H440Q453 404 458 396T461 367L460 353Q459 330 451 321T430 312H180L157 92H440Q452
92 457 83T461 55L460 41Q458 18 450 9T430 0H73ZM411 755Q387 755 377 759T366 769T364 779L370 839Q371 842 373 848T386 859T423 864Q447 864 456 860T468 850T470 839L464 779Q464 775 461 770T447 760T411 755ZM244 755Q221 755 211 759T199 769T197 779L203
839Q204 843 206 849T220 859T255 864Q280 864 289 860T301 849T302 839L296 779Q296 777 294 771T281 760T244 755Z" />
<glyph unicode="&#xcc;" horiz-adv-x="283" d="M107 -2Q94 -2 84 0T69 8T64 23L132 677Q134 702 180 702H196Q209 702 218 700T233 693T239 677L171 23Q169 -2 123 -2H107ZM240 751Q215 751 202 755T170 772L110 811Q90 825 84 832T77 847Q77 858 93 862T137 867Q170
867 187 861T221 834L262 784Q267 779 269 775T271 765Q271 758 263 755T240 751Z" />
<glyph unicode="&#xcd;" horiz-adv-x="283" d="M107 -2Q94 -2 84 0T69 8T64 23L132 677Q134 702 180 702H196Q209 702 218 700T233 693T239 677L171 23Q169 -2 123 -2H107ZM128 751Q100 751 100 763Q100 768 104 773T114 784L174 842Q189 857 206 862T255 867Q281
867 296 863T312 850Q312 842 303 834T270 811L203 772Q183 759 169 755T128 751Z" />
<glyph unicode="&#xce;" horiz-adv-x="283" d="M107 -2Q94 -2 84 0T69 8T64 23L132 677Q134 702 180 702H196Q209 702 218 700T233 693T239 677L171 23Q169 -2 123 -2H107ZM75 740Q63 740 58 742T53 749Q53 754 57 760T72 776L131 833Q144 847 156 851T188 856H209Q230
856 241 851T262 833L308 778Q323 759 323 751Q323 746 317 743T297 740Q283 740 271 744T250 754L193 793L128 755Q116 748 103 744T75 740Z" />
<glyph unicode="&#xcf;" horiz-adv-x="283" d="M107 -2Q94 -2 84 0T69 8T64 23L132 677Q134 702 180 702H196Q209 702 218 700T233 693T239 677L171 23Q169 -2 123 -2H107ZM272 755Q248 755 238 759T227 769T225 779L231 839Q232 842 234 848T247 859T284 864Q308
864 317 860T329 850T331 839L325 779Q325 775 322 770T309 760T272 755ZM105 755Q82 755 72 759T60 769T58 779L64 839Q65 843 67 849T81 859T116 864Q141 864 150 860T162 849T163 839L157 779Q157 777 155 771T142 760T105 755Z" />
<glyph unicode="&#xd0;" horiz-adv-x="695" d="M34 311Q22 311 17 320T13 348L15 366Q17 387 23 395T43 403H339Q365 403 361 364L360 351Q358 331 352 321T333 311H34ZM88 0Q72 0 65 6T59 29L125 667Q128 700 161 700H379Q462 700 525 671T623 579T659 414Q659
303 631 224T554 95T441 23T306 0H88ZM172 92H310Q357 92 400 109T476 164T529 259T549 400Q549 475 526 521T460 587T364 608H226L172 92Z" />
<glyph unicode="&#xd1;" horiz-adv-x="719" d="M101 -2Q76 -2 67 4T57 23L126 677Q128 702 174 702H201Q219 702 230 698T248 681L479 271Q495 242 504 225T517 198T524 180L529 181Q528 199 529 220T534 274L576 677Q578 702 624 702H637Q662 702 671 696T681
677L612 23Q610 -2 564 -2H539Q523 -2 513 2T497 16L253 448Q233 482 226 499T215 529L210 528Q211 512 210 490T206 447L162 23Q160 -2 114 -2H101ZM476 755Q446 755 418 764T366 784T323 794Q302 794 290 785T269 766T252 756Q243 756 231 763T219 778Q219 781
220 785T224 795Q237 825 264 844T328 864Q357 864 385 855T438 835T483 824Q506 824 519 834T540 854T557 864Q562 864 569 861T582 853T588 843Q588 841 587 837T583 826Q568 794 540 775T476 755Z" />
<glyph unicode="&#xd2;" horiz-adv-x="731" d="M347 -7Q211 -7 135 71T59 312Q59 388 75 458T130 585T235 674T402 707Q489 707 554 673T654 567T690 384Q690 263 650 176T534 41T347 -7ZM355 85Q461 85 520 163T579 376Q579 501 530 557T393 614Q281 614 225
537T169 325Q169 200 219 143T355 85ZM464 751Q439 751 426 755T394 772L334 811Q314 825 308 832T301 847Q301 858 317 862T361 867Q394 867 411 861T445 834L486 784Q491 779 493 775T495 765Q495 758 487 755T464 751Z" />
<glyph unicode="&#xd3;" horiz-adv-x="731" d="M347 -7Q211 -7 135 71T59 312Q59 388 75 458T130 585T235 674T402 707Q489 707 554 673T654 567T690 384Q690 263 650 176T534 41T347 -7ZM355 85Q461 85 520 163T579 376Q579 501 530 557T393 614Q281 614 225
537T169 325Q169 200 219 143T355 85ZM344 751Q315 751 315 763Q315 768 319 773T329 784L389 842Q404 857 421 862T470 867Q497 867 512 863T527 850Q527 842 518 834T486 811L419 772Q398 759 384 755T344 751Z" />
<glyph unicode="&#xd4;" horiz-adv-x="731" d="M347 -7Q211 -7 135 71T59 312Q59 388 75 458T130 585T235 674T402 707Q489 707 554 673T654 567T690 384Q690 263 650 176T534 41T347 -7ZM355 85Q461 85 520 163T579 376Q579 501 530 557T393 614Q281 614 225
537T169 325Q169 200 219 143T355 85ZM290 740Q278 740 273 742T268 749Q268 754 272 760T287 776L346 833Q359 847 371 851T404 856H424Q445 856 456 851T478 833L524 778Q538 759 538 751Q538 746 532 743T512 740Q498 740 486 744T465 754L408 793L344 755Q331
748 319 744T290 740Z" />
<glyph unicode="&#xd5;" horiz-adv-x="731" d="M347 -7Q211 -7 135 71T59 312Q59 388 75 458T130 585T235 674T402 707Q489 707 554 673T654 567T690 384Q690 263 650 176T534 41T347 -7ZM355 85Q461 85 520 163T579 376Q579 501 530 557T393 614Q281 614 225
537T169 325Q169 200 219 143T355 85ZM482 755Q452 755 424 764T372 784T329 794Q308 794 296 785T275 766T258 756Q249 756 237 763T225 778Q225 781 226 785T230 795Q243 825 270 844T334 864Q363 864 391 855T444 835T489 824Q512 824 525 834T546 854T563 864Q568
864 575 861T588 853T594 843Q594 841 593 837T589 826Q574 794 546 775T482 755Z" />
<glyph unicode="&#xd6;" horiz-adv-x="731" d="M347 -7Q211 -7 135 71T59 312Q59 388 75 458T130 585T235 674T402 707Q489 707 554 673T654 567T690 384Q690 263 650 176T534 41T347 -7ZM355 85Q461 85 520 163T579 376Q579 501 530 557T393 614Q281 614 225
537T169 325Q169 200 219 143T355 85ZM496 755Q472 755 462 759T451 769T449 779L455 839Q456 842 458 848T471 859T508 864Q532 864 542 860T554 850T555 839L549 779Q549 775 546 770T532 760T496 755ZM329 755Q306 755 296 759T284 769T282 779L288 839Q289
843 291 849T305 859T340 864Q365 864 374 860T386 849T387 839L381 779Q381 777 379 771T366 760T329 755Z" />
<glyph unicode="&#xd7;" horiz-adv-x="560" d="M74 3Q67 3 57 12T39 32T31 49Q31 59 41 67L222 232L76 396Q69 403 69 413Q69 420 79 431T101 451T122 460Q130 460 137 452L283 287L464 451Q473 460 481 460Q488 460 498 451T515 431T523 412Q523 404 514 396L333
232L480 67Q485 60 485 53Q485 45 475 34T452 13T434 3Q425 3 418 11L272 177L90 11Q81 3 74 3Z" />
<glyph unicode="&#xd8;" horiz-adv-x="731" d="M33 -3Q29 -3 22 2T10 13T5 25Q5 32 13 40L653 700Q661 708 669 708Q674 708 680 704T692 694T697 682Q697 674 689 666L49 6Q41 -3 33 -3ZM347 -7Q211 -7 135 71T59 312Q59 388 75 458T130 585T235 674T402 707Q489
707 554 673T654 567T690 384Q690 263 650 176T534 41T347 -7ZM355 85Q461 85 520 163T579 376Q579 501 530 557T393 614Q281 614 225 537T169 325Q169 200 219 143T355 85Z" />
<glyph unicode="&#xd9;" horiz-adv-x="712" d="M329 -7Q198 -7 131 49T75 215L123 677Q125 702 172 702H187Q212 702 221 696T230 677L182 216Q176 157 214 121T338 85Q421 85 469 122T525 228L572 677Q574 702 621 702H636Q661 702 670 696T678 677L631 227Q620
117 541 55T329 -7ZM462 751Q437 751 424 755T392 772L332 811Q312 825 306 832T299 847Q299 858 314 862T359 867Q392 867 408 861T443 834L484 784Q489 779 491 775T493 765Q493 758 485 755T462 751Z" />
<glyph unicode="&#xda;" horiz-adv-x="712" d="M329 -7Q198 -7 131 49T75 215L123 677Q125 702 172 702H187Q212 702 221 696T230 677L182 216Q176 157 214 121T338 85Q421 85 469 122T525 228L572 677Q574 702 621 702H636Q661 702 670 696T678 677L631 227Q620
117 541 55T329 -7ZM350 751Q322 751 322 763Q322 768 326 773T335 784L396 842Q410 857 427 862T477 867Q503 867 518 863T534 850Q534 842 525 834T492 811L425 772Q404 759 390 755T350 751Z" />
<glyph unicode="&#xdb;" horiz-adv-x="712" d="M329 -7Q198 -7 131 49T75 215L123 677Q125 702 172 702H187Q212 702 221 696T230 677L182 216Q176 157 214 121T338 85Q421 85 469 122T525 228L572 677Q574 702 621 702H636Q661 702 670 696T678 677L631 227Q620
117 541 55T329 -7ZM297 740Q285 740 280 742T275 749Q275 754 279 760T294 776L352 833Q366 847 378 851T410 856H431Q452 856 463 851T484 833L530 778Q544 759 544 751Q544 746 539 743T519 740Q504 740 493 744T472 754L414 793L350 755Q338 748 325 744T297
740Z" />
<glyph unicode="&#xdc;" horiz-adv-x="712" d="M329 -7Q198 -7 131 49T75 215L123 677Q125 702 172 702H187Q212 702 221 696T230 677L182 216Q176 157 214 121T338 85Q421 85 469 122T525 228L572 677Q574 702 621 702H636Q661 702 670 696T678 677L631 227Q620
117 541 55T329 -7ZM494 755Q470 755 460 759T449 769T447 779L453 839Q454 842 456 848T469 859T505 864Q530 864 540 860T552 850T553 839L546 779Q546 775 544 770T530 760T494 755ZM327 755Q303 755 293 759T281 769T279 779L286 839Q287 843 289 849T303 859T338
864Q363 864 372 860T384 849T385 839L379 779Q379 777 377 771T364 760T327 755Z" />
<glyph unicode="&#xdd;" horiz-adv-x="559" d="M244 -2Q219 -2 210 4T201 23L235 352L62 664Q56 674 56 682Q56 693 69 697T108 702H127Q145 702 156 699T173 686L300 449L480 687Q487 695 500 698T531 702H549Q562 702 571 701T586 695T592 685Q592 681 589 676T582
664L342 349L308 23Q306 -2 260 -2H244ZM272 751Q244 751 244 763Q244 768 248 773T257 784L318 842Q333 857 350 862T399 867Q425 867 440 863T456 850Q456 842 447 834T414 811L347 772Q327 759 313 755T272 751Z" />
<glyph unicode="&#xde;" horiz-adv-x="567" d="M89 -2Q64 -2 55 4T45 23L114 677Q115 688 126 695T162 702H177Q202 702 211 696T221 677L211 582H324Q438 582 495 535T552 396Q552 293 490 232T313 170H168L152 23Q151 11 139 5T104 -2H89ZM177 262H319Q377 262
409 296T441 385Q441 437 409 463T310 490H201L177 262Z" />
<glyph unicode="&#xdf;" horiz-adv-x="554" d="M89 -2Q64 -2 55 4T46 26L97 512Q103 571 133 614T213 682T324 707Q377 707 419 692T486 644T511 558Q511 524 498 491T459 430T395 387V384Q450 368 477 328T504 233Q504 161 472 109T384 28T261 0H230Q208 0 211
30L214 60Q216 71 222 78T239 85H269Q304 85 333 101T381 150T399 225Q399 274 369 302T291 332H265Q243 332 245 361L248 391Q250 403 256 410T274 417H283Q315 417 342 433T386 476T403 537Q403 567 391 585T358 611T313 619Q266 619 235 591T200 516L148 23Q145
-2 99 -2H89Z" />
<glyph unicode="&#xe0;" horiz-adv-x="545" d="M201 -7Q173 -7 144 4T91 39T51 106T35 209Q35 303 64 375T148 488T274 529Q320 529 351 510T399 476Q404 491 409 502T423 519T450 525H458Q477 525 485 518T491 494L453 119Q451 98 458 88T480 77Q493 77 502 80T515
84Q521 84 521 75Q521 73 521 62T516 32Q512 10 489 2T448 -7Q400 -7 377 18T351 92Q323 41 284 17T201 -7ZM231 80Q251 80 274 93T319 136T359 217L374 349Q376 368 378 381T382 408Q369 419 344 431T281 444Q234 444 203 413T157 329T141 216Q141 166 152 136T184
93T231 80ZM338 575Q316 575 304 580T278 601L235 655Q220 674 215 683T209 699Q209 710 221 714T260 718Q284 718 297 715T316 706T327 688L358 616Q362 606 364 600T366 589Q366 582 360 579T338 575Z" />
<glyph unicode="&#xe1;" horiz-adv-x="545" d="M201 -7Q173 -7 144 4T91 39T51 106T35 209Q35 303 64 375T148 488T274 529Q320 529 351 510T399 476Q404 491 409 502T423 519T450 525H458Q477 525 485 518T491 494L453 119Q451 98 458 88T480 77Q493 77 502 80T515
84Q521 84 521 75Q521 73 521 62T516 32Q512 10 489 2T448 -7Q400 -7 377 18T351 92Q323 41 284 17T201 -7ZM231 80Q251 80 274 93T319 136T359 217L374 349Q376 368 378 381T382 408Q369 419 344 431T281 444Q234 444 203 413T157 329T141 216Q141 166 152 136T184
93T231 80ZM261 575Q247 575 241 578T235 587Q235 592 238 599T249 616L296 689Q303 699 310 705T330 714T369 718Q393 718 404 715T416 703Q416 695 409 685T385 659L326 601Q311 587 299 581T261 575Z" />
<glyph unicode="&#xe2;" horiz-adv-x="545" d="M201 -7Q173 -7 144 4T91 39T51 106T35 209Q35 303 64 375T148 488T274 529Q320 529 351 510T399 476Q404 491 409 502T423 519T450 525H458Q477 525 485 518T491 494L453 119Q451 98 458 88T480 77Q493 77 502 80T515
84Q521 84 521 75Q521 73 521 62T516 32Q512 10 489 2T448 -7Q400 -7 377 18T351 92Q323 41 284 17T201 -7ZM231 80Q251 80 274 93T319 136T359 217L374 349Q376 368 378 381T382 408Q369 419 344 431T281 444Q234 444 203 413T157 329T141 216Q141 166 152 136T184
93T231 80ZM207 575Q193 575 187 578T180 587Q180 593 194 616L243 692Q251 705 264 711T310 718H329Q357 718 370 712T389 692L422 616Q426 608 428 602T431 590Q431 575 401 575Q380 575 371 582T353 599L313 654L261 599Q251 589 241 582T207 575Z" />
<glyph unicode="&#xe3;" horiz-adv-x="545" d="M201 -7Q173 -7 144 4T91 39T51 106T35 209Q35 303 64 375T148 488T274 529Q320 529 351 510T399 476Q404 491 409 502T423 519T450 525H458Q477 525 485 518T491 494L453 119Q451 98 458 88T480 77Q493 77 502 80T515
84Q521 84 521 75Q521 73 521 62T516 32Q512 10 489 2T448 -7Q400 -7 377 18T351 92Q323 41 284 17T201 -7ZM231 80Q251 80 274 93T319 136T359 217L374 349Q376 368 378 381T382 408Q369 419 344 431T281 444Q234 444 203 413T157 329T141 216Q141 166 152 136T184
93T231 80ZM170 588Q164 588 151 595T138 610Q138 614 140 618T143 627Q158 659 185 677T247 695Q271 695 293 687T335 671T373 662Q398 662 412 671T434 690T450 699Q456 699 469 691T482 675Q482 674 481 670T476 658Q463 628 436 610T373 591Q351 591 327 599T281
616T243 625Q220 625 207 616T187 598T170 588Z" />
<glyph unicode="&#xe4;" horiz-adv-x="545" d="M201 -7Q173 -7 144 4T91 39T51 106T35 209Q35 303 64 375T148 488T274 529Q320 529 351 510T399 476Q404 491 409 502T423 519T450 525H458Q477 525 485 518T491 494L453 119Q451 98 458 88T480 77Q493 77 502 80T515
84Q521 84 521 75Q521 73 521 62T516 32Q512 10 489 2T448 -7Q400 -7 377 18T351 92Q323 41 284 17T201 -7ZM231 80Q251 80 274 93T319 136T359 217L374 349Q376 368 378 381T382 408Q369 419 344 431T281 444Q234 444 203 413T157 329T141 216Q141 166 152 136T184
93T231 80ZM389 592Q363 592 352 598T342 617L349 676Q351 688 362 694T400 700Q426 700 437 694T447 676L441 617Q440 605 428 599T389 592ZM230 592Q203 592 193 598T183 617L189 676Q191 688 203 694T241 700Q267 700 278 694T288 676L281 617Q280 605 268 599T230
592Z" />
<glyph unicode="&#xe5;" horiz-adv-x="545" d="M201 -7Q173 -7 144 4T91 39T51 106T35 209Q35 303 64 375T148 488T274 529Q320 529 351 510T399 476Q404 491 409 502T423 519T450 525H458Q477 525 485 518T491 494L453 119Q451 98 458 88T480 77Q493 77 502 80T515
84Q521 84 521 75Q521 73 521 62T516 32Q512 10 489 2T448 -7Q400 -7 377 18T351 92Q323 41 284 17T201 -7ZM231 80Q251 80 274 93T319 136T359 217L374 349Q376 368 378 381T382 408Q369 419 344 431T281 444Q234 444 203 413T157 329T141 216Q141 166 152 136T184
93T231 80ZM304 562Q267 562 245 584T222 642Q222 668 235 690T271 725T321 739Q357 739 379 717T402 658Q402 633 389 611T353 575T304 562ZM308 614Q324 614 336 625T348 654Q348 668 339 677T315 687Q300 687 288 675T276 646Q276 632 285 623T308 614Z" />
<glyph unicode="&#xe6;" horiz-adv-x="819" d="M183 -7Q114 -7 71 25T28 123Q28 172 50 205T114 260T212 291T336 302Q347 361 374 407Q364 425 341 435T279 445Q239 445 206 435T153 415T127 405Q119 405 112 416T99 441T94 462Q94 477 121 492T194 519T289 530Q394
530 442 483Q474 505 514 517T602 530Q653 530 687 516T741 482T769 438T778 393Q778 341 756 307T695 254T604 227T491 219Q474 219 460 220T432 221Q430 171 444 140T489 93T567 78Q610 78 642 90T695 114T722 126Q725 126 727 125T729 113Q729 112 729 103T727
81T723 59Q719 40 700 28T653 8T600 -3T556 -7Q504 -7 455 7T373 58Q353 41 323 27T256 3T183 -7ZM204 79Q239 79 274 92T337 127Q331 149 329 173T327 225Q299 225 266 222T203 210T155 183T136 136Q136 109 152 94T204 79ZM439 299Q559 297 616 315T674 382Q674
412 653 428T593 445Q545 445 514 425T465 372T439 299Z" />
<glyph unicode="&#xe7;" horiz-adv-x="485" d="M266 -7Q155 -7 99 44T43 206Q43 360 114 445T317 530Q351 530 384 524T438 505T460 479Q460 470 452 455T433 428T415 416Q414 416 411 417T402 421Q390 427 367 436T309 445Q232 445 192 386T151 215Q151 144 180
111T275 78Q309 78 335 87T377 104Q382 106 385 107T391 108Q399 108 406 98T418 75T423 52Q423 39 408 29T368 10T317 -2T266 -7ZM205 -211Q181 -211 154 -206T107 -191T87 -166Q87 -156 94 -146T111 -136Q123 -136 147 -146T204 -156Q230 -156 243 -147T257 -123Q257
-109 247 -103T223 -94T198 -89T187 -77Q187 -73 192 -57T214 3H267L243 -58L231 -51Q277 -51 302 -67T328 -120Q328 -160 295 -185T205 -211Z" />
<glyph unicode="&#xe8;" horiz-adv-x="539" d="M313 530Q366 530 401 516T456 481T484 436T493 393Q493 342 471 307T413 250T331 220T239 210Q199 210 173 213T125 222L147 261V214Q147 162 164 132T211 90T282 78Q325 78 357 90T410 114T437 126Q440 126 442
125T444 113Q444 107 443 91T438 59Q434 40 415 28T368 8T315 -3T271 -7Q227 -7 186 3T113 36T61 101T42 204Q42 302 72 375T163 489T313 530ZM308 445Q244 445 204 403T153 290H217Q232 290 253 292T298 299T342 314T376 340T389 382Q389 411 367 428T308 445ZM348
575Q326 575 314 580T287 601L245 655Q230 674 224 683T218 699Q218 710 230 714T270 718Q294 718 306 715T326 706T337 688L368 616Q372 606 374 600T376 589Q376 582 370 579T348 575Z" />
<glyph unicode="&#xe9;" horiz-adv-x="539" d="M313 530Q366 530 401 516T456 481T484 436T493 393Q493 342 471 307T413 250T331 220T239 210Q199 210 173 213T125 222L147 261V214Q147 162 164 132T211 90T282 78Q325 78 357 90T410 114T437 126Q440 126 442
125T444 113Q444 107 443 91T438 59Q434 40 415 28T368 8T315 -3T271 -7Q227 -7 186 3T113 36T61 101T42 204Q42 302 72 375T163 489T313 530ZM308 445Q244 445 204 403T153 290H217Q232 290 253 292T298 299T342 314T376 340T389 382Q389 411 367 428T308 445ZM271
575Q257 575 251 578T244 587Q244 592 248 599T259 616L306 689Q313 699 319 705T340 714T379 718Q403 718 414 715T426 703Q426 695 419 685T394 659L336 601Q321 587 309 581T271 575Z" />
<glyph unicode="&#xea;" horiz-adv-x="539" d="M313 530Q366 530 401 516T456 481T484 436T493 393Q493 342 471 307T413 250T331 220T239 210Q199 210 173 213T125 222L147 261V214Q147 162 164 132T211 90T282 78Q325 78 357 90T410 114T437 126Q440 126 442
125T444 113Q444 107 443 91T438 59Q434 40 415 28T368 8T315 -3T271 -7Q227 -7 186 3T113 36T61 101T42 204Q42 302 72 375T163 489T313 530ZM308 445Q244 445 204 403T153 290H217Q232 290 253 292T298 299T342 314T376 340T389 382Q389 411 367 428T308 445ZM217
575Q203 575 196 578T189 587Q189 593 204 616L253 692Q261 705 274 711T319 718H339Q367 718 380 712T399 692L432 616Q436 608 438 602T441 590Q441 575 411 575Q389 575 380 582T363 599L323 654L271 599Q261 589 251 582T217 575Z" />
<glyph unicode="&#xeb;" horiz-adv-x="539" d="M313 530Q366 530 401 516T456 481T484 436T493 393Q493 342 471 307T413 250T331 220T239 210Q199 210 173 213T125 222L147 261V214Q147 162 164 132T211 90T282 78Q325 78 357 90T410 114T437 126Q440 126 442
125T444 113Q444 107 443 91T438 59Q434 40 415 28T368 8T315 -3T271 -7Q227 -7 186 3T113 36T61 101T42 204Q42 302 72 375T163 489T313 530ZM308 445Q244 445 204 403T153 290H217Q232 290 253 292T298 299T342 314T376 340T389 382Q389 411 367 428T308 445ZM399
592Q373 592 362 598T352 617L358 676Q360 688 372 694T410 700Q436 700 447 694T457 676L450 617Q449 605 437 599T399 592ZM240 592Q213 592 203 598T193 617L199 676Q201 688 212 694T251 700Q276 700 287 694T297 676L291 617Q290 605 278 599T240 592Z" />
<glyph unicode="&#xec;" horiz-adv-x="265" d="M146 -7Q103 -7 76 20T55 118L93 500Q96 525 141 525H152Q176 525 186 519T196 500L158 119Q156 96 162 87T183 77Q196 77 205 80T218 84Q224 84 224 75Q224 73 224 62T219 32Q215 10 191 2T146 -7ZM131 575Q109
575 97 580T70 601L28 655Q13 674 8 683T2 699Q2 710 14 714T53 718Q77 718 89 715T109 706T120 688L151 616Q155 606 157 600T159 589Q159 582 153 579T131 575Z" />
<glyph unicode="&#xed;" horiz-adv-x="265" d="M146 -7Q103 -7 76 20T55 118L93 500Q96 525 141 525H152Q176 525 186 519T196 500L158 119Q156 96 162 87T183 77Q196 77 205 80T218 84Q224 84 224 75Q224 73 224 62T219 32Q215 10 191 2T146 -7ZM101 575Q87 575
81 578T75 587Q75 592 78 599T89 616L136 689Q143 699 150 705T170 714T209 718Q233 718 244 715T256 703Q256 695 249 685T225 659L166 601Q152 587 140 581T101 575Z" />
<glyph unicode="&#xee;" horiz-adv-x="265" d="M146 -7Q103 -7 76 20T55 118L93 500Q96 525 141 525H152Q176 525 186 519T196 500L158 119Q156 96 162 87T183 77Q196 77 205 80T218 84Q224 84 224 75Q224 73 224 62T219 32Q215 10 191 2T146 -7ZM57 575Q42 575
36 578T29 587Q29 593 44 616L93 692Q101 705 113 711T159 718H178Q206 718 219 712T238 692L272 616Q275 608 277 602T280 590Q280 575 250 575Q229 575 220 582T202 599L162 654L110 599Q100 589 90 582T57 575Z" />
<glyph unicode="&#xef;" horiz-adv-x="265" d="M146 -7Q103 -7 76 20T55 118L93 500Q96 525 141 525H152Q176 525 186 519T196 500L158 119Q156 96 162 87T183 77Q196 77 205 80T218 84Q224 84 224 75Q224 73 224 62T219 32Q215 10 191 2T146 -7ZM240 592Q214
592 203 598T193 617L200 676Q202 688 213 694T251 700Q277 700 288 694T298 676L292 617Q291 605 279 599T240 592ZM81 592Q54 592 44 598T34 617L40 676Q42 688 53 694T92 700Q118 700 129 694T139 676L132 617Q131 605 119 599T81 592Z" />
<glyph unicode="&#xf0;" horiz-adv-x="569" d="M264 -7Q159 -7 100 55T41 235Q41 324 71 390T156 493T285 530Q329 530 367 514T428 456L403 458Q398 491 382 530T344 610T300 685Q295 692 295 698Q295 707 308 709Q315 710 331 712T356 714Q369 714 375 709T390
692Q453 601 484 498T515 298Q515 209 488 140T405 32T264 -7ZM266 78Q339 78 374 131T410 277Q410 367 379 406T289 445Q219 445 183 393T146 245Q146 164 176 121T266 78ZM265 591Q254 590 247 600T239 622Q239 632 245 635T257 640L488 671Q501 673 506 661T512
639Q512 629 506 626T495 622L265 591Z" />
<glyph unicode="&#xf1;" horiz-adv-x="557" d="M455 -7Q408 -7 380 21T358 120L382 363Q386 405 368 423T313 442Q292 442 267 430T217 390T175 310L145 23Q143 -2 97 -2H86Q63 -2 53 5T43 23L76 333Q80 368 82 401T85 449Q85 467 84 475T83 489Q83 500 96 506T127
514T157 516Q173 516 179 494T185 446Q185 428 183 410T179 382L165 406Q189 447 219 474T285 516T356 530Q427 530 460 492T486 380L460 119Q458 98 465 88T487 77Q500 77 509 80T522 84Q528 84 528 75Q528 73 528 62T523 32Q519 10 496 2T455 -7ZM174 588Q167
588 154 595T141 610Q141 614 143 618T146 627Q162 659 189 677T250 695Q275 695 297 687T339 671T377 662Q401 662 415 671T437 690T453 699Q460 699 473 691T486 675Q486 674 485 670T480 658Q466 628 440 610T376 591Q354 591 330 599T284 616T246 625Q223 625
210 616T190 598T174 588Z" />
<glyph unicode="&#xf2;" horiz-adv-x="569" d="M267 -7Q162 -7 105 52T48 218Q48 279 62 335T106 435T185 504T307 530Q409 530 465 471T521 303Q521 150 454 72T267 -7ZM274 78Q415 78 415 300Q415 370 385 407T295 445Q223 445 188 387T153 222Q153 153 184
116T274 78ZM330 575Q308 575 296 580T270 601L227 655Q212 674 207 683T201 699Q201 710 213 714T252 718Q276 718 289 715T308 706T319 688L350 616Q354 606 356 600T358 589Q358 582 352 579T330 575Z" />
<glyph unicode="&#xf3;" horiz-adv-x="569" d="M267 -7Q162 -7 105 52T48 218Q48 279 62 335T106 435T185 504T307 530Q409 530 465 471T521 303Q521 150 454 72T267 -7ZM274 78Q415 78 415 300Q415 370 385 407T295 445Q223 445 188 387T153 222Q153 153 184
116T274 78ZM253 575Q239 575 233 578T227 587Q227 592 230 599T241 616L288 689Q295 699 301 705T322 714T361 718Q385 718 396 715T408 703Q408 695 401 685T377 659L318 601Q303 587 291 581T253 575Z" />
<glyph unicode="&#xf4;" horiz-adv-x="569" d="M267 -7Q162 -7 105 52T48 218Q48 279 62 335T106 435T185 504T307 530Q409 530 465 471T521 303Q521 150 454 72T267 -7ZM274 78Q415 78 415 300Q415 370 385 407T295 445Q223 445 188 387T153 222Q153 153 184
116T274 78ZM199 575Q185 575 179 578T172 587Q172 593 186 616L235 692Q243 705 256 711T301 718H321Q349 718 362 712T381 692L414 616Q418 608 420 602T423 590Q423 575 393 575Q371 575 362 582T345 599L305 654L253 599Q243 589 233 582T199 575Z" />
<glyph unicode="&#xf5;" horiz-adv-x="569" d="M267 -7Q162 -7 105 52T48 218Q48 279 62 335T106 435T185 504T307 530Q409 530 465 471T521 303Q521 150 454 72T267 -7ZM274 78Q415 78 415 300Q415 370 385 407T295 445Q223 445 188 387T153 222Q153 153 184
116T274 78ZM162 588Q156 588 143 595T130 610Q130 614 131 618T135 627Q150 659 177 677T239 695Q263 695 285 687T327 671T365 662Q390 662 404 671T426 690T442 699Q448 699 461 691T474 675Q474 674 473 670T468 658Q455 628 428 610T365 591Q343 591 319 599T272
616T235 625Q212 625 199 616T179 598T162 588Z" />
<glyph unicode="&#xf6;" horiz-adv-x="569" d="M267 -7Q162 -7 105 52T48 218Q48 279 62 335T106 435T185 504T307 530Q409 530 465 471T521 303Q521 150 454 72T267 -7ZM274 78Q415 78 415 300Q415 370 385 407T295 445Q223 445 188 387T153 222Q153 153 184
116T274 78ZM377 592Q352 592 341 598T331 617L337 676Q339 688 350 694T388 700Q415 700 426 694T435 676L429 617Q428 605 416 599T377 592ZM218 592Q192 592 181 598T171 617L178 676Q180 688 191 694T229 700Q255 700 266 694T276 676L270 617Q269 605 257
599T218 592Z" />
<glyph unicode="&#xf7;" horiz-adv-x="560" d="M61 188Q50 188 45 195T40 221L42 237Q44 256 50 263T69 270H493Q503 270 508 264T513 239L511 222Q510 202 502 195T483 188H61ZM252 -2Q227 -2 218 4T209 24L215 80Q217 105 263 105H269Q294 105 304 98T312 78L306
23Q303 -2 258 -2H252ZM289 354Q264 354 255 360T246 380L253 435Q255 460 301 460H307Q331 460 341 454T350 434L344 378Q341 354 295 354H289Z" />
<glyph unicode="&#xf8;" horiz-adv-x="569" d="M62 -1Q57 -1 50 4T38 15T33 27Q33 35 41 43L494 518Q503 527 511 527Q516 527 523 522T534 511T539 498Q539 490 531 482L78 7Q70 -1 62 -1ZM267 -7Q162 -7 105 52T48 218Q48 279 62 335T106 435T185 504T307 530Q409
530 465 471T521 303Q521 150 454 72T267 -7ZM274 78Q415 78 415 300Q415 370 385 407T295 445Q223 445 188 387T153 222Q153 153 184 116T274 78Z" />
<glyph unicode="&#xf9;" horiz-adv-x="557" d="M181 -7Q109 -7 76 31T51 143L86 500Q89 525 134 525H145Q169 525 179 519T189 500L154 159Q151 118 169 100T223 81Q244 81 269 93T319 135T362 217L391 500Q394 525 439 525H450Q474 525 484 519T494 500L456 119Q454
98 460 88T483 77Q496 77 505 80T517 84Q524 84 524 75Q524 73 524 62T519 32Q515 10 492 2T451 -7Q403 -7 377 21T350 121L372 123Q349 80 318 51T252 8T181 -7ZM330 575Q309 575 296 580T270 601L228 655Q213 674 207 683T201 699Q201 710 213 714T253 718Q277
718 289 715T308 706T319 688L350 616Q355 606 357 600T359 589Q359 582 352 579T330 575Z" />
<glyph unicode="&#xfa;" horiz-adv-x="557" d="M181 -7Q109 -7 76 31T51 143L86 500Q89 525 134 525H145Q169 525 179 519T189 500L154 159Q151 118 169 100T223 81Q244 81 269 93T319 135T362 217L391 500Q394 525 439 525H450Q474 525 484 519T494 500L456 119Q454
98 460 88T483 77Q496 77 505 80T517 84Q524 84 524 75Q524 73 524 62T519 32Q515 10 492 2T451 -7Q403 -7 377 21T350 121L372 123Q349 80 318 51T252 8T181 -7ZM254 575Q240 575 234 578T227 587Q227 592 231 599T242 616L289 689Q296 699 302 705T322 714T361
718Q385 718 397 715T409 703Q409 695 401 685T377 659L318 601Q304 587 292 581T254 575Z" />
<glyph unicode="&#xfb;" horiz-adv-x="557" d="M181 -7Q109 -7 76 31T51 143L86 500Q89 525 134 525H145Q169 525 179 519T189 500L154 159Q151 118 169 100T223 81Q244 81 269 93T319 135T362 217L391 500Q394 525 439 525H450Q474 525 484 519T494 500L456 119Q454
98 460 88T483 77Q496 77 505 80T517 84Q524 84 524 75Q524 73 524 62T519 32Q515 10 492 2T451 -7Q403 -7 377 21T350 121L372 123Q349 80 318 51T252 8T181 -7ZM200 575Q186 575 179 578T172 587Q172 593 187 616L236 692Q244 705 256 711T302 718H321Q349 718
362 712T382 692L415 616Q418 608 420 602T423 590Q423 575 394 575Q372 575 363 582T345 599L306 654L253 599Q243 589 233 582T200 575Z" />
<glyph unicode="&#xfc;" horiz-adv-x="557" d="M181 -7Q109 -7 76 31T51 143L86 500Q89 525 134 525H145Q169 525 179 519T189 500L154 159Q151 118 169 100T223 81Q244 81 269 93T319 135T362 217L391 500Q394 525 439 525H450Q474 525 484 519T494 500L456 119Q454
98 460 88T483 77Q496 77 505 80T517 84Q524 84 524 75Q524 73 524 62T519 32Q515 10 492 2T451 -7Q403 -7 377 21T350 121L372 123Q349 80 318 51T252 8T181 -7ZM382 592Q356 592 345 598T335 617L341 676Q343 688 355 694T392 700Q419 700 430 694T439 676L433
617Q432 605 420 599T382 592ZM222 592Q196 592 185 598T175 617L182 676Q184 688 195 694T233 700Q259 700 270 694T280 676L274 617Q273 605 261 599T222 592Z" />
<glyph unicode="&#xfd;" horiz-adv-x="481" d="M96 -207Q57 -207 57 -191Q57 -185 64 -173L183 62L191 -76L43 480Q41 489 39 495T37 505Q37 515 48 520T86 525H102Q119 525 131 521T145 508L210 254Q215 235 220 211T230 162H232Q241 185 250 210T269 254L387
508Q392 517 404 521T434 525H444Q467 525 477 521T488 508Q488 501 484 491L163 -186Q158 -198 145 -202T111 -207H96ZM231 575Q217 575 211 578T204 587Q204 592 208 599T219 616L266 689Q273 699 279 705T299 714T338 718Q362 718 374 715T386 703Q386 695 378
685T354 659L296 601Q281 587 269 581T231 575Z" />
<glyph unicode="&#xfe;" horiz-adv-x="573" d="M82 -207Q59 -207 49 -200T38 -184L135 728Q137 753 183 753H194Q217 753 227 746T237 729L208 447Q236 490 273 510T353 530Q381 530 410 519T465 484T506 417T522 313Q522 219 493 147T412 34T290 -7Q245 -7 213
10T164 41L141 -183Q140 -194 127 -200T93 -207H82ZM271 78Q313 78 341 96T385 146T409 219T416 306Q416 357 404 387T371 430T323 443Q303 443 280 432T234 393T194 319L172 116Q185 105 210 92T271 78Z" />
<glyph unicode="&#xff;" horiz-adv-x="481" d="M96 -207Q57 -207 57 -191Q57 -185 64 -173L183 62L191 -76L43 480Q41 489 39 495T37 505Q37 515 48 520T86 525H102Q119 525 131 521T145 508L210 254Q215 235 220 211T230 162H232Q241 185 250 210T269 254L387
508Q392 517 404 521T434 525H444Q467 525 477 521T488 508Q488 501 484 491L163 -186Q158 -198 145 -202T111 -207H96ZM359 592Q333 592 322 598T312 617L318 676Q320 688 332 694T370 700Q396 700 407 694T416 676L410 617Q409 605 397 599T359 592ZM199 592Q173
592 163 598T153 617L159 676Q161 688 172 694T210 700Q236 700 247 694T257 676L251 617Q250 605 238 599T199 592Z" />
<glyph unicode="&#x2013;" horiz-adv-x="500" d="M68 224Q57 224 53 230T49 255L51 273Q53 292 59 299T77 306H433Q445 306 449 300T452 276L450 259Q448 239 442 232T424 224H68Z" />
<glyph unicode="&#x2014;" horiz-adv-x="1000" d="M78 224Q67 224 63 230T59 255L61 273Q63 292 69 299T87 306H923Q935 306 939 300T942 276L940 259Q938 239 932 232T914 224H78Z" />
<glyph unicode="&#x2018;" horiz-adv-x="212" d="M105 515Q83 515 73 523T62 546Q65 579 76 610T102 667T136 713T170 743T197 755Q206 755 217 752T229 739Q229 734 227 729T220 716Q199 682 186 645T166 550Q165 535 153 525T117 515H105Z" />
<glyph unicode="&#x2019;" horiz-adv-x="212" d="M93 514Q84 514 73 517T61 530Q61 536 64 541T72 556Q93 590 106 627T124 719Q126 734 138 744T173 754H185Q208 754 218 746T228 723Q225 690 214 659T188 602T154 556T120 525T93 514Z" />
<glyph unicode="&#x201a;" horiz-adv-x="198" d="M23 -132Q13 -132 2 -129T-9 -116Q-9 -110 -7 -105T1 -90Q23 -56 35 -19T54 73Q56 88 68 98T103 108H115Q138 108 147 100T157 77Q154 44 144 13T117 -44T84 -90T50 -121T23 -132Z" />
<glyph unicode="&#x201c;" horiz-adv-x="350" d="M254 515Q232 515 222 523T212 546Q215 579 226 610T252 667T285 713T319 743T346 755Q356 755 367 752T378 739Q378 734 376 729T369 716Q348 682 335 645T315 550Q314 535 302 525T266 515H254ZM104 515Q81 515
71 523T61 546Q64 579 75 610T101 667T135 713T169 743T196 755Q205 755 216 752T228 739Q228 734 226 729T219 716Q197 682 184 645T165 550Q164 535 152 525T116 515H104Z" />
<glyph unicode="&#x201d;" horiz-adv-x="350" d="M238 514Q228 514 217 517T206 530Q206 536 208 541T216 556Q237 590 250 627T269 719Q271 734 283 744T318 754H330Q353 754 362 746T372 723Q369 690 358 659T332 602T298 556T265 525T238 514ZM87 514Q77 514
66 517T55 530Q55 536 58 541T65 556Q87 590 99 627T118 719Q120 734 132 744T167 754H179Q202 754 211 746T221 723Q219 690 208 659T182 602T148 556T114 525T87 514Z" />
<glyph unicode="&#x201e;" horiz-adv-x="336" d="M164 -119Q155 -119 144 -116T132 -103Q132 -97 135 -92T143 -78Q164 -43 177 -6T196 85Q198 101 209 111T245 121H257Q279 121 289 112T299 89Q296 56 285 26T259 -31T225 -77T192 -108T164 -119ZM14 -119Q4 -119
-7 -116T-18 -103Q-18 -97 -16 -92T-8 -78Q14 -43 26 -6T45 85Q47 101 59 111T94 121H106Q129 121 138 112T148 89Q145 56 135 26T108 -31T75 -77T41 -108T14 -119Z" />
<glyph unicode="&#x2022;" horiz-adv-x="336" d="M153 199Q103 199 71 231T38 313Q38 349 56 381T106 433T180 454Q230 454 262 421T295 340Q295 302 277 270T226 219T153 199Z" />
<glyph unicode="&#x2039;" horiz-adv-x="300" d="M184 57Q172 57 162 70L49 225Q44 233 41 240T38 254Q38 265 42 272T56 291L203 446Q209 452 214 455T227 459Q233 459 242 453T257 438T264 421Q264 416 261 410T252 398L128 258L223 113Q228 106 230 102T232
92Q232 86 224 78T206 63T184 57Z" />
<glyph unicode="&#x203a;" horiz-adv-x="300" d="M115 458Q127 458 137 445L250 290Q255 282 258 275T261 261Q261 251 257 243T243 224L96 69Q90 63 85 60T72 56Q66 56 57 62T42 77T35 94Q35 100 38 105T47 117L171 257L76 402Q72 409 70 414T67 423Q67 430 75
438T94 452T115 458Z" />
</font>
</defs>
</svg>
