<?xml version="1.0" standalone="no"?>
<!DOCTYPE svg PUBLIC "-//W3C//DTD SVG 1.1//EN" "http://www.w3.org/Graphics/SVG/1.1/DTD/svg11.dtd">
<svg xmlns="http://www.w3.org/2000/svg">
<defs >
<font id="Asap" horiz-adv-x="536" ><font-face
    font-family="Asap"
    units-per-em="1000"
    panose-1="0 0 0 0 0 0 0 0 0 0"
    ascent="934"
    descent="-212"
    alphabetic="0" />
<glyph unicode=" " horiz-adv-x="240" />
<glyph unicode="!" horiz-adv-x="294" d="M126 202Q110 202 104 208T99 225L146 680Q149 702 188 702H208Q230 702 238 697T245 680L170 224Q169 214 161 208T137 202H126ZM103 -2Q81 -2 73 4T65 20L72 86Q73 97 82 102T114 108H131Q153 108 161 103T169 86L162
20Q159 -2 120 -2H103Z" />
<glyph unicode="&quot;" horiz-adv-x="319" d="M116 472Q95 472 95 484V680Q95 702 137 702H147Q190 702 184 678L141 484Q138 472 117 472H116ZM244 472Q223 472 223 484V680Q223 702 265 702H275Q318 702 312 678L269 484Q266 472 245 472H244Z" />
<glyph unicode="#" horiz-adv-x="534" d="M77 -2Q46 -2 52 19L102 196H28Q18 196 13 203T9 224L10 240Q12 258 19 265T36 273H125L167 420H87Q77 420 72 427T68 448L69 464Q71 482 78 489T95 497H188L236 664Q239 675 247 680T283 686H287Q318 686 313 668L262
497H381L428 664Q431 675 439 680T475 686H480Q510 686 505 668L457 497H524Q535 497 539 490T543 469L542 453Q541 435 534 428T516 420H434L393 273H467Q478 273 482 266T486 245L485 229Q484 211 477 204T459 196H369L320 20Q317 10 309 4T274 -2H270Q239 -2
245 19L295 196H177L127 20Q124 10 116 4T81 -2H77ZM200 273H318L360 420H242L200 273Z" />
<glyph unicode="$" horiz-adv-x="500" d="M211 -68Q201 -68 198 -63T194 -48Q194 -46 195 -31T198 -6Q178 -5 149 -2T92 10T49 32Q37 44 37 56Q37 84 39 97T46 116T53 121Q55 121 60 118T72 110Q89 101 122 89T206 76L233 324Q203 336 174 349T121 382T83 429T68
498Q68 555 93 599T165 670T273 704L277 735Q279 746 283 750T299 755H301Q317 755 317 735Q317 733 316 724T314 706Q335 706 361 702T411 691T449 671Q465 658 465 646Q465 640 458 627T441 603T427 592Q423 592 419 594T407 601Q392 609 368 619T306 630L281
403Q321 386 360 364T425 307T451 214Q451 167 436 129T392 63T324 17T238 -4L234 -48Q233 -68 212 -68H211ZM246 73Q295 82 327 116T360 202Q360 244 335 267T271 308L246 73ZM243 418L265 627Q220 619 189 590T158 508Q158 474 182 454T243 418Z" />
<glyph unicode="%" horiz-adv-x="765" d="M200 381Q172 381 144 391T97 429T78 510Q78 571 92 609T130 669T181 698T234 706Q263 706 291 696T337 657T356 574Q356 536 348 502T320 440T272 397T200 381ZM530 -6Q502 -6 474 4T427 42T408 123Q408 184 422 222T460
282T511 311T564 319Q593 319 621 309T667 270T686 187Q686 149 678 115T650 53T602 10T530 -6ZM535 49Q570 49 589 71T615 125T622 188Q622 217 610 241T558 265Q528 265 511 249T486 210T476 162T474 122Q474 94 486 72T535 49ZM205 436Q240 436 259 458T285
512T292 575Q292 604 280 628T228 652Q198 652 181 636T156 597T146 549T144 509Q144 481 156 459T205 436ZM131 -2Q109 -2 109 4Q109 8 114 15L600 695Q607 703 623 703H629Q642 703 646 702T650 697Q650 693 645 686L164 10Q159 3 152 1T135 -2H131Z" />
<glyph unicode="&amp;" horiz-adv-x="624" d="M235 -6Q200 -6 165 3T99 34T51 90T32 175Q32 236 55 280T112 352T179 387L180 391Q143 406 117 439T91 520Q91 583 121 624T202 685T312 706Q325 706 343 705T376 698T391 679Q391 672 387 660T376 638T364 628Q357
628 345 631T306 634Q263 634 237 621T197 589T179 550T174 518Q174 494 186 469T225 426T297 408H416L436 509Q438 521 446 526T474 531H477Q497 531 503 526T508 508L498 408H572Q585 408 589 401T591 378L590 366Q587 336 567 336H490L469 130Q465 90 478 77T515
64Q537 64 547 67T562 71Q568 71 568 62Q568 52 567 42T564 27Q560 8 539 1T496 -6Q473 -6 446 1T401 36Q375 21 333 8T235 -6ZM251 66Q288 66 323 77T384 103Q384 112 386 136T392 195T400 266T407 336H285Q239 336 202 323T142 276T120 184Q120 138 141 112T192
76T251 66Z" />
<glyph unicode="&apos;" horiz-adv-x="183" d="M112 472Q91 472 91 484V680Q91 702 133 702H143Q186 702 180 678L137 484Q134 472 113 472H112Z" />
<glyph unicode="(" horiz-adv-x="301" d="M312 783Q320 783 329 777T339 760Q339 749 328 736Q270 675 226 590T156 403T131 192Q131 85 157 -7T232 -164Q239 -172 239 -181Q239 -185 235 -192T224 -206T208 -212Q198 -212 187 -201Q123 -136 87 -33T50 196Q50
317 81 426T166 625T290 773Q300 783 312 783Z" />
<glyph unicode=")" horiz-adv-x="301" d="M92 784Q102 784 113 773Q177 708 213 605T250 376Q250 255 219 145T134 -53T10 -201Q0 -211 -11 -211Q-21 -211 -30 -203T-40 -186Q-40 -179 -31 -170Q37 -99 81 -7T147 186T169 379Q169 451 157 516T123 636T68 736Q64
741 63 745T61 753Q61 758 65 765T76 778T92 784Z" />
<glyph unicode="*" horiz-adv-x="373" d="M111 414Q105 414 98 420T91 432Q91 440 97 447L179 546L84 578Q72 583 72 591Q72 603 78 610T92 617Q94 617 96 617T101 616L197 584L208 689Q209 709 230 709Q241 709 244 705T248 689L237 584L339 616Q341 617 343
617T348 617Q353 617 358 612T364 596Q364 582 348 578L246 546L307 447Q311 439 311 436Q311 429 303 422T287 414Q278 414 273 423L211 524L127 423Q118 414 111 414Z" />
<glyph unicode="+" horiz-adv-x="560" d="M248 -2Q232 -2 226 3T221 20L239 197H65Q56 197 51 202T46 223L47 236Q49 253 54 258T71 264H246L265 443Q266 454 272 458T297 463H304Q320 463 327 458T332 441L313 264H489Q497 264 502 260T507 240L506 225Q505 209
497 203T481 197H306L287 18Q286 -2 255 -2H248Z" />
<glyph unicode="," horiz-adv-x="198" d="M29 -116Q21 -116 11 -113T1 -102Q1 -97 3 -94T9 -84Q34 -46 46 -10T63 76Q65 90 75 99T106 108H115Q135 108 143 101T152 80Q148 44 138 14T113 -41T83 -81T53 -107T29 -116Z" />
<glyph unicode="-" horiz-adv-x="320" d="M65 229Q55 229 50 235T45 257L46 271Q48 289 54 295T72 301H257Q266 301 272 295T276 273L275 259Q274 241 266 235T249 229H65Z" />
<glyph unicode="." horiz-adv-x="198" d="M92 108Q114 108 122 103T130 86L123 20Q121 -2 81 -2H64Q42 -2 34 4T26 20L33 86Q35 108 75 108H92Z" />
<glyph unicode="/" horiz-adv-x="422" d="M15 -79Q0 -79 -4 -76T-9 -69Q-9 -67 -8 -65T-6 -59L377 687Q382 695 387 698T409 702H415Q431 702 436 700T441 692Q441 688 434 674L57 -59Q52 -69 45 -74T20 -79H15Z" />
<glyph unicode="0" horiz-adv-x="535" d="M239 -6Q186 -6 142 23T72 113T45 269Q45 384 69 467T132 603T218 681T314 706Q368 706 412 677T483 586T510 427Q510 313 486 231T422 97T335 19T239 -6ZM247 66Q275 66 306 85T364 146T408 256T425 425Q425 501 408
547T364 613T306 634Q278 634 248 615T190 554T147 441T130 270Q130 196 146 151T189 86T247 66Z" />
<glyph unicode="1" horiz-adv-x="535" d="M42 0Q32 0 28 8T24 29L25 42Q28 72 49 72H223L280 611L103 581Q92 580 88 594T84 621Q84 635 88 641T105 651L342 702Q354 702 363 695T371 681L307 72H455Q466 72 470 64T473 43L472 30Q469 0 448 0H42Z" />
<glyph unicode="2" horiz-adv-x="535" d="M50 0Q45 0 41 9T33 31T30 52Q30 59 32 61L341 403Q376 442 392 477T408 543Q408 585 378 609T293 634Q248 634 217 621T166 596T138 583Q131 583 121 601T111 631Q111 647 131 660T181 684T244 700T299 706Q360 706 404
688T471 635T495 556Q495 520 487 490T461 431T414 370L143 71H431Q451 71 448 41L447 30Q444 0 424 0H50Z" />
<glyph unicode="3" horiz-adv-x="535" d="M216 -6Q176 -6 145 -1T92 13T59 32T47 52Q47 59 52 70T64 90T77 100Q85 100 99 92T142 75T216 66Q240 66 267 73T319 99T359 148T375 228Q375 290 338 313T238 336H206Q183 336 186 361L188 378Q190 395 195 401T214
407H241Q283 407 311 422T356 461T380 507T388 548Q388 567 379 587T347 620T279 634Q234 634 205 626T158 610T132 601Q127 601 120 610T109 632T104 652Q104 663 123 673T173 690T234 702T289 706Q372 706 422 669T473 554Q473 490 438 450T355 391L354 387Q381
380 406 360T446 306T462 228Q462 163 439 119T377 47T297 7T216 -6Z" />
<glyph unicode="4" horiz-adv-x="535" d="M348 -2Q332 -2 326 3T320 20L335 167H31Q26 167 22 174T16 192T13 212Q13 218 14 223T16 229L393 688Q399 695 408 698T428 702H444Q461 702 467 696T472 680L426 239H495Q506 239 510 235T512 214L510 197Q508 179 503
173T487 167H418L403 20Q402 10 394 4T371 -2H348ZM114 239H343L364 439Q369 477 375 514T385 569L381 571L114 239Z" />
<glyph unicode="5" horiz-adv-x="535" d="M196 -6Q159 -6 129 -1T78 13T46 32T34 52Q34 59 39 70T51 90T64 100Q72 100 88 92T132 75T203 66Q277 66 325 106T374 232Q374 290 332 320T208 350H123Q109 350 103 356T99 382L145 670Q147 686 156 693T181 700H449Q460
700 464 696T466 675L464 658Q462 640 457 634T441 628H222L187 422H239Q277 422 316 413T387 384T440 328T460 241Q460 167 436 119T371 44T285 5T196 -6Z" />
<glyph unicode="6" horiz-adv-x="535" d="M236 -5Q173 -5 131 19T68 88T47 197Q47 278 69 346T129 471T209 570T295 642T372 687T423 702Q433 702 439 693T447 671T450 651Q450 649 449 645T441 638Q337 592 268 524T166 372Q191 386 224 395T304 405Q341 405
372 393T426 358T462 302T475 229Q475 176 456 133T404 59T328 12T236 -5ZM249 67Q278 67 311 83T367 132T390 219Q390 261 373 286T330 322T272 333Q232 333 199 322T143 299Q139 277 135 254T131 202Q131 148 148 119T193 78T249 67Z" />
<glyph unicode="7" horiz-adv-x="535" d="M122 -2Q102 -2 92 1T81 13Q81 19 86 28L438 628H122Q112 628 108 632T105 653L107 670Q109 688 114 694T130 700H520Q526 700 530 693T537 676T540 655Q540 644 537 638L175 14Q171 7 160 3T134 -2H122Z" />
<glyph unicode="8" horiz-adv-x="535" d="M244 -6Q187 -6 142 13T70 73T43 176Q43 222 57 262T100 332T175 380Q146 400 127 433T107 515Q107 578 135 620T210 684T311 706Q362 706 402 689T467 637T491 550Q491 504 475 471T433 416T377 381Q405 368 428 349T465
301T479 226Q479 166 460 122T407 50T332 8T244 -6ZM252 66Q287 66 319 82T372 131T393 214Q393 259 370 283T311 321T239 350Q187 322 159 284T130 186Q130 126 165 96T252 66ZM307 408Q348 430 377 461T407 542Q407 591 377 612T303 634Q258 634 225 608T191
522Q191 487 207 466T249 432T307 408Z" />
<glyph unicode="9" horiz-adv-x="535" d="M128 -1Q118 -1 112 8T104 30T101 50Q101 52 102 56T110 63Q214 110 283 177T385 329Q360 316 327 306T247 296Q210 296 179 308T125 343T89 399T76 472Q76 525 95 568T147 642T223 689T315 706Q379 706 420 682T483 613T504
504Q504 424 482 355T422 230T342 131T256 59T179 14T128 -1ZM279 368Q319 368 352 379T408 402Q413 424 416 447T420 499Q420 554 403 583T358 623T302 634Q273 634 240 618T184 569T161 482Q161 441 178 416T222 379T279 368Z" />
<glyph unicode=":" horiz-adv-x="198" d="M135 525Q157 525 165 520T173 503L166 437Q163 415 124 415H107Q85 415 77 421T69 437L76 503Q78 525 118 525H135ZM91 108Q113 108 121 103T129 86L122 20Q119 -2 80 -2H63Q41 -2 33 4T25 20L32 86Q34 108 74 108H91Z" />
<glyph unicode=";" horiz-adv-x="198" d="M141 525Q163 525 171 520T179 503L172 437Q169 415 130 415H113Q91 415 83 421T75 437L82 503Q84 525 124 525H141ZM13 -116Q5 -116 -5 -113T-15 -102Q-15 -97 -13 -94T-7 -84Q18 -46 30 -10T47 76Q49 90 59 99T90 108H99Q119
108 127 101T136 80Q132 44 122 14T97 -41T67 -81T37 -107T13 -116Z" />
<glyph unicode="&lt;" horiz-adv-x="560" d="M473 4Q466 4 454 9L61 184Q50 189 44 196T39 214L41 235Q43 252 51 259T70 271L508 447Q514 450 520 450Q537 450 534 424L532 409Q530 391 523 384T504 371L121 226L479 79Q487 76 490 68T492 40V36Q491 19 486 12T473 4Z" />
<glyph unicode="=" horiz-adv-x="560" d="M74 268Q65 268 59 274T54 296L55 310Q57 328 63 334T81 340H496Q505 340 510 336T515 314L514 298Q513 280 505 274T487 268H74ZM57 106Q48 106 42 112T37 134L38 148Q40 166 46 172T64 178H479Q488 178 493 174T498
152L497 136Q496 118 488 112T470 106H57Z" />
<glyph unicode="&gt;" horiz-adv-x="560" d="M41 5Q31 5 28 12T25 32Q25 57 31 66T54 83L430 228L93 368Q74 376 70 384T65 407Q65 431 70 440T86 449Q90 449 98 446T113 440L497 270Q508 265 514 258T518 235L517 225Q516 207 510 199T488 183L59 9Q55 8 50 7T41 5Z" />
<glyph unicode="?" horiz-adv-x="445" d="M163 202Q148 202 142 207T135 223Q135 255 164 299T238 384Q286 428 317 463T349 543Q349 632 233 632Q202 632 176 624T131 607T105 598Q100 598 94 607T84 627T79 647Q79 660 96 671T139 689T197 701T257 706Q319 706
361 686T424 631T445 556Q445 513 426 478T376 414T314 355Q280 324 251 292T213 222Q211 212 203 207T178 202H163ZM141 -2Q119 -2 112 4T104 20L111 86Q113 108 153 108H170Q192 108 200 103T208 86L201 20Q198 -2 158 -2H141Z" />
<glyph unicode="@" horiz-adv-x="974" d="M410 -126Q313 -126 240 -80T125 47T84 237Q84 336 118 421T214 569T357 669T534 705Q635 705 709 665T825 551T867 380Q867 312 852 253T809 149T743 79T657 54Q610 54 585 80T559 146Q533 97 498 76T423 54Q402 54 377
62T330 90T293 145T278 236Q278 315 304 375T377 470T489 505Q530 505 558 489T600 458Q608 480 612 491T635 502H641Q653 502 658 497T663 481Q663 481 661 459T655 401T647 324T639 246T633 182T630 149Q630 128 638 120T655 109T670 107Q698 107 723 129T769
189T801 276T813 380Q813 465 778 528T681 626T534 661Q451 661 379 629T253 538T169 403T138 237Q138 142 172 70T268 -42T410 -82Q455 -82 487 -74T538 -57T563 -49Q567 -49 567 -55Q567 -60 566 -66T563 -82Q561 -91 547 -99T510 -113T461 -122T410 -126ZM439
115Q458 115 481 127T527 170T568 256Q571 282 574 313T580 371T587 409Q574 420 551 431T495 443Q438 443 407 414T363 338T351 241Q351 169 377 142T439 115Z" />
<glyph unicode="A" horiz-adv-x="613" d="M28 -2Q-13 -2 -13 14Q-13 19 -8 29L297 686Q301 695 311 698T338 702H367Q382 702 393 699T406 686L574 28Q575 25 575 23T575 18Q575 10 566 4T531 -2H523Q508 -2 497 1T484 14L442 178H148L74 14Q70 5 59 2T33 -2H28ZM184
254H423L350 552Q346 566 345 581T344 610H342Q338 596 333 581T321 552L184 254Z" />
<glyph unicode="B" horiz-adv-x="593" d="M86 0Q72 0 65 5T59 24L126 670Q129 700 159 700H343Q447 700 500 657T553 544Q553 501 535 466T487 405T423 371L422 367Q422 367 441 360T485 337T530 292T549 219Q549 105 473 53T263 0H86ZM152 76H303Q380 76 419
115T458 220Q458 268 421 295T312 322H178L152 76ZM186 398H307Q375 398 418 434T461 532Q461 624 326 624H209L186 398Z" />
<glyph unicode="C" horiz-adv-x="619" d="M327 -6Q181 -6 110 62T38 275Q38 484 132 595T404 706Q438 706 469 701T525 688T567 670Q575 666 581 659T588 645Q588 639 584 629T573 610T560 593T548 586Q543 586 526 597T477 619T398 630Q266 630 198 544T130 285Q130
175 180 123T335 70Q387 70 424 82T483 107T512 120Q518 120 525 110T536 87T541 67Q541 60 532 51T506 33Q487 23 460 14T398 0T327 -6Z" />
<glyph unicode="D" horiz-adv-x="695" d="M87 0Q73 0 66 5T60 24L127 670Q130 700 160 700H375Q454 700 516 673T616 583T653 415Q653 299 624 219T545 91T432 22T302 0H87ZM153 76H303Q352 76 398 93T481 149T540 250T562 401Q562 484 536 533T463 603T360 624H210L153
76Z" />
<glyph unicode="E" horiz-adv-x="546" d="M72 0Q58 0 51 6T45 29L112 669Q115 700 145 700H497Q508 700 512 693T516 672L515 657Q514 639 507 632T489 624H195L171 396H433Q444 396 448 389T452 368L451 353Q450 335 443 328T425 320H163L138 76H433Q444 76 448
69T452 48L451 33Q450 15 443 8T425 0H72Z" />
<glyph unicode="F" horiz-adv-x="503" d="M87 -2Q72 -2 64 0T52 8T49 20L117 670Q120 700 150 700H465Q476 700 480 693T484 672L483 657Q482 639 475 632T457 624H200L174 376H424Q435 376 439 369T443 348L442 333Q441 315 434 308T416 300H166L137 20Q135 -2
95 -2H87Z" />
<glyph unicode="G" horiz-adv-x="672" d="M328 -6Q194 -6 123 63T52 275Q52 424 97 519T225 660T418 706Q454 706 487 701T546 686T587 666T602 645Q602 639 598 629T587 610T574 593T562 586Q557 586 539 597T488 619T404 630Q272 630 208 539T144 288Q144 227
162 178T223 99T342 70Q381 70 416 74T472 83L494 285H377Q367 285 362 292T358 313L359 328Q361 346 368 353T385 361H560Q574 361 581 355T587 334L559 66Q557 45 537 31T484 9T411 -2T328 -6Z" />
<glyph unicode="H" horiz-adv-x="733" d="M111 -2Q96 -2 88 0T76 8T73 20L142 680Q144 702 184 702H192Q207 702 215 700T227 692T230 680L200 397H562L592 680Q594 702 634 702H642Q657 702 665 700T677 692T680 680L611 20Q609 -2 569 -2H561Q546 -2 538 0T526
8T523 20L554 321H192L161 20Q159 -2 119 -2H111Z" />
<glyph unicode="I" horiz-adv-x="283" d="M111 -2Q96 -2 88 0T76 8T74 21L142 680Q144 702 184 702H192Q207 702 215 700T226 692T230 680L161 20Q159 -2 119 -2H111Z" />
<glyph unicode="J" horiz-adv-x="402" d="M77 -6Q56 -6 36 -3T2 7T-11 26Q-11 48 -9 61T-4 79T4 85Q11 85 25 81T70 76Q140 76 174 106T215 201L266 680Q268 702 308 702H316Q331 702 339 700T350 692T354 680L304 205Q294 111 241 53T77 -6Z" />
<glyph unicode="K" horiz-adv-x="576" d="M82 -2Q60 -2 52 4T44 20L113 680Q115 702 155 702H163Q185 702 193 697T201 680L169 374H173L450 688Q458 696 473 699T505 702H515Q549 702 549 690Q549 681 537 669L259 360L520 28Q525 22 526 19T527 12Q526 4 516
1T482 -2H475Q453 -2 441 0T421 11L169 333H165L132 20Q129 -2 90 -2H82Z" />
<glyph unicode="L" horiz-adv-x="484" d="M77 0Q61 0 55 7T50 30L118 680Q120 702 160 702H168Q183 702 191 700T203 692T206 680L143 76H432Q443 76 447 69T451 48L450 33Q449 15 442 8T424 0H77Z" />
<glyph unicode="M" horiz-adv-x="843" d="M103 -2Q81 -2 73 4T65 20L134 680Q136 702 176 702H210Q228 702 237 697T251 684L405 356Q410 345 416 327T425 293Q431 306 440 322T457 350L681 684Q686 692 696 697T724 702H759Q781 702 789 697T797 680L728 20Q726
-2 686 -2H679Q657 -2 649 4T641 20L692 509Q694 521 696 535T699 561L696 562Q691 551 684 540T670 518L460 208Q451 195 436 195H396Q382 195 375 210L233 513Q228 523 221 538T208 567L204 565Q205 555 204 535T201 492L152 20Q150 -2 110 -2H103Z" />
<glyph unicode="N" horiz-adv-x="719" d="M100 -2Q78 -2 70 4T62 20L131 680Q133 702 173 702H194Q211 702 219 698T234 683L481 250Q500 217 510 198T524 167T533 145L537 146Q537 163 538 182T542 232L589 680Q591 702 631 702H638Q660 702 668 697T676 680L607
20Q605 -2 565 -2H545Q531 -2 523 1T511 12L249 472Q227 510 219 530T206 565L202 564Q203 548 202 526T198 484L149 20Q147 -2 107 -2H100Z" />
<glyph unicode="O" horiz-adv-x="731" d="M345 -6Q212 -6 137 71T62 312Q62 389 78 459T133 585T237 673T402 706Q488 706 552 673T651 569T687 386Q687 264 647 176T530 41T345 -6ZM352 70Q466 70 530 152T595 379Q595 511 541 570T394 630Q273 630 213 549T153
324Q153 191 206 131T352 70Z" />
<glyph unicode="P" horiz-adv-x="570" d="M88 -2Q66 -2 58 4T51 25L118 670Q121 700 151 700H334Q449 700 504 655T559 519Q559 419 497 359T322 298H167L138 20Q137 11 128 5T96 -2H88ZM175 374H331Q396 374 431 411T467 508Q467 566 432 595T323 624H201L175 374Z" />
<glyph unicode="Q" horiz-adv-x="731" d="M631 -157Q626 -157 593 -144T509 -111T404 -67T300 -22T219 15Q143 52 103 123T62 312Q62 381 78 450T133 578T237 671T402 706Q537 706 612 630T687 386Q687 226 622 132T446 5V1L640 -62Q652 -67 652 -82Q652 -114
649 -130T642 -152T631 -157ZM352 70Q466 70 530 152T595 379Q595 511 541 570T394 630Q279 630 216 548T153 314Q153 221 177 168T246 93T352 70Z" />
<glyph unicode="R" horiz-adv-x="610" d="M105 -2Q83 -2 75 4T68 24L135 670Q138 700 168 700H331Q446 700 501 655T556 519Q556 473 540 437T494 378T423 343V339Q444 332 462 311T489 260L560 28Q562 20 562 17Q562 8 553 3T518 -2H508Q493 -2 482 1T469 14L414
210Q403 248 388 269T346 299T275 308H185L155 20Q153 -2 113 -2H105ZM193 384H325Q393 384 428 418T464 508Q464 569 430 596T320 624H218L193 384Z" />
<glyph unicode="S" horiz-adv-x="500" d="M206 -6Q190 -6 164 -4T110 5T63 22Q50 29 43 40T36 76Q36 91 38 98T43 107T52 109Q57 109 65 106T85 97Q106 89 138 80T214 70Q254 70 286 86T339 132T359 201Q359 235 340 256T291 293T227 322Q189 338 152 357T91 410T67
501Q67 546 84 584T134 649T210 691T309 706Q339 706 379 698T443 674Q464 661 464 646Q464 640 458 627T443 603T426 592Q421 592 414 596T394 607Q379 615 356 622T299 630Q262 630 230 617T177 578T157 511Q157 478 175 458T221 424T283 398Q323 382 361 362T424
307T450 215Q450 164 432 123T382 54T305 10T206 -6Z" />
<glyph unicode="T" horiz-adv-x="549" d="M246 -2Q231 -2 223 0T211 8T209 22L271 624H79Q69 624 64 631T60 652L61 667Q63 685 70 692T87 700H555Q566 700 570 693T574 672L573 657Q572 639 565 632T547 624H359L296 20Q294 -2 254 -2H246Z" />
<glyph unicode="U" horiz-adv-x="712" d="M329 -6Q199 -6 134 49T80 213L128 680Q130 702 171 702H179Q201 702 209 697T216 680L167 206Q161 145 201 108T337 70Q425 70 478 110T538 221L586 680Q588 702 629 702H637Q659 702 667 697T674 680L626 224Q615 116
538 55T329 -6Z" />
<glyph unicode="V" horiz-adv-x="617" d="M266 -2Q251 -2 240 2T227 16L63 679Q58 702 108 702H119Q134 702 145 699T158 686L278 189Q281 176 285 151T292 100H295Q301 120 309 144T325 183L552 686Q556 695 567 698T593 702H599Q621 702 631 698T641 686Q641
681 636 671L338 14Q334 5 323 2T297 -2H266Z" />
<glyph unicode="W" horiz-adv-x="882" d="M203 -2Q188 -2 177 1T164 14L59 682Q57 696 72 699T104 702H113Q128 702 139 699T152 686L221 244Q229 190 232 157T236 101H240Q246 123 255 151T271 199L443 685Q447 695 455 698T483 702H499Q514 702 525 699T537
685L602 243Q610 187 613 155T616 101H620Q627 127 636 155T651 201L823 686Q826 695 837 698T864 702H870Q892 702 903 697T909 679L665 14Q662 5 651 2T624 -2H583Q568 -2 557 1T544 14L492 331Q486 371 482 413T476 491T475 551H471Q464 515 452 472T420 376L285
14Q281 5 270 2T244 -2H203Z" />
<glyph unicode="X" horiz-adv-x="611" d="M33 -2Q10 -2 2 2T-6 14Q-6 21 4 33L267 368L104 667Q102 672 100 675T98 683Q98 692 105 697T140 702H149Q165 702 175 699T191 687L324 439L516 688Q522 696 534 699T560 702H566Q590 702 600 698T611 686Q611 682 608
677T601 667L366 368L549 33Q551 29 553 25T555 17Q555 8 548 3T513 -2H502Q486 -2 476 1T460 13L310 295L100 24Q87 7 74 3T46 -2H33Z" />
<glyph unicode="Y" horiz-adv-x="559" d="M248 -2Q226 -2 218 4T210 20L245 359L69 667Q63 676 63 683Q63 692 73 697T110 702H119Q135 702 145 699T161 687L299 441L493 688Q499 696 511 699T539 702H550Q563 702 570 700T582 695T586 686Q586 682 583 677T576
667L333 356L298 20Q296 -2 256 -2H248Z" />
<glyph unicode="Z" horiz-adv-x="616" d="M41 0Q33 0 28 7T21 26T18 47Q18 52 20 58T26 69L491 624H132Q122 624 117 632T112 654L114 671Q116 689 123 694T140 700H591Q600 700 605 693T612 674T614 652Q614 641 609 635L141 76H531Q542 76 547 69T551 48L549
33Q547 15 541 8T523 0H41Z" />
<glyph unicode="[" horiz-adv-x="291" d="M72 -138Q56 -138 50 -131T45 -106L134 738Q137 768 167 768H282Q295 768 301 764T306 743L305 732Q304 716 297 711T275 706H204L122 -76H193Q202 -76 210 -80T218 -98L217 -112Q216 -128 209 -133T192 -138H72Z" />
<glyph unicode="\" horiz-adv-x="422" d="M331 -79Q315 -79 307 -74T296 -59L76 674Q75 680 73 685T71 692Q71 697 76 699T98 702H104Q120 702 126 699T134 687L359 -59Q360 -62 360 -64T361 -69Q361 -73 356 -76T336 -79H331Z" />
<glyph unicode="]" horiz-adv-x="291" d="M8 -138Q-5 -138 -11 -134T-16 -113L-15 -102Q-13 -86 -7 -81T15 -76H86L168 706H97Q88 706 80 710T72 728L73 742Q75 758 82 763T98 768H218Q235 768 241 761T245 736L156 -108Q153 -138 123 -138H8Z" />
<glyph unicode="^" horiz-adv-x="450" d="M84 320Q71 320 66 323T61 332Q61 336 63 342T69 355L227 664Q238 684 263 684H283Q296 684 303 680T315 664L405 354Q407 347 408 342T410 332Q410 327 405 324T381 320H377Q360 320 354 323T344 338L257 638H280L125
335Q121 326 114 323T91 320H84Z" />
<glyph unicode="_" horiz-adv-x="534" d="M-42 -138Q-52 -138 -56 -133T-60 -118L-59 -106Q-58 -97 -53 -94T-39 -90H497Q508 -90 512 -93T515 -107L514 -120Q513 -130 507 -134T492 -138H-42Z" />
<glyph unicode="`" horiz-adv-x="161" d="M172 576Q151 576 140 580T116 600L69 660Q57 676 52 684T46 700Q46 710 58 714T96 718Q117 718 128 715T146 707T155 692L187 616Q191 607 193 601T195 590Q195 583 189 580T172 576Z" />
<glyph unicode="a" horiz-adv-x="545" d="M207 -6Q183 -6 154 3T99 36T57 102T40 210Q40 303 70 375T155 488T285 529Q332 529 364 510T412 475Q417 490 422 501T435 518T457 525H463Q478 525 483 518T487 494L448 107Q446 86 452 75T474 64Q488 64 497 67T511
71Q517 71 517 63Q517 62 517 53T513 27Q509 8 488 1T453 -6Q404 -6 383 22T363 102Q332 44 292 19T207 -6ZM226 67Q248 67 275 82T328 133T375 236L390 367Q392 381 393 393T397 417Q383 428 355 442T281 456Q229 456 195 421T144 331T127 216Q127 159 140 127T176
81T226 67Z" />
<glyph unicode="b" horiz-adv-x="569" d="M246 -6Q198 -6 164 13T113 48Q110 36 104 25T90 6T71 -2H63Q48 -2 43 4T38 20L113 730Q116 752 155 752H159Q180 752 188 747T197 730L165 425Q197 481 238 505T324 529Q351 529 383 520T445 488T492 423T511 316Q511
223 479 151T387 36T246 -6ZM238 67Q294 67 330 88T386 143T415 221T424 310Q424 367 408 398T365 443T305 456Q283 456 255 442T200 391T151 290L137 156Q136 143 134 130T129 106Q143 94 170 81T238 67Z" />
<glyph unicode="c" horiz-adv-x="485" d="M268 -6Q159 -6 103 44T47 206Q47 359 117 444T315 529Q351 529 383 523T435 507T455 484Q455 476 448 463T433 440T418 429Q417 429 414 430T407 433Q395 439 370 448T306 457Q224 457 181 394T137 212Q137 136 169 101T274
66Q309 66 337 75T380 92Q385 94 388 95T392 96Q399 96 405 87T415 67T420 47Q420 38 407 29T373 11T324 -1T268 -6Z" />
<glyph unicode="d" horiz-adv-x="565" d="M229 -6Q202 -6 170 3T108 36T60 102T41 210Q41 303 72 375T159 488T292 529Q345 529 377 515T428 484L455 730Q458 752 497 752H501Q524 752 532 746T539 726L475 107Q473 86 479 75T501 64Q515 64 524 67T538 71Q544
71 544 63Q544 62 544 53T540 27Q536 8 515 1T480 -6Q431 -6 411 21T390 102Q359 44 317 19T229 -6ZM248 67Q271 67 298 81T353 132T402 234L421 418Q406 430 378 443T304 456Q252 456 218 436T165 381T137 304T129 216Q129 131 160 99T248 67Z" />
<glyph unicode="e" horiz-adv-x="539" d="M315 529Q365 529 398 516T452 482T480 438T489 396Q489 344 467 309T405 252T318 222T219 213Q183 213 158 216T116 224L133 259V210Q133 155 151 124T202 79T279 66Q324 66 356 78T407 103T434 115Q437 115 439 114T441
103Q441 101 440 88T436 58Q433 40 414 28T367 9T314 -2T272 -6Q235 -6 196 1T122 30T67 93T46 201Q46 291 73 365T160 484T315 529ZM312 457Q241 457 195 412T138 285H209Q218 285 240 286T289 291T342 307T385 337T402 388Q402 419 378 438T312 457Z" />
<glyph unicode="f" horiz-adv-x="325" d="M110 -2Q89 -2 81 3T72 20L117 451H77Q57 451 60 478L61 493Q64 523 85 523H125L135 624Q141 682 165 710T220 747T278 756Q287 756 304 755T335 747T349 725Q349 720 345 708T335 687T323 677Q320 677 311 680T278 684Q255
684 239 672T218 614L209 523H292Q315 523 312 493L311 481Q308 451 288 451H201L156 20Q153 -2 114 -2H110Z" />
<glyph unicode="g" horiz-adv-x="546" d="M213 -212Q162 -212 124 -201T63 -173T41 -141Q41 -104 46 -95T55 -86Q61 -86 78 -99T128 -126T213 -140Q287 -140 326 -81T376 120L378 152L390 140Q359 64 312 32T214 0Q189 0 160 9T103 42T59 106T42 210Q42 303 73
375T160 488T292 529Q340 529 373 510T424 475Q429 490 434 501T447 518T469 525H475Q490 525 495 520T500 504L457 99Q445 -20 415 -88T335 -184T213 -212ZM233 73Q256 73 284 88T339 140T388 244L401 367Q403 381 405 393T409 417Q394 428 367 442T300 456Q249
456 216 436T163 381T137 304T129 216Q129 162 143 131T181 86T233 73Z" />
<glyph unicode="h" horiz-adv-x="565" d="M464 -6Q421 -6 395 20T376 112L401 369Q406 415 389 435T336 456Q309 456 278 443T218 396T167 297L138 20Q135 -2 96 -2H92Q72 -2 63 4T54 19L129 730Q132 752 171 752H175Q196 752 205 747T213 730L181 432Q221 485
266 507T356 529Q429 529 461 490T486 379L459 107Q457 86 463 75T485 64Q499 64 508 67T522 71Q528 71 528 63Q528 62 528 53T524 27Q520 8 499 1T464 -6Z" />
<glyph unicode="i" horiz-adv-x="265" d="M144 -6Q108 -6 83 19T65 109L104 503Q107 525 146 525H150Q171 525 180 520T188 503L149 107Q147 84 152 74T173 64Q187 64 196 67T210 71Q216 71 216 63Q216 62 216 53T212 27Q208 8 186 1T144 -6ZM154 595Q130 595
121 601T112 617L118 677Q119 687 130 693T165 699Q189 699 198 694T206 677L200 617Q198 595 154 595Z" />
<glyph unicode="j" horiz-adv-x="276" d="M11 -212Q-12 -212 -29 -207T-57 -192T-67 -171Q-67 -139 -64 -131T-56 -123Q-50 -123 -38 -131T0 -140Q23 -140 39 -126T60 -66L120 503Q123 525 162 525H166Q187 525 195 520T204 503L143 -74Q137 -132 115 -161T65
-201T11 -212ZM173 595Q149 595 140 601T131 617L137 677Q138 687 149 693T184 699Q208 699 217 694T225 677L219 617Q217 595 173 595Z" />
<glyph unicode="k" horiz-adv-x="521" d="M92 -2Q70 -2 62 4T54 20L129 730Q131 752 171 752H175Q197 752 205 747T213 730L166 283H170L394 511Q402 519 417 522T448 525H452Q486 525 486 513Q486 504 474 492L256 272L457 28Q464 18 464 14Q464 4 454 1T419
-2H415Q399 -2 384 0T362 11L166 248H162L138 20Q135 -2 96 -2H92Z" />
<glyph unicode="l" horiz-adv-x="297" d="M166 -6Q114 -6 94 25T79 125L141 730Q143 742 153 747T183 752H187Q208 752 217 747T225 730L161 107Q159 86 165 75T187 64Q201 64 210 67T224 71Q230 71 230 63Q230 62 230 53T226 27Q222 8 201 1T166 -6Z" />
<glyph unicode="m" horiz-adv-x="848" d="M739 -6Q690 -6 667 22T650 112L676 359Q681 410 660 433T601 456Q578 456 548 440T489 381T438 260L456 343L422 20Q420 -2 380 -2H376Q356 -2 347 4T338 21L374 369Q379 415 358 435T299 456Q279 456 253 444T200 399T151
307L121 20Q118 -2 79 -2H75Q55 -2 46 4T37 21Q42 64 48 116T59 223T70 325T78 408T81 457Q81 475 81 481T80 491Q80 502 92 507T119 513T136 514Q146 514 151 503T159 477T162 447Q162 434 161 414T158 377L145 398Q168 444 197 473T261 515T329 529Q394 529 424
499T460 421Q494 477 539 503T631 529Q704 529 736 490T761 379L734 107Q732 86 738 75T760 64Q774 64 783 67T797 71Q803 71 803 63Q803 62 803 53T799 27Q795 8 774 1T739 -6Z" />
<glyph unicode="n" horiz-adv-x="557" d="M460 -6Q417 -6 391 20T372 112L397 369Q402 415 381 435T322 456Q300 456 271 443T214 395T163 295L134 20Q132 -2 92 -2H88Q68 -2 59 4T51 21L83 321Q88 363 91 402T94 457Q94 475 94 481T93 491Q93 502 105 507T132
513T149 514Q164 514 169 494T175 447Q175 427 173 408T168 377L155 399Q184 447 216 475T283 516T352 529Q425 529 457 490T482 379L455 107Q453 86 459 75T481 64Q495 64 504 67T518 71Q524 71 524 63Q524 62 524 53T520 27Q516 8 495 1T460 -6Z" />
<glyph unicode="o" horiz-adv-x="569" d="M269 -6Q165 -6 109 53T52 219Q52 280 66 336T110 435T188 504T306 529Q407 529 462 470T517 302Q517 149 452 72T269 -6ZM274 66Q430 66 430 300Q430 377 396 417T295 457Q215 457 177 395T138 222Q138 146 173 106T274 66Z" />
<glyph unicode="p" horiz-adv-x="573" d="M60 -208Q40 -208 31 -202T22 -187L81 383Q84 412 85 431T87 457Q87 475 87 481T86 491Q86 502 98 507T125 513T142 514Q146 514 152 511T163 491T168 439Q168 424 167 407T163 378L152 395Q184 468 230 498T329 529Q356
529 388 520T450 487T497 423T516 318Q516 224 485 151T398 36T265 -6Q215 -6 181 13T130 47L106 -186Q103 -208 64 -208H60ZM253 66Q306 66 340 87T393 143T421 222T429 312Q429 367 413 398T370 443T310 456Q288 456 260 442T204 391T155 290L137 111Q149 101
179 84T253 66Z" />
<glyph unicode="q" horiz-adv-x="566" d="M400 -208Q379 -208 370 -203T362 -184L391 98Q360 43 318 19T232 -6Q205 -6 173 3T111 36T64 102T45 210Q45 303 77 375T169 488T310 529Q358 529 392 511T443 475Q447 488 452 499T466 517T485 525H493Q508 525 513
520T518 503L446 -186Q443 -208 404 -208H400ZM251 67Q274 67 301 81T356 132T405 233L418 347Q422 379 426 402T435 438L437 408Q430 415 415 426T375 447T318 456Q262 456 226 436T170 381T141 304T132 216Q132 159 148 127T191 81T251 67Z" />
<glyph unicode="r" horiz-adv-x="366" d="M100 -2Q80 -2 71 4T62 19L100 373Q102 390 102 403T103 428Q103 454 101 468T99 487Q99 501 116 507T166 514Q183 514 186 492T188 445Q211 483 245 506T319 529Q329 529 340 526T360 515T369 491Q369 479 366 467T358
446T344 437Q337 437 324 442T284 447Q263 447 235 433T183 380L147 21Q144 -2 104 -2H100Z" />
<glyph unicode="s" horiz-adv-x="413" d="M169 -6Q140 -6 115 -1T70 12T40 30T29 51Q29 68 33 84T45 100Q52 100 66 92T105 75T164 66Q210 66 241 88T272 147Q272 175 260 190T227 216T182 234Q154 244 125 261T75 307T55 379Q55 427 79 460T145 511T234 529Q253
529 275 527T316 518T348 504T361 483Q361 474 355 463T340 442T326 433Q319 433 299 445T236 457Q190 457 164 439T137 389Q137 364 152 348T190 322T236 301Q266 289 294 274T340 231T358 159Q358 113 335 76T269 16T169 -6Z" />
<glyph unicode="t" horiz-adv-x="342" d="M197 -6Q178 -6 157 -2T119 17T92 59T88 134L121 451H70Q50 451 53 478L55 493Q59 523 79 523H130L151 628Q153 640 161 645T189 650H192Q212 650 218 645T223 627L212 523H294Q307 523 311 516T313 493L312 481Q309 451
289 451H204L171 130Q167 90 180 77T217 64Q239 64 249 67T264 71Q270 71 270 63Q270 62 270 53T266 27Q262 8 241 1T197 -6Z" />
<glyph unicode="u" horiz-adv-x="557" d="M189 -6Q116 -6 84 34T59 144L95 503Q98 525 137 525H141Q162 525 171 520T179 503L144 154Q140 108 160 88T219 67Q241 67 270 81T328 132T379 237L407 503Q410 525 449 525H453Q474 525 483 520T491 503L452 107Q450
86 456 75T478 64Q492 64 501 67T515 71Q521 71 521 63Q521 62 521 53T517 27Q513 8 492 1T457 -6Q413 -6 389 21T364 122L385 132Q357 81 325 51T258 8T189 -6Z" />
<glyph unicode="v" horiz-adv-x="485" d="M197 -2Q182 -2 171 2T158 17L48 502Q42 525 91 525H96Q111 525 122 522T135 509L194 245Q202 207 209 168T224 91H229Q242 128 257 168T288 245L403 509Q407 518 415 521T440 525H454Q472 525 480 522T489 510Q489 503
485 494L273 14Q269 5 258 2T232 -2H197Z" />
<glyph unicode="w" horiz-adv-x="747" d="M178 -2Q163 -2 152 2T139 16L54 504Q51 525 99 525H108Q123 525 134 522T147 509L198 190Q203 163 205 140T208 110H212Q214 116 222 139T240 190L355 508Q359 518 370 521T396 525H407Q422 525 432 522T444 508L494
190Q499 161 502 138T505 110H509Q511 120 519 143T536 190L650 500Q655 514 663 519T693 525H704Q725 525 732 522T739 510Q739 503 735 494L550 14Q546 5 535 2T509 -2H476Q461 -2 451 1T438 14L395 309Q393 324 391 346T388 388H384Q382 377 375 355T360 309L252
14Q249 5 238 2T211 -2H178Z" />
<glyph unicode="x" horiz-adv-x="485" d="M37 -2Q22 -2 12 -1T-2 4T-7 13Q-7 23 2 33L189 268L63 490Q56 502 56 508Q58 516 68 520T104 525H113Q129 525 139 522T155 510L218 401Q232 376 239 361T251 334Q257 345 266 360T294 398L384 511Q390 519 402 522T428
525H434Q457 525 467 522T478 510Q478 502 469 490L294 270L431 33Q438 23 438 15Q437 7 427 3T390 -2H381Q365 -2 355 1T339 13L263 145Q249 171 243 184T234 206Q230 196 222 183T196 150L87 12Q80 4 69 1T43 -2H37Z" />
<glyph unicode="y" horiz-adv-x="481" d="M88 -208Q57 -208 57 -193Q57 -188 64 -175L187 62L197 -49L47 483Q45 492 43 498T41 508Q41 516 52 520T86 525H94Q109 525 119 522T132 509L208 227Q213 208 218 188T229 148H231Q239 167 248 187T266 227L400 509Q405
518 416 521T443 525H447Q467 525 476 521T485 509Q485 503 481 494L152 -187Q147 -198 134 -203T103 -208H88Z" />
<glyph unicode="z" horiz-adv-x="489" d="M31 0Q28 0 24 7T17 25T14 46Q14 57 19 62L352 451H96Q86 451 82 458T79 478L82 503Q83 511 89 517T105 523H455Q460 523 463 515T468 496T470 475Q470 466 462 456L134 72H409Q420 72 424 65T426 45L423 20Q422 12 417
6T401 0H31Z" />
<glyph unicode="{" horiz-adv-x="274" d="M126 -138Q114 -138 97 -130T69 -98T61 -26L81 181Q84 206 80 224T66 255T40 274Q31 278 25 284T19 303L21 326Q22 339 28 344T49 356Q83 370 95 402T113 485L131 652Q136 700 151 725T185 759T221 768H265Q278 768 285
764T290 743L288 732Q286 716 280 711T258 706H243Q222 706 214 690T202 645L184 469Q179 420 160 388T119 338T89 314Q96 311 112 297T142 255T151 185L134 -28Q132 -53 138 -64T160 -76H176Q185 -76 193 -80T201 -98L200 -112Q199 -128 192 -133T175 -138H126Z"
/>
<glyph unicode="|" horiz-adv-x="250" d="M183 770Q197 770 201 765T205 748L114 -118Q112 -140 88 -140H78Q65 -140 60 -134T56 -118L147 748Q149 770 173 770H183Z" />
<glyph unicode="}" horiz-adv-x="274" d="M7 -138Q-6 -138 -13 -134T-18 -113L-16 -102Q-14 -86 -8 -81T14 -76H29Q50 -76 58 -60T70 -15L88 161Q93 210 112 242T153 292T183 316Q176 320 160 334T131 375T121 445L138 658Q140 684 135 695T112 706H96Q87 706
79 710T71 728L72 742Q74 758 81 763T97 768H146Q158 768 175 760T204 728T211 656L191 449Q187 412 197 389T232 356Q241 352 247 346T253 327L251 304Q250 291 244 286T223 274Q189 261 177 228T159 145L141 -22Q136 -69 121 -94T87 -129T51 -138H7Z" />
<glyph unicode="~" horiz-adv-x="560" d="M100 214Q93 214 85 219T77 228Q77 233 79 239T85 253Q96 273 117 292T184 312Q220 312 255 302T323 282T383 271Q410 271 424 282T445 304T459 315Q464 315 474 310T484 299Q484 295 483 292T478 283Q459 246 435 231T368
215Q339 215 305 226T236 247T174 258Q150 258 136 247T114 225T100 214Z" />
<glyph unicode="&#xa0;" horiz-adv-x="240" />
<glyph unicode="&#xa1;" horiz-adv-x="294" d="M84 -179Q62 -179 54 -173T48 -155L122 299Q124 310 131 315T155 321H166Q182 321 188 316T194 299L146 -157Q143 -179 104 -179H84ZM161 415Q139 415 131 421T123 437L130 503Q132 525 172 525H189Q211 525 219
520T227 503L220 437Q217 415 178 415H161Z" />
<glyph unicode="&#xa2;" horiz-adv-x="470" d="M237 -71Q212 -71 213 -53L279 571Q281 589 306 589H311Q338 589 336 571L270 -53Q269 -71 242 -71H237ZM258 -6Q149 -6 93 44T37 206Q37 359 107 444T305 529Q341 529 373 523T425 507T445 484Q445 476 438 463T423
440T408 429Q407 429 404 430T397 433Q385 439 360 448T296 457Q214 457 171 394T127 212Q127 136 159 101T264 66Q299 66 327 75T370 92Q375 94 378 95T382 96Q389 96 395 87T405 67T410 47Q410 38 397 29T363 11T314 -1T258 -6Z" />
<glyph unicode="&#xa3;" horiz-adv-x="530" d="M48 0Q27 0 31 30L33 46Q35 62 49 70T80 86T113 111T131 159L149 339H98Q88 339 82 345T77 367L78 380Q80 399 86 405T103 411H157L166 498Q176 593 228 649T393 706Q408 706 425 705T456 701T480 691T490 674Q490
672 487 660T477 637T463 625Q457 625 441 629T401 634Q330 634 294 603T250 503L241 411H382Q393 411 398 406T402 383L401 369Q400 351 394 345T377 339H234L223 239Q216 176 202 142T172 94T143 72H426Q446 72 445 44L444 30Q443 14 437 7T419 0H48Z" />
<glyph unicode="&#xa4;" horiz-adv-x="550" d="M451 500Q461 500 468 493L471 490Q478 483 478 474Q478 462 465 450L438 426Q450 407 457 385T464 339Q464 305 451 273T416 217L438 193Q447 183 447 172Q447 164 439 156L435 152Q426 143 415 143Q410 143 405
146T395 154L373 178Q349 162 322 154T266 145Q237 145 211 153T165 178L138 153Q127 143 116 143Q112 143 108 146T100 153L97 156Q91 162 91 170Q91 180 104 193L130 217Q107 254 107 300Q107 335 118 367T153 427L131 450Q122 461 122 470Q122 480 131 489L133
491Q141 499 152 499Q157 499 163 497T173 489L195 465Q219 482 246 491T303 500Q332 500 358 491T404 466L430 490Q442 500 451 500ZM297 439Q263 439 234 421T186 374T168 309Q168 266 197 236T272 206Q306 206 335 223T383 270T402 333Q402 377 372 408T297
439Z" />
<glyph unicode="&#xa5;" horiz-adv-x="600" d="M101 355Q91 355 86 361T83 385L84 394Q86 410 92 416T109 422H283L316 402L349 422H532Q541 422 546 416T549 392L548 383Q547 367 541 361T524 355H101ZM83 192Q73 192 68 198T65 222L66 231Q68 247 74 253T91
259H514Q523 259 528 253T531 229L530 220Q529 204 523 198T506 192H83ZM268 -2Q246 -2 238 4T230 20L265 359L89 667Q83 676 83 683Q83 692 93 697T130 702H139Q155 702 165 699T181 687L319 441L513 688Q519 696 531 699T559 702H570Q583 702 590 700T602 695T606
686Q606 682 603 677T596 667L353 356L318 20Q316 -2 276 -2H268Z" />
<glyph unicode="&#xa6;" horiz-adv-x="250" d="M182 770Q195 770 199 765T204 748Q204 745 202 722T197 661T189 582T180 498T170 425Q167 403 144 403H134Q121 403 117 409T112 425Q112 429 114 453T121 513T130 591T139 675T146 748Q148 770 172 770H182ZM125
226Q138 226 142 221T147 204Q147 201 145 177T140 117T132 38T123 -45T113 -118Q110 -140 87 -140H77Q64 -140 60 -134T55 -118Q55 -114 57 -90T64 -30T73 48T82 131T89 204Q91 226 115 226H125Z" />
<glyph unicode="&#xa7;" horiz-adv-x="429" d="M171 -6Q142 -6 114 -1T68 15T50 36Q50 44 57 56T73 79T87 90Q92 90 113 78T174 66Q217 66 241 84T265 132Q265 156 250 168T210 189T160 206Q122 220 91 251T59 335Q59 378 76 413T125 474Q112 487 104 505T96 551Q96
596 118 631T181 686T277 706Q307 706 334 701T380 686T398 664Q398 657 391 644T375 621T361 610Q356 610 335 622T273 634Q231 634 207 616T183 569Q183 546 197 534T233 514T281 497Q309 488 333 472T373 430T389 367Q389 311 366 278T320 227Q334 214 343 196T352
149Q352 106 330 71T268 15T171 -6ZM238 266Q269 273 286 296T303 350Q303 378 290 393T255 418T209 435Q178 427 161 404T144 348Q144 310 172 294T238 266Z" />
<glyph unicode="&#xa8;" horiz-adv-x="239" d="M230 597Q207 597 197 602T188 619L194 675Q196 686 206 691T240 697Q263 697 273 692T282 675L276 619Q275 608 265 603T230 597ZM80 597Q56 597 47 602T38 619L44 675Q46 686 56 691T90 697Q113 697 123 692T132
675L126 619Q125 608 114 603T80 597Z" />
<glyph unicode="&#xa9;" horiz-adv-x="739" d="M369 708Q444 708 509 681T623 605T701 492T729 352Q729 277 701 212T624 98T509 21T369 -7Q294 -7 229 21T115 98T38 212T10 352Q10 427 38 491T115 604T229 680T369 708ZM387 560Q417 560 443 554T485 540T501
523Q501 518 498 510T489 495T480 488Q477 488 466 495T436 508T388 515Q316 515 282 475T247 347Q247 261 281 221T385 180Q416 180 437 187T471 202T488 210Q492 210 497 204T505 190T509 178Q509 170 493 160T448 143T385 135Q288 135 241 186T193 347Q193 560
387 560ZM369 660Q305 660 249 637T150 571T83 473T58 352Q58 288 82 232T149 133T248 66T369 41Q434 41 490 65T589 132T656 231T681 352Q681 417 657 472T590 570T491 636T369 660Z" />
<glyph unicode="&#xaa;" horiz-adv-x="319" d="M153 441Q135 441 113 450T75 482T59 549Q59 619 95 663T192 708Q217 708 235 699T260 681Q264 692 268 699T283 706H292Q305 706 304 691L284 497Q283 476 297 476Q305 476 309 477T316 479Q319 479 319 475Q319
475 319 470T317 457Q315 448 305 445T287 441Q263 441 252 454T242 498Q224 467 201 454T153 441ZM164 486Q181 486 204 502T241 563L247 622Q248 628 249 634T251 645Q244 650 231 656T195 663Q161 663 143 647T117 607T110 554Q110 515 126 501T164 486Z" />
<glyph unicode="&#xab;" horiz-adv-x="471" d="M188 61Q177 61 167 74L54 230Q49 238 47 243T44 255Q44 263 47 269T59 286L206 442Q218 454 229 454Q235 454 242 450T255 439T261 424Q261 413 251 402L125 258L220 113Q223 109 225 103T228 91Q228 87 222 80T207
67T188 61ZM360 61Q349 61 339 74L226 230Q216 244 216 255Q216 263 219 269T231 286L378 442Q390 454 401 454Q407 454 414 450T427 439T433 424Q433 413 423 402L297 258L392 113Q395 109 397 103T400 91Q400 87 394 80T379 67T360 61Z" />
<glyph unicode="&#xac;" horiz-adv-x="560" d="M459 77Q440 77 434 83T429 101L445 265H63Q54 265 49 271T44 293L45 306Q48 338 70 338H498Q528 338 525 306L503 99Q502 89 494 83T469 77H459Z" />
<glyph unicode="&#xad;" horiz-adv-x="320" d="M65 229Q55 229 50 235T45 257L46 271Q48 289 54 295T72 301H257Q266 301 272 295T276 273L275 259Q274 241 266 235T249 229H65Z" />
<glyph unicode="&#xae;" horiz-adv-x="739" d="M369 -6Q294 -6 229 22T115 99T38 213T10 353Q10 428 38 492T115 605T229 681T369 709Q444 709 509 682T623 606T701 493T729 353Q729 278 701 213T624 99T509 22T369 -6ZM369 42Q434 42 490 66T589 133T656 232T681
353Q681 418 657 473T590 571T491 637T369 661Q305 661 249 638T150 572T83 474T58 353Q58 289 82 233T149 134T248 67T369 42ZM273 144Q249 144 249 157V540Q249 558 267 558H366Q435 558 471 534T508 454Q508 416 490 392T440 355V351Q459 344 470 326T493 278L539
162Q540 159 540 157T541 153Q541 144 516 144H510Q491 144 487 153L442 269Q429 304 409 315T354 327H301V157Q301 144 277 144H273ZM301 372H379Q411 372 432 393T454 444Q454 480 432 496T375 513H301V372Z" />
<glyph unicode="&#xaf;" horiz-adv-x="253" d="M57 612Q37 612 40 642L41 652Q43 668 49 675T64 682H277Q297 682 294 652L293 642Q292 626 286 619T270 612H57Z" />
<glyph unicode="&#xb0;" horiz-adv-x="345" d="M213 706Q264 706 298 672T333 587Q333 545 313 512T260 460T186 441Q132 441 99 475T66 560Q66 601 85 634T137 686T213 706ZM209 661Q169 661 142 631T115 563Q115 531 136 509T190 486Q227 486 255 513T283 582Q283
615 262 638T209 661Z" />
<glyph unicode="&#xb1;" horiz-adv-x="560" d="M263 128Q247 128 241 133T236 150L254 327H79Q70 327 65 332T60 353L61 366Q63 383 68 388T85 394H261L280 573Q281 584 287 588T312 593H319Q335 593 342 588T347 571L328 394H503Q511 394 516 390T521 370L520
355Q519 339 511 333T495 327H321L302 148Q301 128 270 128H263ZM46 0Q37 0 32 5T27 26L28 39Q30 56 35 61T52 67H468Q476 67 481 63T486 43L485 28Q484 12 476 6T460 0H46Z" />
<glyph unicode="&#xb2;" horiz-adv-x="310" d="M51 350Q47 350 45 355T42 367Q42 376 44 381T50 391L216 575Q244 606 254 624T265 667Q265 692 248 706T198 720Q172 720 154 714T124 700T107 693Q103 693 97 703T92 720Q94 732 113 741T158 756T202 762Q255 762
285 739T316 675Q316 628 294 600T251 548L110 391H285Q290 391 293 388T295 374L294 366Q293 356 289 353T280 350H51Z" />
<glyph unicode="&#xb3;" horiz-adv-x="310" d="M163 344Q129 344 102 349T60 362T44 377Q44 382 48 389T58 401T68 407Q76 407 99 397T162 387Q196 387 224 406T252 476Q252 517 227 531T171 545H152Q142 545 142 563V569Q142 579 146 583T156 587H173Q204 587
223 600T251 631T260 665Q260 682 245 701T191 720Q151 720 134 711T109 701Q105 701 99 712T93 730Q93 740 111 747T154 758T196 762Q245 762 277 738T310 668Q310 630 289 606T240 573V570Q264 563 283 540T303 477Q303 417 264 381T163 344Z" />
<glyph unicode="&#xb4;" horiz-adv-x="161" d="M55 576Q45 576 40 579T34 588Q34 592 37 599T48 616L96 692Q102 701 108 706T127 715T161 718Q183 718 195 715T207 703Q207 696 200 686T176 660L115 600Q101 587 90 582T55 576Z" />
<glyph unicode="&#xb5;" horiz-adv-x="566" d="M87 -208Q67 -208 58 -202T49 -187L120 503Q123 525 162 525H166Q187 525 195 520T204 503L168 144Q164 106 185 87T244 67Q266 67 295 81T353 132T404 237L432 503Q435 525 474 525H478Q499 525 508 520T516 503L477
107Q475 87 481 78T496 68T513 66Q522 66 529 68T540 71Q546 71 546 64Q546 63 546 54T542 27Q538 8 517 1T482 -6Q433 -6 413 21T392 102Q357 50 313 22T215 -6Q190 -6 164 4T123 30L137 41Q144 -16 143 -72T133 -186Q130 -208 91 -208H87Z" />
<glyph unicode="&#xb6;" horiz-adv-x="515" d="M217 -173Q206 -173 203 -167T201 -149L241 247Q159 258 110 315T61 457Q61 531 96 585T189 670T313 700H526Q538 700 541 696T544 680L542 658Q541 638 520 638H484L401 -151Q400 -160 395 -166T379 -173H357Q337
-173 340 -149L422 638H344L261 -151Q260 -160 255 -166T239 -173H217Z" />
<glyph unicode="&#xb7;" horiz-adv-x="267" d="M140 309Q120 309 106 323T92 356Q92 381 107 396T147 412Q167 412 181 398T195 364Q195 338 179 324T140 309Z" />
<glyph unicode="&#xb8;" horiz-adv-x="231" d="M70 -210Q47 -210 20 -205T-26 -191T-45 -166Q-45 -158 -39 -150T-23 -141Q-11 -141 11 -151T66 -161Q95 -161 110 -151T126 -124Q126 -109 115 -103T90 -94T65 -89T54 -77Q54 -72 59 -56T81 0H128L104 -59L96 -54Q142
-54 166 -70T190 -121Q190 -161 158 -185T70 -210Z" />
<glyph unicode="&#xb9;" horiz-adv-x="310" d="M176 348Q169 348 162 351T156 362L193 711L119 694Q112 693 110 701T108 716Q108 727 110 730T119 735L228 763Q235 765 240 761T245 751L204 362Q203 355 196 352T181 348H176Z" />
<glyph unicode="&#xba;" horiz-adv-x="337" d="M193 441Q87 441 87 564Q87 634 119 670T213 706Q316 706 316 581Q316 441 193 441ZM196 486Q266 486 266 579Q266 661 207 661Q137 661 137 566Q137 486 196 486Z" />
<glyph unicode="&#xbb;" horiz-adv-x="471" d="M282 454Q293 454 303 441L416 285Q421 278 423 272T426 260Q426 253 423 246T411 229L264 73Q252 61 241 61Q236 61 228 65T215 76T209 91Q209 102 219 113L345 257L250 402Q247 407 245 413T242 424Q242 429 248
436T263 448T282 454ZM110 454Q121 454 131 441L244 285Q254 271 254 260Q254 253 251 246T239 229L92 73Q80 61 69 61Q63 61 56 65T43 76T37 91Q37 102 47 113L173 257L78 402Q75 407 73 413T70 424Q70 429 76 436T91 448T110 454Z" />
<glyph unicode="&#xbc;" horiz-adv-x="750" d="M150 288Q143 288 136 291T130 302L167 651L93 634Q86 633 84 641T82 656Q82 667 84 670T93 675L202 703Q209 705 214 701T219 691L178 302Q177 295 170 292T155 288H150ZM590 -2Q573 -2 574 11L583 96H410Q404 96
400 105T396 121Q396 128 400 133L618 401Q621 405 626 407T637 409H647Q665 409 663 396L635 137H675Q680 137 683 134T685 120L684 111Q683 96 669 96H631L622 11Q621 -2 604 -2H590ZM454 137H588L604 291Q606 302 606 306T611 329L609 330L454 137ZM121 -2Q99
-2 99 4Q99 8 104 15L590 695Q597 703 613 703H619Q632 703 636 702T640 697Q640 693 635 686L154 10Q149 3 142 1T125 -2H121Z" />
<glyph unicode="&#xbd;" horiz-adv-x="750" d="M150 288Q143 288 136 291T130 302L167 651L93 634Q86 633 84 641T82 656Q82 667 84 670T93 675L202 703Q209 705 214 701T219 691L178 302Q177 295 170 292T155 288H150ZM430 0Q426 0 424 5T421 17Q421 26 423 31T429
41L595 225Q623 256 633 274T644 317Q644 342 627 356T577 370Q551 370 533 364T503 350T486 343Q482 343 476 353T471 370Q473 382 492 391T537 406T581 412Q634 412 664 389T695 325Q695 278 673 250T630 198L489 41H664Q669 41 672 38T674 24L673 16Q672 6 668
3T659 0H430ZM98 -2Q76 -2 76 4Q76 8 81 15L567 695Q574 703 590 703H596Q609 703 613 702T617 697Q617 693 612 686L131 10Q126 3 119 1T102 -2H98Z" />
<glyph unicode="&#xbe;" horiz-adv-x="750" d="M145 284Q111 284 84 289T42 302T26 317Q26 322 30 329T40 341T50 347Q58 347 81 337T144 327Q178 327 206 346T234 416Q234 457 209 471T153 485H134Q124 485 124 503V509Q124 519 128 523T138 527H155Q186 527
205 540T233 571T242 605Q242 622 227 641T173 660Q133 660 116 651T91 641Q87 641 81 652T75 670Q75 680 93 687T136 698T178 702Q227 702 259 678T292 608Q292 570 271 546T222 513V510Q246 503 265 480T285 417Q285 357 246 321T145 284ZM590 -2Q573 -2 574
11L583 96H410Q404 96 400 105T396 121Q396 128 400 133L618 401Q621 405 626 407T637 409H647Q665 409 663 396L635 137H675Q680 137 683 134T685 120L684 111Q683 96 669 96H631L622 11Q621 -2 604 -2H590ZM454 137H588L604 291Q606 302 606 306T611 329L609
330L454 137ZM143 -2Q121 -2 121 4Q121 8 126 15L612 695Q619 703 635 703H641Q654 703 658 702T662 697Q662 693 657 686L176 10Q171 3 164 1T147 -2H143Z" />
<glyph unicode="&#xbf;" horiz-adv-x="425" d="M288 321Q303 321 309 316T316 300Q316 268 287 224T213 139Q165 96 134 60T102 -20Q102 -109 218 -109Q250 -109 276 -101T320 -84T346 -75Q351 -75 357 -84T367 -104T372 -124Q372 -137 355 -148T312 -166T254
-178T194 -183Q132 -183 90 -163T27 -108T6 -33Q6 10 25 45T75 110T137 168Q172 199 200 231T238 301Q240 311 248 316T273 321H288ZM310 525Q332 525 339 520T347 503L340 437Q338 415 298 415H281Q259 415 251 421T243 437L250 503Q253 525 293 525H310Z" />
<glyph unicode="&#xc0;" horiz-adv-x="613" d="M28 -2Q-13 -2 -13 14Q-13 19 -8 29L297 686Q301 695 311 698T338 702H367Q382 702 393 699T406 686L574 28Q575 25 575 23T575 18Q575 10 566 4T531 -2H523Q508 -2 497 1T484 14L442 178H148L74 14Q70 5 59 2T33
-2H28ZM184 254H423L350 552Q346 566 345 581T344 610H342Q338 596 333 581T321 552L184 254ZM408 752Q384 752 371 756T337 773L286 806Q263 821 257 828T250 843Q250 854 264 859T305 864Q337 864 353 858T389 829L427 784Q432 779 434 775T436 766Q436 759 428
756T408 752Z" />
<glyph unicode="&#xc1;" horiz-adv-x="613" d="M28 -2Q-13 -2 -13 14Q-13 19 -8 29L297 686Q301 695 311 698T338 702H367Q382 702 393 699T406 686L574 28Q575 25 575 23T575 18Q575 10 566 4T531 -2H523Q508 -2 497 1T484 14L442 178H148L74 14Q70 5 59 2T33
-2H28ZM184 254H423L350 552Q346 566 345 581T344 610H342Q338 596 333 581T321 552L184 254ZM297 752Q272 752 272 764Q272 769 276 774T285 784L345 841Q359 855 375 859T423 864Q446 864 460 860T475 847Q475 838 466 830T430 806L373 773Q351 760 337 756T297
752Z" />
<glyph unicode="&#xc2;" horiz-adv-x="613" d="M28 -2Q-13 -2 -13 14Q-13 19 -8 29L297 686Q301 695 311 698T338 702H367Q382 702 393 699T406 686L574 28Q575 25 575 23T575 18Q575 10 566 4T531 -2H523Q508 -2 497 1T484 14L442 178H148L74 14Q70 5 59 2T33
-2H28ZM184 254H423L350 552Q346 566 345 581T344 610H342Q338 596 333 581T321 552L184 254ZM245 742Q236 742 232 745T227 752Q227 757 230 762T244 777L301 832Q314 845 325 849T357 854H378Q398 854 408 850T429 832L474 779Q487 763 487 753Q487 749 482 746T464
742Q454 742 443 745T424 755L362 799L293 757Q281 750 269 746T245 742Z" />
<glyph unicode="&#xc3;" horiz-adv-x="613" d="M28 -2Q-13 -2 -13 14Q-13 19 -8 29L297 686Q301 695 311 698T338 702H367Q382 702 393 699T406 686L574 28Q575 25 575 23T575 18Q575 10 566 4T531 -2H523Q508 -2 497 1T484 14L442 178H148L74 14Q70 5 59 2T33
-2H28ZM184 254H423L350 552Q346 566 345 581T344 610H342Q338 596 333 581T321 552L184 254ZM439 756Q408 756 379 766T324 787T277 797Q256 797 244 788T223 768T206 758Q199 758 189 764T178 777Q178 779 179 782T183 793Q197 824 222 842T283 861Q312 861 341
851T398 829T446 818Q470 818 483 829T506 850T522 861Q527 861 533 858T543 851T548 842Q548 841 547 837T543 827Q527 792 501 774T439 756Z" />
<glyph unicode="&#xc4;" horiz-adv-x="613" d="M28 -2Q-13 -2 -13 14Q-13 19 -8 29L297 686Q301 695 311 698T338 702H367Q382 702 393 699T406 686L574 28Q575 25 575 23T575 18Q575 10 566 4T531 -2H523Q508 -2 497 1T484 14L442 178H148L74 14Q70 5 59 2T33
-2H28ZM184 254H423L350 552Q346 566 345 581T344 610H342Q338 596 333 581T321 552L184 254ZM438 758Q417 758 408 762T398 771T396 780L402 836Q403 839 404 844T415 853T448 858Q469 858 477 855T488 846T490 836L484 780Q484 776 482 771T470 762T438 758ZM278
758Q258 758 249 761T238 770T236 780L242 836Q243 840 245 845T257 854T288 858Q310 858 318 854T329 845T330 836L324 780Q324 778 322 773T311 763T278 758Z" />
<glyph unicode="&#xc5;" horiz-adv-x="613" d="M28 -2Q-13 -2 -13 14Q-13 19 -8 29L297 686Q301 695 311 698T338 702H367Q382 702 393 699T406 686L574 28Q575 25 575 23T575 18Q575 10 566 4T531 -2H523Q508 -2 497 1T484 14L442 178H148L74 14Q70 5 59 2T33
-2H28ZM184 254H423L350 552Q346 566 345 581T344 610H342Q338 596 333 581T321 552L184 254ZM358 747Q324 747 303 769T281 824Q281 862 308 889T374 916Q407 916 429 894T451 838Q451 800 424 774T358 747ZM361 792Q378 792 390 805T403 836Q403 851 394 861T370
871Q354 871 342 858T329 827Q329 812 338 802T361 792Z" />
<glyph unicode="&#xc6;" horiz-adv-x="915" d="M-9 -2Q-31 -2 -39 2T-47 13Q-47 21 -41 31L347 673Q363 700 392 700H838Q849 700 855 696T860 675L858 654Q857 636 849 630T830 624H468L494 396H775Q786 396 792 392T797 371L795 350Q794 332 786 326T767 320H502L530
76H774Q785 76 791 72T796 51L794 30Q793 12 785 6T766 0H478Q462 0 455 7T445 29L429 178H134L37 14Q32 6 21 2T-4 -2H-9ZM180 253H419L389 552V610H387L360 552L180 253Z" />
<glyph unicode="&#xc7;" horiz-adv-x="619" d="M327 -6Q181 -6 110 62T38 275Q38 484 132 595T404 706Q438 706 469 701T525 688T567 670Q575 666 581 659T588 645Q588 639 584 629T573 610T560 593T548 586Q543 586 526 597T477 619T398 630Q266 630 198 544T130
285Q130 175 180 123T335 70Q387 70 424 82T483 107T512 120Q518 120 525 110T536 87T541 67Q541 60 532 51T506 33Q487 23 460 14T398 0T327 -6ZM272 -210Q248 -210 222 -205T176 -191T157 -166Q157 -158 163 -150T179 -141Q191 -141 213 -151T268 -161Q297 -161
312 -151T328 -124Q328 -109 317 -103T292 -94T267 -89T256 -77Q256 -72 261 -56T283 0H330L306 -59L298 -54Q344 -54 368 -70T392 -121Q392 -161 360 -185T272 -210Z" />
<glyph unicode="&#xc8;" horiz-adv-x="546" d="M72 0Q58 0 51 6T45 29L112 669Q115 700 145 700H497Q508 700 512 693T516 672L515 657Q514 639 507 632T489 624H195L171 396H433Q444 396 448 389T452 368L451 353Q450 335 443 328T425 320H163L138 76H433Q444
76 448 69T452 48L451 33Q450 15 443 8T425 0H72ZM376 752Q352 752 339 756T305 773L254 806Q231 821 225 828T218 843Q218 854 232 859T273 864Q305 864 321 858T357 829L395 784Q400 779 402 775T404 766Q404 759 396 756T376 752Z" />
<glyph unicode="&#xc9;" horiz-adv-x="546" d="M72 0Q58 0 51 6T45 29L112 669Q115 700 145 700H497Q508 700 512 693T516 672L515 657Q514 639 507 632T489 624H195L171 396H433Q444 396 448 389T452 368L451 353Q450 335 443 328T425 320H163L138 76H433Q444
76 448 69T452 48L451 33Q450 15 443 8T425 0H72ZM265 752Q240 752 240 764Q240 769 244 774T253 784L313 841Q327 855 343 859T391 864Q414 864 428 860T443 847Q443 838 434 830T398 806L341 773Q319 760 305 756T265 752Z" />
<glyph unicode="&#xca;" horiz-adv-x="546" d="M72 0Q58 0 51 6T45 29L112 669Q115 700 145 700H497Q508 700 512 693T516 672L515 657Q514 639 507 632T489 624H195L171 396H433Q444 396 448 389T452 368L451 353Q450 335 443 328T425 320H163L138 76H433Q444
76 448 69T452 48L451 33Q450 15 443 8T425 0H72ZM213 742Q204 742 200 745T195 752Q195 757 198 762T212 777L269 832Q282 845 293 849T325 854H346Q366 854 376 850T397 832L442 779Q455 763 455 753Q455 749 450 746T432 742Q422 742 411 745T392 755L330 799L261
757Q249 750 237 746T213 742Z" />
<glyph unicode="&#xcb;" horiz-adv-x="546" d="M72 0Q58 0 51 6T45 29L112 669Q115 700 145 700H497Q508 700 512 693T516 672L515 657Q514 639 507 632T489 624H195L171 396H433Q444 396 448 389T452 368L451 353Q450 335 443 328T425 320H163L138 76H433Q444
76 448 69T452 48L451 33Q450 15 443 8T425 0H72ZM406 758Q385 758 376 762T366 771T364 780L370 836Q371 839 372 844T383 853T416 858Q437 858 445 855T456 846T458 836L452 780Q452 776 450 771T438 762T406 758ZM246 758Q226 758 217 761T206 770T204 780L210
836Q211 840 213 845T225 854T256 858Q278 858 286 854T297 845T298 836L292 780Q292 778 290 773T279 763T246 758Z" />
<glyph unicode="&#xcc;" horiz-adv-x="283" d="M111 -2Q96 -2 88 0T76 8T74 21L142 680Q144 702 184 702H192Q207 702 215 700T226 692T230 680L161 20Q159 -2 119 -2H111ZM236 752Q212 752 199 756T165 773L114 806Q91 821 85 828T78 843Q78 854 92 859T133 864Q165
864 181 858T217 829L255 784Q260 779 262 775T264 766Q264 759 256 756T236 752Z" />
<glyph unicode="&#xcd;" horiz-adv-x="283" d="M111 -2Q96 -2 88 0T76 8T74 21L142 680Q144 702 184 702H192Q207 702 215 700T226 692T230 680L161 20Q159 -2 119 -2H111ZM125 752Q100 752 100 764Q100 769 104 774T113 784L173 841Q187 855 203 859T251 864Q274
864 288 860T303 847Q303 838 294 830T258 806L201 773Q179 760 165 756T125 752Z" />
<glyph unicode="&#xce;" horiz-adv-x="283" d="M111 -2Q96 -2 88 0T76 8T74 21L142 680Q144 702 184 702H192Q207 702 215 700T226 692T230 680L161 20Q159 -2 119 -2H111ZM73 742Q64 742 60 745T55 752Q55 757 58 762T72 777L129 832Q142 845 153 849T185 854H206Q226
854 236 850T257 832L302 779Q315 763 315 753Q315 749 310 746T292 742Q282 742 271 745T252 755L190 799L121 757Q109 750 97 746T73 742Z" />
<glyph unicode="&#xcf;" horiz-adv-x="283" d="M111 -2Q96 -2 88 0T76 8T74 21L142 680Q144 702 184 702H192Q207 702 215 700T226 692T230 680L161 20Q159 -2 119 -2H111ZM266 758Q245 758 236 762T226 771T224 780L230 836Q231 839 232 844T243 853T276 858Q297
858 305 855T316 846T318 836L312 780Q312 776 310 771T298 762T266 758ZM106 758Q86 758 77 761T66 770T64 780L70 836Q71 840 73 845T85 854T116 858Q138 858 146 854T157 845T158 836L152 780Q152 778 150 773T139 763T106 758Z" />
<glyph unicode="&#xd0;" horiz-adv-x="695" d="M29 320Q19 320 14 327T10 349L12 367Q14 384 20 390T37 396H336Q359 396 356 364L355 352Q354 336 349 328T332 320H29ZM87 0Q73 0 66 5T60 24L127 670Q130 700 160 700H375Q454 700 516 673T616 583T653 415Q653
299 624 219T545 91T432 22T302 0H87ZM153 76H303Q352 76 398 93T481 149T540 250T562 401Q562 484 536 533T463 603T360 624H210L153 76Z" />
<glyph unicode="&#xd1;" horiz-adv-x="719" d="M100 -2Q78 -2 70 4T62 20L131 680Q133 702 173 702H194Q211 702 219 698T234 683L481 250Q500 217 510 198T524 167T533 145L537 146Q537 163 538 182T542 232L589 680Q591 702 631 702H638Q660 702 668 697T676
680L607 20Q605 -2 565 -2H545Q531 -2 523 1T511 12L249 472Q227 510 219 530T206 565L202 564Q203 548 202 526T198 484L149 20Q147 -2 107 -2H100ZM478 756Q447 756 418 766T363 787T316 797Q295 797 283 788T262 768T245 758Q238 758 228 764T217 777Q217 779
218 782T222 793Q236 824 261 842T322 861Q351 861 380 851T437 829T485 818Q509 818 522 829T545 850T561 861Q566 861 572 858T582 851T587 842Q587 841 586 837T582 827Q566 792 540 774T478 756Z" />
<glyph unicode="&#xd2;" horiz-adv-x="731" d="M345 -6Q212 -6 137 71T62 312Q62 389 78 459T133 585T237 673T402 706Q488 706 552 673T651 569T687 386Q687 264 647 176T530 41T345 -6ZM352 70Q466 70 530 152T595 379Q595 511 541 570T394 630Q273 630 213
549T153 324Q153 191 206 131T352 70ZM461 752Q437 752 424 756T390 773L339 806Q316 821 310 828T303 843Q303 854 317 859T358 864Q390 864 406 858T442 829L480 784Q485 779 487 775T489 766Q489 759 481 756T461 752Z" />
<glyph unicode="&#xd3;" horiz-adv-x="731" d="M345 -6Q212 -6 137 71T62 312Q62 389 78 459T133 585T237 673T402 706Q488 706 552 673T651 569T687 386Q687 264 647 176T530 41T345 -6ZM352 70Q466 70 530 152T595 379Q595 511 541 570T394 630Q273 630 213
549T153 324Q153 191 206 131T352 70ZM338 752Q313 752 313 764Q313 769 317 774T326 784L386 841Q400 855 416 859T464 864Q487 864 501 860T516 847Q516 838 507 830T471 806L414 773Q392 760 378 756T338 752Z" />
<glyph unicode="&#xd4;" horiz-adv-x="731" d="M345 -6Q212 -6 137 71T62 312Q62 389 78 459T133 585T237 673T402 706Q488 706 552 673T651 569T687 386Q687 264 647 176T530 41T345 -6ZM352 70Q466 70 530 152T595 379Q595 511 541 570T394 630Q273 630 213
549T153 324Q153 191 206 131T352 70ZM286 742Q277 742 273 745T268 752Q268 757 271 762T285 777L342 832Q355 845 366 849T398 854H419Q439 854 449 850T470 832L515 779Q528 763 528 753Q528 749 523 746T505 742Q495 742 484 745T465 755L403 799L334 757Q322
750 310 746T286 742Z" />
<glyph unicode="&#xd5;" horiz-adv-x="731" d="M345 -6Q212 -6 137 71T62 312Q62 389 78 459T133 585T237 673T402 706Q488 706 552 673T651 569T687 386Q687 264 647 176T530 41T345 -6ZM352 70Q466 70 530 152T595 379Q595 511 541 570T394 630Q273 630 213
549T153 324Q153 191 206 131T352 70ZM480 756Q449 756 420 766T365 787T318 797Q297 797 285 788T264 768T247 758Q240 758 230 764T219 777Q219 779 220 782T224 793Q238 824 263 842T324 861Q353 861 382 851T439 829T487 818Q511 818 524 829T547 850T563 861Q568
861 574 858T584 851T589 842Q589 841 588 837T584 827Q568 792 542 774T480 756Z" />
<glyph unicode="&#xd6;" horiz-adv-x="731" d="M345 -6Q212 -6 137 71T62 312Q62 389 78 459T133 585T237 673T402 706Q488 706 552 673T651 569T687 386Q687 264 647 176T530 41T345 -6ZM352 70Q466 70 530 152T595 379Q595 511 541 570T394 630Q273 630 213
549T153 324Q153 191 206 131T352 70ZM491 758Q470 758 461 762T451 771T449 780L455 836Q456 839 457 844T468 853T501 858Q522 858 531 855T542 846T543 836L537 780Q537 776 535 771T523 762T491 758ZM331 758Q311 758 302 761T291 770T289 780L295 836Q296
840 298 845T310 854T341 858Q363 858 371 854T382 845T383 836L377 780Q377 778 375 773T364 763T331 758Z" />
<glyph unicode="&#xd7;" horiz-adv-x="560" d="M71 0Q65 0 56 8T41 25T34 39Q34 48 44 56L233 228L80 399Q73 406 73 416Q73 421 82 430T101 446T118 454Q125 454 132 447L285 275L473 446Q481 454 488 454Q494 454 502 447T517 430T524 413Q524 407 516 399L327
228L480 56Q485 50 485 42Q485 36 476 26T456 8T442 0Q435 0 427 8L275 181L85 8Q77 0 71 0Z" />
<glyph unicode="&#xd8;" horiz-adv-x="731" d="M19 1Q16 1 11 4T3 12T-1 21Q-1 27 7 35L669 695Q676 702 683 702Q688 702 692 699T700 692T703 683Q703 676 696 669L33 9Q25 1 19 1ZM345 -6Q212 -6 137 71T62 312Q62 389 78 459T133 585T237 673T402 706Q488
706 552 673T651 569T687 386Q687 264 647 176T530 41T345 -6ZM352 70Q466 70 530 152T595 379Q595 511 541 570T394 630Q273 630 213 549T153 324Q153 191 206 131T352 70Z" />
<glyph unicode="&#xd9;" horiz-adv-x="712" d="M329 -6Q199 -6 134 49T80 213L128 680Q130 702 171 702H179Q201 702 209 697T216 680L167 206Q161 145 201 108T337 70Q425 70 478 110T538 221L586 680Q588 702 629 702H637Q659 702 667 697T674 680L626 224Q615
116 538 55T329 -6ZM460 752Q436 752 423 756T389 773L338 806Q315 821 309 828T302 843Q302 854 316 859T357 864Q389 864 405 858T441 829L479 784Q484 779 486 775T488 766Q488 759 480 756T460 752Z" />
<glyph unicode="&#xda;" horiz-adv-x="712" d="M329 -6Q199 -6 134 49T80 213L128 680Q130 702 171 702H179Q201 702 209 697T216 680L167 206Q161 145 201 108T337 70Q425 70 478 110T538 221L586 680Q588 702 629 702H637Q659 702 667 697T674 680L626 224Q615
116 538 55T329 -6ZM349 752Q324 752 324 764Q324 769 328 774T337 784L397 841Q411 855 427 859T475 864Q498 864 512 860T527 847Q527 838 518 830T482 806L425 773Q403 760 389 756T349 752Z" />
<glyph unicode="&#xdb;" horiz-adv-x="712" d="M329 -6Q199 -6 134 49T80 213L128 680Q130 702 171 702H179Q201 702 209 697T216 680L167 206Q161 145 201 108T337 70Q425 70 478 110T538 221L586 680Q588 702 629 702H637Q659 702 667 697T674 680L626 224Q615
116 538 55T329 -6ZM297 742Q288 742 284 745T279 752Q279 757 282 762T296 777L353 832Q366 845 377 849T409 854H430Q450 854 460 850T481 832L526 779Q539 763 539 753Q539 749 534 746T516 742Q506 742 495 745T476 755L414 799L345 757Q333 750 321 746T297
742Z" />
<glyph unicode="&#xdc;" horiz-adv-x="712" d="M329 -6Q199 -6 134 49T80 213L128 680Q130 702 171 702H179Q201 702 209 697T216 680L167 206Q161 145 201 108T337 70Q425 70 478 110T538 221L586 680Q588 702 629 702H637Q659 702 667 697T674 680L626 224Q615
116 538 55T329 -6ZM490 758Q469 758 460 762T450 771T448 780L454 836Q455 839 456 844T467 853T500 858Q521 858 530 855T541 846T542 836L536 780Q536 776 534 771T522 762T490 758ZM330 758Q310 758 301 761T290 770T288 780L294 836Q295 840 297 845T309 854T340
858Q362 858 370 854T381 845T382 836L376 780Q376 778 374 773T363 763T330 758Z" />
<glyph unicode="&#xdd;" horiz-adv-x="559" d="M248 -2Q226 -2 218 4T210 20L245 359L69 667Q63 676 63 683Q63 692 73 697T110 702H119Q135 702 145 699T161 687L299 441L493 688Q499 696 511 699T539 702H550Q563 702 570 700T582 695T586 686Q586 682 583 677T576
667L333 356L298 20Q296 -2 256 -2H248ZM272 752Q247 752 247 764Q247 769 251 774T260 784L320 841Q334 855 350 859T398 864Q421 864 435 860T450 847Q450 838 441 830T405 806L348 773Q326 760 312 756T272 752Z" />
<glyph unicode="&#xde;" horiz-adv-x="567" d="M88 -2Q66 -2 58 4T50 20L119 680Q120 690 130 696T161 702H169Q191 702 199 697T207 680L196 578H321Q436 578 491 533T546 397Q546 297 484 237T309 176H154L138 20Q137 10 126 4T96 -2H88ZM162 252H318Q383 252
418 289T454 386Q454 444 419 473T310 502H188L162 252Z" />
<glyph unicode="&#xdf;" horiz-adv-x="554" d="M92 -2Q70 -2 62 4T55 23L107 521Q113 576 142 617T218 682T324 706Q375 706 416 693T481 647T505 561Q505 529 492 495T452 432T386 387V384Q442 371 470 329T499 230Q499 156 466 105T378 27T261 0H227Q207 0 210
27L213 52Q214 61 219 66T235 72H270Q307 72 339 90T391 142T411 225Q411 279 379 309T298 340H263Q244 340 246 367L248 389Q249 399 255 405T271 412H283Q318 412 348 430T396 478T415 545Q415 581 400 600T362 627T314 634Q263 634 230 604T191 521L138 20Q135
-2 96 -2H92Z" />
<glyph unicode="&#xe0;" horiz-adv-x="545" d="M207 -6Q183 -6 154 3T99 36T57 102T40 210Q40 303 70 375T155 488T285 529Q332 529 364 510T412 475Q417 490 422 501T435 518T457 525H463Q478 525 483 518T487 494L448 107Q446 86 452 75T474 64Q488 64 497 67T511
71Q517 71 517 63Q517 62 517 53T513 27Q509 8 488 1T453 -6Q404 -6 383 22T363 102Q332 44 292 19T207 -6ZM226 67Q248 67 275 82T328 133T375 236L390 367Q392 381 393 393T397 417Q383 428 355 442T281 456Q229 456 195 421T144 331T127 216Q127 159 140 127T176
81T226 67ZM342 576Q321 576 310 580T286 600L239 660Q227 676 222 684T216 700Q216 710 228 714T266 718Q287 718 298 715T316 707T325 692L357 616Q361 607 363 601T365 590Q365 583 359 580T342 576Z" />
<glyph unicode="&#xe1;" horiz-adv-x="545" d="M207 -6Q183 -6 154 3T99 36T57 102T40 210Q40 303 70 375T155 488T285 529Q332 529 364 510T412 475Q417 490 422 501T435 518T457 525H463Q478 525 483 518T487 494L448 107Q446 86 452 75T474 64Q488 64 497 67T511
71Q517 71 517 63Q517 62 517 53T513 27Q509 8 488 1T453 -6Q404 -6 383 22T363 102Q332 44 292 19T207 -6ZM226 67Q248 67 275 82T328 133T375 236L390 367Q392 381 393 393T397 417Q383 428 355 442T281 456Q229 456 195 421T144 331T127 216Q127 159 140 127T176
81T226 67ZM260 576Q250 576 245 579T239 588Q239 592 242 599T253 616L301 692Q307 701 313 706T332 715T366 718Q388 718 400 715T412 703Q412 696 405 686T381 660L320 600Q306 587 295 582T260 576Z" />
<glyph unicode="&#xe2;" horiz-adv-x="545" d="M207 -6Q183 -6 154 3T99 36T57 102T40 210Q40 303 70 375T155 488T285 529Q332 529 364 510T412 475Q417 490 422 501T435 518T457 525H463Q478 525 483 518T487 494L448 107Q446 86 452 75T474 64Q488 64 497 67T511
71Q517 71 517 63Q517 62 517 53T513 27Q509 8 488 1T453 -6Q404 -6 383 22T363 102Q332 44 292 19T207 -6ZM226 67Q248 67 275 82T328 133T375 236L390 367Q392 381 393 393T397 417Q383 428 355 442T281 456Q229 456 195 421T144 331T127 216Q127 159 140 127T176
81T226 67ZM208 576Q196 576 190 579T184 588Q184 594 198 616L246 692Q254 705 266 711T311 718H327Q357 718 369 712T386 692L418 616Q421 609 423 603T426 591Q426 576 400 576Q381 576 373 583T357 600L314 661L257 600Q247 590 238 583T208 576Z" />
<glyph unicode="&#xe3;" horiz-adv-x="545" d="M207 -6Q183 -6 154 3T99 36T57 102T40 210Q40 303 70 375T155 488T285 529Q332 529 364 510T412 475Q417 490 422 501T435 518T457 525H463Q478 525 483 518T487 494L448 107Q446 86 452 75T474 64Q488 64 497 67T511
71Q517 71 517 63Q517 62 517 53T513 27Q509 8 488 1T453 -6Q404 -6 383 22T363 102Q332 44 292 19T207 -6ZM226 67Q248 67 275 82T328 133T375 236L390 367Q392 381 393 393T397 417Q383 428 355 442T281 456Q229 456 195 421T144 331T127 216Q127 159 140 127T176
81T226 67ZM168 589Q163 589 151 595T139 609Q139 613 141 617T144 624Q161 658 186 675T245 692Q270 692 292 683T334 665T372 655Q399 655 413 665T435 686T450 696Q455 696 467 689T479 676Q479 675 478 672T474 661Q459 627 434 610T373 593Q352 593 327 602T280
621T243 630Q218 630 205 620T184 600T168 589Z" />
<glyph unicode="&#xe4;" horiz-adv-x="545" d="M207 -6Q183 -6 154 3T99 36T57 102T40 210Q40 303 70 375T155 488T285 529Q332 529 364 510T412 475Q417 490 422 501T435 518T457 525H463Q478 525 483 518T487 494L448 107Q446 86 452 75T474 64Q488 64 497 67T511
71Q517 71 517 63Q517 62 517 53T513 27Q509 8 488 1T453 -6Q404 -6 383 22T363 102Q332 44 292 19T207 -6ZM226 67Q248 67 275 82T328 133T375 236L390 367Q392 381 393 393T397 417Q383 428 355 442T281 456Q229 456 195 421T144 331T127 216Q127 159 140 127T176
81T226 67ZM386 597Q363 597 353 602T344 619L350 675Q352 686 362 691T396 697Q419 697 429 692T438 675L432 619Q431 608 421 603T386 597ZM236 597Q212 597 203 602T194 619L200 675Q202 686 212 691T246 697Q269 697 279 692T288 675L282 619Q281 608 270 603T236
597Z" />
<glyph unicode="&#xe5;" horiz-adv-x="545" d="M207 -6Q183 -6 154 3T99 36T57 102T40 210Q40 303 70 375T155 488T285 529Q332 529 364 510T412 475Q417 490 422 501T435 518T457 525H463Q478 525 483 518T487 494L448 107Q446 86 452 75T474 64Q488 64 497 67T511
71Q517 71 517 63Q517 62 517 53T513 27Q509 8 488 1T453 -6Q404 -6 383 22T363 102Q332 44 292 19T207 -6ZM226 67Q248 67 275 82T328 133T375 236L390 367Q392 381 393 393T397 417Q383 428 355 442T281 456Q229 456 195 421T144 331T127 216Q127 159 140 127T176
81T226 67ZM303 570Q269 570 248 591T227 645Q227 671 239 692T273 726T321 739Q354 739 375 718T397 663Q397 638 384 617T350 583T303 570ZM308 617Q324 617 336 629T348 658Q348 673 339 682T315 692Q300 692 288 680T276 650Q276 636 285 627T308 617Z" />
<glyph unicode="&#xe6;" horiz-adv-x="819" d="M185 -6Q118 -6 74 25T29 123Q29 179 56 212T129 263T229 288T339 296Q351 362 383 414Q374 433 351 445T285 457Q240 457 206 447T151 426T125 415Q118 415 111 425T100 446T95 464Q95 477 122 492T194 518T290
529Q394 529 440 478Q472 502 513 515T606 529Q653 529 685 516T737 483T765 440T774 396Q774 343 751 310T686 258T586 233T458 226Q448 226 439 226T418 226Q415 171 429 136T476 83T564 66Q609 66 641 78T692 103T719 115Q722 115 724 114T726 103Q726 102 726
95T724 79T721 58Q718 40 699 28T652 9T599 -2T557 -6Q510 -6 460 6T375 58Q353 40 322 26T255 3T185 -6ZM197 67Q237 67 274 81T343 117Q336 139 333 167T331 226Q306 226 271 224T201 213T143 185T120 132Q120 100 138 84T197 67ZM425 298Q559 296 623 316T687
388Q687 420 664 438T597 457Q542 457 507 436T453 378T425 298Z" />
<glyph unicode="&#xe7;" horiz-adv-x="485" d="M268 -6Q159 -6 103 44T47 206Q47 359 117 444T315 529Q351 529 383 523T435 507T455 484Q455 476 448 463T433 440T418 429Q417 429 414 430T407 433Q395 439 370 448T306 457Q224 457 181 394T137 212Q137 136
169 101T274 66Q309 66 337 75T380 92Q385 94 388 95T392 96Q399 96 405 87T415 67T420 47Q420 38 407 29T373 11T324 -1T268 -6ZM208 -210Q185 -210 158 -205T112 -191T93 -166Q93 -158 99 -150T115 -141Q127 -141 149 -151T204 -161Q233 -161 248 -151T264 -124Q264
-109 253 -103T228 -94T203 -89T192 -77Q192 -72 197 -56T219 0H266L242 -59L234 -54Q280 -54 304 -70T328 -121Q328 -161 296 -185T208 -210Z" />
<glyph unicode="&#xe8;" horiz-adv-x="539" d="M315 529Q365 529 398 516T452 482T480 438T489 396Q489 344 467 309T405 252T318 222T219 213Q183 213 158 216T116 224L133 259V210Q133 155 151 124T202 79T279 66Q324 66 356 78T407 103T434 115Q437 115 439
114T441 103Q441 101 440 88T436 58Q433 40 414 28T367 9T314 -2T272 -6Q235 -6 196 1T122 30T67 93T46 201Q46 291 73 365T160 484T315 529ZM312 457Q241 457 195 412T138 285H209Q218 285 240 286T289 291T342 307T385 337T402 388Q402 419 378 438T312 457ZM354
576Q333 576 322 580T298 600L251 660Q239 676 234 684T228 700Q228 710 240 714T278 718Q299 718 310 715T328 707T337 692L369 616Q373 607 375 601T377 590Q377 583 371 580T354 576Z" />
<glyph unicode="&#xe9;" horiz-adv-x="539" d="M315 529Q365 529 398 516T452 482T480 438T489 396Q489 344 467 309T405 252T318 222T219 213Q183 213 158 216T116 224L133 259V210Q133 155 151 124T202 79T279 66Q324 66 356 78T407 103T434 115Q437 115 439
114T441 103Q441 101 440 88T436 58Q433 40 414 28T367 9T314 -2T272 -6Q235 -6 196 1T122 30T67 93T46 201Q46 291 73 365T160 484T315 529ZM312 457Q241 457 195 412T138 285H209Q218 285 240 286T289 291T342 307T385 337T402 388Q402 419 378 438T312 457ZM272
576Q262 576 257 579T251 588Q251 592 254 599T265 616L313 692Q319 701 325 706T344 715T378 718Q400 718 412 715T424 703Q424 696 417 686T393 660L332 600Q318 587 307 582T272 576Z" />
<glyph unicode="&#xea;" horiz-adv-x="539" d="M315 529Q365 529 398 516T452 482T480 438T489 396Q489 344 467 309T405 252T318 222T219 213Q183 213 158 216T116 224L133 259V210Q133 155 151 124T202 79T279 66Q324 66 356 78T407 103T434 115Q437 115 439
114T441 103Q441 101 440 88T436 58Q433 40 414 28T367 9T314 -2T272 -6Q235 -6 196 1T122 30T67 93T46 201Q46 291 73 365T160 484T315 529ZM312 457Q241 457 195 412T138 285H209Q218 285 240 286T289 291T342 307T385 337T402 388Q402 419 378 438T312 457ZM220
576Q208 576 202 579T196 588Q196 594 210 616L258 692Q266 705 278 711T323 718H339Q369 718 381 712T398 692L430 616Q433 609 435 603T438 591Q438 576 412 576Q393 576 385 583T369 600L326 661L269 600Q259 590 250 583T220 576Z" />
<glyph unicode="&#xeb;" horiz-adv-x="539" d="M315 529Q365 529 398 516T452 482T480 438T489 396Q489 344 467 309T405 252T318 222T219 213Q183 213 158 216T116 224L133 259V210Q133 155 151 124T202 79T279 66Q324 66 356 78T407 103T434 115Q437 115 439
114T441 103Q441 101 440 88T436 58Q433 40 414 28T367 9T314 -2T272 -6Q235 -6 196 1T122 30T67 93T46 201Q46 291 73 365T160 484T315 529ZM312 457Q241 457 195 412T138 285H209Q218 285 240 286T289 291T342 307T385 337T402 388Q402 419 378 438T312 457ZM398
597Q375 597 365 602T356 619L362 675Q364 686 374 691T408 697Q431 697 441 692T450 675L444 619Q443 608 433 603T398 597ZM248 597Q224 597 215 602T206 619L212 675Q214 686 224 691T258 697Q281 697 291 692T300 675L294 619Q293 608 282 603T248 597Z" />
<glyph unicode="&#xec;" horiz-adv-x="265" d="M144 -6Q108 -6 83 19T65 109L104 503Q107 525 146 525H150Q171 525 180 520T188 503L149 107Q147 84 152 74T173 64Q187 64 196 67T210 71Q216 71 216 63Q216 62 216 53T212 27Q208 8 186 1T144 -6ZM129 576Q108
576 97 580T73 600L26 660Q14 676 9 684T3 700Q3 710 15 714T53 718Q74 718 85 715T103 707T112 692L144 616Q148 607 150 601T152 590Q152 583 146 580T129 576Z" />
<glyph unicode="&#xed;" horiz-adv-x="265" d="M144 -6Q108 -6 83 19T65 109L104 503Q107 525 146 525H150Q171 525 180 520T188 503L149 107Q147 84 152 74T173 64Q187 64 196 67T210 71Q216 71 216 63Q216 62 216 53T212 27Q208 8 186 1T144 -6ZM96 576Q86 576
81 579T75 588Q75 592 78 599T89 616L137 692Q143 701 149 706T168 715T202 718Q224 718 236 715T248 703Q248 696 241 686T217 660L156 600Q142 587 131 582T96 576Z" />
<glyph unicode="&#xee;" horiz-adv-x="265" d="M144 -6Q108 -6 83 19T65 109L104 503Q107 525 146 525H150Q171 525 180 520T188 503L149 107Q147 84 152 74T173 64Q187 64 196 67T210 71Q216 71 216 63Q216 62 216 53T212 27Q208 8 186 1T144 -6ZM53 576Q41 576
35 579T29 588Q29 594 43 616L91 692Q99 705 111 711T156 718H172Q202 718 214 712T231 692L263 616Q266 609 268 603T271 591Q271 576 245 576Q226 576 218 583T202 600L159 661L102 600Q92 590 83 583T53 576Z" />
<glyph unicode="&#xef;" horiz-adv-x="265" d="M144 -6Q108 -6 83 19T65 109L104 503Q107 525 146 525H150Q171 525 180 520T188 503L149 107Q147 84 152 74T173 64Q187 64 196 67T210 71Q216 71 216 63Q216 62 216 53T212 27Q208 8 186 1T144 -6ZM226 597Q203
597 193 602T184 619L190 675Q192 686 202 691T236 697Q259 697 269 692T278 675L272 619Q271 608 261 603T226 597ZM76 597Q52 597 43 602T34 619L40 675Q42 686 52 691T86 697Q109 697 119 692T128 675L122 619Q121 608 110 603T76 597Z" />
<glyph unicode="&#xf0;" horiz-adv-x="569" d="M261 -6Q158 -6 100 56T42 234Q42 322 71 388T156 491T287 529Q334 529 376 511T441 449L413 450Q407 479 391 519T353 605T304 689Q300 694 300 699Q300 708 312 709Q317 710 330 711T352 713Q363 713 368 709T378
697Q443 603 476 497T509 294Q509 211 483 143T401 34T261 -6ZM261 66Q342 66 382 121T422 277Q422 376 386 416T286 457Q207 457 168 402T128 244Q128 160 160 113T261 66ZM260 595Q250 594 244 604T237 624Q237 633 242 636T254 640L483 671Q496 673 500 661T504
641Q504 633 499 630T488 626L260 595Z" />
<glyph unicode="&#xf1;" horiz-adv-x="557" d="M460 -6Q417 -6 391 20T372 112L397 369Q402 415 381 435T322 456Q300 456 271 443T214 395T163 295L134 20Q132 -2 92 -2H88Q68 -2 59 4T51 21L83 321Q88 363 91 402T94 457Q94 475 94 481T93 491Q93 502 105 507T132
513T149 514Q164 514 169 494T175 447Q175 427 173 408T168 377L155 399Q184 447 216 475T283 516T352 529Q425 529 457 490T482 379L455 107Q453 86 459 75T481 64Q495 64 504 67T518 71Q524 71 524 63Q524 62 524 53T520 27Q516 8 495 1T460 -6ZM175 589Q170
589 158 595T146 609Q146 613 148 617T151 624Q168 658 193 675T252 692Q277 692 299 683T341 665T379 655Q406 655 420 665T442 686T457 696Q462 696 474 689T486 676Q486 675 485 672T481 661Q466 627 441 610T380 593Q359 593 334 602T287 621T250 630Q225 630
212 620T191 600T175 589Z" />
<glyph unicode="&#xf2;" horiz-adv-x="569" d="M269 -6Q165 -6 109 53T52 219Q52 280 66 336T110 435T188 504T306 529Q407 529 462 470T517 302Q517 149 452 72T269 -6ZM274 66Q430 66 430 300Q430 377 396 417T295 457Q215 457 177 395T138 222Q138 146 173
106T274 66ZM333 576Q312 576 301 580T277 600L230 660Q218 676 213 684T207 700Q207 710 219 714T257 718Q278 718 289 715T307 707T316 692L348 616Q352 607 354 601T356 590Q356 583 350 580T333 576Z" />
<glyph unicode="&#xf3;" horiz-adv-x="569" d="M269 -6Q165 -6 109 53T52 219Q52 280 66 336T110 435T188 504T306 529Q407 529 462 470T517 302Q517 149 452 72T269 -6ZM274 66Q430 66 430 300Q430 377 396 417T295 457Q215 457 177 395T138 222Q138 146 173
106T274 66ZM251 576Q241 576 236 579T230 588Q230 592 233 599T244 616L292 692Q298 701 304 706T323 715T357 718Q379 718 391 715T403 703Q403 696 396 686T372 660L311 600Q297 587 286 582T251 576Z" />
<glyph unicode="&#xf4;" horiz-adv-x="569" d="M269 -6Q165 -6 109 53T52 219Q52 280 66 336T110 435T188 504T306 529Q407 529 462 470T517 302Q517 149 452 72T269 -6ZM274 66Q430 66 430 300Q430 377 396 417T295 457Q215 457 177 395T138 222Q138 146 173
106T274 66ZM199 576Q187 576 181 579T175 588Q175 594 189 616L237 692Q245 705 257 711T302 718H318Q348 718 360 712T377 692L409 616Q412 609 414 603T417 591Q417 576 391 576Q372 576 364 583T348 600L305 661L248 600Q238 590 229 583T199 576Z" />
<glyph unicode="&#xf5;" horiz-adv-x="569" d="M269 -6Q165 -6 109 53T52 219Q52 280 66 336T110 435T188 504T306 529Q407 529 462 470T517 302Q517 149 452 72T269 -6ZM274 66Q430 66 430 300Q430 377 396 417T295 457Q215 457 177 395T138 222Q138 146 173
106T274 66ZM159 589Q154 589 142 595T130 609Q130 613 132 617T135 624Q152 658 177 675T236 692Q261 692 283 683T325 665T363 655Q390 655 404 665T426 686T441 696Q446 696 458 689T470 676Q470 675 469 672T465 661Q450 627 425 610T364 593Q343 593 318 602T271
621T234 630Q209 630 196 620T175 600T159 589Z" />
<glyph unicode="&#xf6;" horiz-adv-x="569" d="M269 -6Q165 -6 109 53T52 219Q52 280 66 336T110 435T188 504T306 529Q407 529 462 470T517 302Q517 149 452 72T269 -6ZM274 66Q430 66 430 300Q430 377 396 417T295 457Q215 457 177 395T138 222Q138 146 173
106T274 66ZM372 597Q349 597 339 602T330 619L336 675Q338 686 348 691T382 697Q405 697 415 692T424 675L418 619Q417 608 407 603T372 597ZM222 597Q198 597 189 602T180 619L186 675Q188 686 198 691T232 697Q255 697 265 692T274 675L268 619Q267 608 256
603T222 597Z" />
<glyph unicode="&#xf7;" horiz-adv-x="560" d="M66 194Q57 194 51 200T46 222L47 236Q49 254 55 260T73 266H488Q497 266 502 262T507 240L506 224Q505 206 497 200T479 194H66ZM253 -2Q231 -2 223 4T215 22L221 71Q223 93 263 93H267Q289 93 298 87T305 69L299
20Q296 -2 257 -2H253ZM292 368Q270 368 262 374T254 392L260 441Q262 463 302 463H306Q328 463 337 457T344 439L338 390Q335 368 296 368H292Z" />
<glyph unicode="&#xf8;" horiz-adv-x="569" d="M58 0Q54 0 49 4T40 13T36 22Q36 28 44 36L507 515Q515 523 521 523Q525 523 530 519T538 510T542 501Q542 494 535 487L72 7Q65 0 58 0ZM269 -6Q165 -6 109 53T52 219Q52 280 66 336T110 435T188 504T306 529Q407
529 462 470T517 302Q517 149 452 72T269 -6ZM274 66Q430 66 430 300Q430 377 396 417T295 457Q215 457 177 395T138 222Q138 146 173 106T274 66Z" />
<glyph unicode="&#xf9;" horiz-adv-x="557" d="M189 -6Q116 -6 84 34T59 144L95 503Q98 525 137 525H141Q162 525 171 520T179 503L144 154Q140 108 160 88T219 67Q241 67 270 81T328 132T379 237L407 503Q410 525 449 525H453Q474 525 483 520T491 503L452 107Q450
86 456 75T478 64Q492 64 501 67T515 71Q521 71 521 63Q521 62 521 53T517 27Q513 8 492 1T457 -6Q413 -6 389 21T364 122L385 132Q357 81 325 51T258 8T189 -6ZM337 576Q316 576 305 580T281 600L234 660Q222 676 217 684T211 700Q211 710 223 714T261 718Q282
718 293 715T311 707T320 692L352 616Q356 607 358 601T360 590Q360 583 354 580T337 576Z" />
<glyph unicode="&#xfa;" horiz-adv-x="557" d="M189 -6Q116 -6 84 34T59 144L95 503Q98 525 137 525H141Q162 525 171 520T179 503L144 154Q140 108 160 88T219 67Q241 67 270 81T328 132T379 237L407 503Q410 525 449 525H453Q474 525 483 520T491 503L452 107Q450
86 456 75T478 64Q492 64 501 67T515 71Q521 71 521 63Q521 62 521 53T517 27Q513 8 492 1T457 -6Q413 -6 389 21T364 122L385 132Q357 81 325 51T258 8T189 -6ZM255 576Q245 576 240 579T234 588Q234 592 237 599T248 616L296 692Q302 701 308 706T327 715T361
718Q383 718 395 715T407 703Q407 696 400 686T376 660L315 600Q301 587 290 582T255 576Z" />
<glyph unicode="&#xfb;" horiz-adv-x="557" d="M189 -6Q116 -6 84 34T59 144L95 503Q98 525 137 525H141Q162 525 171 520T179 503L144 154Q140 108 160 88T219 67Q241 67 270 81T328 132T379 237L407 503Q410 525 449 525H453Q474 525 483 520T491 503L452 107Q450
86 456 75T478 64Q492 64 501 67T515 71Q521 71 521 63Q521 62 521 53T517 27Q513 8 492 1T457 -6Q413 -6 389 21T364 122L385 132Q357 81 325 51T258 8T189 -6ZM203 576Q191 576 185 579T179 588Q179 594 193 616L241 692Q249 705 261 711T306 718H322Q352 718
364 712T381 692L413 616Q416 609 418 603T421 591Q421 576 395 576Q376 576 368 583T352 600L309 661L252 600Q242 590 233 583T203 576Z" />
<glyph unicode="&#xfc;" horiz-adv-x="557" d="M189 -6Q116 -6 84 34T59 144L95 503Q98 525 137 525H141Q162 525 171 520T179 503L144 154Q140 108 160 88T219 67Q241 67 270 81T328 132T379 237L407 503Q410 525 449 525H453Q474 525 483 520T491 503L452 107Q450
86 456 75T478 64Q492 64 501 67T515 71Q521 71 521 63Q521 62 521 53T517 27Q513 8 492 1T457 -6Q413 -6 389 21T364 122L385 132Q357 81 325 51T258 8T189 -6ZM381 597Q358 597 348 602T339 619L345 675Q347 686 357 691T391 697Q414 697 424 692T433 675L427
619Q426 608 416 603T381 597ZM231 597Q207 597 198 602T189 619L195 675Q197 686 207 691T241 697Q264 697 274 692T283 675L277 619Q276 608 265 603T231 597Z" />
<glyph unicode="&#xfd;" horiz-adv-x="481" d="M88 -208Q57 -208 57 -193Q57 -188 64 -175L187 62L197 -49L47 483Q45 492 43 498T41 508Q41 516 52 520T86 525H94Q109 525 119 522T132 509L208 227Q213 208 218 188T229 148H231Q239 167 248 187T266 227L400
509Q405 518 416 521T443 525H447Q467 525 476 521T485 509Q485 503 481 494L152 -187Q147 -198 134 -203T103 -208H88ZM233 576Q223 576 218 579T212 588Q212 592 215 599T226 616L274 692Q280 701 286 706T305 715T339 718Q361 718 373 715T385 703Q385 696 378
686T354 660L293 600Q279 587 268 582T233 576Z" />
<glyph unicode="&#xfe;" horiz-adv-x="573" d="M76 -208Q56 -208 47 -202T38 -187L135 730Q137 752 177 752H181Q201 752 210 746T219 731L188 436Q219 486 259 507T343 529Q368 529 397 520T454 487T498 421T515 313Q515 220 486 148T404 35T279 -6Q231 -6 197
12T146 45L122 -186Q121 -196 109 -202T80 -208H76ZM267 66Q315 66 346 86T396 141T421 219T428 307Q428 364 414 396T377 442T324 456Q302 456 275 443T222 397T174 305L153 110Q167 98 195 82T267 66Z" />
<glyph unicode="&#xff;" horiz-adv-x="481" d="M88 -208Q57 -208 57 -193Q57 -188 64 -175L187 62L197 -49L47 483Q45 492 43 498T41 508Q41 516 52 520T86 525H94Q109 525 119 522T132 509L208 227Q213 208 218 188T229 148H231Q239 167 248 187T266 227L400
509Q405 518 416 521T443 525H447Q467 525 476 521T485 509Q485 503 481 494L152 -187Q147 -198 134 -203T103 -208H88ZM359 597Q336 597 326 602T317 619L323 675Q325 686 335 691T369 697Q392 697 402 692T411 675L405 619Q404 608 394 603T359 597ZM209 597Q185
597 176 602T167 619L173 675Q175 686 185 691T219 697Q242 697 252 692T261 675L255 619Q254 608 243 603T209 597Z" />
<glyph unicode="&#x2013;" horiz-adv-x="500" d="M71 229Q61 229 57 233T54 254L56 271Q58 289 63 295T79 301H430Q441 301 445 297T447 276L445 259Q443 241 438 235T422 229H71Z" />
<glyph unicode="&#x2014;" horiz-adv-x="1000" d="M81 229Q71 229 67 233T64 254L66 271Q68 289 73 295T89 301H920Q931 301 935 297T937 276L935 259Q933 241 928 235T912 229H81Z" />
<glyph unicode="&#x2018;" horiz-adv-x="212" d="M108 531Q89 531 80 538T71 559Q75 595 85 625T110 680T140 720T170 746T194 755Q202 755 212 752T222 741Q222 737 220 733T214 723Q189 685 177 649T160 563Q159 549 148 540T117 531H108Z" />
<glyph unicode="&#x2019;" horiz-adv-x="212" d="M98 530Q90 530 80 533T70 544Q70 549 72 552T78 562Q103 600 115 636T132 722Q134 736 144 745T175 754H184Q204 754 212 747T221 726Q217 690 207 660T182 605T152 565T122 539T98 530Z" />
<glyph unicode="&#x201a;" horiz-adv-x="198" d="M30 -116Q22 -116 12 -113T2 -102Q2 -97 4 -94T10 -84Q35 -46 47 -10T64 76Q66 90 76 99T107 108H116Q136 108 144 101T153 80Q149 44 139 14T114 -41T84 -81T54 -107T30 -116Z" />
<glyph unicode="&#x201c;" horiz-adv-x="350" d="M252 531Q233 531 224 538T215 559Q219 595 229 625T254 680T284 720T314 746T338 755Q346 755 356 752T366 741Q366 737 364 733T358 723Q333 685 321 649T304 563Q303 549 292 540T261 531H252ZM112 531Q93 531
84 538T75 559Q79 595 89 625T114 680T144 720T174 746T198 755Q206 755 216 752T226 741Q226 737 224 733T218 723Q193 685 181 649T164 563Q163 549 152 540T121 531H112Z" />
<glyph unicode="&#x201d;" horiz-adv-x="350" d="M235 530Q227 530 217 533T207 544Q207 549 209 552T215 562Q240 600 252 636T269 722Q271 736 281 745T312 754H321Q341 754 349 747T358 726Q354 690 344 660T319 605T289 565T259 539T235 530ZM95 530Q87 530
77 533T67 544Q67 549 69 552T75 562Q100 600 112 636T129 722Q131 736 141 745T172 754H181Q201 754 209 747T218 726Q214 690 204 660T179 605T149 565T119 539T95 530Z" />
<glyph unicode="&#x201e;" horiz-adv-x="336" d="M161 -116Q153 -116 143 -113T133 -102Q133 -97 135 -94T141 -84Q166 -46 178 -10T195 76Q197 90 207 99T238 108H247Q267 108 275 101T284 80Q280 44 270 14T245 -41T215 -81T185 -107T161 -116ZM21 -116Q13 -116
3 -113T-7 -102Q-7 -97 -5 -94T1 -84Q26 -46 38 -10T55 76Q57 90 67 99T98 108H107Q127 108 135 101T144 80Q140 44 130 14T105 -41T75 -81T45 -107T21 -116Z" />
<glyph unicode="&#x2022;" horiz-adv-x="336" d="M153 201Q104 201 72 233T40 313Q40 348 57 380T107 432T180 452Q229 452 261 420T293 340Q293 302 275 271T225 220T153 201Z" />
<glyph unicode="&#x2039;" horiz-adv-x="300" d="M188 61Q177 61 167 74L54 230Q49 238 47 243T44 255Q44 263 47 269T59 286L206 441Q212 447 217 450T228 454Q234 454 241 449T255 436T261 420Q261 416 257 410T248 398L125 258L220 113Q225 106 227 101T229
92Q229 87 223 80T207 67T188 61Z" />
<glyph unicode="&#x203a;" horiz-adv-x="300" d="M111 454Q122 454 132 441L245 285Q250 278 252 272T255 260Q255 253 252 246T240 229L93 74Q87 68 82 65T71 61Q66 61 58 66T44 79T38 95Q38 100 42 105T51 117L174 257L79 402Q75 409 73 414T70 423Q70 429 76
436T92 448T111 454Z" />
</font>
</defs>
</svg>
