<?xml version="1.0" standalone="no"?>
<!DOCTYPE svg PUBLIC "-//W3C//DTD SVG 1.1//EN" "http://www.w3.org/Graphics/SVG/1.1/DTD/svg11.dtd">
<svg xmlns="http://www.w3.org/2000/svg">
<defs >
<font id="Bitter" horiz-adv-x="568" ><font-face
    font-family="Bitter Thin Black"
    units-per-em="1000"
    panose-1="0 0 0 0 0 0 0 0 0 0"
    ascent="935"
    descent="-265"
    alphabetic="0" />
<glyph unicode=" " horiz-adv-x="160" />
<glyph unicode="!" horiz-adv-x="305" d="M81 265L119 710H322L221 274L81 265ZM113 -15Q67 -15 42 11T16 79Q16 129 49 161T133 193Q178 193 204 167T231 97Q231 46 197 16T113 -15Z" />
<glyph unicode="&quot;" horiz-adv-x="468" d="M104 477L126 780H292L218 477H104ZM316 477L338 780H504L430 477H316Z" />
<glyph unicode="#" horiz-adv-x="663" d="M104 550H685L666 430H85L104 550ZM24 280H605L586 160H5L24 280ZM247 710H402L194 0H39L247 710ZM497 710H652L443 0H288L497 710Z" />
<glyph unicode="$" horiz-adv-x="605" d="M243 0Q188 0 129 11T13 43L47 256H163L172 141L154 171Q180 160 209 154T265 148Q293 148 316 154T353 175T367 210Q367 233 352 246T311 267T255 283T194 302T138 334T97 387T81 470Q81 550 120 603T226 683T374 710Q429
710 487 698T604 663L565 472H451L439 568L460 551Q437 557 413 560T367 564Q341 564 320 559T287 542T275 512Q275 491 290 480T332 461T388 446T449 426T506 393T547 339T563 253Q563 168 520 112T404 28T243 0ZM177 -125L201 31H331L307 -125H177ZM303 674L328
833H458L433 675L303 674Z" />
<glyph unicode="%" horiz-adv-x="859" d="M73 -16L650 724H807L231 -16H73ZM216 346Q144 346 103 387T61 506Q61 569 88 618T162 696T272 725Q343 725 385 684T427 566Q427 504 400 454T326 375T216 346ZM228 451Q249 451 263 467T284 511T292 569Q292 595 286
607T262 620Q240 620 225 602T203 558T196 503Q196 476 203 464T228 451ZM614 -15Q542 -15 501 26T459 145Q459 208 486 257T560 335T670 364Q741 364 783 323T825 205Q825 143 798 93T724 14T614 -15ZM626 90Q647 90 661 106T683 150T690 208Q690 234 684 246T660
259Q638 259 623 241T601 197T594 142Q594 115 601 103T626 90Z" />
<glyph unicode="&amp;" horiz-adv-x="663" d="M251 -15Q144 -15 84 34T24 171Q24 232 52 278T131 351T252 384L255 360Q179 368 138 409T97 515Q97 578 135 625T239 699T391 725Q443 725 497 715T602 682L565 508H443L432 585L464 561Q416 578 379 578Q341 578
318 560T295 504Q295 472 313 455T365 438H667L651 333L571 305L594 338L576 222Q564 145 516 92T399 12T251 -15ZM299 141Q330 141 353 160T384 223L399 320L428 296H323Q295 296 275 284T244 251T233 206Q233 174 251 158T299 141Z" />
<glyph unicode="&apos;" horiz-adv-x="256" d="M104 477L126 780H292L218 477H104Z" />
<glyph unicode="(" horiz-adv-x="327" d="M419 829Q352 744 304 645T229 439T202 226Q202 144 218 64T269 -89L141 -154Q81 -63 53 39T24 250Q24 374 58 492T154 718T303 914L419 829Z" />
<glyph unicode=")" horiz-adv-x="327" d="M-58 -78Q9 7 57 106T132 312T159 525Q159 607 143 687T92 840L220 905Q280 814 308 712T337 501Q337 378 303 259T207 33T58 -163L-58 -78Z" />
<glyph unicode="*" horiz-adv-x="405" d="M286 404L242 513L261 567L313 561L377 470L286 404ZM174 404L91 470L182 563L236 567L242 513L174 404ZM185 563L70 580L121 688L219 644L234 590L185 563ZM258 607L223 644L225 758L333 760L306 643L258 607ZM316 561L277
594L302 643L413 692L431 582L316 561Z" />
<glyph unicode="+" horiz-adv-x="531" d="M248 421L215 391L246 598H390L359 391L335 421H522L500 281H309L343 311L312 104H168L199 311L223 281H35L57 421H248Z" />
<glyph unicode="," horiz-adv-x="300" d="M23 76Q23 115 39 141T82 180T135 193Q171 193 199 171T227 97Q227 45 199 -6T126 -107T25 -207L-40 -154Q-6 -112 12 -88T37 -48T44 -20Q44 -5 39 7T29 36T23 76Z" />
<glyph unicode="-" horiz-adv-x="407" d="M382 368L359 218H32L56 368H382Z" />
<glyph unicode="." horiz-adv-x="301" d="M111 -15Q65 -15 40 11T14 79Q14 129 47 161T131 193Q176 193 202 167T229 97Q229 46 195 16T111 -15Z" />
<glyph unicode="/" horiz-adv-x="356" d="M457 813L62 -90H-72L321 813H457Z" />
<glyph unicode="0" horiz-adv-x="623" d="M263 -15Q190 -15 139 11T62 99T36 261Q36 310 44 371T73 495T134 609T236 693T388 725Q501 725 557 662T613 449Q613 396 605 333T574 209T513 97T412 16T263 -15ZM288 138Q320 138 342 165T379 236T402 327T413 414T416
476Q416 511 410 532T391 562T361 572Q328 572 306 546T269 478T247 390T236 305T233 243Q233 182 249 160T288 138Z" />
<glyph unicode="1" horiz-adv-x="453" d="M332 85L303 136L419 100L403 0H10L26 100L180 143L135 85L209 542H263L99 457L54 580L267 714H433L332 85Z" />
<glyph unicode="2" horiz-adv-x="575" d="M-6 0L19 174Q66 205 115 238T208 304T288 372T345 440T366 510Q366 545 346 559T296 573Q277 573 255 568T210 555L237 589L202 486H85L100 690Q162 707 222 716T338 725Q407 725 460 708T545 651T576 546Q576 494 557
447T505 357T429 275T338 201T240 132L246 158H529L502 0H-6Z" />
<glyph unicode="3" horiz-adv-x="571" d="M216 -15Q149 -15 91 0T-16 43L48 181Q126 143 206 143Q243 143 273 153T321 183T339 233Q339 263 324 275T287 289T251 292H159L181 434H267Q323 434 348 461T374 522Q374 555 354 567T302 579Q276 579 248 573T198 559L222
585L196 495H81L97 684Q163 705 227 715T347 725Q412 725 464 710T546 658T577 560Q577 478 522 426T375 363L359 381Q451 374 493 338T536 230Q536 156 495 101T382 16T216 -15Z" />
<glyph unicode="4" horiz-adv-x="603" d="M299 174L340 134H7L8 275L367 725L582 710L510 254L468 289H597L572 134H442L497 174L469 0H272L299 174ZM371 289L312 254L369 613L435 601L133 216L110 289H371Z" />
<glyph unicode="5" horiz-adv-x="555" d="M227 -15Q169 -15 108 0T-14 46L52 181Q87 164 124 155T195 145Q229 145 256 155T299 187T315 240Q315 265 305 278T277 297T233 303T177 304L64 303L142 710H564L536 555H255L315 589L279 407L236 449H288Q310 449 340
447T403 437T464 408T509 351T527 257Q527 176 490 115T385 19T227 -15Z" />
<glyph unicode="6" horiz-adv-x="598" d="M220 275L223 409Q263 429 303 439T383 449Q437 449 481 429T552 365T579 254Q579 171 540 111T434 18T289 -15Q239 -15 192 0T108 48T50 136T28 271Q28 348 49 416T111 541T206 639T329 703T474 726Q531 726 586 713L560
561Q539 565 520 567T483 569Q434 569 395 555T325 513T275 448T244 363T233 261Q233 209 241 183T263 149T291 140Q314 140 332 153T362 190T373 243Q373 282 354 295T309 309Q285 309 261 300T220 275Z" />
<glyph unicode="7" horiz-adv-x="561" d="M596 568L269 0H49L390 579L413 550H165L211 579L166 458H48L88 710H617L596 568Z" />
<glyph unicode="8" horiz-adv-x="591" d="M245 -15Q183 -15 129 4T41 62T7 160Q7 204 28 246T92 322T205 368L315 309Q279 301 253 283T212 241T198 191Q198 157 220 143T270 128Q297 128 320 139T357 169T371 211Q371 240 350 258T296 289T227 316T157 353T103
409T82 497Q82 554 107 597T173 668T265 711T367 725Q425 725 476 707T558 651T590 554Q590 506 568 469T508 407T418 370L279 430Q311 431 339 445T384 482T402 532Q402 550 395 561T375 577T347 582Q329 582 312 575T283 552T271 516Q271 488 292 470T346 439T416
412T486 377T540 321T561 233Q561 174 535 128T463 50T361 2T245 -15Z" />
<glyph unicode="9" horiz-adv-x="599" d="M406 435L403 301Q363 282 323 272T243 261Q190 261 145 281T74 345T47 454Q47 517 71 567T137 653T231 706T340 725Q387 725 433 710T516 662T576 574T598 439Q598 361 576 292T513 167T417 71T295 8T154 -14Q127 -14
98 -11T39 0L66 154Q86 150 104 149T138 147Q191 147 232 163T304 208T354 275T383 360T393 456Q393 505 385 529T364 561T334 570Q307 570 289 555T262 517T253 467Q253 428 272 415T317 401Q341 401 365 410T406 435Z" />
<glyph unicode=":" horiz-adv-x="301" d="M160 292Q114 292 89 318T63 386Q63 436 96 468T180 500Q225 500 251 474T278 404Q278 353 244 323T160 292ZM111 -15Q65 -15 40 11T14 79Q14 129 47 161T131 193Q176 193 202 167T229 97Q229 46 195 16T111 -15Z" />
<glyph unicode=";" horiz-adv-x="301" d="M276 76Q276 115 292 141T335 180T388 193Q424 193 452 171T480 97Q480 45 452 -6T379 -107T278 -207L213 -154Q247 -112 265 -88T290 -48T297 -20Q297 -5 292 7T282 36T276 76ZM160 292Q114 292 89 318T63 386Q63 436
96 468T180 500Q225 500 251 474T278 404Q278 353 244 323T160 292Z" />
<glyph unicode="&lt;" horiz-adv-x="514" d="M421 115L34 285L55 429L472 603L519 459L189 332L194 368L483 254L421 115Z" />
<glyph unicode="=" horiz-adv-x="609" d="M572 522L550 382H95L117 522H572ZM794 563L772 423H317L339 563H794Z" />
<glyph unicode="&gt;" horiz-adv-x="514" d="M121 603L508 433L487 289L70 115L23 259L353 386L348 350L59 464L121 603Z" />
<glyph unicode="?" horiz-adv-x="464" d="M109 266Q109 271 107 280T105 304Q105 345 124 373T172 422T229 460T277 495T297 539Q297 562 282 571T242 580Q211 580 173 570T104 547L70 679Q125 702 185 715T301 728Q355 728 400 714T472 667T499 577Q499 534 482
502T436 446T377 402T317 363T272 324T254 277Q254 273 254 271T254 266H109ZM164 -15Q118 -15 93 11T67 79Q67 129 100 161T184 193Q229 193 255 167T282 97Q282 46 248 16T164 -15Z" />
<glyph unicode="@" horiz-adv-x="878" d="M333 -116Q245 -116 177 -82T70 24T31 202Q31 302 65 387T163 537T312 637T504 673Q604 673 683 638T808 532T855 350Q855 285 838 232T791 141T718 81T624 60Q560 60 526 90T482 170L526 266Q519 205 493 162T430 96T356
73Q313 73 279 108T245 222Q245 296 276 355T360 450T478 486Q513 486 548 474T618 436L556 450L579 474L650 469L606 204Q605 195 608 183T628 170Q644 170 658 184T682 222T699 279T705 346Q705 385 696 421T665 485T602 531T500 548Q418 548 358 519T259 440T200
328T181 201Q181 103 223 56T352 9Q387 9 424 16T499 37L530 -78Q478 -97 428 -106T333 -116ZM419 188Q436 188 448 201T467 234T478 273T484 303L500 401L526 357Q513 370 500 375T475 381Q451 381 432 360T401 307T390 238Q390 215 397 202T419 188Z" />
<glyph unicode="A" horiz-adv-x="699" d="M639 89L598 135L665 100L649 0H363L379 100L437 131L429 104L417 205L428 180H213L239 203L195 105L194 127L246 100L230 0H-37L-21 100L59 133L5 94L320 708L525 713L639 89ZM279 291L272 320H421L408 286L371 605L420
604L279 291Z" />
<glyph unicode="B" horiz-adv-x="640" d="M377 344L384 371Q496 373 551 341T607 226Q607 156 569 106T461 28T298 0H-12L4 100L84 131L60 105L139 600L158 571L84 605L100 705L344 710H416Q435 710 462 709T519 700T575 677T617 630T633 553Q633 486 600 440T508
369T377 344ZM365 568H300L336 600L305 398L282 430H323Q335 430 353 431T389 440T419 464T432 511Q432 540 422 551T396 565T365 568ZM292 143Q349 143 375 167T402 231Q402 261 390 273T363 287T338 290H258L294 331L257 105L222 143H292Z" />
<glyph unicode="C" horiz-adv-x="607" d="M304 -15Q231 -15 171 18T74 120T37 293Q37 379 63 456T138 594T256 690T413 725Q468 725 521 711T634 669L594 472H479L465 579L498 551Q472 562 451 566T413 570Q369 570 337 546T285 481T255 394T245 302Q245 245 259
212T297 163T352 148Q385 148 422 163T497 205L559 82Q498 33 432 9T304 -15Z" />
<glyph unicode="D" horiz-adv-x="695" d="M412 710Q505 710 566 679T656 586T686 430Q686 342 660 264T583 127T456 34T277 0H-12L4 100L84 131L60 105L139 600L158 571L84 605L100 705L354 710H412ZM313 145Q355 145 384 167T431 226T460 303T474 383T478 448Q478
482 471 508T444 549T383 565H301L336 600L257 105L238 145H313Z" />
<glyph unicode="E" horiz-adv-x="585" d="M422 211H538L503 0H-12L4 100L84 131L60 106L139 600L158 571L84 605L100 705L350 710H606L574 508H460L450 591L479 565H301L335 595L304 400L283 430H482L459 290H258L292 325L257 105L238 145H427L385 115L422 211Z" />
<glyph unicode="F" horiz-adv-x="550" d="M-12 0L4 100L84 131L60 105L139 600L158 571L84 605L100 705L350 710H603L571 505H457L448 584L477 565H301L335 595L304 397L282 430H482L461 285H257L291 320L257 105L242 132L329 100L314 0H-12Z" />
<glyph unicode="G" horiz-adv-x="681" d="M310 -15Q227 -15 166 17T70 116T36 285Q36 372 61 451T136 592T257 689T419 725Q478 725 537 710T656 667L617 468H503L489 577L519 552Q495 562 474 566T434 570Q386 570 351 547T291 484T256 392T244 283Q244 231 254
201T285 157T337 143Q358 143 381 148T430 161L405 117L427 277L452 244L370 268L386 372L685 377L669 272L588 244L610 277L580 52Q504 17 436 1T310 -15Z" />
<glyph unicode="H" horiz-adv-x="760" d="M-12 0L4 100L84 131L60 105L139 600L158 571L84 605L100 705L413 710L397 610L314 572L336 600L306 411L285 435H531L497 411L527 600L546 571L472 605L488 705L801 710L785 610L702 572L724 600L645 105L635 132L704
100L688 0H376L392 100L472 131L448 105L482 319L504 290H259L291 318L257 105L247 132L316 100L300 0H-12Z" />
<glyph unicode="I" horiz-adv-x="371" d="M397 610L314 572L335 598L257 105L247 132L316 100L300 0H-12L4 100L84 131L60 105L138 597L158 571L84 605L100 705L413 710L397 610Z" />
<glyph unicode="J" horiz-adv-x="348" d="M89 705L402 710L386 610L303 572L325 600L247 108Q235 35 212 -20T154 -112T71 -167T-38 -186Q-81 -186 -125 -177L-92 -34Q-84 -36 -75 -37T-58 -38Q-26 -38 -8 -28T21 -2T35 31T42 63L128 600L146 571L73 605L89 705Z" />
<glyph unicode="K" horiz-adv-x="710" d="M639 91L596 133L667 100L652 0H459L319 329L361 290H260L293 329L257 105L243 134L312 100L296 0H-12L4 100L85 132L60 105L139 600L158 571L84 605L100 705L409 710L393 612L311 573L339 616L305 404L284 435H401L346
404L489 609L505 580L441 605L456 705L742 710L727 610L641 574L687 607L492 344L491 395L639 91Z" />
<glyph unicode="L" horiz-adv-x="555" d="M414 245H530L492 0H-12L4 100L84 131L60 105L139 600L158 571L84 605L100 705L413 710L397 610L314 572L336 600L257 105L238 145H400L369 114L414 245Z" />
<glyph unicode="M" horiz-adv-x="830" d="M856 610L773 572L795 605L716 105L706 132L775 100L759 0H464L480 100L572 135L534 95L598 496L631 495L449 183L329 178L244 496L281 497L218 105L208 132L277 100L261 0H-12L4 100L92 134L60 105L139 600L159 571L84
605L100 705L383 710L455 383H426L596 705L872 710L856 610Z" />
<glyph unicode="N" horiz-adv-x="730" d="M508 705L779 710L763 610L685 572L707 600L611 0H397L260 495H282L220 105L210 132L276 100L260 0H-12L4 100L84 131L60 105L139 600L158 571L84 605L100 705L383 710L512 228H488L547 600L566 571L492 605L508 705Z" />
<glyph unicode="O" horiz-adv-x="708" d="M312 -15Q216 -15 155 20T65 121T36 277Q36 335 48 397T89 518T162 623T272 697T424 725Q520 725 581 690T671 590T700 434Q700 376 688 314T648 193T575 87T465 13T312 -15ZM330 140Q370 140 398 162T444 219T473 296T488
375T492 442Q492 489 482 517T454 557T407 570Q367 570 339 549T292 492T263 417T248 338T244 272Q244 224 254 195T283 153T330 140Z" />
<glyph unicode="P" horiz-adv-x="612" d="M307 231H238L283 266L257 105L247 132L331 100L315 0H-12L4 100L84 131L60 105L139 600L158 571L84 605L100 705L357 710H416Q532 710 581 659T631 518Q631 433 592 369T481 268T307 231ZM358 566H310L336 599L295 343L271
376H312Q355 376 380 393T415 438T426 499Q426 529 414 547T358 566Z" />
<glyph unicode="Q" horiz-adv-x="710" d="M571 -213Q525 -213 480 -188T380 -113T251 5L286 -14Q200 -8 145 28T63 128T36 278Q36 336 48 398T89 519T162 623T271 697T423 725Q518 725 579 690T670 590T700 433Q700 371 685 304T638 174T552 66T421 -2L414 28Q451
1 479 -17T530 -44T576 -53Q599 -53 624 -44T683 -16L747 -141Q694 -178 652 -195T571 -213ZM329 138Q370 138 399 160T447 218T476 295T491 374T495 440Q495 488 485 516T456 557T407 570Q365 570 336 548T289 491T260 415T245 336T241 271Q241 223 251 194T281
151T329 138Z" />
<glyph unicode="R" horiz-adv-x="659" d="M-12 0L4 100L84 131L60 105L139 600L158 571L84 605L100 705L363 710H429Q648 710 648 529Q648 460 618 410T535 329T409 290L412 323Q468 325 496 300T535 242L581 104L534 139L616 100L600 0H410L360 200Q352 233 346
247T328 264T294 267L254 266L289 295L257 105L247 132L316 100L300 0H-12ZM300 362L278 406H334Q370 406 394 421T430 461T443 513Q443 533 437 544T422 559T403 565T385 566H310L336 600L300 362Z" />
<glyph unicode="S" horiz-adv-x="593" d="M238 -15Q183 -15 124 -4T8 28L42 241H158L167 126L149 156Q175 145 204 139T260 133Q288 133 311 139T348 160T362 195Q362 222 342 237T289 265T219 291T150 328T97 388T76 484Q76 564 115 617T221 697T369 724Q424
724 482 712T599 677L560 486H446L434 582L455 565Q432 571 408 574T362 578Q336 578 315 573T282 556T270 526Q270 502 291 488T344 462T414 436T483 398T537 337T558 238Q558 153 515 97T399 13T238 -15Z" />
<glyph unicode="T" horiz-adv-x="628" d="M108 0L124 100L214 131L190 105L268 595L299 565H169L216 603L167 477H52L89 710H680L642 477H527L516 595L552 565H419L465 595L387 105L377 132L456 100L440 0H108Z" />
<glyph unicode="U" horiz-adv-x="715" d="M459 705L772 710L756 610L673 572L695 600L645 279Q629 173 586 109T475 15T315 -15Q191 -15 128 37T64 200Q64 217 66 236T71 276L123 600L139 573L68 605L84 705L391 710L375 610L298 572L320 600L267 264Q264 247
263 232T261 205Q261 171 276 156T327 140Q366 140 389 156T427 206T449 291L498 600L517 571L443 605L459 705Z" />
<glyph unicode="V" horiz-adv-x="717" d="M210 0L103 605L143 571L59 605L75 705L392 710L379 610L295 575L326 624L374 177H347L547 611L556 572L488 605L503 705L780 710L765 610L677 576L726 610L422 0H210Z" />
<glyph unicode="W" horiz-adv-x="988" d="M782 705L1051 710L1036 610L948 577L1000 629L735 0H550L498 466L538 465L344 0H162L102 611L112 580L60 605L75 705L361 710L346 610L274 575L303 611L317 182H277L481 705L662 710L704 184L663 183L820 611L834 575L766
605L782 705Z" />
<glyph unicode="X" horiz-adv-x="711" d="M651 91L600 133L666 100L651 0H343L358 100L422 133L421 100L314 275H362L191 92L189 135L251 100L236 0H-23L-8 100L68 134L7 89L277 373L273 341L105 610L139 581L80 605L96 705L402 710L387 610L323 577L333 604L429
448L394 455L530 604L535 573L474 605L489 705L750 710L735 610L659 572L716 610L462 340L467 387L651 91Z" />
<glyph unicode="Y" horiz-adv-x="649" d="M126 0L141 100L226 131L202 105L230 281L241 216L93 603L118 577L60 605L74 705L364 710L348 610L275 580L289 614L373 348H334L497 605L508 571L443 605L458 705L712 710L697 610L634 584L671 609L403 216L427 281L399
105L389 132L463 100L447 0H126Z" />
<glyph unicode="Z" horiz-adv-x="619" d="M-13 0L4 135L408 578L426 563H186L234 583L193 489H76L111 710H641L624 569L219 117L216 147H466L423 120L458 221H576L541 0H-13Z" />
<glyph unicode="[" horiz-adv-x="345" d="M-3 -118L154 872L430 867L411 747L296 737L182 17L294 7L275 -113L-3 -118Z" />
<glyph unicode="\" horiz-adv-x="354" d="M71 813H205L312 -90H180L71 813Z" />
<glyph unicode="]" horiz-adv-x="345" d="M382 872L225 -118L-51 -113L-32 7L83 17L197 737L85 747L104 867L382 872Z" />
<glyph unicode="^" horiz-adv-x="500" d="M-1 540L245 900H385L519 540H346L259 828H352L173 540H-1Z" />
<glyph unicode="_" horiz-adv-x="469" d="M419 -51L399 -176H-71L-52 -51H419Z" />
<glyph unicode="`" horiz-adv-x="387" d="M186 872L414 686L347 590L93 735L186 872Z" />
<glyph unicode="a" horiz-adv-x="597" d="M162 -15Q122 -15 87 6T31 73T10 191Q10 267 34 333T101 449T203 527T328 556Q376 556 425 540T522 487L435 507L468 539L571 540L491 33L424 160L568 103L551 0L315 -7L343 145L400 253Q389 168 351 108T263 17T162 -15ZM244
140Q260 140 275 151T302 184T325 236T341 303L363 439L394 378Q375 395 358 403T324 411Q298 411 277 394T239 349T215 285T206 214Q206 177 215 159T244 140Z" />
<glyph unicode="b" horiz-adv-x="580" d="M10 13L126 745L195 622L49 677L65 777L325 785L259 421L187 289Q198 375 233 434T318 525T419 557Q459 557 493 537T548 469T569 344Q569 232 523 152T392 29T196 -14Q109 -14 10 13ZM216 103L179 150Q197 141 214 137T246
133Q286 133 314 158T358 226T373 323Q373 365 364 383T335 402Q319 402 305 391T277 358T254 306T238 239L216 103Z" />
<glyph unicode="c" horiz-adv-x="490" d="M234 -15Q172 -15 122 11T42 90T12 225Q12 299 37 360T105 464T207 531T331 555Q372 555 415 545T501 514L476 349H351L344 419L362 402Q335 416 311 416Q285 416 266 401T234 359T215 301T208 236Q208 178 226 154T278
129Q301 129 329 139T389 165L441 49Q389 17 336 1T234 -15Z" />
<glyph unicode="d" horiz-adv-x="597" d="M162 -15Q122 -15 87 6T31 73T10 191Q10 267 34 333T101 449T203 527T328 556Q376 556 425 540T522 487L378 531L412 745L481 622L337 677L353 777L610 785L491 33L424 160L568 103L551 0L315 -7L343 145L401 253Q390
168 352 108T263 17T162 -15ZM244 140Q260 140 274 151T302 184T325 236T341 303L362 432L394 378Q375 395 358 403T324 411Q298 411 277 394T239 349T215 285T206 214Q206 177 215 159T244 140Z" />
<glyph unicode="e" horiz-adv-x="528" d="M238 -15Q173 -15 122 10T42 87T12 218Q12 283 33 343T94 451T194 527T329 555Q423 555 476 513T530 398Q530 348 505 311T436 248T338 211T222 198Q208 198 200 198T187 199L197 312Q205 311 213 311T229 310Q250 310
269 314T304 326T329 348T338 378Q338 395 329 407T302 419Q279 419 261 400T231 350T213 286T206 223Q206 171 226 149T283 126Q312 126 348 138T428 171L480 54Q417 20 355 3T238 -15Z" />
<glyph unicode="f" horiz-adv-x="397" d="M-47 -245Q-75 -245 -98 -242T-138 -235L-107 -101Q-97 -102 -87 -103T-66 -105Q-49 -105 -34 -101T-7 -87T15 -61T28 -19L99 428L111 405H22L39 510L137 540L112 508L120 560Q139 680 211 737T383 795Q417 795 452 789T522
769L476 638Q460 646 441 650T405 654Q373 654 347 636T314 574L304 510L287 535H430L408 405H273L291 428L228 30Q214 -57 184 -111T115 -194T33 -234T-47 -245Z" />
<glyph unicode="g" horiz-adv-x="580" d="M168 -245Q112 -245 60 -235T-34 -210L4 -77Q44 -90 85 -97T159 -104Q212 -104 243 -89T289 -51T311 -7T319 29L336 145L401 253Q390 168 352 108T263 17T162 -15Q122 -15 87 6T31 73T10 191Q10 266 34 332T101 448T203
526T328 555Q376 555 425 539T522 487L438 510L468 539L571 540L491 31Q478 -50 447 -103T370 -188T273 -232T168 -245ZM244 140Q260 140 275 151T302 184T325 236T341 303L363 439L394 378Q375 395 358 403T324 411Q298 411 277 394T239 349T215 285T206 214Q206
177 215 159T244 140Z" />
<glyph unicode="h" horiz-adv-x="610" d="M307 -6L360 315Q364 337 365 357T361 390T336 403Q321 403 306 393T279 364T256 315T240 246L202 0H9L116 676L138 646L52 672L68 776L324 785L252 399L177 288Q193 380 233 439T325 526T427 555Q477 555 509 530T555
461T559 362L517 99L433 160L583 103L566 0L307 -6Z" />
<glyph unicode="i" horiz-adv-x="329" d="M25 -6L106 504L175 381L31 436L47 536L304 544L223 30L155 157L299 100L283 0L25 -6ZM220 592Q174 592 149 618T124 689Q124 742 157 775T242 809Q286 809 312 784T338 712Q338 660 305 626T220 592Z" />
<glyph unicode="j" horiz-adv-x="314" d="M-142 -235L-111 -101Q-100 -102 -91 -103T-71 -105Q-26 -105 -4 -81T24 -17L93 429L107 408L34 436L49 536L305 544L224 30Q207 -76 165 -136T64 -220T-58 -245Q-82 -245 -101 -242T-142 -235ZM215 592Q169 592 144 618T119
689Q119 742 152 775T237 809Q281 809 307 784T333 712Q333 660 300 626T215 592Z" />
<glyph unicode="k" horiz-adv-x="594" d="M8 0L126 745L195 622L51 677L67 777L325 785L252 328L227 357H340L291 336L378 439L388 420L335 435L351 535L609 545L593 445L516 424L570 453L425 284L437 332L510 99L489 123L556 100L540 0H345L281 238L304 227H206L238
238L200 0H8Z" />
<glyph unicode="l" horiz-adv-x="312" d="M7 -6L126 745L195 623L51 672L67 776L325 785L206 33L133 160L283 103L266 0L7 -6Z" />
<glyph unicode="m" horiz-adv-x="901" d="M598 -6L649 315Q653 338 655 358T653 390T632 403Q619 403 606 393T581 364T559 315T543 246L505 0H312L363 315Q367 338 369 358T367 390T346 403Q333 403 320 393T295 364T273 315T257 246L219 0H26L95 436L175 381L31
436L47 536L293 544L256 399L196 288Q212 380 251 439T341 526T438 555Q483 555 512 532T554 469T560 379L558 364L485 288Q501 380 540 439T628 526T724 555Q771 555 801 530T844 461T848 362L807 99L723 160L873 103L857 0L598 -6Z" />
<glyph unicode="n" horiz-adv-x="627" d="M324 -6L377 315Q381 337 382 357T378 390T353 403Q338 403 323 393T296 364T273 315T257 246L219 0H26L106 504L175 381L31 436L47 536L293 544L256 399L194 288Q209 379 249 438T341 526T441 555Q493 555 526 530T572
461T576 362L534 99L450 160L600 103L583 0L324 -6Z" />
<glyph unicode="o" horiz-adv-x="565" d="M333 555Q398 555 447 534T525 463T553 331Q553 267 534 206T476 94T377 15T232 -15Q167 -15 118 7T41 77T13 207Q13 271 31 332T89 444T188 525T333 555ZM307 415Q276 415 257 391T227 332T213 262T209 205Q209 169 219
147T257 125Q288 125 307 149T338 208T353 279T357 336Q357 371 347 393T307 415Z" />
<glyph unicode="p" horiz-adv-x="599" d="M-74 -230L-58 -130L102 -76L-2 -186L96 436L118 406L30 436L46 536L294 544L259 399L206 289Q217 374 252 433T337 524T438 555Q478 555 512 535T567 468T588 344Q588 248 554 175T457 56T308 -4T119 2L222 20L189 -192L121
-73L268 -130L252 -230H-74ZM235 103L198 150Q243 128 279 133T340 164T378 231T392 323Q392 365 383 383T354 402Q338 402 324 391T296 358T273 306T257 239L235 103Z" />
<glyph unicode="q" horiz-adv-x="580" d="M188 -230L204 -130L361 -76L262 -195L293 -3L331 145L401 253Q390 168 352 108T263 17T162 -15Q122 -15 87 6T31 73T10 191Q10 266 34 332T101 448T203 526T328 555Q376 555 425 539T522 487L437 509L468 539L571 540L454
-200L387 -73L530 -130L514 -230H188ZM244 140Q260 140 274 151T302 184T325 236T341 303L363 439L394 378Q375 395 358 403T324 411Q298 411 277 394T239 349T215 285T206 214Q206 177 215 159T244 140Z" />
<glyph unicode="r" horiz-adv-x="464" d="M26 0L106 504L175 381L31 436L47 536L293 544L256 399L194 288Q210 380 250 439T342 526T444 555Q476 555 499 545L462 335H347L343 420L364 406Q341 409 323 396T292 360T271 307T257 246L219 0H26Z" />
<glyph unicode="s" horiz-adv-x="527" d="M191 -15Q142 -15 90 -8T-9 12L21 195H142L144 106L119 142Q135 133 157 128T207 123Q230 123 248 126T276 137T287 156Q287 170 270 179T226 197T169 216T111 246T67 293T50 366Q50 422 82 464T174 531T320 555Q368 555
422 548T525 526L493 359H373L367 430L396 406Q384 413 364 416T324 420Q303 420 286 416T260 405T249 388Q248 375 265 366T310 349T369 330T428 300T473 254T491 183Q491 125 456 81T353 11T191 -15Z" />
<glyph unicode="t" horiz-adv-x="428" d="M386 24Q340 5 296 -5T213 -15Q142 -15 97 22T52 141Q52 152 53 163T56 190L94 434L112 410H25L42 515L140 548L107 515L130 656L328 691L300 515L288 540H431L410 410H264L287 434L250 200Q249 196 249 190T248 176Q248
152 257 142T286 131Q298 131 314 135T349 147L386 24Z" />
<glyph unicode="u" horiz-adv-x="626" d="M182 -15Q132 -15 100 10T55 79T50 176L91 441L105 407L29 436L45 536L301 544L249 225Q246 203 245 183T249 150T273 137Q288 137 303 146T330 175T353 224T369 294L407 540H600L531 100L509 133L597 99L581 0L344 -6L372
144L432 252Q417 161 377 102T285 14T182 -15Z" />
<glyph unicode="v" horiz-adv-x="573" d="M157 -2L58 433L70 418L25 435L40 535L245 545L298 94L249 105L389 435L394 417L348 435L363 535L615 545L602 445L542 419L572 437L352 -2H157Z" />
<glyph unicode="w" horiz-adv-x="857" d="M111 -2L62 432L77 417L26 435L41 535L242 545L251 117H227L386 535L581 545L597 109H575L698 435L708 410L650 435L665 535L898 545L885 445L839 424L858 444L663 -2H456L422 392L477 385L318 -2H111Z" />
<glyph unicode="x" horiz-adv-x="566" d="M-28 0L-12 100L64 120L22 96L176 297H235L412 535L582 545L567 445L486 424L535 450L377 261H321L138 0H-28ZM326 0L197 235L76 447L106 414L46 435L62 535L231 550L347 338L485 97L459 123L527 100L511 0H326Z" />
<glyph unicode="y" horiz-adv-x="569" d="M-59 -236L-34 -96Q-17 -98 -3 -99T24 -101Q63 -101 91 -89T144 -48T195 29L186 -35L58 433L70 418L25 435L40 535L240 545L314 114L262 125L389 435L394 417L348 435L363 535L613 545L598 445L542 422L567 437L361 5Q351
-17 333 -48T288 -114T224 -178T137 -226T24 -245Q-17 -245 -59 -236Z" />
<glyph unicode="z" horiz-adv-x="517" d="M476 204L445 0H-10L6 115L315 445L336 405H133L190 448L162 345H46L76 540H518L501 425L184 79L186 135H367L311 79L360 204H476Z" />
<glyph unicode="{" horiz-adv-x="374" d="M223 -118Q156 -118 117 -92T64 -17T61 103L79 213Q87 262 75 287T9 312L29 442Q66 442 87 457T118 498T133 553L150 663Q160 727 186 774T258 846T378 872H456L437 752Q394 752 370 741T333 706T314 641L296 522Q288
467 261 433T192 384T92 368L84 386Q139 386 179 369T238 314T248 220L229 101Q223 61 227 40T252 10T318 2L299 -118H223Z" />
<glyph unicode="|" horiz-adv-x="288" d="M159 819H303L155 -115H11L159 819Z" />
<glyph unicode="}" horiz-adv-x="374" d="M185 872Q252 872 291 846T345 771T347 651L329 541Q321 492 334 467T399 442L379 312Q343 312 322 297T290 256T275 201L258 91Q248 27 223 -20T150 -92T30 -118H-48L-29 2Q14 2 38 13T75 48T94 113L112 232Q121 287
147 321T216 370T316 386L324 368Q269 368 229 386T170 440T160 534L179 653Q186 693 182 714T156 744T90 752L109 872H185Z" />
<glyph unicode="~" horiz-adv-x="569" d="M384 257Q355 257 331 266T285 287T244 308T203 317Q181 317 159 305T112 266L41 327Q91 407 132 434T212 461Q241 461 265 452T311 431T353 410T394 401Q417 401 438 414T483 452L553 389Q504 311 464 284T384 257Z" />
<glyph unicode="&#xa0;" horiz-adv-x="160" />
<glyph unicode="&#xa1;" horiz-adv-x="305" d="M214 215L176 -230H-27L74 206L214 215ZM182 495Q228 495 253 469T279 401Q279 352 246 320T162 287Q117 287 91 313T64 383Q64 434 98 464T182 495Z" />
<glyph unicode="&#xa2;" horiz-adv-x="513" d="M166 -22L190 134L247 99Q157 98 103 153T48 310Q48 375 65 429T116 525T199 590T314 620L263 582L287 741H412L388 588L346 621Q395 621 438 608T505 584L481 437H376L375 491Q368 492 359 492T343 493Q313 493
291 477T256 434T236 374T229 306Q229 266 245 249T292 231Q319 231 351 243T418 277L469 177Q414 138 363 121T261 99L315 137L291 -22H166Z" />
<glyph unicode="&#xa3;" horiz-adv-x="622" d="M0 0L16 100L126 140L62 99Q92 125 104 163T120 249T122 346L142 309H49L66 414L146 429L131 405Q128 518 158 588T248 692T394 725Q443 725 500 716T621 687L583 501H470L459 594L475 570Q441 579 416 579Q378 579
359 559T332 500T326 399L300 429H466L447 309H288L321 346Q322 293 316 254T292 184T241 120L221 145H434L403 114L446 230H562L525 0H0Z" />
<glyph unicode="&#xa4;" horiz-adv-x="636" d="M582 113L478 12L380 122H452Q418 97 379 85T297 72Q243 72 205 90T144 136L219 135L80 15L9 106L143 221L135 146Q117 168 107 198T97 264Q97 316 118 363T177 449L156 377L61 482L167 584L266 472L199 466Q234
489 271 500T350 511Q402 511 437 496T495 461L437 470L565 580L635 489L507 378V450Q550 401 550 324Q550 271 529 224T471 143L479 228L582 113ZM305 188Q339 188 359 208T389 260T398 322Q398 360 385 377T343 395Q309 395 288 375T258 324T248 262Q248 225
261 207T305 188Z" />
<glyph unicode="&#xa5;" horiz-adv-x="673" d="M99 306L113 396H217L199 367L115 603L139 578L82 605L96 705L386 710L370 610L297 580L311 614L385 348H346L499 605L510 571L445 605L460 705L714 710L699 610L634 583L673 609L511 362L502 396H604L589 306H99ZM138
0L153 100L238 131L214 105L230 204L254 176H78L92 266H583L569 176H384L427 207L411 104L401 132L475 100L459 0H138Z" />
<glyph unicode="&#xa6;" horiz-adv-x="288" d="M98 435L159 819H303L242 435H98ZM11 -115L72 269H216L155 -115H11Z" />
<glyph unicode="&#xa7;" horiz-adv-x="531" d="M173 -185Q128 -185 83 -177T-7 -156L19 0H134L136 -74L120 -52Q144 -63 170 -63Q205 -63 228 -46T251 -2Q251 20 236 36T197 66T146 97T95 134T55 184T40 255Q40 314 72 353T159 411T284 431L303 371Q277 371 255
360T220 329T206 286Q206 260 222 241T263 204T317 168T371 127T413 74T429 2Q429 -57 395 -99T303 -163T173 -185ZM224 107L219 167Q243 167 268 181T310 218T327 265Q327 288 311 305T270 339T218 373T165 414T124 469T108 545Q108 604 138 644T221 704T342 724Q383
724 430 717T527 694L502 549H388L380 621L405 594Q393 598 381 599T358 601Q326 601 304 587T281 546Q281 524 296 506T337 473T389 440T442 401T482 351T498 283Q498 223 460 184T360 126T224 107Z" />
<glyph unicode="&#xa8;" horiz-adv-x="468" d="M180 604Q142 604 121 628T99 693Q99 739 125 768T195 798Q233 798 255 774T277 709Q277 662 250 633T180 604ZM410 604Q372 604 351 628T329 693Q329 739 355 768T425 798Q463 798 485 774T507 709Q507 662 480
633T410 604Z" />
<glyph unicode="&#xa9;" horiz-adv-x="832" d="M423 144Q338 144 285 198T231 351Q231 422 259 469T334 539T439 563Q511 563 584 530L581 415H491L480 463L486 457Q482 458 471 459T451 460Q411 460 398 432T385 361Q385 303 403 277T457 250Q477 250 502 258T553
284L600 210Q557 175 511 160T423 144ZM418 -15Q338 -15 271 11T155 86T78 201T51 348Q51 430 79 499T159 618T281 697T433 725Q513 725 581 699T700 625T780 510T809 364Q809 282 779 213T696 92T571 13T418 -15ZM427 90Q484 90 530 109T610 164T661 248T679 355Q679
433 647 493T558 586T424 620Q348 620 294 587T210 494T181 357Q181 279 210 219T295 125T427 90Z" />
<glyph unicode="&#xaa;" horiz-adv-x="501" d="M13 126L35 261H487L465 126H13ZM177 310Q117 310 81 345T44 459Q44 533 76 593T166 688T300 724Q335 724 372 712T443 674L379 689L403 712L510 713L450 345L414 439L512 404L498 321L292 316L311 426L349 504Q341
442 314 399T251 333T177 310ZM238 423Q254 423 267 437T292 479T309 541L326 639L349 595Q335 608 322 613T297 619Q273 619 255 598T225 544T214 476Q214 449 220 436T238 423Z" />
<glyph unicode="&#xab;" horiz-adv-x="544" d="M163 29L25 222L37 316L235 509L316 440L159 233L168 307L260 103L163 29ZM403 29L265 222L277 316L475 509L556 440L399 233L408 307L500 103L403 29Z" />
<glyph unicode="&#xac;" horiz-adv-x="596" d="M387 281L372 301L341 114H494L543 421H69L47 281H387Z" />
<glyph unicode="&#xad;" horiz-adv-x="407" d="M382 368L359 218H32L56 368H382Z" />
<glyph unicode="&#xae;" horiz-adv-x="689" d="M226 309V360L264 376L252 357V559L270 538L226 555V605L366 609H392Q449 609 479 586T510 520Q510 486 487 464T410 434L418 448Q445 449 459 442T483 416L512 359L480 376L524 360V309H426L392 394Q388 405 383
410T370 417T353 419H337L353 433V357L340 376L380 360V309H226ZM353 467L337 481H362Q382 481 392 488T403 512Q403 526 395 533T370 540H337L353 554V467ZM364 151Q277 151 209 189T102 294T63 448Q63 539 104 609T216 719T378 759Q466 759 535 721T644 617T685
462Q685 395 661 338T592 239T490 174T364 151ZM367 231Q431 231 482 260T562 341T592 461Q592 527 564 575T487 651T377 678Q313 678 263 649T185 569T156 450Q156 385 183 336T257 259T367 231Z" />
<glyph unicode="&#xaf;" horiz-adv-x="383" d="M435 786L413 651H91L112 786H435Z" />
<glyph unicode="&#xb0;" horiz-adv-x="419" d="M227 403Q158 403 116 442T73 554Q73 611 98 654T168 722T268 747Q337 747 380 708T423 596Q423 543 399 499T330 429T227 403ZM236 509Q260 509 273 522T293 555T299 593Q299 621 288 631T259 642Q237 642 224 629T204
597T198 558Q198 532 207 521T236 509Z" />
<glyph unicode="&#xb1;" horiz-adv-x="552" d="M273 513L238 483L266 666H411L382 483L359 513H542L519 373H334L369 403L340 220H196L225 403L248 373H65L86 513H273ZM487 169L465 29H10L32 169H487Z" />
<glyph unicode="&#xb2;" horiz-adv-x="371" d="M36 345L54 463Q99 489 143 520T216 583T246 646Q246 662 238 667T219 673Q210 673 200 670T181 663L204 690L182 623H86L100 771Q140 779 182 785T261 792Q329 792 371 765T414 678Q414 634 392 597T338 530T274
481T220 451L221 470H383L363 345H36Z" />
<glyph unicode="&#xb3;" horiz-adv-x="369" d="M177 332Q137 332 97 340T20 366L75 468Q100 460 126 455T174 449Q199 449 215 457T231 485Q231 504 218 507T192 510H129L145 611H197Q202 611 215 612T241 622T254 651Q254 669 243 676T214 683Q203 683 191 681T167
675L193 696L177 643H81L94 764Q136 778 178 785T258 792Q326 792 372 767T419 682Q419 631 382 601T287 567L279 574Q340 569 365 543T391 477Q391 429 361 397T282 349T177 332Z" />
<glyph unicode="&#xb4;" horiz-adv-x="385" d="M134 592L66 688L306 868L396 734L134 592Z" />
<glyph unicode="&#xb5;" horiz-adv-x="672" d="M201 -236L10 -230L114 433L130 407L54 436L70 536L326 544L274 225Q271 203 270 183T274 150T298 137Q313 137 328 146T355 175T378 224T394 294L432 540H625L556 100L534 133L622 99L606 -1L369 -7L397 144L457
252Q444 160 409 101T329 14T242 -15Q200 -15 174 13T138 95L169 33Q177 11 189 -22T208 -106T201 -236Z" />
<glyph unicode="&#xb6;" horiz-adv-x="677" d="M83 -170L98 -70L187 -36L157 -75L214 302L240 280Q156 280 104 328T51 461Q51 534 83 590T171 678T299 710H724L709 610L622 570L649 611L525 -170H368L492 610L511 565H386L423 611L299 -170H83Z" />
<glyph unicode="&#xb7;" horiz-adv-x="301" d="M148 217Q102 217 77 243T51 311Q51 361 84 393T168 425Q213 425 239 399T266 329Q266 278 232 248T148 217Z" />
<glyph unicode="&#xb8;" horiz-adv-x="349" d="M71 -275Q41 -275 10 -268T-52 -246L-6 -154Q35 -172 77 -172Q94 -172 106 -167T118 -151Q118 -133 89 -126T24 -117L49 0H158L152 -39Q203 -46 228 -71T253 -136Q253 -178 228 -209T162 -258T71 -275Z" />
<glyph unicode="&#xb9;" horiz-adv-x="305" d="M277 424L261 456L333 425L321 345H35L47 425L154 451L129 424L162 646L204 648L92 593L62 689L211 780H332L277 424Z" />
<glyph unicode="&#xba;" horiz-adv-x="440" d="M222 310Q141 310 91 348T41 477Q41 523 56 567T102 647T182 704T296 725Q376 725 426 688T477 559Q477 497 450 440T367 347T222 310ZM7 126L29 261H413L391 126H7ZM242 415Q262 415 274 431T293 471T303 519T306
561Q306 592 299 606T274 620Q254 620 242 605T223 566T214 519T211 477Q211 446 217 431T242 415Z" />
<glyph unicode="&#xbb;" horiz-adv-x="545" d="M381 509L519 316L507 222L309 29L228 98L385 305L376 231L284 435L381 509ZM141 509L279 316L267 222L69 29L-12 98L145 305L136 231L44 435L141 509Z" />
<glyph unicode="&#xbc;" horiz-adv-x="940" d="M281 355L265 387L337 356L325 276H39L51 356L158 382L133 355L166 577L208 579L96 524L66 620L215 711H336L281 355ZM149 -12L650 723H802L301 -12H149ZM697 106L706 74H520L518 187L707 442L902 431L860 162L829
184H906L889 74H809L851 105L834 0H680L697 106ZM731 184L704 151L736 354L759 353L608 142L594 184H731Z" />
<glyph unicode="&#xbd;" horiz-adv-x="950" d="M281 355L265 387L337 356L325 276H39L51 356L158 382L133 355L166 577L208 579L96 524L66 620L215 711H336L281 355ZM151 -12L652 723H804L303 -12H151ZM552 0L570 118Q615 144 659 175T732 238T762 301Q762 317
754 322T735 328Q726 328 716 325T697 318L720 345L698 278H602L616 426Q656 434 698 440T777 447Q845 447 887 420T930 333Q930 289 908 252T854 185T790 136T736 106L737 125H899L879 0H552Z" />
<glyph unicode="&#xbe;" horiz-adv-x="975" d="M166 263Q126 263 86 271T9 297L64 399Q89 391 115 386T163 380Q188 380 204 388T220 416Q220 435 207 438T181 441H118L134 542H186Q191 542 204 543T230 553T243 582Q243 600 232 607T203 614Q192 614 180 612T156
606L182 627L166 574H70L83 695Q125 709 167 716T247 723Q315 723 361 698T408 613Q408 562 371 532T276 498L268 505Q329 500 354 474T380 408Q380 360 350 328T271 280T166 263ZM188 -12L689 723H841L340 -12H188ZM732 106L741 74H555L553 187L742 442L937 431L895
162L864 184H941L924 74H844L886 105L869 0H715L732 106ZM766 184L739 151L771 354L794 353L643 142L629 184H766Z" />
<glyph unicode="&#xbf;" horiz-adv-x="429" d="M357 250Q357 246 359 237T361 212Q361 171 342 143T294 94T237 56T189 21T169 -23Q169 -46 184 -55T224 -64Q256 -64 294 -54T362 -31L396 -163Q341 -186 281 -199T165 -212Q111 -212 66 -198T-6 -151T-33 -61Q-33
-18 -16 14T30 70T89 114T149 153T194 192T212 239Q212 243 212 245T212 250H357ZM302 531Q348 531 373 505T399 437Q399 388 366 356T282 323Q237 323 211 349T184 419Q184 470 218 500T302 531Z" />
<glyph unicode="&#xc0;" horiz-adv-x="699" d="M639 89L598 135L665 100L649 0H363L379 100L437 131L429 104L417 205L428 180H213L239 203L195 105L194 127L246 100L230 0H-37L-21 100L59 133L5 94L320 708L525 713L639 89ZM279 291L272 320H421L408 286L371
605L420 604L279 291ZM548 756L272 858L344 998L600 850L548 756Z" />
<glyph unicode="&#xc1;" horiz-adv-x="699" d="M639 89L598 135L665 100L649 0H363L379 100L437 131L429 104L417 205L428 180H213L239 203L195 105L194 127L246 100L230 0H-37L-21 100L59 133L5 94L320 708L525 713L639 89ZM279 291L272 320H421L408 286L371
605L420 604L279 291ZM327 756L282 847L557 1001L616 858L327 756Z" />
<glyph unicode="&#xc2;" horiz-adv-x="699" d="M639 89L598 135L665 100L649 0H363L379 100L437 131L429 104L417 205L428 180H213L239 203L195 105L194 127L246 100L230 0H-37L-21 100L59 133L5 94L320 708L525 713L639 89ZM279 291L272 320H421L408 286L371
605L420 604L279 291ZM289 752L238 828L405 970L514 981L651 828L579 752L382 884L517 882L289 752Z" />
<glyph unicode="&#xc3;" horiz-adv-x="699" d="M639 89L598 135L665 100L649 0H363L379 100L437 131L429 104L417 205L428 180H213L239 203L195 105L194 127L246 100L230 0H-37L-21 100L59 133L5 94L320 708L525 713L639 89ZM279 291L272 320H421L408 286L371
605L420 604L279 291ZM312 777L241 822Q273 893 306 924T378 955Q406 955 431 944T480 922T522 911Q553 911 587 958L660 915Q628 843 591 811T513 779Q486 779 462 790T417 811T372 822Q357 822 344 811T312 777Z" />
<glyph unicode="&#xc4;" horiz-adv-x="699" d="M639 89L598 135L665 100L649 0H363L379 100L437 131L429 104L417 205L428 180H213L239 203L195 105L194 127L246 100L230 0H-37L-21 100L59 133L5 94L320 708L525 713L639 89ZM279 291L272 320H421L408 286L371
605L420 604L279 291ZM328 756Q290 756 269 780T247 845Q247 891 273 920T343 950Q381 950 403 926T425 861Q425 814 398 785T328 756ZM558 756Q520 756 499 780T477 845Q477 891 503 920T573 950Q611 950 633 926T655 861Q655 814 628 785T558 756Z" />
<glyph unicode="&#xc5;" horiz-adv-x="699" d="M639 89L598 135L665 100L649 0H363L379 100L437 131L429 104L417 205L428 180H213L239 203L195 105L194 127L246 100L230 0H-37L-21 100L59 133L5 94L320 708L525 713L639 89ZM279 291L272 320H421L408 286L371
605L420 604L279 291ZM435 730Q362 730 329 768T296 857Q296 901 316 939T377 1000T473 1024Q545 1024 577 986T610 895Q610 854 590 816T532 754T435 730ZM442 818Q473 818 486 842T500 893Q500 913 492 924T464 936Q433 936 420 913T406 861Q406 841 414 830T442
818Z" />
<glyph unicode="&#xc6;" horiz-adv-x="913" d="M-37 0L-21 100L61 133L4 92L293 598L308 568L220 605L236 705L489 710H934L902 508H788L778 593L806 565H631L666 595L635 400L614 430H810L788 290H587L623 325L588 106L568 145H743L711 111L750 211H866L832 0H328L344
100L420 136L390 104L409 221L436 190H215L258 221L187 91L184 133L247 100L231 0H-37ZM304 305L286 330H456L423 305L468 584L494 565H417L456 583L304 305Z" />
<glyph unicode="&#xc7;" horiz-adv-x="607" d="M254 -275Q224 -275 193 -268T131 -246L177 -154Q218 -172 260 -172Q277 -172 289 -167T301 -151Q301 -133 272 -126T207 -117L255 110H364L335 -39Q386 -46 411 -71T436 -136Q436 -178 411 -209T345 -258T254 -275ZM37
293Q37 379 63 456T138 594T256 690T413 725Q468 725 521 711T634 669L594 472H479L465 579L498 551Q472 562 451 566T413 570Q369 570 337 546T285 481T255 394T245 302Q245 245 259 212T297 163T352 148Q385 148 422 163T497 205L559 82Q498 33 432 9T304 -15Q231
-15 171 18T74 120T37 293Z" />
<glyph unicode="&#xc8;" horiz-adv-x="585" d="M422 211H538L503 0H-12L4 100L84 131L60 106L139 600L158 571L84 605L100 705L350 710H606L574 508H460L450 591L479 565H301L335 595L304 400L283 430H482L459 290H258L292 325L257 105L238 145H427L385 115L422
211ZM488 756L212 858L284 998L540 850L488 756Z" />
<glyph unicode="&#xc9;" horiz-adv-x="585" d="M422 211H538L503 0H-12L4 100L84 131L60 106L139 600L158 571L84 605L100 705L350 710H606L574 508H460L450 591L479 565H301L335 595L304 400L283 430H482L459 290H258L292 325L257 105L238 145H427L385 115L422
211ZM267 756L222 847L497 1001L556 858L267 756Z" />
<glyph unicode="&#xca;" horiz-adv-x="585" d="M422 211H538L503 0H-12L4 100L84 131L60 106L139 600L158 571L84 605L100 705L350 710H606L574 508H460L450 591L479 565H301L335 595L304 400L283 430H482L459 290H258L292 325L257 105L238 145H427L385 115L422
211ZM229 752L178 828L345 970L454 981L591 828L519 752L322 884L457 882L229 752Z" />
<glyph unicode="&#xcb;" horiz-adv-x="585" d="M422 211H538L503 0H-12L4 100L84 131L60 106L139 600L158 571L84 605L100 705L350 710H606L574 508H460L450 591L479 565H301L335 595L304 400L283 430H482L459 290H258L292 325L257 105L238 145H427L385 115L422
211ZM268 756Q230 756 209 780T187 845Q187 891 213 920T283 950Q321 950 343 926T365 861Q365 814 338 785T268 756ZM498 756Q460 756 439 780T417 845Q417 891 443 920T513 950Q551 950 573 926T595 861Q595 814 568 785T498 756Z" />
<glyph unicode="&#xcc;" horiz-adv-x="371" d="M397 610L314 572L335 598L257 105L247 132L316 100L300 0H-12L4 100L84 131L60 105L138 597L158 571L84 605L100 705L413 710L397 610ZM632 756L356 858L428 998L684 850L632 756Z" />
<glyph unicode="&#xcd;" horiz-adv-x="371" d="M397 610L314 572L335 598L257 105L247 132L316 100L300 0H-12L4 100L84 131L60 105L138 597L158 571L84 605L100 705L413 710L397 610ZM411 756L366 847L641 1001L700 858L411 756Z" />
<glyph unicode="&#xce;" horiz-adv-x="371" d="M397 610L314 572L335 598L257 105L247 132L316 100L300 0H-12L4 100L84 131L60 105L138 597L158 571L84 605L100 705L413 710L397 610ZM373 752L322 828L489 970L598 981L735 828L663 752L466 884L601 882L373 752Z" />
<glyph unicode="&#xcf;" horiz-adv-x="371" d="M397 610L314 572L335 598L257 105L247 132L316 100L300 0H-12L4 100L84 131L60 105L138 597L158 571L84 605L100 705L413 710L397 610ZM156 756Q118 756 97 780T75 845Q75 891 101 920T171 950Q209 950 231 926T253
861Q253 814 226 785T156 756ZM386 756Q348 756 327 780T305 845Q305 891 331 920T401 950Q439 950 461 926T483 861Q483 814 456 785T386 756Z" />
<glyph unicode="&#xd0;" horiz-adv-x="695" d="M34 294L57 426H389L366 294H34ZM412 710Q505 710 566 679T656 586T686 430Q686 342 660 264T583 127T456 34T277 0H-12L4 100L84 131L60 105L139 600L158 571L84 605L100 705L354 710H412ZM313 145Q355 145 384
167T431 226T460 303T474 383T478 448Q478 482 471 508T444 549T383 565H301L336 600L257 105L238 145H313Z" />
<glyph unicode="&#xd1;" horiz-adv-x="730" d="M508 705L779 710L763 610L685 572L707 600L611 0H397L260 495H282L220 105L210 132L276 100L260 0H-12L4 100L84 131L60 105L139 600L158 571L84 605L100 705L383 710L512 228H488L547 600L566 571L492 605L508
705ZM328 777L257 822Q289 893 322 924T394 955Q422 955 447 944T496 922T538 911Q569 911 603 958L676 915Q644 843 607 811T529 779Q502 779 478 790T433 811T388 822Q373 822 360 811T328 777Z" />
<glyph unicode="&#xd2;" horiz-adv-x="708" d="M312 -15Q216 -15 155 20T65 121T36 277Q36 335 48 397T89 518T162 623T272 697T424 725Q520 725 581 690T671 590T700 434Q700 376 688 314T648 193T575 87T465 13T312 -15ZM330 140Q370 140 398 162T444 219T473
296T488 375T492 442Q492 489 482 517T454 557T407 570Q367 570 339 549T292 492T263 417T248 338T244 272Q244 224 254 195T283 153T330 140ZM558 756L282 858L354 998L610 850L558 756Z" />
<glyph unicode="&#xd3;" horiz-adv-x="708" d="M312 -15Q216 -15 155 20T65 121T36 277Q36 335 48 397T89 518T162 623T272 697T424 725Q520 725 581 690T671 590T700 434Q700 376 688 314T648 193T575 87T465 13T312 -15ZM330 140Q370 140 398 162T444 219T473
296T488 375T492 442Q492 489 482 517T454 557T407 570Q367 570 339 549T292 492T263 417T248 338T244 272Q244 224 254 195T283 153T330 140ZM337 756L292 847L567 1001L626 858L337 756Z" />
<glyph unicode="&#xd4;" horiz-adv-x="708" d="M312 -15Q216 -15 155 20T65 121T36 277Q36 335 48 397T89 518T162 623T272 697T424 725Q520 725 581 690T671 590T700 434Q700 376 688 314T648 193T575 87T465 13T312 -15ZM330 140Q370 140 398 162T444 219T473
296T488 375T492 442Q492 489 482 517T454 557T407 570Q367 570 339 549T292 492T263 417T248 338T244 272Q244 224 254 195T283 153T330 140ZM299 752L248 828L415 970L524 981L661 828L589 752L392 884L527 882L299 752Z" />
<glyph unicode="&#xd5;" horiz-adv-x="708" d="M312 -15Q216 -15 155 20T65 121T36 277Q36 335 48 397T89 518T162 623T272 697T424 725Q520 725 581 690T671 590T700 434Q700 376 688 314T648 193T575 87T465 13T312 -15ZM330 140Q370 140 398 162T444 219T473
296T488 375T492 442Q492 489 482 517T454 557T407 570Q367 570 339 549T292 492T263 417T248 338T244 272Q244 224 254 195T283 153T330 140ZM322 777L251 822Q283 893 316 924T388 955Q416 955 441 944T490 922T532 911Q563 911 597 958L670 915Q638 843 601
811T523 779Q496 779 472 790T427 811T382 822Q367 822 354 811T322 777Z" />
<glyph unicode="&#xd6;" horiz-adv-x="708" d="M312 -15Q216 -15 155 20T65 121T36 277Q36 335 48 397T89 518T162 623T272 697T424 725Q520 725 581 690T671 590T700 434Q700 376 688 314T648 193T575 87T465 13T312 -15ZM330 140Q370 140 398 162T444 219T473
296T488 375T492 442Q492 489 482 517T454 557T407 570Q367 570 339 549T292 492T263 417T248 338T244 272Q244 224 254 195T283 153T330 140ZM338 756Q300 756 279 780T257 845Q257 891 283 920T353 950Q391 950 413 926T435 861Q435 814 408 785T338 756ZM568
756Q530 756 509 780T487 845Q487 891 513 920T583 950Q621 950 643 926T665 861Q665 814 638 785T568 756Z" />
<glyph unicode="&#xd7;" horiz-adv-x="500" d="M108 120L21 224L185 371L183 326L60 477L176 583L298 432L256 434L419 582L505 478L342 331L344 376L466 225L351 119L228 270L271 268L108 120Z" />
<glyph unicode="&#xd8;" horiz-adv-x="713" d="M628 790L720 729L620 597L603 582L242 109L241 99L103 -83L10 -22L170 188L187 202L524 646L528 659L628 790ZM315 -15Q219 -15 158 20T68 121T39 277Q39 335 51 397T92 518T165 623T275 697T427 725Q523 725 584
690T674 590T703 434Q703 376 691 314T651 193T578 87T468 13T315 -15ZM333 140Q373 140 401 162T447 219T476 296T491 375T495 442Q495 489 486 517T457 557T411 570Q370 570 342 548T295 491T266 415T251 336T247 270Q247 223 257 195T286 153T333 140Z" />
<glyph unicode="&#xd9;" horiz-adv-x="715" d="M459 705L772 710L756 610L673 572L695 600L645 279Q629 173 586 109T475 15T315 -15Q191 -15 128 37T64 200Q64 217 66 236T71 276L123 600L139 573L68 605L84 705L391 710L375 610L298 572L320 600L267 264Q264
247 263 232T261 205Q261 171 276 156T327 140Q366 140 389 156T427 206T449 291L498 600L517 571L443 605L459 705ZM549 756L273 858L345 998L601 850L549 756Z" />
<glyph unicode="&#xda;" horiz-adv-x="715" d="M459 705L772 710L756 610L673 572L695 600L645 279Q629 173 586 109T475 15T315 -15Q191 -15 128 37T64 200Q64 217 66 236T71 276L123 600L139 573L68 605L84 705L391 710L375 610L298 572L320 600L267 264Q264
247 263 232T261 205Q261 171 276 156T327 140Q366 140 389 156T427 206T449 291L498 600L517 571L443 605L459 705ZM328 756L283 847L558 1001L617 858L328 756Z" />
<glyph unicode="&#xdb;" horiz-adv-x="715" d="M459 705L772 710L756 610L673 572L695 600L645 279Q629 173 586 109T475 15T315 -15Q191 -15 128 37T64 200Q64 217 66 236T71 276L123 600L139 573L68 605L84 705L391 710L375 610L298 572L320 600L267 264Q264
247 263 232T261 205Q261 171 276 156T327 140Q366 140 389 156T427 206T449 291L498 600L517 571L443 605L459 705ZM290 752L239 828L406 970L515 981L652 828L580 752L383 884L518 882L290 752Z" />
<glyph unicode="&#xdc;" horiz-adv-x="715" d="M459 705L772 710L756 610L673 572L695 600L645 279Q629 173 586 109T475 15T315 -15Q191 -15 128 37T64 200Q64 217 66 236T71 276L123 600L139 573L68 605L84 705L391 710L375 610L298 572L320 600L267 264Q264
247 263 232T261 205Q261 171 276 156T327 140Q366 140 389 156T427 206T449 291L498 600L517 571L443 605L459 705ZM329 756Q291 756 270 780T248 845Q248 891 274 920T344 950Q382 950 404 926T426 861Q426 814 399 785T329 756ZM559 756Q521 756 500 780T478
845Q478 891 504 920T574 950Q612 950 634 926T656 861Q656 814 629 785T559 756Z" />
<glyph unicode="&#xdd;" horiz-adv-x="649" d="M126 0L141 100L226 131L202 105L230 281L241 216L93 603L118 577L60 605L74 705L364 710L348 610L275 580L289 614L373 348H334L497 605L508 571L443 605L458 705L712 710L697 610L634 584L671 609L403 216L427
281L399 105L389 132L463 100L447 0H126ZM312 756L267 847L542 1001L601 858L312 756Z" />
<glyph unicode="&#xde;" horiz-adv-x="599" d="M-12 0L4 100L84 131L60 105L139 600L158 571L84 605L100 705L413 710L397 610L314 572L336 603L327 544L318 559H398Q474 559 518 540T581 484T600 399Q600 323 562 269T455 185T289 156H250L268 178L257 105L247
132L330 100L314 0H-12ZM285 283L273 296H294Q334 296 357 305T392 331T403 372Q403 392 392 405T340 419H292L309 434L285 283Z" />
<glyph unicode="&#xdf;" horiz-adv-x="721" d="M-40 -245Q-68 -245 -91 -242T-130 -235L-99 -101Q-89 -102 -79 -103T-59 -105Q-27 -105 0 -87T35 -19L104 417L126 400H21L39 510L145 540L123 515L132 570Q145 649 192 698T305 771T439 795Q504 795 556 776T639
718T670 625Q670 593 661 568T636 524T604 488T572 459T548 433T538 407Q538 392 550 381T580 359T619 335T658 303T689 256T701 188Q701 122 668 77T579 8T454 -15Q414 -15 371 -7T283 16L310 182H425L427 94L405 124Q419 117 432 114T456 110Q472 110 484 115T503
131T510 153Q510 170 498 182T468 205T428 230T389 262T358 307T346 372Q346 406 355 432T380 477T413 513T445 544T470 575T480 612Q480 638 464 652T421 666Q389 666 359 644T321 570L236 30Q223 -55 194 -109T125 -192T43 -233T-40 -245Z" />
<glyph unicode="&#xe0;" horiz-adv-x="597" d="M162 -15Q122 -15 87 6T31 73T10 191Q10 267 34 333T101 449T203 527T328 556Q376 556 425 540T522 487L435 507L468 539L571 540L491 33L424 160L568 103L551 0L315 -7L343 145L400 253Q389 168 351 108T263 17T162
-15ZM244 140Q260 140 275 151T302 184T325 236T341 303L363 439L394 378Q375 395 358 403T324 411Q298 411 277 394T239 349T215 285T206 214Q206 177 215 159T244 140ZM274 872L502 686L435 590L181 735L274 872Z" />
<glyph unicode="&#xe1;" horiz-adv-x="597" d="M162 -15Q122 -15 87 6T31 73T10 191Q10 267 34 333T101 449T203 527T328 556Q376 556 425 540T522 487L435 507L468 539L571 540L491 33L424 160L568 103L551 0L315 -7L343 145L400 253Q389 168 351 108T263 17T162
-15ZM244 140Q260 140 275 151T302 184T325 236T341 303L363 439L394 378Q375 395 358 403T324 411Q298 411 277 394T239 349T215 285T206 214Q206 177 215 159T244 140ZM275 592L207 688L447 868L537 734L275 592Z" />
<glyph unicode="&#xe2;" horiz-adv-x="597" d="M162 -15Q122 -15 87 6T31 73T10 191Q10 267 34 333T101 449T203 527T328 556Q376 556 425 540T522 487L435 507L468 539L571 540L491 33L424 160L568 103L551 0L315 -7L343 145L400 253Q389 168 351 108T263 17T162
-15ZM244 140Q260 140 275 151T302 184T325 236T341 303L363 439L394 378Q375 395 358 403T324 411Q298 411 277 394T239 349T215 285T206 214Q206 177 215 159T244 140ZM198 865L146 936L310 1093L419 1104L550 936L479 865L288 1010L423 1008L198 865Z" />
<glyph unicode="&#xe3;" horiz-adv-x="597" d="M162 -15Q122 -15 87 6T31 73T10 191Q10 267 34 333T101 449T203 527T328 556Q376 556 425 540T522 487L435 507L468 539L571 540L491 33L424 160L568 103L551 0L315 -7L343 145L400 253Q389 168 351 108T263 17T162
-15ZM244 140Q260 140 275 151T302 184T325 236T341 303L363 439L394 378Q375 395 358 403T324 411Q298 411 277 394T239 349T215 285T206 214Q206 177 215 159T244 140ZM412 633Q384 633 363 644T322 667T280 679Q261 679 244 668T208 633L139 673Q171 746 210
783T292 821Q320 821 341 810T381 787T423 775Q443 775 460 787T495 821L564 783Q532 709 494 671T412 633Z" />
<glyph unicode="&#xe4;" horiz-adv-x="597" d="M162 -15Q122 -15 87 6T31 73T10 191Q10 267 34 333T101 449T203 527T328 556Q376 556 425 540T522 487L435 507L468 539L571 540L491 33L424 160L568 103L551 0L315 -7L343 145L400 253Q389 168 351 108T263 17T162
-15ZM244 140Q260 140 275 151T302 184T325 236T341 303L363 439L394 378Q375 395 358 403T324 411Q298 411 277 394T239 349T215 285T206 214Q206 177 215 159T244 140ZM227 604Q189 604 168 628T146 693Q146 739 172 768T242 798Q280 798 302 774T324 709Q324
662 297 633T227 604ZM457 604Q419 604 398 628T376 693Q376 739 402 768T472 798Q510 798 532 774T554 709Q554 662 527 633T457 604Z" />
<glyph unicode="&#xe5;" horiz-adv-x="597" d="M162 -15Q122 -15 87 6T31 73T10 191Q10 267 34 333T101 449T203 527T328 556Q376 556 425 540T522 487L435 507L468 539L571 540L491 33L424 160L568 103L551 0L315 -7L343 145L400 253Q389 168 351 108T263 17T162
-15ZM244 140Q260 140 275 151T302 184T325 236T341 303L363 439L394 378Q375 395 358 403T324 411Q298 411 277 394T239 349T215 285T206 214Q206 177 215 159T244 140ZM338 592Q265 592 232 630T199 719Q199 763 219 801T280 862T376 886Q448 886 480 848T513
757Q513 716 493 678T435 616T338 592ZM345 680Q376 680 389 704T403 755Q403 775 395 786T367 798Q336 798 323 775T309 723Q309 703 317 692T345 680Z" />
<glyph unicode="&#xe6;" horiz-adv-x="813" d="M346 129Q336 87 315 60T267 16T210 -8T148 -15Q87 -15 46 23T4 137Q4 184 21 216T69 269T143 298T237 307H327L306 288Q312 314 314 336T317 366Q317 395 302 404T259 414Q229 414 194 407T121 394L216 496L176
351H64L78 517Q135 531 200 543T319 555Q376 555 411 536T447 466Q447 465 447 464T446 458L397 470Q438 510 493 532T615 555Q709 555 761 512T813 395Q813 351 794 318T741 261T663 223T566 203T460 200L491 242Q491 238 491 233T491 223Q491 171 512 149T569
126Q598 126 634 138T713 171L765 54Q707 21 645 3T524 -15Q419 -15 358 44T297 204Q297 218 297 231T299 255L341 202H262Q251 202 239 202T217 197T201 185T194 161Q194 143 203 134T228 124Q237 124 248 127T271 139T289 164T297 204L346 129ZM492 250L464 311Q487
309 510 310T553 315T589 327T614 347T623 378Q623 394 614 406T586 419Q565 419 549 403T521 360T502 305T492 250Z" />
<glyph unicode="&#xe7;" horiz-adv-x="490" d="M234 -15Q172 -15 122 11T42 90T12 225Q12 299 37 360T105 464T207 531T331 555Q372 555 415 545T501 514L476 349H351L344 419L362 402Q335 416 311 416Q285 416 266 401T234 359T215 301T208 236Q208 178 226 154T278
129Q301 129 329 139T389 165L441 49Q389 17 336 1T234 -15ZM195 -275Q165 -275 134 -268T72 -246L118 -154Q159 -172 201 -172Q218 -172 230 -167T242 -151Q242 -133 213 -126T148 -117L173 0H282L276 -39Q327 -46 352 -71T377 -136Q377 -178 352 -209T286 -258T195
-275Z" />
<glyph unicode="&#xe8;" horiz-adv-x="528" d="M238 -15Q173 -15 122 10T42 87T12 218Q12 283 33 343T94 451T194 527T329 555Q423 555 476 513T530 398Q530 348 505 311T436 248T338 211T222 198Q208 198 200 198T187 199L197 312Q205 311 213 311T229 310Q250
310 269 314T304 326T329 348T338 378Q338 395 329 407T302 419Q279 419 261 400T231 350T213 286T206 223Q206 171 226 149T283 126Q312 126 348 138T428 171L480 54Q417 20 355 3T238 -15ZM269 872L497 686L430 590L176 735L269 872Z" />
<glyph unicode="&#xe9;" horiz-adv-x="528" d="M238 -15Q173 -15 122 10T42 87T12 218Q12 283 33 343T94 451T194 527T329 555Q423 555 476 513T530 398Q530 348 505 311T436 248T338 211T222 198Q208 198 200 198T187 199L197 312Q205 311 213 311T229 310Q250
310 269 314T304 326T329 348T338 378Q338 395 329 407T302 419Q279 419 261 400T231 350T213 286T206 223Q206 171 226 149T283 126Q312 126 348 138T428 171L480 54Q417 20 355 3T238 -15ZM270 592L202 688L442 868L532 734L270 592Z" />
<glyph unicode="&#xea;" horiz-adv-x="528" d="M238 -15Q173 -15 122 10T42 87T12 218Q12 283 33 343T94 451T194 527T329 555Q423 555 476 513T530 398Q530 348 505 311T436 248T338 211T222 198Q208 198 200 198T187 199L197 312Q205 311 213 311T229 310Q250
310 269 314T304 326T329 348T338 378Q338 395 329 407T302 419Q279 419 261 400T231 350T213 286T206 223Q206 171 226 149T283 126Q312 126 348 138T428 171L480 54Q417 20 355 3T238 -15ZM193 865L141 936L305 1093L414 1104L545 936L474 865L283 1010L418 1008L193
865Z" />
<glyph unicode="&#xeb;" horiz-adv-x="528" d="M238 -15Q173 -15 122 10T42 87T12 218Q12 283 33 343T94 451T194 527T329 555Q423 555 476 513T530 398Q530 348 505 311T436 248T338 211T222 198Q208 198 200 198T187 199L197 312Q205 311 213 311T229 310Q250
310 269 314T304 326T329 348T338 378Q338 395 329 407T302 419Q279 419 261 400T231 350T213 286T206 223Q206 171 226 149T283 126Q312 126 348 138T428 171L480 54Q417 20 355 3T238 -15ZM222 604Q184 604 163 628T141 693Q141 739 167 768T237 798Q275 798
297 774T319 709Q319 662 292 633T222 604ZM452 604Q414 604 393 628T371 693Q371 739 397 768T467 798Q505 798 527 774T549 709Q549 662 522 633T452 604Z" />
<glyph unicode="&#xec;" horiz-adv-x="329" d="M25 -6L106 504L175 381L31 436L47 536L304 544L223 30L155 157L299 100L283 0L25 -6ZM413 872L641 686L574 590L320 735L413 872Z" />
<glyph unicode="&#xed;" horiz-adv-x="329" d="M25 -6L106 504L175 381L31 436L47 536L304 544L223 30L155 157L299 100L283 0L25 -6ZM158 592L90 688L330 868L420 734L158 592Z" />
<glyph unicode="&#xee;" horiz-adv-x="329" d="M94 609L37 680L181 837L290 848L394 670L319 609L169 759L294 752L94 609ZM25 -6L106 504L175 381L31 436L47 536L304 544L223 30L155 157L299 100L283 0L25 -6Z" />
<glyph unicode="&#xef;" horiz-adv-x="332" d="M25 -6L106 504L175 381L31 436L47 536L304 544L223 30L155 157L299 100L283 0L25 -6ZM111 604Q73 604 52 628T30 693Q30 739 56 768T126 798Q164 798 186 774T208 709Q208 662 181 633T111 604ZM318 604Q280 604
259 628T237 693Q237 739 263 768T333 798Q371 798 393 774T415 709Q415 662 388 633T318 604Z" />
<glyph unicode="&#xf0;" horiz-adv-x="565" d="M220 -15Q113 -15 59 43T4 195Q4 254 23 306T78 398T161 460T265 483Q299 483 329 475T383 449T420 404H386Q387 498 360 552T282 629T157 655L185 795Q283 795 353 764T467 678T533 552T554 399Q554 314 532 239T468
107T363 18T220 -15ZM246 125Q275 125 294 142T323 185T338 238T342 286Q342 317 333 334T295 352Q267 352 249 335T220 292T205 239T201 189Q201 158 210 142T246 125ZM247 518L199 596L489 799L538 720L247 518Z" />
<glyph unicode="&#xf1;" horiz-adv-x="627" d="M324 -6L377 315Q381 337 382 357T378 390T353 403Q338 403 323 393T296 364T273 315T257 246L219 0H26L106 504L175 381L31 436L47 536L293 544L256 399L194 288Q209 379 249 438T341 526T441 555Q493 555 526 530T572
461T576 362L534 99L450 160L600 103L583 0L324 -6ZM439 633Q411 633 390 644T349 667T307 679Q288 679 271 668T235 633L166 673Q198 746 237 783T319 821Q347 821 368 810T408 787T450 775Q470 775 487 787T522 821L591 783Q559 709 521 671T439 633Z" />
<glyph unicode="&#xf2;" horiz-adv-x="565" d="M333 555Q398 555 447 534T525 463T553 331Q553 267 534 206T476 94T377 15T232 -15Q167 -15 118 7T41 77T13 207Q13 271 31 332T89 444T188 525T333 555ZM307 415Q276 415 257 391T227 332T213 262T209 205Q209
169 219 147T257 125Q288 125 307 149T338 208T353 279T357 336Q357 371 347 393T307 415ZM277 872L505 686L438 590L184 735L277 872Z" />
<glyph unicode="&#xf3;" horiz-adv-x="565" d="M333 555Q398 555 447 534T525 463T553 331Q553 267 534 206T476 94T377 15T232 -15Q167 -15 118 7T41 77T13 207Q13 271 31 332T89 444T188 525T333 555ZM307 415Q276 415 257 391T227 332T213 262T209 205Q209
169 219 147T257 125Q288 125 307 149T338 208T353 279T357 336Q357 371 347 393T307 415ZM278 592L210 688L450 868L540 734L278 592Z" />
<glyph unicode="&#xf4;" horiz-adv-x="565" d="M333 555Q398 555 447 534T525 463T553 331Q553 267 534 206T476 94T377 15T232 -15Q167 -15 118 7T41 77T13 207Q13 271 31 332T89 444T188 525T333 555ZM307 415Q276 415 257 391T227 332T213 262T209 205Q209
169 219 147T257 125Q288 125 307 149T338 208T353 279T357 336Q357 371 347 393T307 415ZM201 865L149 936L313 1093L422 1104L553 936L482 865L291 1010L426 1008L201 865Z" />
<glyph unicode="&#xf5;" horiz-adv-x="565" d="M333 555Q398 555 447 534T525 463T553 331Q553 267 534 206T476 94T377 15T232 -15Q167 -15 118 7T41 77T13 207Q13 271 31 332T89 444T188 525T333 555ZM307 415Q276 415 257 391T227 332T213 262T209 205Q209
169 219 147T257 125Q288 125 307 149T338 208T353 279T357 336Q357 371 347 393T307 415ZM415 633Q387 633 366 644T325 667T283 679Q264 679 247 668T211 633L142 673Q174 746 213 783T295 821Q323 821 344 810T384 787T426 775Q446 775 463 787T498 821L567
783Q535 709 497 671T415 633Z" />
<glyph unicode="&#xf6;" horiz-adv-x="565" d="M333 555Q398 555 447 534T525 463T553 331Q553 267 534 206T476 94T377 15T232 -15Q167 -15 118 7T41 77T13 207Q13 271 31 332T89 444T188 525T333 555ZM307 415Q276 415 257 391T227 332T213 262T209 205Q209
169 219 147T257 125Q288 125 307 149T338 208T353 279T357 336Q357 371 347 393T307 415ZM230 604Q192 604 171 628T149 693Q149 739 175 768T245 798Q283 798 305 774T327 709Q327 662 300 633T230 604ZM460 604Q422 604 401 628T379 693Q379 739 405 768T475
798Q513 798 535 774T557 709Q557 662 530 633T460 604Z" />
<glyph unicode="&#xf7;" horiz-adv-x="609" d="M556 421L534 281H79L101 421H556ZM273 41Q227 41 202 67T176 135Q176 185 209 217T293 249Q338 249 364 223T391 153Q391 102 357 72T273 41ZM338 451Q292 451 267 477T241 545Q241 595 274 627T358 659Q403 659
429 633T456 563Q456 512 422 482T338 451Z" />
<glyph unicode="&#xf8;" horiz-adv-x="585" d="M526 648L596 603L411 361L402 356L210 104L204 89L57 -103L-14 -58L164 175L178 186L366 432L371 447L526 648ZM343 555Q407 555 456 534T534 463T562 332Q562 268 543 206T485 94T385 15T241 -15Q176 -15 127 7T50
78T22 207Q22 271 41 332T99 444T198 525T343 555ZM319 415Q286 415 266 391T236 332T222 261T218 203Q218 163 227 144T263 125Q296 125 316 149T347 209T362 280T366 336Q366 377 356 396T319 415Z" />
<glyph unicode="&#xf9;" horiz-adv-x="626" d="M182 -15Q132 -15 100 10T55 79T50 176L91 441L105 407L29 436L45 536L301 544L249 225Q246 203 245 183T249 150T273 137Q288 137 303 146T330 175T353 224T369 294L407 540H600L531 100L509 133L597 99L581 0L344
-6L372 144L432 252Q417 161 377 102T285 14T182 -15ZM297 872L525 686L458 590L204 735L297 872Z" />
<glyph unicode="&#xfa;" horiz-adv-x="626" d="M182 -15Q132 -15 100 10T55 79T50 176L91 441L105 407L29 436L45 536L301 544L249 225Q246 203 245 183T249 150T273 137Q288 137 303 146T330 175T353 224T369 294L407 540H600L531 100L509 133L597 99L581 0L344
-6L372 144L432 252Q417 161 377 102T285 14T182 -15ZM298 592L230 688L470 868L560 734L298 592Z" />
<glyph unicode="&#xfb;" horiz-adv-x="626" d="M182 -15Q132 -15 100 10T55 79T50 176L91 441L105 407L29 436L45 536L301 544L249 225Q246 203 245 183T249 150T273 137Q288 137 303 146T330 175T353 224T369 294L407 540H600L531 100L509 133L597 99L581 0L344
-6L372 144L432 252Q417 161 377 102T285 14T182 -15ZM221 865L169 936L333 1093L442 1104L573 936L502 865L311 1010L446 1008L221 865Z" />
<glyph unicode="&#xfc;" horiz-adv-x="626" d="M182 -15Q132 -15 100 10T55 79T50 176L91 441L105 407L29 436L45 536L301 544L249 225Q246 203 245 183T249 150T273 137Q288 137 303 146T330 175T353 224T369 294L407 540H600L531 100L509 133L597 99L581 0L344
-6L372 144L432 252Q417 161 377 102T285 14T182 -15ZM250 604Q212 604 191 628T169 693Q169 739 195 768T265 798Q303 798 325 774T347 709Q347 662 320 633T250 604ZM480 604Q442 604 421 628T399 693Q399 739 425 768T495 798Q533 798 555 774T577 709Q577 662
550 633T480 604Z" />
<glyph unicode="&#xfd;" horiz-adv-x="569" d="M-59 -236L-34 -96Q-17 -98 -3 -99T24 -101Q63 -101 91 -89T144 -48T195 29L186 -35L58 433L70 418L25 435L40 535L240 545L314 114L262 125L389 435L394 417L348 435L363 535L613 545L598 445L542 422L567 437L361
5Q351 -17 333 -48T288 -114T224 -178T137 -226T24 -245Q-17 -245 -59 -236ZM260 592L192 688L432 868L522 734L260 592Z" />
<glyph unicode="&#xfe;" horiz-adv-x="580" d="M-93 -230L-77 -130L83 -76L-21 -186L116 677L138 647L50 677L66 777L326 785L259 402L187 289Q198 375 233 434T318 525T419 557Q459 557 493 537T548 469T569 344Q569 248 535 175T438 56T289 -4T100 2L203 20L170
-192L102 -73L249 -130L233 -230H-93ZM216 103L179 150Q224 128 260 133T321 164T359 231T373 323Q373 365 364 383T335 402Q319 402 305 391T277 358T254 306T238 239L216 103Z" />
<glyph unicode="&#xff;" horiz-adv-x="569" d="M-59 -236L-34 -96Q-17 -98 -3 -99T24 -101Q63 -101 91 -89T144 -48T195 29L186 -35L58 433L70 418L25 435L40 535L240 545L314 114L262 125L389 435L394 417L348 435L363 535L613 545L598 445L542 422L567 437L361
5Q351 -17 333 -48T288 -114T224 -178T137 -226T24 -245Q-17 -245 -59 -236ZM212 604Q174 604 153 628T131 693Q131 739 157 768T227 798Q265 798 287 774T309 709Q309 662 282 633T212 604ZM442 604Q404 604 383 628T361 693Q361 739 387 768T457 798Q495 798
517 774T539 709Q539 662 512 633T442 604Z" />
<glyph unicode="&#x2013;" horiz-adv-x="567" d="M543 368L519 218H39L63 368H543Z" />
<glyph unicode="&#x2014;" horiz-adv-x="800" d="M775 363L751 213H31L55 363H775Z" />
<glyph unicode="&#x2018;" horiz-adv-x="241" d="M235 524Q235 477 206 449T139 421Q105 421 78 445T51 515Q51 545 67 586T124 681T237 800L297 749Q256 692 237 660T217 608Q217 591 226 572T235 524Z" />
<glyph unicode="&#x2019;" horiz-adv-x="241" d="M104 697Q104 744 133 772T200 800Q234 800 261 777T288 706Q288 676 272 635T215 540T102 421L42 472Q83 529 102 561T122 613Q122 630 113 649T104 697Z" />
<glyph unicode="&#x201a;" horiz-adv-x="241" d="M15 71Q15 118 44 146T111 174Q145 174 172 151T199 80Q199 50 183 9T126 -86T13 -205L-47 -154Q-6 -97 13 -65T33 -13Q33 4 24 23T15 71Z" />
<glyph unicode="&#x201c;" horiz-adv-x="467" d="M236 534Q236 487 207 459T140 431Q106 431 79 455T52 525Q52 555 68 596T125 691T238 810L298 759Q257 702 238 670T218 618Q218 601 227 582T236 534ZM462 534Q462 487 433 459T366 431Q332 431 305 455T278
525Q278 555 294 596T351 691T464 810L524 759Q483 702 464 670T444 618Q444 601 453 582T462 534Z" />
<glyph unicode="&#x201d;" horiz-adv-x="467" d="M340 697Q340 744 369 772T436 800Q470 800 497 777T524 706Q524 676 508 635T451 540T338 421L278 472Q319 529 338 561T358 613Q358 630 349 649T340 697ZM114 697Q114 744 143 772T210 800Q244 800 271 777T298
706Q298 676 282 635T225 540T112 421L52 472Q93 529 112 561T132 613Q132 630 123 649T114 697Z" />
<glyph unicode="&#x201e;" horiz-adv-x="467" d="M241 71Q241 118 270 146T337 174Q371 174 398 151T425 80Q425 50 409 9T352 -86T239 -205L179 -154Q220 -97 239 -65T259 -13Q259 4 250 23T241 71ZM15 71Q15 118 44 146T111 174Q145 174 172 151T199 80Q199
50 183 9T126 -86T13 -205L-47 -154Q-6 -97 13 -65T33 -13Q33 4 24 23T15 71Z" />
<glyph unicode="&#x2022;" horiz-adv-x="468" d="M39 296Q39 359 66 405T139 477T242 503Q301 503 345 478T413 407T438 301Q438 239 412 194T339 123T234 98Q176 98 132 123T64 192T39 296Z" />
<glyph unicode="&#x2039;" horiz-adv-x="304" d="M163 29L25 222L37 316L235 509L316 440L159 233L168 307L260 103L163 29Z" />
<glyph unicode="&#x203a;" horiz-adv-x="305" d="M141 509L279 316L267 222L69 29L-12 98L145 305L136 231L44 435L141 509Z" />
</font>
</defs>
</svg>
