<?xml version="1.0" standalone="no"?>
<!DOCTYPE svg PUBLIC "-//W3C//DTD SVG 1.1//EN" "http://www.w3.org/Graphics/SVG/1.1/DTD/svg11.dtd">
<svg xmlns="http://www.w3.org/2000/svg">
<defs >
<font id="Chonburi" horiz-adv-x="669" ><font-face
    font-family="Chonburi"
    units-per-em="1000"
    panose-1="0 0 5 0 0 0 0 0 0 0"
    ascent="950"
    descent="-250"
    alphabetic="0" />
<glyph unicode=" " glyph-name="space" horiz-adv-x="290" />
<glyph unicode="!" glyph-name="exclam" horiz-adv-x="284" d="M48 675Q59 692 83 701T142 710Q176 710 200 701T236 675L158 221H126L48 675ZM107 -8T83 16T58 74Q58 108 82 132T142 156Q177 156 201 132T226 74Q226 40 202 16T142 -8Q107 -8 83 16Z" />
<glyph unicode="&quot;" glyph-name="quotedbl" horiz-adv-x="460" d="M52 699Q82 710 125 710Q168 710 198 699L137 431H113L52 699ZM262 699Q292 710 335 710Q378 710 408 699L347 431H323L262 699Z" />
<glyph unicode="#" glyph-name="numbersign" horiz-adv-x="648" d="M218 482L249 700H281L249 482L454 485L485 700H517L486 485L620 487V449L481 450L452 249L586 251V213L447 214L417 0H385L415 215L212 217L181 0H149L180 218L28 220V244L184 246L214 454L62
456V480L218 482ZM420 249L449 451L245 453L216 246L420 249Z" />
<glyph unicode="$" glyph-name="dollar" horiz-adv-x="680" d="M251 -11T177 2T62 36L79 212H107Q122 134 150 91T218 32T315 15V261L285 275Q198 313 154 340T83 409T56 519Q56 611 118 659T315 711V800H345V712Q409 711 469 698T571 666L557 513H528Q507 572
486 607T432 662T345 685V453L390 432Q487 385 530 359T598 292T624 186Q624 92 557 43T345 -11V-100H315V-12Q251 -11 177 2ZM198 555T223 529T315 468V684Q198 679 198 599Q198 555 223 529ZM454 157T429 187T345 247V16Q396 21 425 46T454 112Q454 157 429 187Z"
/>
<glyph unicode="%" glyph-name="percent" horiz-adv-x="818" d="M287 708T331 663T376 542Q376 466 332 421T208 376Q129 376 85 421T40 542Q40 618 84 663T208 708Q287 708 331 663ZM624 700L224 0H194L594 700H624ZM240 394T251 429T263 542Q263 619 252 654T208
690Q176 690 165 655T153 542Q153 465 164 430T208 394Q240 394 251 429ZM689 324T733 279T778 158Q778 82 734 37T610 -8Q531 -8 487 37T442 158Q442 234 486 279T610 324Q689 324 733 279ZM642 10T653 45T665 158Q665 235 654 270T610 306Q578 306 567 271T555
158Q555 81 566 46T610 10Q642 10 653 45Z" />
<glyph unicode="&amp;" glyph-name="ampersand" horiz-adv-x="834" d="M325 685T325 612Q325 578 347 536T402 454L595 224L704 376H655V398H802V378L763 375Q748 374 740 370T723 353L612 204L743 48Q753 37 761 31T781 24L818 20V0H538L489 58Q443 17 399 3T292
-12Q175 -12 113 35T50 179Q50 325 216 387Q171 452 171 512Q171 599 232 655T411 712Q526 712 598 672L573 535H544Q522 606 511 631T479 671T413 685Q325 685 325 612ZM385 35T416 45T473 77L239 357L232 365Q217 344 210 313T203 233Q203 135 242 85T345 35Q385
35 416 45Z" />
<glyph unicode="&apos;" glyph-name="quotesingle" horiz-adv-x="250" d="M52 699Q82 710 125 710Q168 710 198 699L137 431H113L52 699Z" />
<glyph unicode="(" glyph-name="parenleft" horiz-adv-x="390" d="M66 498T134 604T343 794L358 779Q295 737 262 681T216 545T203 340Q203 215 215 136T261 0T358 -99L343 -114Q203 -31 135 75T66 340Q66 498 134 604Z" />
<glyph unicode=")" glyph-name="parenright" horiz-adv-x="390" d="M324 182T256 76T47 -114L32 -99Q95 -57 128 -1T174 135T187 340Q187 465 175 544T129 680T32 779L47 794Q187 711 255 605T324 340Q324 182 256 76Z" />
<glyph unicode="*" glyph-name="asterisk" horiz-adv-x="552" d="M480 608Q496 581 496 544Q496 537 494 523H289L442 387Q434 370 415 355T377 333L276 510L175 333Q156 339 137 354T110 387L262 523H58Q56 537 56 544Q56 581 72 608L267 540L233 743Q250 750
276 750Q302 750 319 743L284 540L480 608Z" />
<glyph unicode="+" glyph-name="plus" horiz-adv-x="570" d="M300 314V117H270V314H74V342H270V539H300V342H496V314H300Z" />
<glyph unicode="," glyph-name="comma" horiz-adv-x="268" d="M137 1T125 1Q87 1 68 22T48 76Q48 110 70 133T132 156Q172 156 196 134T220 68Q220 10 185 -49T99 -149L79 -128Q144 -59 144 2Q137 1 125 1Z" />
<glyph unicode="-" glyph-name="hyphen" horiz-adv-x="312" d="M40 264V292H272V264H40Z" />
<glyph unicode="." glyph-name="period" horiz-adv-x="268" d="M99 -8T75 16T50 74Q50 108 74 132T134 156Q169 156 193 132T218 74Q218 40 194 16T134 -8Q99 -8 75 16Z" />
<glyph unicode="/" glyph-name="slash" horiz-adv-x="300" d="M60 -12H30L240 712H270L60 -12Z" />
<glyph unicode="0" glyph-name="zero" horiz-adv-x="778" d="M485 712T561 671T682 549T726 350Q726 233 682 152T562 29T389 -12Q293 -12 217 29T96 151T52 350Q52 467 96 548T216 671T389 712Q485 712 561 671ZM455 17T480 99T505 350Q505 518 480 600T389 683Q323
683 298 601T273 350Q273 182 298 100T389 17Q455 17 480 99Z" />
<glyph unicode="1" glyph-name="one" horiz-adv-x="514" d="M63 617V639Q215 657 347 712L367 702V52Q367 41 371 37T390 30L460 20V0H60V20L139 30Q154 33 158 37T163 53V617H63Z" />
<glyph unicode="2" glyph-name="two" horiz-adv-x="660" d="M582 396T486 307T251 146H552Q563 146 567 150T574 170L582 207H602V0H41L32 20Q214 144 293 274T372 521Q372 588 344 625T258 662Q204 662 158 645T60 594L48 613Q185 712 350 712Q473 712 527 660T582
514Q582 396 486 307Z" />
<glyph unicode="3" glyph-name="three" horiz-adv-x="630" d="M312 18T344 58T376 187Q376 265 340 310T232 356H191V386H233Q296 386 325 421T354 528Q354 598 321 631T221 664Q133 664 45 612L33 631Q92 670 160 691T317 712Q426 712 492 668T558 541Q558 482
514 437T391 372Q482 359 533 312T584 191Q584 81 504 36T263 -10Q193 -10 131 1T32 31L46 197H69Q86 140 105 103T157 42T245 18Q312 18 344 58Z" />
<glyph unicode="4" glyph-name="four" horiz-adv-x="678" d="M26 159L20 182L484 700H557V187H650V159H557V52Q557 41 561 37T580 30L650 20V0H250V20L329 30Q344 33 348 37T353 53V159H26ZM353 187V509L64 187H353Z" />
<glyph unicode="5" glyph-name="five" horiz-adv-x="634" d="M191 -10T130 1T32 31L46 197H69Q86 140 104 103T156 42T241 18Q310 18 344 67T378 204Q378 295 343 345T216 396Q157 396 99 380H71L95 700H528V554H116L105 408Q147 419 181 423T262 427Q439 427
512 371T586 213Q586 95 503 43T261 -10Q191 -10 130 1Z" />
<glyph unicode="6" glyph-name="six" horiz-adv-x="702" d="M423 664T365 599T288 419Q346 443 414 443Q493 443 549 416T635 341T664 230Q664 155 628 101T526 17T371 -12Q274 -12 203 25T94 129T56 282Q56 391 106 482T262 634T531 713L539 690Q423 664 365
599ZM321 404T283 386Q276 326 276 241Q276 137 295 76T374 14Q427 14 453 64T479 209Q479 303 454 353T363 404Q321 404 283 386Z" />
<glyph unicode="7" glyph-name="seven" horiz-adv-x="600" d="M469 529T413 361T328 0H124Q147 132 243 279T456 554H86Q75 554 71 550T64 530L56 493H36V700H559L570 685Q469 529 413 361Z" />
<glyph unicode="8" glyph-name="eight" horiz-adv-x="682" d="M48 212T91 257T211 322Q138 360 107 409T75 517Q75 611 145 661T335 712Q447 712 519 671T592 553Q592 495 545 460T422 408L463 389Q555 346 594 299T634 186Q634 87 547 38T328 -12Q199 -12 124
29T48 152Q48 212 91 257ZM221 552T236 526T276 483T347 444L398 419Q462 473 462 566Q462 626 429 656T339 686Q221 686 221 593Q221 552 236 526ZM200 261T200 167Q200 95 236 55T342 14Q404 14 438 41T472 122Q472 166 443 194T342 257L248 303Q200 261 200
167Z" />
<glyph unicode="9" glyph-name="nine" horiz-adv-x="702" d="M283 36T341 101T418 281Q360 257 292 257Q213 257 157 284T71 359T42 470Q42 545 78 599T180 683T335 712Q432 712 503 675T612 571T650 418Q650 309 600 218T444 66T175 -13L167 10Q283 36 341 101ZM385
296T423 314Q430 374 430 459Q430 563 411 624T332 686Q279 686 253 636T227 491Q227 397 252 347T343 296Q385 296 423 314Z" />
<glyph unicode=":" glyph-name="colon" horiz-adv-x="292" d="M111 334T87 358T62 416Q62 450 86 474T146 498Q181 498 205 474T230 416Q230 382 206 358T146 334Q111 334 87 358ZM111 -8T87 16T62 74Q62 108 86 132T146 156Q181 156 205 132T230 74Q230 40 206
16T146 -8Q111 -8 87 16Z" />
<glyph unicode=";" glyph-name="semicolon" horiz-adv-x="292" d="M111 334T87 358T62 416Q62 450 86 474T146 498Q181 498 205 474T230 416Q230 382 206 358T146 334Q111 334 87 358ZM149 1T137 1Q99 1 80 22T60 76Q60 110 82 133T144 156Q184 156 208 134T232
68Q232 10 197 -49T111 -149L91 -128Q156 -59 156 2Q149 1 137 1Z" />
<glyph unicode="&lt;" glyph-name="less" horiz-adv-x="570" d="M454 510L470 483L123 278L470 73L454 46L86 268V288L454 510Z" />
<glyph unicode="=" glyph-name="equal" horiz-adv-x="572" d="M74 404V432H496V404H74ZM74 224V252H496V224H74Z" />
<glyph unicode="&gt;" glyph-name="greater" horiz-adv-x="570" d="M116 46L100 73L447 278L100 483L116 510L484 288V268L116 46Z" />
<glyph unicode="?" glyph-name="question" horiz-adv-x="566" d="M334 425T334 546Q334 662 220 662Q165 662 127 648T42 602L30 621Q91 665 154 688T312 712Q415 712 469 673T524 555Q524 462 460 416T294 352L281 221H253L242 352Q334 425 334 546ZM232 -8T208
16T183 74Q183 108 207 132T267 156Q302 156 326 132T351 74Q351 40 327 16T267 -8Q232 -8 208 16Z" />
<glyph unicode="@" glyph-name="at" horiz-adv-x="1049" d="M800 96T807 86T835 75Q863 75 892 102T940 182T959 304Q959 411 914 479T795 579T632 610Q507 610 413 561T266 422T214 216Q214 43 312 -38T588 -120Q659 -120 729 -97T852 -31L868 -56Q807 -105 726
-131T547 -158Q418 -158 307 -118T127 8T58 228Q58 361 125 461T311 617T577 672Q770 672 880 581T991 312Q991 224 964 158T885 55T764 18Q694 18 663 34T622 83Q555 18 455 18Q397 18 365 44T332 125Q332 180 364 211T458 256T622 272V337Q622 387 604 407T536
428Q496 428 462 417T391 384L379 402Q421 432 480 450T614 468Q714 468 757 429T800 315V135Q800 96 807 86ZM573 75T588 84T622 112V248Q572 244 548 232T515 198T507 137Q507 103 517 89T554 75Q573 75 588 84Z" />
<glyph unicode="A" glyph-name="A" horiz-adv-x="768" d="M420 20L463 24Q477 26 477 35Q477 40 474 47L408 193H176L116 47Q113 40 113 35Q113 26 127 24L170 20V0H18V20L55 24Q67 25 72 30T83 48L360 711H392L685 48Q691 35 696 30T713 24L750 20V0H420V20ZM395
223L287 462L188 223H395Z" />
<glyph unicode="B" glyph-name="B" horiz-adv-x="740" d="M454 700T524 684T626 633T658 538Q658 458 610 420T457 371Q543 364 595 344T671 286T696 184Q696 114 658 74T541 17T327 0H26V20L63 28Q78 31 82 35T87 50V650Q87 661 83 665T63 672L26 680V700H333Q454
700 524 684ZM340 384Q402 384 432 422T462 538Q462 605 433 637T340 670H291V384H340ZM291 30H336Q490 30 490 184Q490 274 458 314T344 354H291V30Z" />
<glyph unicode="C" glyph-name="C" horiz-adv-x="754" d="M561 38T605 56T690 106L710 84Q666 43 596 16T440 -12Q272 -12 164 76T56 360Q56 541 163 626T445 712Q515 712 583 699T690 667L676 495H648Q620 580 573 631T446 683Q355 683 316 609T276 386Q276 211
327 125T506 38Q561 38 605 56Z" />
<glyph unicode="D" glyph-name="D" horiz-adv-x="818" d="M63 28Q78 31 82 35T87 50V650Q87 661 83 665T63 672L26 680V700H332Q542 700 652 621T762 350Q762 158 652 79T332 0H26V20L63 28ZM291 30H332Q415 30 460 59T523 157T541 350Q541 475 523 543T460 640T332
670H291V30Z" />
<glyph unicode="E" glyph-name="E" horiz-adv-x="720" d="M63 28Q78 31 82 35T87 50V650Q87 661 83 665T63 672L26 680V700H642V505H617Q596 570 578 603T526 653T433 670H291V373H549V343H291V30H443Q502 30 536 48T589 100T630 199H656V0H26V20L63 28Z" />
<glyph unicode="F" glyph-name="F" horiz-adv-x="674" d="M605 505Q584 570 566 603T514 653T421 670H291V373H541V343H291V51Q291 40 295 36T315 29L358 20V0H26V20L63 28Q78 31 82 35T87 50V650Q87 661 83 665T63 672L26 680V700H630V505H605Z" />
<glyph unicode="G" glyph-name="G" horiz-adv-x="790" d="M276 258T299 181T374 67T516 31H548V277H449V307H722V44Q700 40 670 33T623 21Q557 4 518 -4T444 -12Q337 -12 250 24T110 144T56 360Q56 541 165 626T452 712Q526 712 595 699T704 667L690 495H662Q634
580 586 631T453 683Q358 683 317 609T276 386Q276 258 299 181Z" />
<glyph unicode="H" glyph-name="H" horiz-adv-x="844" d="M291 49Q291 38 295 35T314 28L350 20V0H26V20L63 28Q78 31 82 35T87 50V650Q87 661 83 665T63 672L26 680V700H350V680L314 672Q300 670 296 666T291 651V373H553V651Q553 662 549 666T530 672L494 680V700H818V680L781
672Q766 669 762 665T757 650V50Q757 39 761 35T781 28L818 20V0H494V20L530 28Q544 31 548 34T553 49V343H291V49Z" />
<glyph unicode="I" glyph-name="I" horiz-adv-x="386" d="M91 661T87 665T67 672L30 680V700H356V680L319 672Q304 669 300 665T295 650V50Q295 39 299 35T319 28L356 20V0H30V20L67 28Q82 31 86 35T91 50V650Q91 661 87 665Z" />
<glyph unicode="J" glyph-name="J" horiz-adv-x="622" d="M273 15T294 31T325 88T335 206V649Q335 660 331 664T311 671L268 680V700H600V680L563 672Q548 669 544 665T539 650V226Q539 100 459 44T245 -12Q203 -12 149 -1T52 30L75 206H101Q114 128 132 87T175
30T237 15Q273 15 294 31Z" />
<glyph unicode="K" glyph-name="K" horiz-adv-x="788" d="M444 442T456 430T483 398L702 49Q710 37 716 33T733 27L776 20V0H565Q538 0 523 8T497 34L310 348L291 331V49Q291 38 295 35T314 28L350 20V0H26V20L63 28Q78 31 82 35T87 50V650Q87 661 83 665T63 672L26
680V700H350V680L314 672Q300 670 296 666T291 651V367L621 653Q629 660 629 668Q629 675 618 677L575 681V700H754V680L712 677Q695 676 686 671T661 652L427 449Q444 442 456 430Z" />
<glyph unicode="L" glyph-name="L" horiz-adv-x="668" d="M87 661T83 665T63 672L26 680V700H358V680L315 671Q300 668 296 664T291 649V30H417Q476 30 509 48T560 99T602 199H630V0H26V20L63 28Q78 31 82 35T87 50V650Q87 661 83 665Z" />
<glyph unicode="M" glyph-name="M" horiz-adv-x="962" d="M119 49Q119 38 123 35T142 28L178 20V0H26V20L63 28Q78 31 82 35T87 50V650Q87 661 83 665T63 672L26 680V700H282L488 255L672 700H936V680L899 672Q884 669 880 665T875 650V50Q875 39 879 35T899 28L936
20V0H612V20L648 28Q662 31 666 34T671 49V615L417 0H387L119 589V49Z" />
<glyph unicode="N" glyph-name="N" horiz-adv-x="744" d="M87 661T83 665T63 672L26 680V700H303L625 294V651Q625 662 621 665T602 672L566 680V700H718V680L681 672Q666 669 662 665T657 650V0H621L119 635V49Q119 38 123 35T142 28L178 20V0H26V20L63 28Q78
31 82 35T87 50V650Q87 661 83 665Z" />
<glyph unicode="O" glyph-name="O" horiz-adv-x="854" d="M596 712T697 627T798 350Q798 159 697 74T427 -12Q258 -12 157 73T56 350Q56 540 157 626T427 712Q596 712 697 627ZM488 17T520 50T565 154T577 350Q577 475 565 546T521 650T427 683Q366 683 334 650T289
546T277 350Q277 225 289 154T333 50T427 17Q488 17 520 50Z" />
<glyph unicode="P" glyph-name="P" horiz-adv-x="740" d="M692 408T654 363T534 298T317 278H291V51Q291 40 295 36T315 29L358 20V0H26V20L63 28Q78 31 82 35T87 50V650Q87 661 83 665T63 672L26 680V700H317Q453 700 534 681T653 616T692 489Q692 408 654 363ZM291
308H326Q385 308 418 326T467 383T482 489Q482 556 467 595T419 652T326 670H291V308Z" />
<glyph unicode="Q" glyph-name="Q" horiz-adv-x="856" d="M596 712T697 628T798 354Q798 164 697 80T427 -4Q258 -4 157 80T56 354Q56 544 157 628T427 712Q596 712 697 628ZM488 25T520 57T565 159T577 354Q577 479 565 548T521 650T427 683Q366 683 334 651T289
549T277 354Q277 229 289 160T333 58T427 25Q488 25 520 57ZM543 -225T512 -212T432 -172Q375 -139 329 -122T222 -102V-90Q259 -40 319 -40Q346 -40 376 -46T460 -68Q513 -83 551 -91T626 -100Q643 -100 653 -93T676 -69L684 -58L706 -63Q685 -145 657 -185T581
-225Q543 -225 512 -212Z" />
<glyph unicode="R" glyph-name="R" horiz-adv-x="796" d="M440 280T430 299T396 325T320 332H291V51Q291 40 295 36T315 29L358 20V0H26V20L63 28Q78 31 82 35T87 50V650Q87 661 83 665T63 672L26 680V700H320Q454 700 533 683T648 625T684 516Q684 439 638 398T489
341Q548 337 583 322T639 275T670 185L681 125Q689 82 692 67T702 44T723 36Q748 36 765 73L786 55Q772 26 744 8T651 -10Q587 -10 550 4T492 53T460 156L448 231Q440 280 430 299ZM291 362H329Q387 362 418 378T462 427T474 516Q474 572 462 605T419 654T329 670H291V362Z"
/>
<glyph unicode="S" glyph-name="S" horiz-adv-x="678" d="M380 15T416 40T452 112Q452 150 436 175T385 221T285 271Q201 308 155 336T83 408T56 519Q56 615 124 663T340 712Q406 712 467 699T571 666L547 513H520Q501 574 481 610T425 665T332 685Q200 685 200
599Q200 564 216 541T264 500T370 445L390 436Q483 391 527 363T598 294T624 186Q624 88 551 38T320 -12Q257 -12 181 2T62 36L89 212H115Q128 134 154 91T219 32T315 15Q380 15 416 40Z" />
<glyph unicode="T" glyph-name="T" horiz-adv-x="724" d="M464 39T468 35T488 28L525 20V0H199V20L236 28Q251 31 255 35T260 50V672H237Q176 672 143 652T92 600T48 498H26V700H698V498H676Q650 568 633 600T582 652T487 672H464V50Q464 39 468 35Z" />
<glyph unicode="U" glyph-name="U" horiz-adv-x="754" d="M673 134T607 61T394 -12Q234 -12 158 53T81 264V650Q81 661 77 665T57 672L20 680V700H344V680L308 672Q294 669 290 666T285 651V246Q285 161 297 114T343 45T445 22Q541 22 592 85T643 252V650Q643
661 639 665T619 672L582 680V700H734V680L698 672Q684 669 680 666T675 651V260Q673 134 607 61Z" />
<glyph unicode="V" glyph-name="V" horiz-adv-x="762" d="M348 680L307 676Q292 674 292 661Q292 655 295 649L477 239L646 653Q649 661 649 665Q649 674 635 676L592 680V700H744V680L707 676Q695 675 690 670T679 652L405 -11H373L83 652Q77 665 72 670T55 676L18
680V700H348V680Z" />
<glyph unicode="W" glyph-name="W" horiz-adv-x="1146" d="M783 -11L575 506L385 -11H353L87 652Q82 665 77 669T59 676L22 680V700H350V680L311 676Q297 674 297 660Q297 657 299 649L451 253L558 549L517 652Q512 665 507 669T489 676L454 680V700H782V680L741
676Q727 674 727 660Q727 657 729 649L881 253L1026 653Q1029 661 1029 664Q1029 675 1014 676L972 680V700H1124V680L1087 676Q1075 675 1070 670T1059 652L815 -11H783Z" />
<glyph unicode="X" glyph-name="X" horiz-adv-x="818" d="M620 653Q625 660 625 664Q625 669 621 672T610 677L566 681V700H742V680L704 677Q687 676 680 671T660 652L474 422L726 48Q735 35 741 30T758 24L798 20V0H451V20L491 24Q504 25 504 34Q504 42 498 49L338
286L151 47Q146 40 146 36Q146 31 150 28T161 23L205 19V0H29V20L67 23Q84 24 92 30T111 48L321 312L92 652Q83 665 77 670T60 676L20 680V700H367V680L327 676Q314 675 314 666Q314 659 320 651L456 448L620 653Z" />
<glyph unicode="Y" glyph-name="Y" horiz-adv-x="720" d="M619 659T619 660Q619 667 613 671T599 677L552 681V700H718V680L687 677Q671 676 665 671T651 652L460 324V50Q460 39 464 35T484 28L521 20V0H195V20L232 28Q247 31 251 35T256 50V318L72 652Q65 664
59 669T43 676L4 680V700H329V680L289 676Q275 675 275 664Q275 658 279 651L439 349L617 653Q619 659 619 660Z" />
<glyph unicode="Z" glyph-name="Z" horiz-adv-x="762" d="M58 0V26L470 670H315Q255 670 222 653T171 603T131 505H106V700H698V674L285 30H486Q546 30 579 47T630 98T670 199H695V0H58Z" />
<glyph unicode="[" glyph-name="bracketleft" horiz-adv-x="376" d="M330 782V752H239V-72H330V-102H106V782H330Z" />
<glyph unicode="\" glyph-name="backslash" horiz-adv-x="300" d="M270 -12H240L30 712H60L270 -12Z" />
<glyph unicode="]" glyph-name="bracketright" horiz-adv-x="376" d="M46 -102V-72H137V752H46V782H270V-102H46Z" />
<glyph unicode="^" glyph-name="asciicircum" horiz-adv-x="550" d="M469 318L275 675L81 318H50L265 712H285L500 318H469Z" />
<glyph unicode="_" glyph-name="underscore" horiz-adv-x="520" d="M0 -106V-78H520V-106H0Z" />
<glyph unicode="`" glyph-name="grave" horiz-adv-x="440" d="M191 687T240 650T298 605L336 577L331 566Q281 574 215 592T105 631Q106 659 122 683T161 718Q191 687 240 650Z" />
<glyph unicode="a" glyph-name="a" horiz-adv-x="644" d="M390 0T379 11T367 50V55Q300 -10 176 -10Q111 -10 75 19T38 111Q38 173 74 208T181 258T367 276V349Q367 405 345 429T268 454Q222 454 183 442T102 404L89 423Q137 457 204 477T356 498Q469 498 517
454T565 325V48Q565 37 569 33T589 26L624 18V0H418Q390 0 379 11ZM331 53T367 87V249Q311 245 282 232T243 193T232 125Q232 87 245 70T288 53Q331 53 367 87Z" />
<glyph unicode="b" glyph-name="b" horiz-adv-x="746" d="M83 663T79 667T59 674L24 682V700L264 730H283V448Q350 498 455 498Q566 498 631 438T696 248Q696 114 631 51T455 -12Q343 -12 281 56V0H24V18L59 26Q74 29 78 33T83 48V652Q83 663 79 667ZM329 456T283
418V87Q306 62 335 47T396 31Q432 31 452 53T481 122T490 248Q490 359 468 407T391 456Q329 456 283 418Z" />
<glyph unicode="c" glyph-name="c" horiz-adv-x="636" d="M499 498T579 458L567 327H548Q527 401 493 436T392 472Q319 472 289 421T258 270Q258 187 271 136T318 59T414 32Q461 32 500 45T577 85L590 66Q543 30 485 9T348 -12Q207 -12 129 53T50 249Q50 373 132
435T374 498Q499 498 579 458Z" />
<glyph unicode="d" glyph-name="d" horiz-adv-x="746" d="M489 0T477 14T465 56Q401 -12 291 -12Q181 -12 116 51T50 248Q50 377 115 437T291 498Q351 498 391 484T463 448V652Q463 663 459 667T439 674L404 682V700L644 730H663V48Q663 37 667 33T687 26L722
18V0H516Q489 0 477 14ZM409 31T463 87V418Q415 456 355 456Q300 456 278 408T256 248Q256 169 264 123T293 54T350 31Q409 31 463 87Z" />
<glyph unicode="e" glyph-name="e" horiz-adv-x="658" d="M257 145T291 87T421 29Q468 29 504 43T580 83L593 64Q500 -12 347 -12Q209 -12 130 54T50 249Q50 370 131 434T358 498Q441 498 498 472T582 403T610 306Q610 279 605 256H256Q257 145 291 87ZM297 474T277
428T256 282H424V357Q424 418 410 446T352 474Q297 474 277 428Z" />
<glyph unicode="f" glyph-name="f" horiz-adv-x="450" d="M85 486V566Q85 649 136 689T305 730Q402 730 464 700L452 569H431Q411 626 399 651T368 691T314 706Q284 706 270 694T256 657Q256 635 260 618T271 577Q276 562 279 547T283 515V486H404V460H283V49Q283
38 287 34T307 27L344 18V0H26V18L61 26Q76 29 80 33T85 48V460H20V486H85Z" />
<glyph unicode="g" glyph-name="g" horiz-adv-x="692" d="M552 490T522 490Q494 490 477 479Q604 443 604 335Q604 248 535 210T340 171Q269 171 217 184Q186 182 163 174T139 151Q139 136 152 129T193 117T286 106L456 90Q528 83 570 68T632 23T652 -55Q652 -119
606 -160T486 -221T330 -240Q211 -240 135 -208T58 -109Q58 -67 91 -44T178 -14Q64 13 64 93Q64 180 170 199Q76 240 76 335Q76 422 144 459T340 496Q401 494 446 486Q475 530 527 558T652 587L628 472H617L592 479Q552 490 522 490ZM387 196T403 229T420 335Q420
404 404 437T340 471Q293 471 277 438T260 335Q260 263 276 230T340 196Q387 196 403 229ZM229 -24T208 -20Q195 -48 195 -91Q195 -153 225 -183T337 -213Q433 -213 486 -190T539 -120Q539 -94 529 -81T494 -60T423 -47L282 -31Q229 -24 208 -20Z" />
<glyph unicode="h" glyph-name="h" horiz-adv-x="750" d="M669 37T673 33T693 26L728 18V0H520Q493 0 481 14T469 56V360Q469 405 455 424T406 443Q346 443 283 393V48Q283 37 287 33T306 25L340 18V0H24V18L59 26Q74 29 78 33T83 48V652Q83 663 79 667T59 674L24
682V700L264 730H283V424Q321 455 375 476T496 498Q589 498 629 459T669 342V48Q669 37 673 33Z" />
<glyph unicode="i" glyph-name="i" horiz-adv-x="370" d="M138 562T110 583T82 646Q82 687 110 708T185 730Q232 730 260 709T288 646Q288 605 260 584T185 562Q138 562 110 583ZM26 18L61 26Q76 29 80 33T85 48V426Q85 437 81 441T61 448L26 456V474L266 504H285V48Q285
37 289 33T309 26L344 18V0H26V18Z" />
<glyph unicode="j" glyph-name="j" horiz-adv-x="388" d="M158 562T130 583T102 646Q102 687 130 708T205 730Q252 730 280 709T308 646Q308 605 280 584T205 562Q158 562 130 583ZM105 437T101 441T81 448L46 456V474L286 504H305V-31Q305 -138 261 -189T110
-240Q4 -240 -53 -188L-40 -169Q-22 -185 1 -194T48 -204Q79 -204 92 -184T105 -102V426Q105 437 101 441Z" />
<glyph unicode="k" glyph-name="k" horiz-adv-x="748" d="M482 457T450 461L439 462V480Q499 498 556 498Q615 498 638 477T661 416Q661 361 619 316T472 256Q499 249 517 235T558 192L669 46Q678 35 684 31T701 24L732 18V0H540Q513 0 498 8T472 34L317 250H283V48Q283
37 287 33T306 25L340 18V0H24V18L59 26Q74 29 78 33T83 48V652Q83 663 79 667T59 674L24 682V700L264 730H283V276H341Q420 276 451 310T482 408Q482 457 450 461Z" />
<glyph unicode="l" glyph-name="l" horiz-adv-x="366" d="M24 18L59 26Q74 29 78 33T83 48V652Q83 663 79 667T59 674L24 682V700L264 730H283V48Q283 37 287 33T307 26L342 18V0H24V18Z" />
<glyph unicode="m" glyph-name="m" horiz-adv-x="1108" d="M319 461T370 479T482 498Q606 498 640 424Q678 455 732 476T854 498Q947 498 987 459T1027 342V48Q1027 37 1031 33T1051 26L1086 18V0H878Q851 0 839 14T827 56V360Q827 405 813 424T764 443Q710 443
649 399Q655 374 655 342V48Q655 37 659 33T679 26L714 18V0H506Q479 0 467 14T455 56V360Q455 405 441 424T392 443Q339 443 283 403V48Q283 37 287 33T306 25L340 18V0H24V18L59 26Q74 29 78 33T83 48V426Q83 437 79 441T59 448L24 456V474L264 504H281V434Q319
461 370 479Z" />
<glyph unicode="n" glyph-name="n" horiz-adv-x="750" d="M669 37T673 33T693 26L728 18V0H520Q493 0 481 14T469 56V360Q469 405 455 424T406 443Q346 443 283 393V48Q283 37 287 33T306 25L340 18V0H24V18L59 26Q74 29 78 33T83 48V426Q83 437 79 441T59 448L24
456V474L264 504H281V423Q319 454 374 476T496 498Q589 498 629 459T669 342V48Q669 37 673 33Z" />
<glyph unicode="o" glyph-name="o" horiz-adv-x="724" d="M674 114T594 51T362 -12Q211 -12 131 51T50 243Q50 372 130 435T362 498Q513 498 593 435T674 243Q674 114 594 51ZM258 154T266 106T297 36T362 14Q405 14 427 36T457 106T466 243Q466 332 458 380T427
450T362 472Q319 472 297 450T267 380T258 243Q258 154 266 106Z" />
<glyph unicode="p" glyph-name="p" horiz-adv-x="746" d="M24 -208L59 -200Q74 -197 78 -193T83 -178V426Q83 437 79 441T59 448L24 456V474L264 504H281V446Q348 498 455 498Q566 498 631 438T696 249Q696 116 631 53T455 -10Q344 -10 283 55V-178Q283 -189 287
-193T307 -200L342 -208V-226H24V-208ZM329 456T283 418V89Q306 64 335 49T396 33Q432 33 452 55T481 123T490 249Q490 360 468 408T391 456Q329 456 283 418Z" />
<glyph unicode="q" glyph-name="q" horiz-adv-x="746" d="M665 504V-178Q665 -189 669 -193T689 -200L724 -208V-226H406V-208L441 -200Q456 -197 460 -193T465 -178V55Q402 -10 293 -10Q182 -10 117 53T52 249Q52 378 117 438T293 498Q355 498 395 484T467 446V483L648
504H665ZM411 33T465 89V418Q417 456 357 456Q302 456 280 408T258 249Q258 170 266 124T295 55T352 33Q411 33 465 89Z" />
<glyph unicode="r" glyph-name="r" horiz-adv-x="540" d="M368 495T458 495Q491 495 510 487L495 331H488L283 376V48Q283 37 287 33T306 25L340 18V0H24V18L59 26Q74 29 78 33T83 48V426Q83 437 79 441T59 448L24 456V474L264 504H281V406Q368 495 458 495Z" />
<glyph unicode="s" glyph-name="s" horiz-adv-x="556" d="M315 12T337 26T360 75Q360 99 348 114T310 141T227 174Q130 209 89 246T48 350Q48 425 104 461T274 498Q332 498 388 487T475 460L463 340H446Q419 407 381 441T271 476Q225 476 200 464T175 418Q175
395 186 381T222 355T304 320Q386 287 428 263T490 208T510 130Q510 55 453 22T280 -12Q219 -12 153 -1T53 26L67 162H84Q102 83 148 48T268 12Q315 12 337 26Z" />
<glyph unicode="t" glyph-name="t" horiz-adv-x="446" d="M22 460V486Q53 486 68 491T98 509L276 669H285V486H414V460H285V124Q285 76 296 57T336 37Q358 37 375 46T412 77L428 58Q365 -12 242 -12Q159 -12 123 23T87 132V460H22Z" />
<glyph unicode="u" glyph-name="u" horiz-adv-x="746" d="M463 437T459 441T439 448L404 456V474L646 504H663V48Q663 37 667 33T687 26L722 18V0H519Q490 0 478 12T465 52V63Q429 32 374 10T252 -12Q159 -12 119 27T79 144V426Q79 437 75 441T55 448L20 456V474L262
504H279V126Q279 81 293 62T342 43Q402 43 463 93V426Q463 437 459 441Z" />
<glyph unicode="v" glyph-name="v" horiz-adv-x="582" d="M292 465Q269 460 269 446Q269 440 274 430L390 197L499 451Q502 457 502 461Q502 467 489 468L463 471V486H578V471L552 467Q540 465 535 462T525 448L322 -18H304L62 444Q57 453 51 457T34 463L4 471V486H318V471L292
465Z" />
<glyph unicode="w" glyph-name="w" horiz-adv-x="924" d="M634 465Q611 460 611 446Q611 440 616 430L732 197L850 451Q851 453 851 457Q851 462 846 464T831 468L805 471V486H920V471L894 467Q882 465 877 462T867 448L664 -18H646L469 319L322 -18H304L62 444Q57
453 51 457T34 463L4 471V486H310V471L292 467Q269 462 269 446Q269 440 274 430L390 197L454 347L404 444Q399 454 394 458T380 465L356 471V486H660V471L634 465Z" />
<glyph unicode="x" glyph-name="x" horiz-adv-x="646" d="M486 451Q491 456 491 461Q491 467 480 469L453 471V486H573V471L549 467Q535 465 529 462T512 448L383 305L573 42Q580 33 586 30T603 24L636 15V0H311V15L343 21Q361 24 361 35Q361 43 352 56L258 186L120
35Q115 30 115 25Q115 19 126 17L153 15V0H33V15L57 19Q71 21 77 24T94 38L245 204L73 444Q66 453 60 456T43 462L10 471V486H335V471L303 465Q285 462 285 451Q285 444 294 430L371 323L486 451Z" />
<glyph unicode="y" glyph-name="y" horiz-adv-x="582" d="M292 465Q269 460 269 446Q269 440 274 430L390 197L499 451Q502 457 502 461Q502 467 489 468L463 471V486H578V471L552 467Q540 465 535 462T525 448L330 0Q290 -93 265 -136T208 -203T123 -240L69 -88Q137
-85 198 -66T303 -16L62 444Q57 453 51 457T34 463L4 471V486H318V471L292 465Z" />
<glyph unicode="z" glyph-name="z" horiz-adv-x="564" d="M371 25Q417 25 441 35T480 67T508 135H528V0H32V20L323 461H213Q167 461 143 452T104 421T76 355H56V486H526V466L235 25H371Z" />
<glyph unicode="{" glyph-name="braceleft" horiz-adv-x="380" d="M107 360Q123 362 129 371T135 395Q135 409 132 425Q130 438 127 453T121 485Q111 540 107 571T102 630Q102 696 139 735T264 779L330 782V754L267 750Q242 749 233 739T223 711Q223 695 238 624Q251
563 259 516T267 428Q267 389 248 368T173 340Q229 334 248 313T267 252Q267 211 259 164T238 56Q223 -15 223 -31Q223 -49 232 -59T267 -70L330 -74V-102L264 -99Q176 -95 139 -56T102 50Q102 78 106 109T121 195Q124 212 127 227T132 255Q135 272 135 285Q135
300 129 309T107 320L62 327V353L107 360Z" />
<glyph unicode="|" glyph-name="bar" horiz-adv-x="250" d="M140 782V-102H110V782H140Z" />
<glyph unicode="}" glyph-name="braceright" horiz-adv-x="380" d="M273 320Q257 318 251 309T245 285Q245 272 248 255Q250 242 253 227T259 195Q269 140 273 109T278 50Q278 -16 241 -55T116 -99L50 -102V-74L113 -70Q138 -69 147 -59T157 -31Q157 -15 142 56Q129
117 121 164T113 252Q113 291 132 312T207 340Q151 346 132 367T113 428Q113 469 121 516T142 624Q157 695 157 711Q157 729 148 739T113 750L50 754V782L116 779Q204 775 241 736T278 630Q278 602 274 571T259 485Q256 468 253 453T248 425Q245 409 245 395Q245
380 251 371T273 360L318 353V327L273 320Z" />
<glyph unicode="~" glyph-name="asciitilde" horiz-adv-x="570" d="M430 330T445 348T477 402L494 393Q483 342 450 302T368 262Q350 262 327 271T270 299Q230 319 207 328T163 338Q140 338 125 320T93 266L76 275Q87 326 120 366T202 406Q220 406 243 397T300
369Q340 349 363 340T407 330Q430 330 445 348Z" />
<glyph unicode="&#xa0;" glyph-name="uni00A0" horiz-adv-x="290" />
<glyph unicode="&#xa1;" glyph-name="exclamdown" horiz-adv-x="284" d="M177 496T201 472T226 414Q226 380 202 356T142 332Q107 332 83 356T58 414Q58 448 82 472T142 496Q177 496 201 472ZM236 -187Q225 -204 201 -213T142 -222Q108 -222 84 -213T48 -187L126
267H158L236 -187Z" />
<glyph unicode="&#xa2;" glyph-name="cent" horiz-adv-x="638" d="M365 -12T348 -12Q207 -12 129 53T50 249Q50 373 132 435T374 498H393V586H423V496Q513 490 579 458L567 327H548Q528 392 501 426T423 469V32Q504 35 577 85L590 66Q515 8 423 -6V-100H393V-10Q365
-12 348 -12ZM258 153T286 96T393 33V472H392Q319 472 289 421T258 270Q258 153 286 96Z" />
<glyph unicode="&#xa3;" glyph-name="sterling" horiz-adv-x="668" d="M102 396Q73 463 73 516Q73 615 157 663T381 712Q448 712 505 703T597 676L583 524H560Q544 582 526 615T474 667T383 686Q312 686 281 656T250 570Q250 532 261 498T295 418L305 396H472V368H316Q338
316 338 270Q338 234 316 201T255 140H572Q583 140 587 144T594 164L600 189H620V88Q620 43 597 22T534 0H65L60 23Q131 40 170 79T209 169Q209 190 196 218T157 292Q126 345 115 368H40V396H102Z" />
<glyph unicode="&#xa4;" glyph-name="currency" horiz-adv-x="570" d="M342 485T385 450L447 524L470 504L406 428Q424 407 433 381T443 327Q443 270 406 225L470 150L447 130L385 204Q342 169 285 169Q228 169 185 204L123 130L100 150L163 225Q127 269 127 327Q127
386 163 428L100 504L123 524L185 450Q228 485 285 485Q342 485 385 450ZM320 197T350 214T397 262T414 327Q414 362 397 392T350 439T285 457Q250 457 220 440T173 392T156 327Q156 292 173 262T220 215T285 197Q320 197 350 214Z" />
<glyph unicode="&#xa5;" glyph-name="yen" horiz-adv-x="722" d="M244 310L76 652Q69 664 63 669T47 676L8 680V700H333V680L293 676Q279 675 279 664Q279 658 283 651L439 317L613 653Q615 659 615 660Q615 667 609 671T595 677L548 681V700H714V680L683 677Q667
676 661 671T647 652L469 310H600V282H460V206H600V178H460V50Q460 39 464 35T484 28L521 20V0H195V20L232 28Q247 31 251 35T256 50V178H116V206H256V282H116V310H244Z" />
<glyph unicode="&#xa6;" glyph-name="brokenbar" horiz-adv-x="250" d="M140 782V418H110V782H140ZM140 262V-102H110V262H140Z" />
<glyph unicode="&#xa7;" glyph-name="section" horiz-adv-x="580" d="M275 736T249 720T222 667Q222 642 233 625T271 593T349 559Q413 536 450 513T504 459T522 382Q522 326 479 289T359 223Q419 197 452 175T500 124T516 49Q516 -21 451 -60T266 -100Q219 -100
160 -89T69 -64L83 72H98Q134 -76 260 -76Q366 -76 366 -4Q366 32 338 55T233 106Q168 130 130 152T73 206T54 285Q54 340 99 375T226 440Q166 466 134 487T87 536T72 606Q72 681 137 720T322 760Q367 760 415 753T499 736L485 610H470Q455 678 422 707T328 736Q275
736 249 720ZM181 322T193 307T230 279T310 244Q318 240 334 234Q395 269 395 318Q395 341 385 356T349 386T272 421L249 430Q218 413 200 393T181 345Q181 322 193 307Z" />
<glyph unicode="&#xa8;" glyph-name="dieresis" horiz-adv-x="440" d="M67 573T46 594T24 646Q24 677 45 698T101 719Q135 719 156 698T178 646Q178 615 157 594T101 573Q67 573 46 594ZM305 573T284 594T262 646Q262 677 283 698T339 719Q373 719 394 698T416
646Q416 615 395 594T339 573Q305 573 284 594Z" />
<glyph unicode="&#xa9;" glyph-name="copyright" horiz-adv-x="838" d="M58 449T105 531T234 662T419 711Q521 711 603 663T733 532T780 350Q780 251 733 169T604 38T419 -11Q317 -11 235 37T105 168T58 350Q58 449 105 531ZM84 259T127 182T248 60T419 15Q513
15 590 60T710 182T754 350Q754 441 711 518T590 640T419 685Q325 685 248 640T128 518T84 350Q84 259 127 182ZM536 551T592 519L584 415H570Q554 475 532 503T462 532Q410 532 390 491T369 369Q369 303 377 263T409 201T477 180Q510 180 535 191T589 225L599
210Q568 179 529 162T433 145Q332 145 273 197T213 352Q213 449 273 500T448 551Q536 551 592 519Z" />
<glyph unicode="&#xaa;" glyph-name="ordfeminine" horiz-adv-x="464" d="M283 362T275 370T267 397V400Q220 355 137 355Q91 355 62 376T32 439Q32 501 89 525T267 553V604Q267 642 253 657T201 673Q170 673 143 664T86 637L76 654Q146 706 257 706Q409 706 409
587V399Q409 391 412 389T426 383L450 378V362H302Q283 362 275 370ZM240 401T267 426V531Q228 528 208 520T181 495T174 449Q174 423 183 412T214 401Q240 401 267 426Z" />
<glyph unicode="&#xab;" glyph-name="guillemotleft" horiz-adv-x="486" d="M224 461L240 447Q168 362 168 277Q168 192 240 107L224 93L54 262V292L224 461ZM410 461L426 447Q354 362 354 277Q354 192 426 107L410 93L240 262V292L410 461Z" />
<glyph unicode="&#xac;" glyph-name="logicalnot" horiz-adv-x="570" d="M462 171V314H74V342H492V171H462Z" />
<glyph unicode="&#xad;" glyph-name="uni00AD" horiz-adv-x="312" d="M40 264V292H272V264H40Z" />
<glyph unicode="&#xae;" glyph-name="registered" horiz-adv-x="614" d="M52 525T85 583T176 676T307 710Q379 710 437 676T529 584T562 455Q562 385 529 327T438 234T307 200Q235 200 177 234T85 326T52 455Q52 525 85 583ZM71 391T101 337T186 251T307 219Q374
219 428 250T512 336T543 455Q543 519 513 573T428 659T307 691Q240 691 186 660T102 574T71 455Q71 391 101 337ZM194 583T185 584L171 587V597H287Q365 597 397 581T430 525Q430 496 411 480T351 457Q386 455 402 442T425 397L429 373Q430 367 432 357T436 344T444
341Q456 341 462 354L472 346Q458 321 416 321Q379 321 363 334T340 385L335 414Q330 438 325 445T300 454H282V348Q282 339 291 338L305 335V325H171V335L185 338Q194 339 194 348V574Q194 583 185 584ZM282 468H290Q323 468 334 480T345 525Q345 558 334 570T290
583H282V468Z" />
<glyph unicode="&#xaf;" glyph-name="overscore" horiz-adv-x="440" d="M410 608V584H30V608H410Z" />
<glyph unicode="&#xb0;" glyph-name="degree" horiz-adv-x="372" d="M249 710T286 673T324 574Q324 514 287 476T186 438Q124 438 86 476T48 574Q48 635 86 672T186 710Q249 710 286 673ZM236 464T266 494T296 574Q296 623 266 653T186 684Q136 684 106 654T76
574Q76 525 106 495T186 464Q236 464 266 494Z" />
<glyph unicode="&#xb1;" glyph-name="plusminus" horiz-adv-x="570" d="M300 314V117H270V314H74V342H270V539H300V342H496V314H300ZM74 0V26H496V0H74Z" />
<glyph unicode="&#xb2;" glyph-name="uni00B2" horiz-adv-x="388" d="M334 708T278 662T138 575H304Q312 575 315 578T320 588L324 608H340V490H19L14 503Q119 570 162 638T205 771Q205 806 191 824T144 842Q113 842 89 833T33 805L22 823Q101 876 195 876Q266
876 300 848T334 772Q334 708 278 662Z" />
<glyph unicode="&#xb3;" glyph-name="uni00B3" horiz-adv-x="376" d="M178 504T196 524T215 591Q215 634 199 657T144 680H113V702H145Q177 702 191 719T206 776Q206 845 139 845Q110 845 87 838T35 815L23 832Q92 876 186 876Q254 876 294 852T335 783Q335 714
243 692Q291 687 318 664T346 599Q346 536 299 510T157 484Q76 484 22 507L30 601H46Q56 567 65 548T93 516T142 504Q178 504 196 524Z" />
<glyph unicode="&#xb4;" glyph-name="acute" horiz-adv-x="440" d="M302 707T318 683T335 631Q292 611 226 593T109 566L104 577L142 605Q151 612 200 649T279 718Q302 707 318 683Z" />
<glyph unicode="&#xb5;" glyph-name="mu" horiz-adv-x="750" d="M24 -208L59 -200Q74 -197 78 -193T83 -178V426Q83 437 79 441T59 448L24 456V474L266 504H283V126Q283 81 297 62T346 43Q406 43 467 93V426Q467 437 463 441T443 448L408 456V474L650 504H667V48Q667
37 671 33T691 26L726 18V0H523Q494 0 482 12T469 52V63Q436 36 389 15T283 -11V-178Q283 -189 287 -193T307 -200L342 -208V-226H24V-208Z" />
<glyph unicode="&#xb6;" glyph-name="paragraph" horiz-adv-x="504" d="M397 670Q371 670 361 661T351 626V-21Q351 -95 330 -127T248 -160Q207 -160 189 -155V-125Q213 -129 240 -129Q285 -129 302 -105T319 -21V248H296Q172 248 116 302T60 474Q60 591 116 645T296
700H466V670H397Z" />
<glyph unicode="&#xb7;" glyph-name="middot" horiz-adv-x="268" d="M99 196T75 220T50 278Q50 312 74 336T134 360Q169 360 193 336T218 278Q218 244 194 220T134 196Q99 196 75 220Z" />
<glyph unicode="&#xb8;" glyph-name="cedilla" horiz-adv-x="440" d="M238 0L234 -36Q299 -39 335 -60T372 -123Q372 -165 338 -186T251 -208Q226 -208 199 -202T156 -188L163 -170Q191 -183 232 -183Q261 -183 274 -174T288 -141Q288 -112 267 -98T205 -76L216 0H238Z" />
<glyph unicode="&#xb9;" glyph-name="uni00B9" horiz-adv-x="310" d="M38 821V837Q133 847 210 876L225 871V528Q225 521 228 518T238 513L278 506V490H36V506L81 513Q90 515 93 518T96 529V821H38Z" />
<glyph unicode="&#xba;" glyph-name="ordmasculine" horiz-adv-x="510" d="M363 706T417 664T472 530Q472 438 418 396T255 354Q147 354 93 396T38 530Q38 622 92 664T255 706Q363 706 417 664ZM283 375T297 391T316 439T321 530Q321 589 317 621T298 669T255
685Q227 685 213 669T194 621T189 530Q189 471 193 439T212 391T255 375Q283 375 297 391Z" />
<glyph unicode="&#xbb;" glyph-name="guillemotright" horiz-adv-x="486" d="M76 93L60 107Q132 192 132 277Q132 362 60 447L76 461L246 292V262L76 93ZM262 93L246 107Q318 192 318 277Q318 362 246 447L262 461L432 292V262L262 93Z" />
<glyph unicode="&#xbc;" glyph-name="onequarter" horiz-adv-x="850" d="M38 651V667Q133 677 210 706L225 701V358Q225 351 228 348T238 343L278 336V320H36V336L81 343Q90 345 93 348T96 359V651H38ZM664 700L264 0H234L634 700H664ZM466 86L462 106L719 380H775V108H826V86H775V37Q775
30 778 27T788 22L824 16V0H592V16L631 22Q640 24 643 27T646 38V86H466ZM646 108V269L494 108H646Z" />
<glyph unicode="&#xbd;" glyph-name="onehalf" horiz-adv-x="850" d="M38 651V667Q133 677 210 706L225 701V358Q225 351 228 348T238 343L278 336V320H36V336L81 343Q90 345 93 348T96 359V651H38ZM615 700L215 0H185L585 700H615ZM796 218T740 172T600 85H766Q774
85 777 88T782 98L786 118H802V0H481L476 13Q581 80 624 148T667 281Q667 316 653 334T606 352Q575 352 551 343T495 315L484 333Q564 386 657 386Q728 386 762 358T796 282Q796 218 740 172Z" />
<glyph unicode="&#xbe;" glyph-name="threequarters" horiz-adv-x="850" d="M178 334T196 354T215 421Q215 464 199 487T144 510H113V532H145Q177 532 191 549T206 606Q206 675 139 675Q110 675 87 668T35 645L23 662Q92 706 186 706Q254 706 294 682T335 613Q335
544 243 522Q291 517 318 494T346 429Q346 366 299 340T157 314Q76 314 22 337L30 431H46Q56 397 65 378T93 346T142 334Q178 334 196 354ZM680 700L280 0H250L650 700H680ZM466 86L462 106L719 380H775V108H826V86H775V37Q775 30 778 27T788 22L824 16V0H592V16L631
22Q640 24 643 27T646 38V86H466ZM646 108V269L494 108H646Z" />
<glyph unicode="&#xbf;" glyph-name="questiondown" horiz-adv-x="566" d="M340 496T364 472T389 414Q389 380 365 356T305 332Q270 332 246 356T221 414Q221 448 245 472T305 496Q340 496 364 472ZM238 63T238 -58Q238 -174 352 -174Q407 -174 445 -160T530 -114L542
-133Q481 -177 418 -200T260 -224Q157 -224 103 -185T48 -67Q48 26 112 72T278 136L291 267H319L330 136Q238 63 238 -58Z" />
<glyph unicode="&#xc0;" glyph-name="Agrave" horiz-adv-x="768" d="M256 881T305 844T363 799L401 771L396 760Q346 768 280 786T170 825Q171 853 187 877T226 912Q256 881 305 844ZM420 20L463 24Q477 26 477 35Q477 40 474 47L408 193H176L116 47Q113 40 113
35Q113 26 127 24L170 20V0H18V20L55 24Q67 25 72 30T83 48L360 711H392L685 48Q691 35 696 30T713 24L750 20V0H420V20ZM395 223L287 462L188 223H395Z" />
<glyph unicode="&#xc1;" glyph-name="Aacute" horiz-adv-x="768" d="M555 901T571 877T588 825Q545 805 479 787T362 760L357 771L395 799Q404 806 453 843T532 912Q555 901 571 877ZM420 20L463 24Q477 26 477 35Q477 40 474 47L408 193H176L116 47Q113 40 113
35Q113 26 127 24L170 20V0H18V20L55 24Q67 25 72 30T83 48L360 711H392L685 48Q691 35 696 30T713 24L750 20V0H420V20ZM395 223L287 462L188 223H395Z" />
<glyph unicode="&#xc2;" glyph-name="Acircumflex" horiz-adv-x="768" d="M459 838T534 775L523 760Q450 785 374 829Q298 785 225 760L214 775Q286 834 348 912H400Q459 838 534 775ZM420 20L463 24Q477 26 477 35Q477 40 474 47L408 193H176L116 47Q113 40 113
35Q113 26 127 24L170 20V0H18V20L55 24Q67 25 72 30T83 48L360 711H392L685 48Q691 35 696 30T713 24L750 20V0H420V20ZM395 223L287 462L188 223H395Z" />
<glyph unicode="&#xc3;" glyph-name="Atilde" horiz-adv-x="768" d="M441 758T415 767T321 803L285 817Q276 821 262 821Q250 821 239 816T221 802L197 772L185 777Q200 816 211 840T242 883T289 902Q307 902 333 893T427 857L463 843Q472 839 486 839Q498 839
509 844T527 858L551 888L563 883Q548 844 537 820T506 777T459 758Q441 758 415 767ZM420 20L463 24Q477 26 477 35Q477 40 474 47L408 193H176L116 47Q113 40 113 35Q113 26 127 24L170 20V0H18V20L55 24Q67 25 72 30T83 48L360 711H392L685 48Q691 35 696 30T713
24L750 20V0H420V20ZM395 223L287 462L188 223H395Z" />
<glyph unicode="&#xc4;" glyph-name="Adieresis" horiz-adv-x="760" d="M226 767T205 788T183 840Q183 871 204 892T260 913Q294 913 315 892T337 840Q337 809 316 788T260 767Q226 767 205 788ZM464 767T443 788T421 840Q421 871 442 892T498 913Q532 913 553
892T575 840Q575 809 554 788T498 767Q464 767 443 788ZM420 20L463 24Q477 26 477 35Q477 40 474 47L408 193H176L116 47Q113 40 113 35Q113 26 127 24L170 20V0H18V20L55 24Q67 25 72 30T83 48L360 711H392L685 48Q691 35 696 30T713 24L750 20V0H420V20ZM395
223L287 462L188 223H395Z" />
<glyph unicode="&#xc5;" glyph-name="Aring" horiz-adv-x="760" d="M420 875T452 851T485 780Q485 739 461 716T398 687L677 48Q683 35 688 30T705 24L742 20V0H412V20L455 24Q469 26 469 36Q469 40 466 47L397 203H178L114 47Q111 40 111 36Q111 26 125 24L168
20V0H18V20L55 24Q67 25 72 30T83 48L346 687Q306 693 282 716T257 780Q257 827 289 851T371 875Q420 875 452 851ZM394 702T404 721T414 780Q414 819 404 838T371 858Q348 858 338 839T328 780Q328 741 338 722T371 702Q394 702 404 721ZM384 233L284 461L190
233H384Z" />
<glyph unicode="&#xc6;" glyph-name="AE" horiz-adv-x="1044" d="M447 672L410 680V700H986V505H959Q936 572 919 604T869 653T777 670H675V373H893V343H675V30H787Q846 30 879 48T930 99T972 199H1000V0H410V20L447 28Q462 31 466 35T471 50V221H227L123 47Q118
39 118 33Q118 26 130 24L172 20V0H16V20L55 24Q67 25 72 30T86 48L462 668L447 672ZM471 625L245 251H471V625Z" />
<glyph unicode="&#xc7;" glyph-name="Ccedilla" horiz-adv-x="754" d="M239 3T148 91T56 360Q56 541 163 626T445 712Q515 712 583 699T690 667L676 495H648Q620 580 573 631T446 683Q355 683 316 609T276 386Q276 211 327 125T506 38Q561 38 605 56T690 106L710
84Q666 43 596 16T440 -12Q419 -12 409 -11L407 -36Q472 -39 508 -60T545 -123Q545 -165 511 -186T424 -208Q399 -208 372 -202T329 -188L336 -170Q364 -183 405 -183Q434 -183 447 -174T461 -141Q461 -112 440 -98T378 -76L387 -9Q239 3 148 91Z" />
<glyph unicode="&#xc8;" glyph-name="Egrave" horiz-adv-x="720" d="M342 881T391 844T449 799L487 771L482 760Q432 768 366 786T256 825Q257 853 273 877T312 912Q342 881 391 844ZM63 28Q78 31 82 35T87 50V650Q87 661 83 665T63 672L26 680V700H642V505H617Q596
570 578 603T526 653T433 670H291V373H549V343H291V30H443Q502 30 536 48T589 100T630 199H656V0H26V20L63 28Z" />
<glyph unicode="&#xc9;" glyph-name="Eacute" horiz-adv-x="720" d="M461 901T477 877T494 825Q451 805 385 787T268 760L263 771L301 799Q310 806 359 843T438 912Q461 901 477 877ZM63 28Q78 31 82 35T87 50V650Q87 661 83 665T63 672L26 680V700H642V505H617Q596
570 578 603T526 653T433 670H291V373H549V343H291V30H443Q502 30 536 48T589 100T630 199H656V0H26V20L63 28Z" />
<glyph unicode="&#xca;" glyph-name="Ecircumflex" horiz-adv-x="720" d="M465 838T540 775L529 760Q456 785 380 829Q304 785 231 760L220 775Q292 834 354 912H406Q465 838 540 775ZM63 28Q78 31 82 35T87 50V650Q87 661 83 665T63 672L26 680V700H642V505H617Q596
570 578 603T526 653T433 670H291V373H549V343H291V30H443Q502 30 536 48T589 100T630 199H656V0H26V20L63 28Z" />
<glyph unicode="&#xcb;" glyph-name="Edieresis" horiz-adv-x="720" d="M217 767T196 788T174 840Q174 871 195 892T251 913Q285 913 306 892T328 840Q328 809 307 788T251 767Q217 767 196 788ZM455 767T434 788T412 840Q412 871 433 892T489 913Q523 913 544
892T566 840Q566 809 545 788T489 767Q455 767 434 788ZM63 28Q78 31 82 35T87 50V650Q87 661 83 665T63 672L26 680V700H642V505H617Q596 570 578 603T526 653T433 670H291V373H549V343H291V30H443Q502 30 536 48T589 100T630 199H656V0H26V20L63 28Z" />
<glyph unicode="&#xcc;" glyph-name="Igrave" horiz-adv-x="386" d="M135 881T184 844T242 799L280 771L275 760Q225 768 159 786T49 825Q50 853 66 877T105 912Q135 881 184 844ZM91 661T87 665T67 672L30 680V700H356V680L319 672Q304 669 300 665T295 650V50Q295
39 299 35T319 28L356 20V0H30V20L67 28Q82 31 86 35T91 50V650Q91 661 87 665Z" />
<glyph unicode="&#xcd;" glyph-name="Iacute" horiz-adv-x="386" d="M314 901T330 877T347 825Q304 805 238 787T121 760L116 771L154 799Q163 806 212 843T291 912Q314 901 330 877ZM91 661T87 665T67 672L30 680V700H356V680L319 672Q304 669 300 665T295 650V50Q295
39 299 35T319 28L356 20V0H30V20L67 28Q82 31 86 35T91 50V650Q91 661 87 665Z" />
<glyph unicode="&#xce;" glyph-name="Icircumflex" horiz-adv-x="386" d="M278 838T353 775L342 760Q269 785 193 829Q117 785 44 760L33 775Q105 834 167 912H219Q278 838 353 775ZM91 661T87 665T67 672L30 680V700H356V680L319 672Q304 669 300 665T295 650V50Q295
39 299 35T319 28L356 20V0H30V20L67 28Q82 31 86 35T91 50V650Q91 661 87 665Z" />
<glyph unicode="&#xcf;" glyph-name="Idieresis" horiz-adv-x="386" d="M40 767T19 788T-3 840Q-3 871 18 892T74 913Q108 913 129 892T151 840Q151 809 130 788T74 767Q40 767 19 788ZM278 767T257 788T235 840Q235 871 256 892T312 913Q346 913 367 892T389
840Q389 809 368 788T312 767Q278 767 257 788ZM91 661T87 665T67 672L30 680V700H356V680L319 672Q304 669 300 665T295 650V50Q295 39 299 35T319 28L356 20V0H30V20L67 28Q82 31 86 35T91 50V650Q91 661 87 665Z" />
<glyph unicode="&#xd0;" glyph-name="Eth" horiz-adv-x="818" d="M762 158T652 79T332 0H26V20L63 28Q78 31 82 35T87 50V324H26V352H87V650Q87 661 83 665T63 672L26 680V700H332Q542 700 652 621T762 350Q762 158 652 79ZM291 324V30H332Q415 30 460 59T523
157T541 350Q541 475 523 543T460 640T332 670H291V352H428V324H291Z" />
<glyph unicode="&#xd1;" glyph-name="Ntilde" horiz-adv-x="744" d="M439 758T413 767T319 803L283 817Q274 821 260 821Q248 821 237 816T219 802L195 772L183 777Q198 816 209 840T240 883T287 902Q305 902 331 893T425 857L461 843Q470 839 484 839Q496 839
507 844T525 858L549 888L561 883Q546 844 535 820T504 777T457 758Q439 758 413 767ZM87 661T83 665T63 672L26 680V700H303L625 294V651Q625 662 621 665T602 672L566 680V700H718V680L681 672Q666 669 662 665T657 650V0H621L119 635V49Q119 38 123 35T142 28L178
20V0H26V20L63 28Q78 31 82 35T87 50V650Q87 661 83 665Z" />
<glyph unicode="&#xd2;" glyph-name="Ograve" horiz-adv-x="854" d="M339 881T388 844T446 799L484 771L479 760Q429 768 363 786T253 825Q254 853 270 877T309 912Q339 881 388 844ZM596 712T697 627T798 350Q798 159 697 74T427 -12Q258 -12 157 73T56 350Q56
540 157 626T427 712Q596 712 697 627ZM488 17T520 50T565 154T577 350Q577 475 565 546T521 650T427 683Q366 683 334 650T289 546T277 350Q277 225 289 154T333 50T427 17Q488 17 520 50Z" />
<glyph unicode="&#xd3;" glyph-name="Oacute" horiz-adv-x="854" d="M568 901T584 877T601 825Q558 805 492 787T375 760L370 771L408 799Q417 806 466 843T545 912Q568 901 584 877ZM596 712T697 627T798 350Q798 159 697 74T427 -12Q258 -12 157 73T56 350Q56
540 157 626T427 712Q596 712 697 627ZM488 17T520 50T565 154T577 350Q577 475 565 546T521 650T427 683Q366 683 334 650T289 546T277 350Q277 225 289 154T333 50T427 17Q488 17 520 50Z" />
<glyph unicode="&#xd4;" glyph-name="Ocircumflex" horiz-adv-x="854" d="M512 838T587 775L576 760Q503 785 427 829Q351 785 278 760L267 775Q339 834 401 912H453Q512 838 587 775ZM596 712T697 627T798 350Q798 159 697 74T427 -12Q258 -12 157 73T56 350Q56
540 157 626T427 712Q596 712 697 627ZM488 17T520 50T565 154T577 350Q577 475 565 546T521 650T427 683Q366 683 334 650T289 546T277 350Q277 225 289 154T333 50T427 17Q488 17 520 50Z" />
<glyph unicode="&#xd5;" glyph-name="Otilde" horiz-adv-x="854" d="M494 758T468 767T374 803L338 817Q329 821 315 821Q303 821 292 816T274 802L250 772L238 777Q253 816 264 840T295 883T342 902Q360 902 386 893T480 857L516 843Q525 839 539 839Q551 839
562 844T580 858L604 888L616 883Q601 844 590 820T559 777T512 758Q494 758 468 767ZM596 712T697 627T798 350Q798 159 697 74T427 -12Q258 -12 157 73T56 350Q56 540 157 626T427 712Q596 712 697 627ZM488 17T520 50T565 154T577 350Q577 475 565 546T521 650T427
683Q366 683 334 650T289 546T277 350Q277 225 289 154T333 50T427 17Q488 17 520 50Z" />
<glyph unicode="&#xd6;" glyph-name="Odieresis" horiz-adv-x="854" d="M274 767T253 788T231 840Q231 871 252 892T308 913Q342 913 363 892T385 840Q385 809 364 788T308 767Q274 767 253 788ZM512 767T491 788T469 840Q469 871 490 892T546 913Q580 913 601
892T623 840Q623 809 602 788T546 767Q512 767 491 788ZM596 712T697 627T798 350Q798 159 697 74T427 -12Q258 -12 157 73T56 350Q56 540 157 626T427 712Q596 712 697 627ZM488 17T520 50T565 154T577 350Q577 475 565 546T521 650T427 683Q366 683 334 650T289
546T277 350Q277 225 289 154T333 50T427 17Q488 17 520 50Z" />
<glyph unicode="&#xd7;" glyph-name="multiply" horiz-adv-x="570" d="M306 328L466 168L445 147L285 307L125 147L104 168L264 328L104 488L125 509L285 349L445 509L466 488L306 328Z" />
<glyph unicode="&#xd8;" glyph-name="Oslash" horiz-adv-x="854" d="M530 712T609 680L653 753L678 738L636 668Q798 584 798 350Q798 159 697 74T427 -12Q324 -12 244 19L201 -53L176 -38L218 32Q56 116 56 350Q56 540 157 626T427 712Q530 712 609 680ZM277
216T290 151L554 589Q538 638 508 660T427 683Q366 683 334 650T289 546T277 350Q277 216 290 151ZM488 17T520 50T565 154T577 350Q577 475 564 549L299 111Q315 62 345 40T427 17Q488 17 520 50Z" />
<glyph unicode="&#xd9;" glyph-name="Ugrave" horiz-adv-x="754" d="M349 881T398 844T456 799L494 771L489 760Q439 768 373 786T263 825Q264 853 280 877T319 912Q349 881 398 844ZM673 134T607 61T394 -12Q234 -12 158 53T81 264V650Q81 661 77 665T57 672L20
680V700H344V680L308 672Q294 669 290 666T285 651V246Q285 161 297 114T343 45T445 22Q541 22 592 85T643 252V650Q643 661 639 665T619 672L582 680V700H734V680L698 672Q684 669 680 666T675 651V260Q673 134 607 61Z" />
<glyph unicode="&#xda;" glyph-name="Uacute" horiz-adv-x="754" d="M598 901T614 877T631 825Q588 805 522 787T405 760L400 771L438 799Q447 806 496 843T575 912Q598 901 614 877ZM673 134T607 61T394 -12Q234 -12 158 53T81 264V650Q81 661 77 665T57 672L20
680V700H344V680L308 672Q294 669 290 666T285 651V246Q285 161 297 114T343 45T445 22Q541 22 592 85T643 252V650Q643 661 639 665T619 672L582 680V700H734V680L698 672Q684 669 680 666T675 651V260Q673 134 607 61Z" />
<glyph unicode="&#xdb;" glyph-name="Ucircumflex" horiz-adv-x="754" d="M532 838T607 775L596 760Q523 785 447 829Q371 785 298 760L287 775Q359 834 421 912H473Q532 838 607 775ZM673 134T607 61T394 -12Q234 -12 158 53T81 264V650Q81 661 77 665T57 672L20
680V700H344V680L308 672Q294 669 290 666T285 651V246Q285 161 297 114T343 45T445 22Q541 22 592 85T643 252V650Q643 661 639 665T619 672L582 680V700H734V680L698 672Q684 669 680 666T675 651V260Q673 134 607 61Z" />
<glyph unicode="&#xdc;" glyph-name="Udieresis" horiz-adv-x="748" d="M281 767T260 788T238 840Q238 871 259 892T315 913Q349 913 370 892T392 840Q392 809 371 788T315 767Q281 767 260 788ZM519 767T498 788T476 840Q476 871 497 892T553 913Q587 913 608
892T630 840Q630 809 609 788T553 767Q519 767 498 788ZM673 134T607 61T394 -12Q234 -12 158 53T81 264V650Q81 661 77 665T57 672L20 680V700H344V680L308 672Q294 669 290 666T285 651V246Q285 161 297 114T343 45T445 22Q541 22 592 85T643 252V650Q643 661
639 665T619 672L582 680V700H734V680L698 672Q684 669 680 666T675 651V260Q673 134 607 61Z" />
<glyph unicode="&#xdd;" glyph-name="Yacute" horiz-adv-x="720" d="M572 901T588 877T605 825Q562 805 496 787T379 760L374 771L412 799Q421 806 470 843T549 912Q572 901 588 877ZM619 659T619 660Q619 667 613 671T599 677L552 681V700H718V680L687 677Q671
676 665 671T651 652L460 324V50Q460 39 464 35T484 28L521 20V0H195V20L232 28Q247 31 251 35T256 50V318L72 652Q65 664 59 669T43 676L4 680V700H329V680L289 676Q275 675 275 664Q275 658 279 651L439 349L617 653Q619 659 619 660Z" />
<glyph unicode="&#xde;" glyph-name="Thorn" horiz-adv-x="736" d="M313 556Q449 556 529 539T648 479T686 359Q686 282 648 240T530 180T313 162H291V51Q291 40 295 36T315 29L358 20V0H26V20L63 28Q78 31 82 35T87 50V650Q87 661 83 665T63 672L26 680V700H358V680L315
671Q300 668 296 664T291 649V556H313ZM476 422T462 458T414 510T322 526H291V192H322Q381 192 414 208T461 260T476 359Q476 422 462 458Z" />
<glyph unicode="&#xdf;" glyph-name="germandbls" horiz-adv-x="771" d="M85 486V546Q85 636 165 683T379 730Q502 730 582 695T662 590Q662 534 613 503T475 451Q727 339 727 167Q727 106 696 67T616 9T511 -10Q405 -10 348 42L361 61Q401 30 454 30Q507 30 528
50T550 123Q550 201 505 261T369 393V416Q450 461 478 513T507 611Q507 708 400 708Q352 708 327 691T292 643T283 560V0H26V18L61 26Q76 29 80 33T85 48V460H20V486H85Z" />
<glyph unicode="&#xe0;" glyph-name="agrave" horiz-adv-x="644" d="M294 687T343 650T401 605L439 577L434 566Q384 574 318 592T208 631Q209 659 225 683T264 718Q294 687 343 650ZM390 0T379 11T367 50V55Q300 -10 176 -10Q111 -10 75 19T38 111Q38 173 74
208T181 258T367 276V349Q367 405 345 429T268 454Q222 454 183 442T102 404L89 423Q137 457 204 477T356 498Q469 498 517 454T565 325V48Q565 37 569 33T589 26L624 18V0H418Q390 0 379 11ZM331 53T367 87V249Q311 245 282 232T243 193T232 125Q232 87 245 70T288
53Q331 53 367 87Z" />
<glyph unicode="&#xe1;" glyph-name="aacute" horiz-adv-x="644" d="M403 707T419 683T436 631Q393 611 327 593T210 566L205 577L243 605Q252 612 301 649T380 718Q403 707 419 683ZM390 0T379 11T367 50V55Q300 -10 176 -10Q111 -10 75 19T38 111Q38 173 74
208T181 258T367 276V349Q367 405 345 429T268 454Q222 454 183 442T102 404L89 423Q137 457 204 477T356 498Q469 498 517 454T565 325V48Q565 37 569 33T589 26L624 18V0H418Q390 0 379 11ZM331 53T367 87V249Q311 245 282 232T243 193T232 125Q232 87 245 70T288
53Q331 53 367 87Z" />
<glyph unicode="&#xe2;" glyph-name="acircumflex" horiz-adv-x="644" d="M407 644T482 581L471 566Q398 591 322 635Q246 591 173 566L162 581Q234 640 296 718H348Q407 644 482 581ZM390 0T379 11T367 50V55Q300 -10 176 -10Q111 -10 75 19T38 111Q38 173 74
208T181 258T367 276V349Q367 405 345 429T268 454Q222 454 183 442T102 404L89 423Q137 457 204 477T356 498Q469 498 517 454T565 325V48Q565 37 569 33T589 26L624 18V0H418Q390 0 379 11ZM331 53T367 87V249Q311 245 282 232T243 193T232 125Q232 87 245 70T288
53Q331 53 367 87Z" />
<glyph unicode="&#xe3;" glyph-name="atilde" horiz-adv-x="644" d="M399 564T373 573T279 609L243 623Q234 627 220 627Q208 627 197 622T179 608L155 578L143 583Q158 622 169 646T200 689T247 708Q265 708 291 699T385 663L421 649Q430 645 444 645Q456 645
467 650T485 664L509 694L521 689Q506 650 495 626T464 583T417 564Q399 564 373 573ZM390 0T379 11T367 50V55Q300 -10 176 -10Q111 -10 75 19T38 111Q38 173 74 208T181 258T367 276V349Q367 405 345 429T268 454Q222 454 183 442T102 404L89 423Q137 457 204
477T356 498Q469 498 517 454T565 325V48Q565 37 569 33T589 26L624 18V0H418Q390 0 379 11ZM331 53T367 87V249Q311 245 282 232T243 193T232 125Q232 87 245 70T288 53Q331 53 367 87Z" />
<glyph unicode="&#xe4;" glyph-name="adieresis" horiz-adv-x="644" d="M179 573T158 594T136 646Q136 677 157 698T213 719Q247 719 268 698T290 646Q290 615 269 594T213 573Q179 573 158 594ZM417 573T396 594T374 646Q374 677 395 698T451 719Q485 719 506
698T528 646Q528 615 507 594T451 573Q417 573 396 594ZM390 0T379 11T367 50V55Q300 -10 176 -10Q111 -10 75 19T38 111Q38 173 74 208T181 258T367 276V349Q367 405 345 429T268 454Q222 454 183 442T102 404L89 423Q137 457 204 477T356 498Q469 498 517 454T565
325V48Q565 37 569 33T589 26L624 18V0H418Q390 0 379 11ZM331 53T367 87V249Q311 245 282 232T243 193T232 125Q232 87 245 70T288 53Q331 53 367 87Z" />
<glyph unicode="&#xe5;" glyph-name="aring" horiz-adv-x="644" d="M381 756T413 732T446 661Q446 614 414 590T332 566Q283 566 251 590T218 661Q218 708 250 732T332 756Q381 756 413 732ZM355 583T365 602T375 661Q375 700 365 719T332 739Q309 739 299 720T289
661Q289 622 299 603T332 583Q355 583 365 602ZM390 0T379 11T367 50V55Q300 -10 176 -10Q111 -10 75 19T38 111Q38 173 74 208T181 258T367 276V349Q367 405 345 429T268 454Q222 454 183 442T102 404L89 423Q137 457 204 477T356 498Q469 498 517 454T565 325V48Q565
37 569 33T589 26L624 18V0H418Q390 0 379 11ZM331 53T367 87V249Q311 245 282 232T243 193T232 125Q232 87 245 70T288 53Q331 53 367 87Z" />
<glyph unicode="&#xe6;" glyph-name="ae" horiz-adv-x="964" d="M575 146T608 88T733 29Q775 29 811 43T886 83L899 64Q806 -12 659 -12Q584 -12 527 11T432 79Q289 -10 180 -10Q114 -10 76 20T38 111Q38 173 76 208T186 258T375 276V349Q375 405 351 429T272
454Q184 454 102 404L89 423Q136 456 205 477T356 498Q447 498 499 463Q567 498 670 498Q749 498 804 472T888 403T916 306Q916 279 911 256H574Q575 146 608 88ZM615 474T595 427T574 282H730V357Q730 416 716 445T664 474Q615 474 595 427ZM335 53T375 83V249Q318
245 288 232T245 193T232 125Q232 88 247 71T292 53Q335 53 375 83Z" />
<glyph unicode="&#xe7;" glyph-name="ccedilla" horiz-adv-x="636" d="M180 1T115 65T50 249Q50 373 132 435T374 498Q499 498 579 458L567 327H548Q527 401 493 436T392 472Q319 472 289 421T258 270Q258 187 271 136T318 59T414 32Q461 32 500 45T577 85L590
66Q543 30 485 9T348 -12Q329 -12 320 -11L318 -36Q383 -39 419 -60T456 -123Q456 -165 422 -186T335 -208Q310 -208 283 -202T240 -188L247 -170Q275 -183 316 -183Q345 -183 358 -174T372 -141Q372 -112 351 -98T289 -76L298 -9Q180 1 115 65Z" />
<glyph unicode="&#xe8;" glyph-name="egrave" horiz-adv-x="658" d="M321 687T370 650T428 605L466 577L461 566Q411 574 345 592T235 631Q236 659 252 683T291 718Q321 687 370 650ZM257 145T291 87T421 29Q468 29 504 43T580 83L593 64Q500 -12 347 -12Q209
-12 130 54T50 249Q50 370 131 434T358 498Q441 498 498 472T582 403T610 306Q610 279 605 256H256Q257 145 291 87ZM297 474T277 428T256 282H424V357Q424 418 410 446T352 474Q297 474 277 428Z" />
<glyph unicode="&#xe9;" glyph-name="eacute" horiz-adv-x="658" d="M430 707T446 683T463 631Q420 611 354 593T237 566L232 577L270 605Q279 612 328 649T407 718Q430 707 446 683ZM257 145T291 87T421 29Q468 29 504 43T580 83L593 64Q500 -12 347 -12Q209
-12 130 54T50 249Q50 370 131 434T358 498Q441 498 498 472T582 403T610 306Q610 279 605 256H256Q257 145 291 87ZM297 474T277 428T256 282H424V357Q424 418 410 446T352 474Q297 474 277 428Z" />
<glyph unicode="&#xea;" glyph-name="ecircumflex" horiz-adv-x="658" d="M434 644T509 581L498 566Q425 591 349 635Q273 591 200 566L189 581Q261 640 323 718H375Q434 644 509 581ZM257 145T291 87T421 29Q468 29 504 43T580 83L593 64Q500 -12 347 -12Q209
-12 130 54T50 249Q50 370 131 434T358 498Q441 498 498 472T582 403T610 306Q610 279 605 256H256Q257 145 291 87ZM297 474T277 428T256 282H424V357Q424 418 410 446T352 474Q297 474 277 428Z" />
<glyph unicode="&#xeb;" glyph-name="edieresis" horiz-adv-x="658" d="M196 573T175 594T153 646Q153 677 174 698T230 719Q264 719 285 698T307 646Q307 615 286 594T230 573Q196 573 175 594ZM434 573T413 594T391 646Q391 677 412 698T468 719Q502 719 523
698T545 646Q545 615 524 594T468 573Q434 573 413 594ZM257 145T291 87T421 29Q468 29 504 43T580 83L593 64Q500 -12 347 -12Q209 -12 130 54T50 249Q50 370 131 434T358 498Q441 498 498 472T582 403T610 306Q610 279 605 256H256Q257 145 291 87ZM297 474T277
428T256 282H424V357Q424 418 410 446T352 474Q297 474 277 428Z" />
<glyph unicode="&#xec;" glyph-name="igrave" horiz-adv-x="370" d="M117 687T166 650T224 605L262 577L257 566Q207 574 141 592T31 631Q32 659 48 683T87 718Q117 687 166 650ZM26 18L61 26Q76 29 80 33T85 48V426Q85 437 81 441T61 448L26 456V474L266 504H285V48Q285
37 289 33T309 26L344 18V0H26V18Z" />
<glyph unicode="&#xed;" glyph-name="iacute" horiz-adv-x="370" d="M306 707T322 683T339 631Q296 611 230 593T113 566L108 577L146 605Q155 612 204 649T283 718Q306 707 322 683ZM26 18L61 26Q76 29 80 33T85 48V426Q85 437 81 441T61 448L26 456V474L266
504H285V48Q285 37 289 33T309 26L344 18V0H26V18Z" />
<glyph unicode="&#xee;" glyph-name="icircumflex" horiz-adv-x="370" d="M270 644T345 581L334 566Q261 591 185 635Q109 591 36 566L25 581Q97 640 159 718H211Q270 644 345 581ZM26 18L61 26Q76 29 80 33T85 48V426Q85 437 81 441T61 448L26 456V474L266 504H285V48Q285
37 289 33T309 26L344 18V0H26V18Z" />
<glyph unicode="&#xef;" glyph-name="idieresis" horiz-adv-x="370" d="M32 573T11 594T-11 646Q-11 677 10 698T66 719Q100 719 121 698T143 646Q143 615 122 594T66 573Q32 573 11 594ZM270 573T249 594T227 646Q227 677 248 698T304 719Q338 719 359 698T381
646Q381 615 360 594T304 573Q270 573 249 594ZM26 18L61 26Q76 29 80 33T85 48V426Q85 437 81 441T61 448L26 456V474L266 504H285V48Q285 37 289 33T309 26L344 18V0H26V18Z" />
<glyph unicode="&#xf0;" glyph-name="eth" horiz-adv-x="605" d="M443 632Q550 570 612 471T674 243Q674 114 594 51T362 -12Q211 -12 131 51T50 243Q50 372 130 435T362 498Q400 498 437 490Q416 548 374 593L291 545L277 569L354 613Q300 663 222 695L228 710Q328
692 414 648L518 708L532 684L443 632ZM258 154T266 106T297 36T362 14Q405 14 427 36T457 106T466 243Q466 332 458 380T427 450T362 472Q319 472 297 450T267 380T258 243Q258 154 266 106Z" />
<glyph unicode="&#xf1;" glyph-name="ntilde" horiz-adv-x="750" d="M442 564T416 573T322 609L286 623Q277 627 263 627Q251 627 240 622T222 608L198 578L186 583Q201 622 212 646T243 689T290 708Q308 708 334 699T428 663L464 649Q473 645 487 645Q499 645
510 650T528 664L552 694L564 689Q549 650 538 626T507 583T460 564Q442 564 416 573ZM669 37T673 33T693 26L728 18V0H520Q493 0 481 14T469 56V360Q469 405 455 424T406 443Q346 443 283 393V48Q283 37 287 33T306 25L340 18V0H24V18L59 26Q74 29 78 33T83 48V426Q83
437 79 441T59 448L24 456V474L264 504H281V423Q319 454 374 476T496 498Q589 498 629 459T669 342V48Q669 37 673 33Z" />
<glyph unicode="&#xf2;" glyph-name="ograve" horiz-adv-x="724" d="M274 687T323 650T381 605L419 577L414 566Q364 574 298 592T188 631Q189 659 205 683T244 718Q274 687 323 650ZM674 114T594 51T362 -12Q211 -12 131 51T50 243Q50 372 130 435T362 498Q513
498 593 435T674 243Q674 114 594 51ZM258 154T266 106T297 36T362 14Q405 14 427 36T457 106T466 243Q466 332 458 380T427 450T362 472Q319 472 297 450T267 380T258 243Q258 154 266 106Z" />
<glyph unicode="&#xf3;" glyph-name="oacute" horiz-adv-x="724" d="M503 707T519 683T536 631Q493 611 427 593T310 566L305 577L343 605Q352 612 401 649T480 718Q503 707 519 683ZM674 114T594 51T362 -12Q211 -12 131 51T50 243Q50 372 130 435T362 498Q513
498 593 435T674 243Q674 114 594 51ZM258 154T266 106T297 36T362 14Q405 14 427 36T457 106T466 243Q466 332 458 380T427 450T362 472Q319 472 297 450T267 380T258 243Q258 154 266 106Z" />
<glyph unicode="&#xf4;" glyph-name="ocircumflex" horiz-adv-x="724" d="M447 644T522 581L511 566Q438 591 362 635Q286 591 213 566L202 581Q274 640 336 718H388Q447 644 522 581ZM674 114T594 51T362 -12Q211 -12 131 51T50 243Q50 372 130 435T362 498Q513
498 593 435T674 243Q674 114 594 51ZM258 154T266 106T297 36T362 14Q405 14 427 36T457 106T466 243Q466 332 458 380T427 450T362 472Q319 472 297 450T267 380T258 243Q258 154 266 106Z" />
<glyph unicode="&#xf5;" glyph-name="otilde" horiz-adv-x="724" d="M429 564T403 573T309 609L273 623Q264 627 250 627Q238 627 227 622T209 608L185 578L173 583Q188 622 199 646T230 689T277 708Q295 708 321 699T415 663L451 649Q460 645 474 645Q486 645
497 650T515 664L539 694L551 689Q536 650 525 626T494 583T447 564Q429 564 403 573ZM674 114T594 51T362 -12Q211 -12 131 51T50 243Q50 372 130 435T362 498Q513 498 593 435T674 243Q674 114 594 51ZM258 154T266 106T297 36T362 14Q405 14 427 36T457 106T466
243Q466 332 458 380T427 450T362 472Q319 472 297 450T267 380T258 243Q258 154 266 106Z" />
<glyph unicode="&#xf6;" glyph-name="odieresis" horiz-adv-x="724" d="M209 573T188 594T166 646Q166 677 187 698T243 719Q277 719 298 698T320 646Q320 615 299 594T243 573Q209 573 188 594ZM447 573T426 594T404 646Q404 677 425 698T481 719Q515 719 536
698T558 646Q558 615 537 594T481 573Q447 573 426 594ZM674 114T594 51T362 -12Q211 -12 131 51T50 243Q50 372 130 435T362 498Q513 498 593 435T674 243Q674 114 594 51ZM258 154T266 106T297 36T362 14Q405 14 427 36T457 106T466 243Q466 332 458 380T427
450T362 472Q319 472 297 450T267 380T258 243Q258 154 266 106Z" />
<glyph unicode="&#xf7;" glyph-name="divide" horiz-adv-x="572" d="M251 418T227 442T202 500Q202 534 226 558T286 582Q321 582 345 558T370 500Q370 466 346 442T286 418Q251 418 227 442ZM496 342V314H74V342H496ZM321 238T345 214T370 156Q370 122 346 98T286
74Q251 74 227 98T202 156Q202 190 226 214T286 238Q321 238 345 214Z" />
<glyph unicode="&#xf8;" glyph-name="oslash" horiz-adv-x="724" d="M674 114T594 51T362 -12Q280 -12 218 6L181 -49L158 -33L191 16Q50 73 50 243Q50 372 130 435T362 498Q445 498 505 479L543 535L566 519L533 470Q674 413 674 243Q674 114 594 51ZM258 163T263
123L453 402Q442 439 421 455T362 472Q319 472 297 450T267 380T258 243Q258 163 263 123ZM466 315T460 363L271 84Q281 47 302 31T362 14Q405 14 427 36T457 106T466 243Q466 315 460 363Z" />
<glyph unicode="&#xf9;" glyph-name="ugrave" horiz-adv-x="746" d="M263 687T312 650T370 605L408 577L403 566Q353 574 287 592T177 631Q178 659 194 683T233 718Q263 687 312 650ZM463 437T459 441T439 448L404 456V474L646 504H663V48Q663 37 667 33T687 26L722
18V0H519Q490 0 478 12T465 52V63Q429 32 374 10T252 -12Q159 -12 119 27T79 144V426Q79 437 75 441T55 448L20 456V474L262 504H279V126Q279 81 293 62T342 43Q402 43 463 93V426Q463 437 459 441Z" />
<glyph unicode="&#xfa;" glyph-name="uacute" horiz-adv-x="746" d="M484 707T500 683T517 631Q474 611 408 593T291 566L286 577L324 605Q333 612 382 649T461 718Q484 707 500 683ZM463 437T459 441T439 448L404 456V474L646 504H663V48Q663 37 667 33T687 26L722
18V0H519Q490 0 478 12T465 52V63Q429 32 374 10T252 -12Q159 -12 119 27T79 144V426Q79 437 75 441T55 448L20 456V474L262 504H279V126Q279 81 293 62T342 43Q402 43 463 93V426Q463 437 459 441Z" />
<glyph unicode="&#xfb;" glyph-name="ucircumflex" horiz-adv-x="746" d="M458 644T533 581L522 566Q449 591 373 635Q297 591 224 566L213 581Q285 640 347 718H399Q458 644 533 581ZM463 437T459 441T439 448L404 456V474L646 504H663V48Q663 37 667 33T687
26L722 18V0H519Q490 0 478 12T465 52V63Q429 32 374 10T252 -12Q159 -12 119 27T79 144V426Q79 437 75 441T55 448L20 456V474L262 504H279V126Q279 81 293 62T342 43Q402 43 463 93V426Q463 437 459 441Z" />
<glyph unicode="&#xfc;" glyph-name="udieresis" horiz-adv-x="746" d="M220 573T199 594T177 646Q177 677 198 698T254 719Q288 719 309 698T331 646Q331 615 310 594T254 573Q220 573 199 594ZM458 573T437 594T415 646Q415 677 436 698T492 719Q526 719 547
698T569 646Q569 615 548 594T492 573Q458 573 437 594ZM463 437T459 441T439 448L404 456V474L646 504H663V48Q663 37 667 33T687 26L722 18V0H519Q490 0 478 12T465 52V63Q429 32 374 10T252 -12Q159 -12 119 27T79 144V426Q79 437 75 441T55 448L20 456V474L262
504H279V126Q279 81 293 62T342 43Q402 43 463 93V426Q463 437 459 441Z" />
<glyph unicode="&#xfd;" glyph-name="yacute" horiz-adv-x="582" d="M513 707T529 683T546 631Q503 611 437 593T320 566L315 577L353 605Q362 612 411 649T490 718Q513 707 529 683ZM292 465Q269 460 269 446Q269 440 274 430L390 197L499 451Q502 457 502 461Q502
467 489 468L463 471V486H578V471L552 467Q540 465 535 462T525 448L330 0Q290 -93 265 -136T208 -203T123 -240L69 -88Q137 -85 198 -66T303 -16L62 444Q57 453 51 457T34 463L4 471V486H318V471L292 465Z" />
<glyph unicode="&#xfe;" glyph-name="thorn" horiz-adv-x="746" d="M350 498T455 498Q566 498 631 438T696 249Q696 116 631 53T455 -10Q344 -10 283 55V-178Q283 -189 287 -193T307 -200L342 -208V-226H24V-208L59 -200Q74 -197 78 -193T83 -178V652Q83 663 79
667T59 674L24 682V700L264 730H283V448Q350 498 455 498ZM329 456T283 418V89Q306 64 335 49T396 33Q432 33 452 55T481 123T490 249Q490 360 468 408T391 456Q329 456 283 418Z" />
<glyph unicode="&#xff;" glyph-name="ydieresis" horiz-adv-x="582" d="M178 573T157 594T135 646Q135 677 156 698T212 719Q246 719 267 698T289 646Q289 615 268 594T212 573Q178 573 157 594ZM416 573T395 594T373 646Q373 677 394 698T450 719Q484 719 505
698T527 646Q527 615 506 594T450 573Q416 573 395 594ZM292 465Q269 460 269 446Q269 440 274 430L390 197L499 451Q502 457 502 461Q502 467 489 468L463 471V486H578V471L552 467Q540 465 535 462T525 448L330 0Q290 -93 265 -136T208 -203T123 -240L69 -88Q137
-85 198 -66T303 -16L62 444Q57 453 51 457T34 463L4 471V486H318V471L292 465Z" />
<glyph unicode="&#x2013;" glyph-name="endash" horiz-adv-x="532" d="M40 264V292H492V264H40Z" />
<glyph unicode="&#x2014;" glyph-name="emdash" horiz-adv-x="712" d="M40 264V292H672V264H40Z" />
<glyph unicode="&#x2018;" glyph-name="quoteleft" horiz-adv-x="296" d="M149 562T161 562Q199 562 218 541T238 487Q238 453 216 430T154 407Q114 407 90 429T66 495Q66 553 101 612T187 712L207 691Q142 622 142 561Q149 562 161 562Z" />
<glyph unicode="&#x2019;" glyph-name="quoteright" horiz-adv-x="296" d="M147 553T135 553Q97 553 78 574T58 628Q58 662 80 685T142 708Q182 708 206 686T230 620Q230 562 195 503T109 403L89 424Q154 493 154 554Q147 553 135 553Z" />
<glyph unicode="&#x201a;" glyph-name="quotesinglbase" horiz-adv-x="296" d="M147 1T135 1Q97 1 78 22T58 76Q58 110 80 133T142 156Q182 156 206 134T230 68Q230 10 195 -49T109 -149L89 -128Q154 -59 154 2Q147 1 135 1Z" />
<glyph unicode="&#x201c;" glyph-name="quotedblleft" horiz-adv-x="530" d="M149 562T161 562Q199 562 218 541T238 487Q238 453 216 430T154 407Q114 407 90 429T66 495Q66 553 101 612T187 712L207 691Q142 622 142 561Q149 562 161 562ZM383 562T395 562Q433
562 452 541T472 487Q472 453 450 430T388 407Q348 407 324 429T300 495Q300 553 335 612T421 712L441 691Q376 622 376 561Q383 562 395 562Z" />
<glyph unicode="&#x201d;" glyph-name="quotedblright" horiz-adv-x="530" d="M147 553T135 553Q97 553 78 574T58 628Q58 662 80 685T142 708Q182 708 206 686T230 620Q230 562 195 503T109 403L89 424Q154 493 154 554Q147 553 135 553ZM381 553T369 553Q331
553 312 574T292 628Q292 662 314 685T376 708Q416 708 440 686T464 620Q464 562 429 503T343 403L323 424Q388 493 388 554Q381 553 369 553Z" />
<glyph unicode="&#x201e;" glyph-name="quotedblbase" horiz-adv-x="530" d="M147 1T135 1Q97 1 78 22T58 76Q58 110 80 133T142 156Q182 156 206 134T230 68Q230 10 195 -49T109 -149L89 -128Q154 -59 154 2Q147 1 135 1ZM381 1T369 1Q331 1 312 22T292 76Q292
110 314 133T376 156Q416 156 440 134T464 68Q464 10 429 -49T343 -149L323 -128Q388 -59 388 2Q381 1 369 1Z" />
<glyph unicode="&#x2022;" glyph-name="bullet" horiz-adv-x="386" d="M157 148T127 165T78 212T60 278Q60 314 78 343T126 390T193 408Q229 408 259 391T308 344T326 278Q326 242 308 213T260 166T193 148Q157 148 127 165Z" />
<glyph unicode="&#x2039;" glyph-name="guilsinglleft" horiz-adv-x="300" d="M224 461L240 447Q168 362 168 277Q168 192 240 107L224 93L54 262V292L224 461Z" />
<glyph unicode="&#x203a;" glyph-name="guilsinglright" horiz-adv-x="300" d="M76 93L60 107Q132 192 132 277Q132 362 60 447L76 461L246 292V262L76 93Z" />
</font>
</defs>
</svg>
