<?xml version="1.0" standalone="no"?>
<!DOCTYPE svg PUBLIC "-//W3C//DTD SVG 1.1//EN" "http://www.w3.org/Graphics/SVG/1.1/DTD/svg11.dtd">
<svg xmlns="http://www.w3.org/2000/svg">
<defs >
<font id="Cuprum" horiz-adv-x="452" ><font-face
    font-family="Cuprum SemiBold"
    units-per-em="1000"
    panose-1="0 0 5 0 0 0 0 0 0 0"
    ascent="895"
    descent="-260"
    alphabetic="0" />
<glyph unicode=" " horiz-adv-x="250" />
<glyph unicode="!" horiz-adv-x="250" d="M110 185L183 700H313L203 185H110ZM68 -8L88 108H198L178 -8H68Z" />
<glyph unicode="&quot;" horiz-adv-x="357" d="M309 465L326 700H440L373 465H309ZM146 465L163 700H276L209 465H146Z" />
<glyph unicode="#" horiz-adv-x="583" d="M82 0L146 197H54L68 273H172L222 427H124L139 503H250L315 700H421L357 503H454L518 700H625L560 503H652L638 427H532L481 273H581L568 197H456L392 0H285L349 197H253L188 0H82ZM270 273H384L434 427H320L270 273Z" />
<glyph unicode="$" horiz-adv-x="458" d="M181 -90L195 -10H190Q140 -10 99 -4T36 10L45 62H207L251 312Q225 325 199 341T152 381T124 441T125 530Q139 607 188 653T321 708L336 790H402L388 709Q428 708 460 702T509 690L500 638H375L332 390Q358 376 384 360T430
321T458 265T458 180Q444 101 398 55T262 -5L247 -90H181ZM276 79Q307 93 324 118T348 180Q354 215 343 237T311 276L276 79ZM272 427L307 627Q248 603 235 530Q228 492 239 468T272 427Z" />
<glyph unicode="%" horiz-adv-x="707" d="M103 0L616 700H726L213 0H103ZM528 -10Q458 -10 425 30T404 140Q417 210 464 250T581 290Q651 290 684 250T704 140Q692 70 645 30T528 -10ZM539 57Q565 57 585 76T612 140Q621 184 608 203T569 223Q544 223 524 204T496
140Q488 96 501 77T539 57ZM249 410Q179 410 146 450T125 560Q137 630 184 670T302 710Q372 710 404 670T425 560Q412 490 366 450T249 410ZM260 477Q285 477 305 496T333 560Q341 604 328 623T289 643Q265 643 245 624T216 560Q209 516 222 497T260 477Z" />
<glyph unicode="&amp;" horiz-adv-x="535" d="M203 -10Q125 -10 88 39T66 180Q74 225 87 266T113 330H200L173 180Q164 131 170 106T191 71T219 62Q235 62 251 71T285 102T323 160Q284 233 260 286T223 381T208 458T213 530Q228 615 284 662T425 710Q475 710 516
704T578 690L568 638H432Q394 638 363 610T323 530Q317 497 318 462T334 381T383 268L453 390H563L434 170L525 0H405L367 72Q346 45 323 27T272 -1T203 -10Z" />
<glyph unicode="&apos;" horiz-adv-x="193" d="M146 465L163 700H276L209 465H146Z" />
<glyph unicode="(" horiz-adv-x="259" d="M169 -190Q125 -110 107 -27T88 136T99 280Q111 345 138 424T214 586T335 750L385 720Q320 615 281 512T219 280Q197 153 199 49T230 -160L169 -190Z" />
<glyph unicode=")" horiz-adv-x="259" d="M22 -190L-28 -160Q37 -55 76 49T138 280Q161 408 158 511T126 720L188 750Q232 670 251 587T270 424T258 280Q247 215 219 136T143 -26T22 -190Z" />
<glyph unicode="*" horiz-adv-x="443" d="M212 315L140 358L227 479L109 505L144 590L273 560L298 700H391L367 560L507 590L512 505L385 479L428 358L341 315L298 437L212 315Z" />
<glyph unicode="+" horiz-adv-x="443" d="M194 93L224 262H75L89 338H237L267 507H354L324 338H472L459 262H310L281 93H194Z" />
<glyph unicode="," horiz-adv-x="187" d="M18 -118L59 108H170L93 -118H18Z" />
<glyph unicode="-" horiz-adv-x="373" d="M75 262L89 338H402L389 262H75Z" />
<glyph unicode="." horiz-adv-x="190" d="M38 -8L59 108H169L148 -8H38Z" />
<glyph unicode="/" horiz-adv-x="410" d="M0 0L423 700H533L110 0H0Z" />
<glyph unicode="0" horiz-adv-x="523" d="M260 -10Q211 -10 175 8T118 67T93 178T108 350Q132 487 173 565T268 677T387 710Q435 710 471 692T528 633T553 522T538 350Q514 213 473 135T378 23T260 -10ZM271 57Q289 57 310 69T352 114T392 204T428 350Q444 439
444 496T435 585T409 630T374 643Q356 643 336 631T294 586T254 496T218 350Q202 261 202 204T211 115T237 70T271 57Z" />
<glyph unicode="1" horiz-adv-x="297" d="M117 0L226 623H120L129 680Q153 688 196 694T290 700H350L227 0H117Z" />
<glyph unicode="2" horiz-adv-x="410" d="M13 0L28 87Q113 169 172 228T270 333T329 418T358 500Q371 574 348 606T275 638H135L144 690Q168 698 211 704T305 710Q405 710 446 659T468 500Q460 452 434 406T364 309T264 201T138 77H390L377 0H13Z" />
<glyph unicode="3" horiz-adv-x="428" d="M170 -10Q120 -10 79 -4T16 10L25 62H162Q230 62 266 93T315 190Q328 262 303 294T209 327H132L146 403H212Q272 403 307 433T354 525Q363 580 340 609T267 638H137L146 690Q170 698 213 704T307 710Q399 710 439 662T464
525Q454 469 422 432T343 372L342 368Q377 357 397 330T425 267T425 190Q407 90 346 40T170 -10Z" />
<glyph unicode="4" horiz-adv-x="480" d="M287 0L316 173H56L72 260L400 700H520L441 250H497L483 173H426L397 0H287ZM172 250H331L380 532H376L172 250Z" />
<glyph unicode="5" horiz-adv-x="458" d="M200 -10Q150 -10 109 -4T46 10L55 62H192Q260 62 296 94T347 200Q360 276 335 309T241 342H116L180 700H521L509 628H277L239 413H274Q389 413 432 362T457 200Q437 93 376 42T200 -10Z" />
<glyph unicode="6" horiz-adv-x="468" d="M240 -10Q144 -10 103 41T82 200L121 420Q147 573 214 641T377 710Q427 710 467 704T529 690L520 638H390Q354 638 323 618T268 547T228 407Q252 415 281 419T334 423Q416 423 454 371T472 203Q453 93 395 42T240 -10ZM251
57Q287 57 317 90T362 203Q377 289 358 323T274 357H219L192 200Q178 123 196 90T251 57Z" />
<glyph unicode="7" horiz-adv-x="423" d="M107 0Q154 143 226 297T396 623H130L143 700H516L501 613Q404 444 334 294T217 0H107Z" />
<glyph unicode="8" horiz-adv-x="493" d="M245 -10Q137 -10 94 39T68 180Q77 229 101 264T158 324T227 363V367Q202 376 181 397T149 453T146 535Q160 616 218 663T372 710Q468 710 509 663T536 535Q528 488 505 454T452 398T394 367V363Q425 349 449 325T485
265T488 180Q471 88 412 39T245 -10ZM256 57Q301 57 334 87T378 180Q388 236 366 268T303 322Q256 300 222 268T178 180Q167 118 189 88T256 57ZM318 408Q356 421 386 452T426 535Q434 586 414 614T359 643Q326 643 295 615T256 535Q246 483 265 452T318 408Z"
/>
<glyph unicode="9" horiz-adv-x="468" d="M215 -10Q165 -10 124 -4T61 10L70 62H200Q236 62 267 82T323 154T363 293Q339 286 309 282T257 277Q174 277 136 329T119 497Q138 607 197 658T352 710Q448 710 488 659T510 500L471 280Q444 128 378 59T215 -10ZM316
343H371L400 500Q413 578 395 610T339 643Q303 643 273 610T229 497Q214 412 233 378T316 343Z" />
<glyph unicode=":" horiz-adv-x="190" d="M107 383L128 500H238L217 383H107ZM38 -8L59 108H169L148 -8H38Z" />
<glyph unicode=";" horiz-adv-x="182" d="M18 -118L59 108H170L93 -118H18ZM107 383L128 500H238L217 383H107Z" />
<glyph unicode="&lt;" horiz-adv-x="403" d="M364 7L76 203L93 302L451 498L431 387L192 257L190 251L384 118L364 7Z" />
<glyph unicode="=" horiz-adv-x="443" d="M59 172L74 253H457L443 172H59ZM90 347L105 428H488L474 347H90Z" />
<glyph unicode="&gt;" horiz-adv-x="403" d="M40 7L61 118L300 251L302 257L108 387L128 498L416 302L399 203L40 7Z" />
<glyph unicode="?" horiz-adv-x="387" d="M137 185Q147 240 168 277T215 341T266 394T311 448T338 520Q348 579 325 608T252 638H122L131 690Q155 698 198 704T292 710Q384 710 424 662T448 520Q439 469 417 434T368 371T312 317T262 260T230 185H137ZM95 -8L115
108H225L205 -8H95Z" />
<glyph unicode="@" horiz-adv-x="843" d="M421 -90Q231 -90 149 11T101 310Q136 508 251 609T542 710Q664 710 741 667T848 547T861 365Q843 266 805 206T701 118T530 90L524 120H519Q497 101 470 91T411 80Q369 80 337 103T290 174T288 297Q304 385 336 438T422
516T552 540Q589 540 628 534T688 520L624 155Q651 155 675 172T721 236T757 365Q781 499 722 571T529 643Q446 643 381 609T270 502T204 310Q184 195 204 122T287 16T453 -18H590L580 -70Q556 -77 514 -83T421 -90ZM452 147Q471 147 488 153T515 167L569 473H539Q505
473 478 458T431 404T398 297Q389 242 394 209T416 162T452 147Z" />
<glyph unicode="A" horiz-adv-x="530" d="M17 0L316 700H460L513 0H400L386 177H205L130 0H17ZM234 253H383L365 560H361L234 253Z" />
<glyph unicode="B" horiz-adv-x="520" d="M238 -10Q186 -10 147 -6T71 10L191 690Q231 701 272 705T365 710Q475 710 518 662T545 525Q537 480 508 440T429 377L428 373Q485 353 506 306T516 190Q505 123 473 79T384 13T238 -10ZM190 62H250Q318 62 354 93T404
193Q417 267 392 299T298 332H238L190 62ZM251 403H301Q353 403 387 433T431 522Q442 579 418 608T342 638H292L251 403Z" />
<glyph unicode="C" horiz-adv-x="448" d="M275 -10Q200 -10 154 21T96 131T108 350Q133 490 172 568T267 678T392 710Q442 710 482 704T544 690L535 638H412Q370 638 334 614T268 527T218 350Q198 236 206 174T244 87T320 62H444L434 10Q411 3 368 -3T275 -10Z" />
<glyph unicode="D" horiz-adv-x="537" d="M238 -10Q186 -10 147 -6T71 10L191 690Q231 701 272 705T365 710Q447 710 496 677T560 566T551 350Q527 213 485 135T382 23T238 -10ZM190 62H250Q292 62 328 86T393 173T441 350Q461 465 455 527T421 613T352 638H292L190 62Z" />
<glyph unicode="E" horiz-adv-x="467" d="M70 0L193 700H550L536 623H290L251 403H467L454 327H237L193 77H440L427 0H70Z" />
<glyph unicode="F" horiz-adv-x="447" d="M70 0L193 700H550L536 623H290L248 388H454L441 312H234L180 0H70Z" />
<glyph unicode="G" horiz-adv-x="517" d="M295 -10Q210 -10 160 21T97 131T108 350Q133 490 173 568T270 678T402 710Q452 710 492 704T554 690L545 638H415Q372 638 335 614T268 527T218 350Q198 236 206 174T245 87T327 62H357L414 380H524L458 10Q435 3 391
-3T295 -10Z" />
<glyph unicode="H" horiz-adv-x="550" d="M70 0L193 700H303L249 393H439L493 700H603L480 0H370L425 317H235L180 0H70Z" />
<glyph unicode="I" horiz-adv-x="250" d="M70 0L193 700H303L180 0H70Z" />
<glyph unicode="J" horiz-adv-x="367" d="M95 -10Q67 -10 43 -4T1 10L10 62H107Q137 62 162 77T207 132T239 240L320 700H430L349 240Q332 148 300 94T218 15T95 -10Z" />
<glyph unicode="K" horiz-adv-x="510" d="M70 0L193 700H303L246 373L478 700H603L350 355L500 0H375L239 337L180 0H70Z" />
<glyph unicode="L" horiz-adv-x="437" d="M70 0L193 700H303L193 77H440L427 0H70Z" />
<glyph unicode="M" horiz-adv-x="753" d="M52 0L215 700H338L413 223H417L661 700H785L702 0H595L653 489H648L443 87H339L276 489H272L158 0H52Z" />
<glyph unicode="N" horiz-adv-x="560" d="M70 0L193 700H306L418 228H423L506 700H613L490 0H377L265 472H260L177 0H70Z" />
<glyph unicode="O" horiz-adv-x="543" d="M270 -10Q218 -10 180 8T119 67T93 178T108 350Q132 487 173 565T271 677T397 710Q449 710 487 692T547 633T572 522T558 350Q534 213 493 135T395 23T270 -10ZM281 57Q311 57 341 81T399 169T448 350Q463 437 463 494T454
584T425 629T384 643Q356 643 325 619T267 531T218 350Q202 263 202 206T212 116T241 71T281 57Z" />
<glyph unicode="P" horiz-adv-x="507" d="M70 0L191 690Q231 701 272 705T365 710Q447 710 493 686T553 607T551 460Q534 364 502 308T421 227T305 202Q291 202 263 205T217 212L180 0H70ZM229 278H289Q329 278 358 294T408 349T441 460Q453 530 446 568T416 622T352
638H292L229 278Z" />
<glyph unicode="Q" horiz-adv-x="550" d="M270 -10Q218 -10 180 8T119 67T93 178T108 350Q132 487 173 565T271 677T397 710Q449 710 487 692T547 633T572 522T558 350Q538 237 505 167T433 57Q475 57 501 51T550 37L541 -10H270ZM281 57Q311 57 341 81T399 169T448
350Q463 437 463 494T454 584T425 629T384 643Q356 643 325 619T267 531T218 350Q202 260 202 203T213 114T242 70T281 57Z" />
<glyph unicode="R" horiz-adv-x="525" d="M70 0L191 690Q231 701 272 705T365 710Q447 710 493 686T553 610T552 470Q541 403 520 359T471 290T407 250L493 0H370L296 227H219L180 0H70ZM233 303H293Q353 303 389 339T442 470Q453 535 446 571T416 623T352 638H292L233
303Z" />
<glyph unicode="S" horiz-adv-x="458" d="M190 -10Q140 -10 99 -4T36 10L45 62H182Q261 62 299 91T348 180Q354 216 343 239T309 278T258 308T203 338T154 378T124 438T125 530Q139 615 198 662T357 710Q407 710 447 704T509 690L500 638H363Q311 638 277 610T235
530Q228 492 239 467T272 425T322 395T378 365T427 326T458 268T458 180Q441 88 379 39T190 -10Z" />
<glyph unicode="T" horiz-adv-x="443" d="M167 0L276 623H120L133 700H556L543 623H386L277 0H167Z" />
<glyph unicode="U" horiz-adv-x="540" d="M268 -10Q197 -10 155 14T99 93T102 240L183 700H293L212 240Q200 168 205 129T230 73T279 57Q310 57 335 73T380 128T412 240L493 700H603L522 240Q506 148 474 94T391 15T268 -10Z" />
<glyph unicode="V" horiz-adv-x="510" d="M183 0L140 700H253L276 135H280L503 700H616L327 0H183Z" />
<glyph unicode="W" horiz-adv-x="740" d="M138 0L140 700H253L249 183H253L422 570H518L551 183H555L733 700H846L602 0H478L442 400H438L262 0H138Z" />
<glyph unicode="X" horiz-adv-x="480" d="M12 0L221 360L150 700H263L316 433L463 700H576L385 360L468 0H355L291 290L125 0H12Z" />
<glyph unicode="Y" horiz-adv-x="470" d="M180 0L217 213L130 700H243L297 354L473 700H586L327 213L290 0H180Z" />
<glyph unicode="Z" horiz-adv-x="425" d="M20 0L32 72L390 623H135L148 700H528L515 628L158 77H413L400 0H20Z" />
<glyph unicode="[" horiz-adv-x="277" d="M38 -180L200 740H407L395 673H298L159 -113H256L245 -180H38Z" />
<glyph unicode="\" horiz-adv-x="410" d="M300 0L123 700H233L410 0H300Z" />
<glyph unicode="]" horiz-adv-x="277" d="M-31 -180L-20 -113H76L215 673H118L130 740H337L175 -180H-31Z" />
<glyph unicode="^" horiz-adv-x="465" d="M178 400L109 450L306 700H405L514 450L427 400L340 600H335L178 400Z" />
<glyph unicode="_" horiz-adv-x="313" d="M-13 -77L0 0H313L299 -77H-13Z" />
<glyph unicode="`" horiz-adv-x="190" d="M182 560L121 690H223L249 560H182Z" />
<glyph unicode="a" horiz-adv-x="482" d="M208 -10Q157 -10 124 15T79 96T86 250Q103 347 135 403T219 485T342 510Q393 510 430 503T501 480L417 0H335L328 30H323Q303 14 274 2T208 -10ZM256 57Q275 57 292 63T320 77L384 443H331Q300 443 275 427T229 369T196
250Q182 173 186 132T210 74T256 57Z" />
<glyph unicode="b" horiz-adv-x="487" d="M231 -10Q182 -10 145 -3T73 20L193 700H303L265 485Q285 496 308 503T359 510Q413 510 448 485T494 404T489 250Q472 153 439 97T355 15T231 -10ZM189 57H243Q274 57 299 73T345 131T379 250Q392 327 387 369T364 427T318
443Q299 443 282 437T254 423L189 57Z" />
<glyph unicode="c" horiz-adv-x="388" d="M245 -10Q176 -10 135 15T81 96T86 250Q103 347 134 403T214 485T326 510Q361 510 394 504T449 490L441 443H334Q302 443 276 427T229 369T196 250Q182 173 187 132T216 74T276 57H383L374 10Q351 3 316 -3T245 -10Z" />
<glyph unicode="d" horiz-adv-x="487" d="M208 -10Q157 -10 124 15T79 96T86 250Q103 347 133 403T208 485T306 510Q333 510 354 503T392 485L430 700H540L417 0H335L328 30H323Q303 14 274 2T208 -10ZM256 57Q275 57 291 63T320 77L381 423Q373 431 358 437T324
443Q297 443 273 427T229 369T196 250Q182 173 186 132T210 74T256 57Z" />
<glyph unicode="e" horiz-adv-x="453" d="M260 -10Q183 -10 139 15T82 96T86 250Q103 347 135 403T216 485T332 510Q418 510 459 468T487 353Q474 281 421 244T273 207H188Q173 124 198 91T291 57H398L389 10Q366 3 331 -3T260 -10ZM199 273H284Q321 273 345 294T377
353Q385 400 368 424T319 448Q292 448 270 434T230 382T199 273Z" />
<glyph unicode="f" horiz-adv-x="333" d="M-1 -210Q-28 -210 -58 -204T-106 -190L-98 -143H-21Q-3 -143 15 -135T47 -104T69 -40L150 418H93L106 490H163L170 530Q183 600 209 636T272 686T350 700Q377 700 411 694T462 680L455 633H371Q353 633 335 625T302 594T280
530L273 490H409L400 438Q376 431 341 425T270 418H260L179 -40Q167 -110 140 -146T77 -196T-1 -210Z" />
<glyph unicode="g" horiz-adv-x="482" d="M169 -210Q134 -210 101 -204T46 -190L54 -143H161Q221 -143 257 -109T309 15Q290 4 266 -3T215 -10Q161 -10 126 15T80 96T86 250Q103 347 135 403T219 485T342 510Q393 510 430 503T501 480L424 40Q407 -52 375 -106T292
-185T169 -210ZM256 57Q275 57 292 63T320 77L384 443H331Q300 443 275 427T229 369T196 250Q182 173 186 132T210 74T256 57Z" />
<glyph unicode="h" horiz-adv-x="500" d="M70 0L193 700H303L264 482Q287 495 314 502T372 510Q415 510 447 497T493 451T497 353L435 0H325L387 353Q393 388 385 407T358 435T318 443Q299 443 282 437T254 423L180 0H70Z" />
<glyph unicode="i" horiz-adv-x="250" d="M70 0L158 500H268L180 0H70ZM169 563L189 680H299L279 563H169Z" />
<glyph unicode="j" horiz-adv-x="257" d="M-1 -210Q-28 -210 -52 -204T-93 -190L-85 -143H-15Q2 -143 18 -133T48 -101T69 -40L165 500H275L179 -40Q167 -110 140 -146T77 -196T-1 -210ZM175 563L196 680H306L285 563H175Z" />
<glyph unicode="k" d="M70 0L193 700H303L229 280L396 500H516L333 265L442 0H322L224 250L180 0H70Z" />
<glyph unicode="l" horiz-adv-x="250" d="M70 0L193 700H303L180 0H70Z" />
<glyph unicode="m" horiz-adv-x="723" d="M65 0L153 500H235L240 470H245Q266 486 293 498T362 510Q399 510 425 500T466 469Q493 489 527 499T601 510Q641 510 672 497T717 451T720 353L658 0H548L610 353Q617 388 609 407T585 435T549 443Q529 443 512 438T481
427Q483 416 483 396T478 353L417 0H307L368 353Q375 388 367 407T344 435T311 443Q292 443 276 437T249 423L175 0H65Z" />
<glyph unicode="n" horiz-adv-x="495" d="M65 0L153 500H235L240 470H245Q266 486 295 498T364 510Q409 510 441 497T488 451T492 353L430 0H320L382 353Q388 388 380 407T353 435T313 443Q294 443 277 437T249 423L175 0H65Z" />
<glyph unicode="o" horiz-adv-x="473" d="M235 -10Q171 -10 132 15T81 97T86 250Q103 346 135 403T214 485T326 510Q389 510 428 485T480 403T476 250Q459 154 427 97T346 15T235 -10ZM245 52Q269 52 291 69T332 129T366 250Q380 329 376 371T355 431T315 448Q292
448 270 431T229 372T196 250Q182 172 185 129T205 69T245 52Z" />
<glyph unicode="p" horiz-adv-x="482" d="M29 -200L153 500H235L240 470H245Q266 486 294 498T361 510Q412 510 445 485T490 404T484 250Q467 153 436 97T361 15T263 -10Q236 -10 215 -3T177 15L139 -200H29ZM244 57Q272 57 296 73T341 131T374 250Q387 327 382
369T359 427T313 443Q294 443 278 437T249 423L188 77Q196 70 210 64T244 57Z" />
<glyph unicode="q" horiz-adv-x="482" d="M271 -200L309 15Q289 4 266 -3T215 -10Q161 -10 126 15T80 96T86 250Q103 347 135 403T219 485T342 510Q393 510 430 503T501 480L381 -200H271ZM256 57Q275 57 292 63T320 77L384 443H331Q300 443 275 427T229 369T196
250Q182 173 186 132T210 74T256 57Z" />
<glyph unicode="r" horiz-adv-x="352" d="M65 0L153 500H235L240 460H245Q263 475 294 487T370 500H430L415 418H308Q289 418 273 413T245 398L175 0H65Z" />
<glyph unicode="s" horiz-adv-x="408" d="M165 -10Q130 -10 97 -4T41 10L49 57H156Q216 57 249 73T289 130Q294 157 280 174T242 203T189 228T138 257T102 302T97 373Q111 454 164 482T311 510Q346 510 379 504T434 490L426 443H319Q275 443 245 428T209 380Q204
353 217 336T255 307T308 282T359 253T395 208T400 137Q390 78 362 47T285 3T165 -10Z" />
<glyph unicode="t" horiz-adv-x="358" d="M225 -10Q183 -10 152 3T107 53T105 160L150 418H93L106 490H163L184 610H294L273 490H409L400 438Q376 431 341 425T270 418H260L215 160Q207 118 213 96T234 66T263 57H353L344 10Q331 5 310 1T266 -7T225 -10Z" />
<glyph unicode="u" horiz-adv-x="495" d="M218 -10Q174 -10 141 3T94 49T90 147L153 500H263L200 147Q191 95 213 76T269 57Q288 57 305 63T333 77L408 500H518L430 0H348L342 30H337Q317 14 288 2T218 -10Z" />
<glyph unicode="v" horiz-adv-x="457" d="M157 0L103 500H211L246 112H250L421 500H530L300 0H157Z" />
<glyph unicode="w" horiz-adv-x="637" d="M112 0L103 500H211V140H216L345 400H432L470 140H474L601 500H710L525 0H402L365 253H361L235 0H112Z" />
<glyph unicode="x" horiz-adv-x="420" d="M12 0L177 255L104 500H218L266 322L378 500H492L331 255L408 0H295L243 188L125 0H12Z" />
<glyph unicode="y" horiz-adv-x="495" d="M182 -210Q147 -210 114 -204T59 -190L68 -143H174Q234 -143 270 -108T323 18Q301 5 275 -2T218 -10Q174 -10 141 3T94 49T90 147L153 500H263L200 147Q191 95 213 76T269 57Q288 57 305 63T333 77L408 500H518L437 40Q421
-52 389 -106T305 -185T182 -210Z" />
<glyph unicode="z" horiz-adv-x="390" d="M20 0L31 67L316 428H105L118 500H458L446 433L161 72H377L365 0H20Z" />
<glyph unicode="{" horiz-adv-x="297" d="M265 -180Q198 -180 156 -167T99 -117T95 -10L118 120Q129 181 113 208T63 247L75 313Q112 324 137 351T174 440L197 570Q210 640 238 676T313 726T427 740L415 673Q377 673 348 653T307 570L288 460Q278 405 261 373T220
320T169 282V278Q191 261 207 241T228 188T224 100L205 -10Q197 -54 205 -76T232 -106T276 -113L265 -180Z" />
<glyph unicode="|" horiz-adv-x="250" d="M34 -200L193 700H303L144 -200H34Z" />
<glyph unicode="}" horiz-adv-x="297" d="M-31 -180L-20 -113Q5 -113 26 -106T64 -77T88 -10L107 100Q117 155 134 187T174 240T226 278V282Q204 300 188 320T167 372T171 460L190 570Q197 612 189 634T163 664T118 673L130 740Q197 740 239 727T297 677T300 570L277
440Q267 379 283 352T331 313L320 247Q283 236 258 209T221 120L198 -10Q186 -80 157 -116T82 -166T-31 -180Z" />
<glyph unicode="~" horiz-adv-x="457" d="M66 196Q79 277 110 322T208 368Q239 368 260 356T297 328T327 300T359 287Q383 287 395 307T412 362H489Q477 278 445 235T345 191Q316 191 296 203T259 230T228 258T196 270Q173 270 161 250T143 196H66Z" />
<glyph unicode="&#xa0;" horiz-adv-x="250" />
<glyph unicode="&#xa1;" horiz-adv-x="250" d="M60 0L168 515H261L190 0H60ZM173 592L194 708H304L283 592H173Z" />
<glyph unicode="&#xa2;" horiz-adv-x="388" d="M207 -60L216 -9Q158 -4 123 22T79 104T86 250Q102 342 131 397T204 479T307 509L318 570H385L374 507Q418 501 449 490L441 443H363L294 57H383L374 10Q357 5 333 0T283 -8L274 -60H207ZM229 65L295 437Q261 425
236 383T196 250Q180 163 189 121T229 65Z" />
<glyph unicode="&#xa3;" horiz-adv-x="428" d="M45 0L54 57Q71 67 84 83T109 130T129 210L147 317H90L104 393H160L180 500Q196 590 226 635T306 695T427 710Q454 710 478 704T519 690L510 638H413Q384 638 360 628T318 589T290 500L270 393H417L404 317H257L243
234Q230 164 209 130T165 81V77H422L408 0H45Z" />
<glyph unicode="&#xa4;" horiz-adv-x="520" d="M102 128L55 185L137 255Q130 271 128 297T129 350Q134 376 145 402T171 445L113 515L180 572L239 507Q257 520 288 530T355 540Q390 540 417 530T459 507L540 572L587 515L505 445Q513 429 515 403T513 350Q509
324 497 298T471 255L529 185L462 128L404 193Q385 180 354 170T288 160Q253 160 225 170T184 193L102 128ZM300 232Q333 232 363 261T404 350Q415 409 395 438T342 468Q309 468 279 439T238 350Q227 291 247 262T300 232Z" />
<glyph unicode="&#xa5;" horiz-adv-x="470" d="M180 0L215 198H98L111 275H206L197 328H121L134 405H182L130 700H243L297 354L473 700H586L429 405H478L464 328H388L360 275H455L441 198H325L290 0H180Z" />
<glyph unicode="&#xa6;" horiz-adv-x="250" d="M34 -200L99 167H209L144 -200H34ZM125 313L189 680H299L235 313H125Z" />
<glyph unicode="&#xa7;" horiz-adv-x="455" d="M159 -210Q116 -210 79 -204T21 -190L29 -143H151Q217 -143 253 -117T296 -50Q302 -18 286 3T243 41T185 72T127 110T88 165T84 250Q94 307 130 345T210 404Q188 419 171 437T147 483T146 550Q159 620 217 665T380
710Q423 710 460 704T518 690L509 643H388Q332 643 298 617T256 550Q251 518 265 497T306 459T362 428T417 390T455 335T459 250Q449 193 414 156T337 100Q360 85 378 66T404 18T406 -50Q394 -120 334 -165T159 -210ZM273 133Q301 148 321 176T349 250Q354 280
344 301T313 339T269 367Q242 352 222 325T194 250Q189 221 199 200T229 162T273 133Z" />
<glyph unicode="&#xa8;" horiz-adv-x="303" d="M281 573L301 690H404L384 573H281ZM121 573L141 690H244L224 573H121Z" />
<glyph unicode="&#xa9;" horiz-adv-x="830" d="M411 -20Q300 -20 225 26T118 155T106 350Q126 462 186 545T338 674T541 720Q653 720 728 674T834 545T846 350Q827 238 767 155T615 26T411 -20ZM447 130Q405 130 373 139T322 171T299 238T306 350Q318 419 338
462T385 528T448 561T525 570Q564 570 593 564T643 550L635 503H533Q503 503 479 493T437 450T406 350Q395 283 401 251T429 208T479 197H591L583 150Q559 143 523 137T447 130ZM423 47Q505 47 572 82T686 185T749 350Q767 447 745 514T667 617T530 653Q448 653
380 618T266 515T203 350Q186 253 208 186T286 83T423 47Z" />
<glyph unicode="&#xaa;" horiz-adv-x="298" d="M191 395Q167 395 148 404T120 434T116 490Q126 545 159 566T235 588Q254 588 273 586T293 583L295 600Q300 625 287 636T245 648H169L177 693Q193 698 217 701T266 705Q327 705 355 685T373 600L338 400H272L267
420Q250 409 232 402T191 395ZM231 452Q245 452 256 455T271 460L283 532H245Q225 532 212 521T194 490Q191 473 201 463T231 452Z" />
<glyph unicode="&#xab;" horiz-adv-x="485" d="M381 28L252 250L459 472L529 422L372 253L371 247L468 78L381 28ZM193 28L64 250L271 472L340 422L184 253L183 247L280 78L193 28Z" />
<glyph unicode="&#xac;" horiz-adv-x="437" d="M370 240L375 337H89L103 413H479L449 240H370Z" />
<glyph unicode="&#xad;" horiz-adv-x="360" d="M75 260L89 340H389L375 260H75Z" />
<glyph unicode="&#xae;" horiz-adv-x="830" d="M411 -20Q300 -20 225 26T118 155T106 350Q126 462 186 545T338 674T541 720Q653 720 728 674T834 545T846 350Q827 238 767 155T615 26T411 -20ZM423 47Q505 47 572 82T686 185T749 350Q767 447 745 514T667 617T530
653Q448 653 380 618T266 515T203 350Q186 253 208 186T286 83T423 47ZM289 140L361 550Q389 558 423 564T507 570Q563 570 599 557T650 513T655 430Q648 389 632 365T596 328T560 307L614 140H509L465 287H415L389 140H289ZM427 353H468Q498 353 523 370T555 430Q562
470 544 486T495 503H453L427 353Z" />
<glyph unicode="&#xaf;" horiz-adv-x="277" d="M131 633L143 700H380L368 633H131Z" />
<glyph unicode="&#xb0;" horiz-adv-x="400" d="M268 390Q193 390 158 432T136 550Q150 625 200 667T325 710Q400 710 435 668T456 550Q443 475 393 433T268 390ZM280 457Q306 457 329 480T359 550Q368 598 353 620T313 643Q288 643 265 621T233 550Q225 503 240
480T280 457Z" />
<glyph unicode="&#xb1;" horiz-adv-x="443" d="M204 150L231 302H82L97 378H245L273 537H359L332 378H480L466 302H317L291 150H204ZM37 47L52 123H435L421 47H37Z" />
<glyph unicode="&#xb2;" horiz-adv-x="265" d="M100 400L111 462Q170 503 214 540T263 607Q266 623 256 635T222 648H154L162 694Q178 699 201 702T247 705Q305 705 327 680T341 607Q335 570 301 536T199 457H315L305 400H100Z" />
<glyph unicode="&#xb3;" horiz-adv-x="265" d="M177 395Q155 395 135 398T101 406L109 452H188Q212 452 225 462T242 488Q245 506 236 516T206 527H157L168 583H211Q232 583 242 593T255 617Q257 629 249 638T216 648H144L152 694Q167 699 190 702T237 705Q289
705 315 687T334 620Q330 595 312 580T279 560Q298 556 312 538T320 485Q311 433 275 414T177 395Z" />
<glyph unicode="&#xb4;" horiz-adv-x="183" d="M118 560L176 690H284L188 560H118Z" />
<glyph unicode="&#xb5;" horiz-adv-x="495" d="M29 -200L153 500H263L204 167Q194 115 215 86T269 57Q288 57 305 63T333 77L408 500H518L430 0H348L342 30H337Q315 11 292 1T238 -10Q213 -10 198 0T177 17L139 -200H29Z" />
<glyph unicode="&#xb6;" horiz-adv-x="553" d="M184 -200L278 330Q188 330 147 379T120 515Q129 563 159 605T236 673T343 700H656L643 623H580L434 -200H334L480 623H430L284 -200H184Z" />
<glyph unicode="&#xb7;" horiz-adv-x="270" d="M131 292L152 408H262L241 292H131Z" />
<glyph unicode="&#xb8;" horiz-adv-x="210" d="M65 -168Q29 -168 11 -161T-7 -153L-1 -121H63Q83 -121 91 -114T101 -98Q103 -89 98 -83T75 -76H20L35 15H89L81 -28H96Q140 -28 158 -48T172 -98Q167 -128 139 -148T65 -168Z" />
<glyph unicode="&#xb9;" horiz-adv-x="195" d="M157 400L199 643H143L151 688Q167 693 195 696T251 700H288L235 400H157Z" />
<glyph unicode="&#xba;" horiz-adv-x="313" d="M226 395Q171 395 142 433T126 550Q140 629 183 667T281 705Q336 705 364 667T379 550Q366 471 324 433T226 395ZM236 452Q256 452 274 473T301 550Q311 605 301 626T270 648Q250 648 233 627T204 550Q195 495 205
474T236 452Z" />
<glyph unicode="&#xbb;" horiz-adv-x="485" d="M301 28L232 78L388 247L389 253L292 422L379 472L509 250L301 28ZM113 28L43 78L200 247L201 253L104 422L191 472L321 250L113 28Z" />
<glyph unicode="&#xbc;" horiz-adv-x="580" d="M40 0L553 700H653L140 0H40ZM420 0L430 58H288L298 115L470 300H550L518 115H545L535 58H508L498 0H420ZM372 115H440L456 204L372 115ZM175 400L218 643H161L169 688Q185 693 213 696T270 700H308L255 400H175Z" />
<glyph unicode="&#xbd;" horiz-adv-x="610" d="M50 0L563 700H663L150 0H50ZM345 0L355 62Q415 103 458 140T508 207Q510 223 501 235T467 248H398L406 294Q422 299 445 302T491 305Q549 305 571 280T586 207Q580 170 546 136T443 57H559L550 0H345ZM188 400L231
643H174L183 688Q199 693 226 696T283 700H321L268 400H188Z" />
<glyph unicode="&#xbe;" horiz-adv-x="592" d="M52 0L565 700H665L152 0H52ZM432 0L441 58H300L310 115L482 300H562L530 115H557L546 58H520L510 0H432ZM383 115H452L467 204L383 115ZM187 395Q165 395 145 398T111 406L119 452H198Q222 452 235 462T252 488Q255
506 246 516T216 527H167L178 583H221Q242 583 252 593T265 617Q267 629 259 638T226 648H154L162 694Q177 699 200 702T247 705Q299 705 325 687T344 620Q340 595 322 580T289 560Q308 556 322 538T330 485Q321 433 285 414T187 395Z" />
<glyph unicode="&#xbf;" horiz-adv-x="387" d="M218 -10Q125 -10 85 39T61 180Q70 231 91 266T141 329T197 383T247 440T278 515H372Q362 460 342 423T295 359T243 306T198 252T171 180Q161 121 184 92T257 62H387L378 10Q355 3 312 -3T218 -10ZM284 592L305 708H415L394
592H284Z" />
<glyph unicode="&#xc0;" horiz-adv-x="530" d="M17 0L316 700H460L513 0H400L386 177H205L130 0H17ZM234 253H383L365 560H361L234 253ZM353 760L292 890H394L420 760H353Z" />
<glyph unicode="&#xc1;" horiz-adv-x="530" d="M17 0L316 700H460L513 0H400L386 177H205L130 0H17ZM234 253H383L365 560H361L234 253ZM345 760L403 890H511L415 760H345Z" />
<glyph unicode="&#xc2;" horiz-adv-x="530" d="M17 0L316 700H460L513 0H400L386 177H205L130 0H17ZM234 253H383L365 560H361L234 253ZM260 750L361 880H463L518 750H447L402 821L331 750H260Z" />
<glyph unicode="&#xc3;" horiz-adv-x="530" d="M17 0L316 700H460L513 0H400L386 177H205L130 0H17ZM234 253H383L365 560H361L234 253ZM444 762Q421 762 408 775T385 801T363 815Q339 815 329 773H273Q286 836 311 862T371 888Q389 888 400 880T419 862T435 843T451
835Q475 835 485 877H542Q529 814 504 788T444 762Z" />
<glyph unicode="&#xc4;" horiz-adv-x="530" d="M17 0L316 700H460L513 0H400L386 177H205L130 0H17ZM234 253H383L365 560H361L234 253ZM427 773L447 890H550L530 773H427ZM267 773L287 890H390L370 773H267Z" />
<glyph unicode="&#xc5;" horiz-adv-x="530" d="M17 0L316 700H460L513 0H400L386 177H205L130 0H17ZM234 253H383L365 560H361L234 253ZM392 737Q352 737 330 760T315 820Q322 858 352 880T421 903Q461 903 483 881T498 820Q491 783 462 760T392 737ZM401 788Q414
788 424 796T438 820Q441 836 433 844T412 852Q400 852 389 844T375 820Q372 804 380 796T401 788Z" />
<glyph unicode="&#xc6;" horiz-adv-x="747" d="M0 0L363 700H830L817 623H570L531 403H748L734 327H518L474 77H720L707 0H350L381 177H201L109 0H0ZM241 253H394L460 623H432L241 253Z" />
<glyph unicode="&#xc7;" horiz-adv-x="448" d="M275 -10Q200 -10 154 21T96 131T108 350Q133 490 172 568T267 678T392 710Q442 710 482 704T544 690L535 638H412Q370 638 334 614T268 527T218 350Q198 236 206 174T244 87T320 62H444L434 10Q411 3 368 -3T275
-10ZM251 -168Q215 -168 197 -161T179 -153L185 -121H249Q269 -121 277 -114T287 -98Q289 -89 284 -83T261 -76H206L221 15H275L267 -28H282Q326 -28 344 -48T358 -98Q353 -128 325 -148T251 -168Z" />
<glyph unicode="&#xc8;" horiz-adv-x="467" d="M70 0L193 700H550L536 623H290L251 403H467L454 327H237L193 77H440L427 0H70ZM348 760L287 890H389L415 760H348Z" />
<glyph unicode="&#xc9;" horiz-adv-x="467" d="M70 0L193 700H550L536 623H290L251 403H467L454 327H237L193 77H440L427 0H70ZM329 760L387 890H495L399 760H329Z" />
<glyph unicode="&#xca;" horiz-adv-x="467" d="M70 0L193 700H550L536 623H290L251 403H467L454 327H237L193 77H440L427 0H70ZM250 750L351 880H453L508 750H437L392 821L321 750H250Z" />
<glyph unicode="&#xcb;" horiz-adv-x="467" d="M70 0L193 700H550L536 623H290L251 403H467L454 327H237L193 77H440L427 0H70ZM414 773L434 890H537L517 773H414ZM254 773L274 890H377L357 773H254Z" />
<glyph unicode="&#xcc;" horiz-adv-x="250" d="M70 0L193 700H303L180 0H70ZM214 760L153 890H255L281 760H214Z" />
<glyph unicode="&#xcd;" horiz-adv-x="250" d="M70 0L193 700H303L180 0H70ZM211 760L269 890H377L281 760H211Z" />
<glyph unicode="&#xce;" horiz-adv-x="228" d="M57 0L180 700H290L167 0H57ZM117 750L218 880H320L375 750H304L258 821L188 750H117Z" />
<glyph unicode="&#xcf;" horiz-adv-x="250" d="M70 0L193 700H303L180 0H70ZM293 773L313 890H416L396 773H293ZM133 773L153 890H256L236 773H133Z" />
<glyph unicode="&#xd0;" horiz-adv-x="553" d="M255 -10Q202 -10 163 -6T88 10L142 317H65L79 393H155L208 690Q248 701 288 705T382 710Q464 710 513 677T577 566T568 350Q544 213 502 135T398 23T255 -10ZM207 62H267Q309 62 345 86T409 173T458 350Q478 465
471 527T437 613T368 638H308L265 393H372L359 317H252L207 62Z" />
<glyph unicode="&#xd1;" horiz-adv-x="560" d="M70 0L193 700H306L418 228H423L506 700H613L490 0H377L265 472H260L177 0H70ZM479 762Q456 762 443 775T420 801T398 815Q374 815 364 773H308Q321 836 346 862T406 888Q424 888 435 880T454 862T470 843T486 835Q510
835 520 877H577Q564 814 539 788T479 762Z" />
<glyph unicode="&#xd2;" horiz-adv-x="543" d="M270 -10Q218 -10 180 8T119 67T93 178T108 350Q132 487 173 565T271 677T397 710Q449 710 487 692T547 633T572 522T558 350Q534 213 493 135T395 23T270 -10ZM281 57Q311 57 341 81T399 169T448 350Q463 437 463
494T454 584T425 629T384 643Q356 643 325 619T267 531T218 350Q202 263 202 206T212 116T241 71T281 57ZM357 760L296 890H398L424 760H357Z" />
<glyph unicode="&#xd3;" horiz-adv-x="543" d="M270 -10Q218 -10 180 8T119 67T93 178T108 350Q132 487 173 565T271 677T397 710Q449 710 487 692T547 633T572 522T558 350Q534 213 493 135T395 23T270 -10ZM281 57Q311 57 341 81T399 169T448 350Q463 437 463
494T454 584T425 629T384 643Q356 643 325 619T267 531T218 350Q202 263 202 206T212 116T241 71T281 57ZM356 760L414 890H522L426 760H356Z" />
<glyph unicode="&#xd4;" horiz-adv-x="543" d="M270 -10Q218 -10 180 8T119 67T93 178T108 350Q132 487 173 565T271 677T397 710Q449 710 487 692T547 633T572 522T558 350Q534 213 493 135T395 23T270 -10ZM281 57Q311 57 341 81T399 169T448 350Q463 437 463
494T454 584T425 629T384 643Q356 643 325 619T267 531T218 350Q202 263 202 206T212 116T241 71T281 57ZM271 750L372 880H474L529 750H458L413 821L342 750H271Z" />
<glyph unicode="&#xd5;" horiz-adv-x="543" d="M270 -10Q218 -10 180 8T119 67T93 178T108 350Q132 487 173 565T271 677T397 710Q449 710 487 692T547 633T572 522T558 350Q534 213 493 135T395 23T270 -10ZM281 57Q311 57 341 81T399 169T448 350Q463 437 463
494T454 584T425 629T384 643Q356 643 325 619T267 531T218 350Q202 263 202 206T212 116T241 71T281 57ZM455 762Q432 762 419 775T396 801T374 815Q350 815 340 773H284Q297 836 322 862T382 888Q400 888 411 880T430 862T446 843T462 835Q486 835 496 877H553Q540
814 515 788T455 762Z" />
<glyph unicode="&#xd6;" horiz-adv-x="543" d="M270 -10Q218 -10 180 8T119 67T93 178T108 350Q132 487 173 565T271 677T397 710Q449 710 487 692T547 633T572 522T558 350Q534 213 493 135T395 23T270 -10ZM281 57Q311 57 341 81T399 169T448 350Q463 437 463
494T454 584T425 629T384 643Q356 643 325 619T267 531T218 350Q202 263 202 206T212 116T241 71T281 57ZM438 773L458 890H561L541 773H438ZM278 773L298 890H401L381 773H278Z" />
<glyph unicode="&#xd7;" horiz-adv-x="413" d="M127 163L78 222L206 330L117 438L186 497L274 388L402 497L450 438L323 330L412 222L343 163L254 272L127 163Z" />
<glyph unicode="&#xd8;" horiz-adv-x="547" d="M271 -10Q220 -10 182 7T121 66L75 13L35 50L102 125Q93 166 94 221T109 350Q134 487 175 565T273 677T398 710Q449 710 487 693T548 634L594 687L634 650L568 575Q575 534 574 479T559 350Q536 213 495 135T397
23T271 -10ZM283 57Q312 57 343 81T401 169T449 350Q455 380 458 406T463 455L205 161Q210 102 232 80T283 57ZM206 244L463 538Q458 598 436 620T386 643Q357 643 327 619T269 531T219 350Q215 320 211 294T206 244Z" />
<glyph unicode="&#xd9;" horiz-adv-x="540" d="M268 -10Q197 -10 155 14T99 93T102 240L183 700H293L212 240Q200 168 205 129T230 73T279 57Q310 57 335 73T380 128T412 240L493 700H603L522 240Q506 148 474 94T391 15T268 -10ZM355 760L294 890H396L422 760H355Z" />
<glyph unicode="&#xda;" horiz-adv-x="540" d="M268 -10Q197 -10 155 14T99 93T102 240L183 700H293L212 240Q200 168 205 129T230 73T279 57Q310 57 335 73T380 128T412 240L493 700H603L522 240Q506 148 474 94T391 15T268 -10ZM347 760L405 890H513L417 760H347Z" />
<glyph unicode="&#xdb;" horiz-adv-x="540" d="M268 -10Q197 -10 155 14T99 93T102 240L183 700H293L212 240Q200 168 205 129T230 73T279 57Q310 57 335 73T380 128T412 240L493 700H603L522 240Q506 148 474 94T391 15T268 -10ZM262 750L363 880H465L520 750H449L404
821L333 750H262Z" />
<glyph unicode="&#xdc;" horiz-adv-x="540" d="M268 -10Q197 -10 155 14T99 93T102 240L183 700H293L212 240Q200 168 205 129T230 73T279 57Q310 57 335 73T380 128T412 240L493 700H603L522 240Q506 148 474 94T391 15T268 -10ZM429 773L449 890H552L532 773H429ZM269
773L289 890H392L372 773H269Z" />
<glyph unicode="&#xdd;" horiz-adv-x="470" d="M180 0L217 213L130 700H243L297 354L473 700H586L327 213L290 0H180ZM317 760L375 890H483L387 760H317Z" />
<glyph unicode="&#xde;" horiz-adv-x="517" d="M68 -10L195 710H305L291 633Q446 626 505 554T541 350Q518 219 434 147T191 67L178 -10H68ZM204 138Q294 142 354 196T431 350Q449 450 409 504T278 562L204 138Z" />
<glyph unicode="&#xdf;" horiz-adv-x="543" d="M333 -10Q311 -10 283 -4T233 10L241 57H324Q362 57 391 74T428 135Q433 165 420 185T386 222T343 258T309 302T304 365Q310 399 330 422T374 463T417 502T441 550Q449 594 428 616T377 638Q339 638 307 606T262
495L175 0H65L152 495Q171 606 230 658T390 710Q483 710 523 665T551 550Q544 512 524 488T480 446T438 410T414 365Q410 343 424 326T459 293T502 256T534 206T538 135Q528 78 502 47T433 3T333 -10Z" />
<glyph unicode="&#xe0;" horiz-adv-x="482" d="M208 -10Q157 -10 124 15T79 96T86 250Q103 347 135 403T219 485T342 510Q393 510 430 503T501 480L417 0H335L328 30H323Q303 14 274 2T208 -10ZM256 57Q275 57 292 63T320 77L384 443H331Q300 443 275 427T229
369T196 250Q182 173 186 132T210 74T256 57ZM316 560L255 690H357L383 560H316Z" />
<glyph unicode="&#xe1;" horiz-adv-x="482" d="M208 -10Q157 -10 124 15T79 96T86 250Q103 347 135 403T219 485T342 510Q393 510 430 503T501 480L417 0H335L328 30H323Q303 14 274 2T208 -10ZM256 57Q275 57 292 63T320 77L384 443H331Q300 443 275 427T229
369T196 250Q182 173 186 132T210 74T256 57ZM317 560L375 690H483L387 560H317Z" />
<glyph unicode="&#xe2;" horiz-adv-x="482" d="M208 -10Q157 -10 124 15T79 96T86 250Q103 347 135 403T219 485T342 510Q393 510 430 503T501 480L417 0H335L328 30H323Q303 14 274 2T208 -10ZM256 57Q275 57 292 63T320 77L384 443H331Q300 443 275 427T229
369T196 250Q182 173 186 132T210 74T256 57ZM232 550L333 680H435L490 550H419L374 621L303 550H232Z" />
<glyph unicode="&#xe3;" horiz-adv-x="482" d="M208 -10Q157 -10 124 15T79 96T86 250Q103 347 135 403T219 485T342 510Q393 510 430 503T501 480L417 0H335L328 30H323Q303 14 274 2T208 -10ZM256 57Q275 57 292 63T320 77L384 443H331Q300 443 275 427T229
369T196 250Q182 173 186 132T210 74T256 57ZM416 562Q393 562 380 575T357 601T335 615Q311 615 301 573H245Q258 636 283 662T343 688Q361 688 372 680T391 662T407 643T423 635Q447 635 457 677H514Q501 614 476 588T416 562Z" />
<glyph unicode="&#xe4;" horiz-adv-x="482" d="M208 -10Q157 -10 124 15T79 96T86 250Q103 347 135 403T219 485T342 510Q393 510 430 503T501 480L417 0H335L328 30H323Q303 14 274 2T208 -10ZM256 57Q275 57 292 63T320 77L384 443H331Q300 443 275 427T229
369T196 250Q182 173 186 132T210 74T256 57ZM399 573L419 690H522L502 573H399ZM239 573L259 690H362L342 573H239Z" />
<glyph unicode="&#xe5;" horiz-adv-x="482" d="M208 -10Q157 -10 124 15T79 96T86 250Q103 347 135 403T219 485T342 510Q393 510 430 503T501 480L417 0H335L328 30H323Q303 14 274 2T208 -10ZM256 57Q275 57 292 63T320 77L384 443H331Q300 443 275 427T229
369T196 250Q182 173 186 132T210 74T256 57ZM364 537Q324 537 302 560T287 620Q294 658 324 680T393 703Q433 703 455 681T470 620Q463 583 434 560T364 537ZM373 588Q386 588 396 596T410 620Q413 636 405 644T384 652Q372 652 361 644T347 620Q344 604 352 596T373
588Z" />
<glyph unicode="&#xe6;" horiz-adv-x="705" d="M200 -10Q153 -10 119 2T71 47T66 140Q76 199 102 231T167 275T252 288Q275 288 298 285T340 278L351 340Q362 403 338 423T263 443H163L171 490Q195 498 229 504T294 510Q346 510 380 493T430 447Q456 475 491 492T576
510Q668 510 709 471T738 360Q725 288 672 253T524 217H439Q423 127 448 92T541 57H648L639 10Q616 3 581 -3T510 -10Q447 -10 413 7T360 53Q333 25 295 8T200 -10ZM238 57Q255 57 268 61T292 71T306 80L330 222H270Q240 222 212 204T176 140Q168 93 189 75T238
57ZM451 283H536Q573 283 597 303T628 360Q636 405 619 426T569 448Q542 448 520 435T480 385T451 283Z" />
<glyph unicode="&#xe7;" horiz-adv-x="388" d="M245 -10Q176 -10 135 15T81 96T86 250Q103 347 134 403T214 485T326 510Q361 510 394 504T449 490L441 443H334Q302 443 276 427T229 369T196 250Q182 173 187 132T216 74T276 57H383L374 10Q351 3 316 -3T245 -10ZM213
-168Q177 -168 159 -161T141 -153L147 -121H211Q231 -121 239 -114T249 -98Q251 -89 246 -83T223 -76H168L183 15H237L229 -28H244Q288 -28 306 -48T320 -98Q315 -128 287 -148T213 -168Z" />
<glyph unicode="&#xe8;" horiz-adv-x="453" d="M260 -10Q183 -10 139 15T82 96T86 250Q103 347 135 403T216 485T332 510Q418 510 459 468T487 353Q474 281 421 244T273 207H188Q173 124 198 91T291 57H398L389 10Q366 3 331 -3T260 -10ZM199 273H284Q321 273
345 294T377 353Q385 400 368 424T319 448Q292 448 270 434T230 382T199 273ZM294 560L233 690H335L361 560H294Z" />
<glyph unicode="&#xe9;" horiz-adv-x="453" d="M260 -10Q183 -10 139 15T82 96T86 250Q103 347 135 403T216 485T332 510Q418 510 459 468T487 353Q474 281 421 244T273 207H188Q173 124 198 91T291 57H398L389 10Q366 3 331 -3T260 -10ZM199 273H284Q321 273
345 294T377 353Q385 400 368 424T319 448Q292 448 270 434T230 382T199 273ZM295 560L353 690H461L365 560H295Z" />
<glyph unicode="&#xea;" horiz-adv-x="453" d="M260 -10Q183 -10 139 15T82 96T86 250Q103 347 135 403T216 485T332 510Q418 510 459 468T487 353Q474 281 421 244T273 207H188Q173 124 198 91T291 57H398L389 10Q366 3 331 -3T260 -10ZM199 273H284Q321 273
345 294T377 353Q385 400 368 424T319 448Q292 448 270 434T230 382T199 273ZM210 550L311 680H413L468 550H397L352 621L281 550H210Z" />
<glyph unicode="&#xeb;" horiz-adv-x="453" d="M260 -10Q183 -10 139 15T82 96T86 250Q103 347 135 403T216 485T332 510Q418 510 459 468T487 353Q474 281 421 244T273 207H188Q173 124 198 91T291 57H398L389 10Q366 3 331 -3T260 -10ZM199 273H284Q321 273
345 294T377 353Q385 400 368 424T319 448Q292 448 270 434T230 382T199 273ZM377 573L397 690H500L480 573H377ZM217 573L237 690H340L320 573H217Z" />
<glyph unicode="&#xec;" horiz-adv-x="250" d="M70 0L158 500H268L180 0H70ZM437 560L376 690H478L504 560H437Z" />
<glyph unicode="&#xed;" horiz-adv-x="250" d="M70 0L158 500H268L180 0H70ZM170 560L228 690H336L240 560H170Z" />
<glyph unicode="&#xee;" horiz-adv-x="250" d="M70 0L158 500H268L180 0H70ZM341 550L442 680H544L599 550H528L483 621L412 550H341Z" />
<glyph unicode="&#xef;" horiz-adv-x="250" d="M70 0L158 500H268L180 0H70ZM508 573L528 690H631L611 573H508ZM348 573L368 690H471L451 573H348Z" />
<glyph unicode="&#xf0;" horiz-adv-x="475" d="M233 -10Q137 -10 97 43T77 215Q99 334 156 387T302 440Q333 440 355 433T393 415Q400 453 399 485T387 541L326 481L284 520L353 590Q330 614 289 634T194 663L208 710Q275 705 327 690T414 647L480 713L522 674L454
608Q485 569 496 504T492 353L467 215Q446 96 388 43T233 -10ZM243 52Q277 52 309 87T357 215L382 353Q374 361 359 367T321 373Q272 373 238 339T187 215Q177 153 182 118T204 67T243 52Z" />
<glyph unicode="&#xf1;" horiz-adv-x="495" d="M65 0L153 500H235L240 470H245Q266 486 295 498T364 510Q409 510 441 497T488 451T492 353L430 0H320L382 353Q388 388 380 407T353 435T313 443Q294 443 277 437T249 423L175 0H65ZM407 562Q384 562 371 575T348
601T326 615Q302 615 292 573H236Q249 636 274 662T334 688Q352 688 363 680T382 662T398 643T414 635Q438 635 448 677H505Q492 614 467 588T407 562Z" />
<glyph unicode="&#xf2;" horiz-adv-x="473" d="M235 -10Q171 -10 132 15T81 97T86 250Q103 346 135 403T214 485T326 510Q389 510 428 485T480 403T476 250Q459 154 427 97T346 15T235 -10ZM245 52Q269 52 291 69T332 129T366 250Q380 329 376 371T355 431T315
448Q292 448 270 431T229 372T196 250Q182 172 185 129T205 69T245 52ZM284 560L223 690H325L351 560H284Z" />
<glyph unicode="&#xf3;" horiz-adv-x="473" d="M235 -10Q171 -10 132 15T81 97T86 250Q103 346 135 403T214 485T326 510Q389 510 428 485T480 403T476 250Q459 154 427 97T346 15T235 -10ZM245 52Q269 52 291 69T332 129T366 250Q380 329 376 371T355 431T315
448Q292 448 270 431T229 372T196 250Q182 172 185 129T205 69T245 52ZM285 560L343 690H451L355 560H285Z" />
<glyph unicode="&#xf4;" horiz-adv-x="473" d="M235 -10Q171 -10 132 15T81 97T86 250Q103 346 135 403T214 485T326 510Q389 510 428 485T480 403T476 250Q459 154 427 97T346 15T235 -10ZM245 52Q269 52 291 69T332 129T366 250Q380 329 376 371T355 431T315
448Q292 448 270 431T229 372T196 250Q182 172 185 129T205 69T245 52ZM200 550L301 680H403L458 550H387L342 621L271 550H200Z" />
<glyph unicode="&#xf5;" horiz-adv-x="473" d="M235 -10Q171 -10 132 15T81 97T86 250Q103 346 135 403T214 485T326 510Q389 510 428 485T480 403T476 250Q459 154 427 97T346 15T235 -10ZM245 52Q269 52 291 69T332 129T366 250Q380 329 376 371T355 431T315
448Q292 448 270 431T229 372T196 250Q182 172 185 129T205 69T245 52ZM384 562Q361 562 348 575T325 601T303 615Q279 615 269 573H213Q226 636 251 662T311 688Q329 688 340 680T359 662T375 643T391 635Q415 635 425 677H482Q469 614 444 588T384 562Z" />
<glyph unicode="&#xf6;" horiz-adv-x="473" d="M235 -10Q171 -10 132 15T81 97T86 250Q103 346 135 403T214 485T326 510Q389 510 428 485T480 403T476 250Q459 154 427 97T346 15T235 -10ZM245 52Q269 52 291 69T332 129T366 250Q380 329 376 371T355 431T315
448Q292 448 270 431T229 372T196 250Q182 172 185 129T205 69T245 52ZM367 573L387 690H490L470 573H367ZM207 573L227 690H330L310 573H207Z" />
<glyph unicode="&#xf7;" horiz-adv-x="443" d="M74 257L90 343H473L458 257H74ZM190 88L208 192H302L283 88H190ZM247 408L265 512H358L340 408H247Z" />
<glyph unicode="&#xf8;" horiz-adv-x="487" d="M241 -10Q194 -10 160 3T107 47L70 13L37 60L86 105Q82 134 83 169T92 250Q109 346 141 403T221 485T332 510Q379 510 413 497T466 452L504 487L537 440L487 394Q492 366 491 331T482 250Q465 154 433 97T353 15T241
-10ZM252 52Q275 52 297 69T339 129T372 250Q375 262 376 273T378 295L192 125Q196 84 212 68T252 52ZM195 205L381 375Q377 417 361 432T322 448Q299 448 277 431T235 372T202 250Q201 238 199 227T195 205Z" />
<glyph unicode="&#xf9;" horiz-adv-x="495" d="M218 -10Q174 -10 141 3T94 49T90 147L153 500H263L200 147Q191 95 213 76T269 57Q288 57 305 63T333 77L408 500H518L430 0H348L342 30H337Q317 14 288 2T218 -10ZM303 560L242 690H344L370 560H303Z" />
<glyph unicode="&#xfa;" horiz-adv-x="495" d="M218 -10Q174 -10 141 3T94 49T90 147L153 500H263L200 147Q191 95 213 76T269 57Q288 57 305 63T333 77L408 500H518L430 0H348L342 30H337Q317 14 288 2T218 -10ZM295 560L353 690H461L365 560H295Z" />
<glyph unicode="&#xfb;" horiz-adv-x="495" d="M218 -10Q174 -10 141 3T94 49T90 147L153 500H263L200 147Q191 95 213 76T269 57Q288 57 305 63T333 77L408 500H518L430 0H348L342 30H337Q317 14 288 2T218 -10ZM217 550L318 680H420L475 550H404L359 621L288 550H217Z" />
<glyph unicode="&#xfc;" horiz-adv-x="495" d="M218 -10Q174 -10 141 3T94 49T90 147L153 500H263L200 147Q191 95 213 76T269 57Q288 57 305 63T333 77L408 500H518L430 0H348L342 30H337Q317 14 288 2T218 -10ZM377 573L397 690H500L480 573H377ZM217 573L237
690H340L320 573H217Z" />
<glyph unicode="&#xfd;" horiz-adv-x="495" d="M182 -210Q147 -210 114 -204T59 -190L68 -143H174Q234 -143 270 -108T323 18Q301 5 275 -2T218 -10Q174 -10 141 3T94 49T90 147L153 500H263L200 147Q191 95 213 76T269 57Q288 57 305 63T333 77L408 500H518L437
40Q421 -52 389 -106T305 -185T182 -210ZM295 560L353 690H461L365 560H295Z" />
<glyph unicode="&#xfe;" horiz-adv-x="487" d="M34 -200L193 700H303L265 485Q285 496 308 503T359 510Q413 510 448 485T494 404T489 250Q472 153 441 97T366 15T268 -10Q241 -10 220 -3T182 15L144 -200H34ZM249 57Q277 57 301 73T346 131T379 250Q392 327 387
369T364 427T318 443Q299 443 282 437T254 423L193 77Q201 70 215 64T249 57Z" />
<glyph unicode="&#xff;" horiz-adv-x="495" d="M182 -210Q147 -210 114 -204T59 -190L68 -143H174Q234 -143 270 -108T323 18Q301 5 275 -2T218 -10Q174 -10 141 3T94 49T90 147L153 500H263L200 147Q191 95 213 76T269 57Q288 57 305 63T333 77L408 500H518L437
40Q421 -52 389 -106T305 -185T182 -210ZM377 573L397 690H500L480 573H377ZM217 573L237 690H340L320 573H217Z" />
<glyph unicode="&#x2013;" horiz-adv-x="473" d="M72 242L86 318H499L486 242H72Z" />
<glyph unicode="&#x2014;" horiz-adv-x="653" d="M72 242L86 318H679L666 242H72Z" />
<glyph unicode="&#x2018;" horiz-adv-x="187" d="M123 477L200 703H275L235 477H123Z" />
<glyph unicode="&#x2019;" horiz-adv-x="187" d="M123 477L164 703H275L198 477H123Z" />
<glyph unicode="&#x201a;" horiz-adv-x="187" d="M18 -118L59 108H170L93 -118H18Z" />
<glyph unicode="&#x201c;" horiz-adv-x="350" d="M282 477L359 703H434L393 477H282ZM118 477L195 703H270L230 477H118Z" />
<glyph unicode="&#x201d;" horiz-adv-x="350" d="M287 477L327 703H439L362 477H287ZM123 477L164 703H275L198 477H123Z" />
<glyph unicode="&#x201e;" horiz-adv-x="350" d="M182 -118L222 108H334L257 -118H182ZM18 -118L59 108H170L93 -118H18Z" />
<glyph unicode="&#x2022;" horiz-adv-x="263" d="M91 263L121 436H295L264 263H91Z" />
<glyph unicode="&#x2039;" horiz-adv-x="315" d="M207 3L64 250L294 497L363 447L184 253L183 247L294 53L207 3Z" />
<glyph unicode="&#x203a;" horiz-adv-x="315" d="M109 3L39 53L218 247L219 253L108 447L196 497L339 250L109 3Z" />
</font>
</defs>
</svg>
