<?xml version="1.0" standalone="no"?>
<!DOCTYPE svg PUBLIC "-//W3C//DTD SVG 1.1//EN" "http://www.w3.org/Graphics/SVG/1.1/DTD/svg11.dtd">
<svg xmlns="http://www.w3.org/2000/svg">
<defs >
<font id="Exo2" horiz-adv-x="559" ><font-face
    font-family="Exo 2 Thin"
    units-per-em="1000"
    panose-1="0 0 0 0 0 0 0 0 0 0"
    ascent="999"
    descent="-201"
    alphabetic="0" />
<glyph unicode=" " horiz-adv-x="230" />
<glyph unicode="!" horiz-adv-x="252" d="M195 695L147 354L124 203H103L122 354L170 695H195ZM103 86Q109 86 111 83T113 73L104 11Q103 5 100 3T91 0H81Q68 0 70 13L79 74Q81 86 92 86H103Z" />
<glyph unicode="&quot;" horiz-adv-x="321" d="M291 690L260 482H240L267 690H291ZM164 690L133 482H113L140 690H164Z" />
<glyph unicode="#" horiz-adv-x="662" d="M585 690L368 0H345L562 690H585ZM557 250L550 228H49L56 250H557ZM334 690L117 0H94L311 690H334ZM633 492L626 470H125L132 492H633Z" />
<glyph unicode="$" horiz-adv-x="562" d="M334 701Q383 700 429 697T520 689L516 670Q472 673 442 675T383 677T316 678Q282 678 251 675T194 660T152 620T128 542Q124 505 129 479T154 432T214 393L364 330Q416 308 443 285T479 229T480 147Q469 74 437 41T354
-2T232 -11Q204 -11 155 -9T42 0L46 19Q83 16 115 15T179 13T246 12Q308 13 350 22T418 60T454 151Q460 194 455 220T427 266T363 304L213 367Q165 388 139 412T105 468T102 546Q110 602 129 634T179 680T249 698T334 701ZM282 349L303 345L209 -135H188L282 349ZM391
804L303 345L282 349L370 804H391Z" />
<glyph unicode="%" horiz-adv-x="878" d="M745 690L168 0H144L721 690H745ZM266 683Q214 683 183 663T136 602T110 496Q101 433 107 393T137 333T209 313Q259 313 290 333T339 394T365 500Q374 565 369 605T339 664T266 683ZM264 702Q321 702 351 680T389 613T387
496Q377 427 357 382T301 316T211 294Q155 294 125 316T86 384T88 500Q98 570 117 614T172 680T264 702ZM685 382Q633 382 602 362T555 301T529 195Q520 132 526 92T556 32T628 12Q678 12 709 32T758 93T784 199Q793 264 788 304T758 363T685 382ZM683 401Q740
401 770 379T808 312T806 195Q796 125 776 81T720 15T630 -7Q574 -7 544 15T505 83T507 199Q517 269 536 313T591 379T683 401Z" />
<glyph unicode="&amp;" horiz-adv-x="791" d="M388 698Q417 698 460 694T543 675L539 657Q500 667 460 671T386 675Q319 675 275 664T207 620T170 522Q159 461 173 428T230 381T344 368H748L742 347H343Q263 346 210 335T127 286T82 172Q72 119 79 87T106 39T155
18T219 12Q321 12 389 46T507 163Q548 233 566 321T583 521H607Q608 399 589 311T527 151Q490 89 446 55T351 6T241 -11Q167 -13 122 2T60 60T56 176Q67 238 92 277T158 335T259 356V360Q207 364 179 384T144 439T145 523Q158 594 186 632T263 684T388 698Z" />
<glyph unicode="&apos;" horiz-adv-x="194" d="M164 690L133 482H113L140 690H164Z" />
<glyph unicode="(" horiz-adv-x="352" d="M374 790L378 772Q260 715 192 603T97 311Q81 194 91 106T140 -45T247 -147L242 -165Q130 -109 87 9T71 318Q97 503 170 618T374 790Z" />
<glyph unicode=")" horiz-adv-x="352" d="M115 790Q226 736 270 619T287 306Q261 122 188 8T-17 -165L-20 -147Q99 -87 167 25T261 315Q278 430 268 519T219 671T111 772L115 790Z" />
<glyph unicode="*" horiz-adv-x="449" d="M290 690L265 536L342 406L322 395L255 520L153 396L136 411L248 537L268 690H290ZM115 591L234 548L232 539L227 531L106 569L115 591ZM412 590L417 568L285 531L282 539L283 548L412 590Z" />
<glyph unicode="+" horiz-adv-x="551" d="M315 495L258 99H237L292 495H315ZM486 308L482 286H65L69 308H486Z" />
<glyph unicode="," horiz-adv-x="205" d="M82 86Q87 86 89 84T90 75L80 9Q78 -9 72 -30T59 -74T43 -116L28 -111Q37 -81 42 -58T53 1Q50 1 48 4T47 11L57 75Q58 81 60 83T70 86H82Z" />
<glyph unicode="-" horiz-adv-x="481" d="M392 262L389 240H78L81 262H392Z" />
<glyph unicode="." horiz-adv-x="205" d="M80 86Q88 86 89 83T90 73L81 11Q80 5 77 3T68 0H58Q45 0 47 13L56 74Q58 86 69 86H80Z" />
<glyph unicode="/" horiz-adv-x="497" d="M513 690L17 -59H-10L486 690H513Z" />
<glyph unicode="0" horiz-adv-x="582" d="M264 -12Q202 -12 160 9T95 76T73 193Q73 250 78 318T97 454T141 578T217 668T334 702Q396 702 438 681T503 614T525 497Q525 440 520 372T501 236T457 112T381 22T264 -12ZM262 11Q327 11 370 44T440 133T479 252T496
381T500 496Q500 592 458 635T336 679Q271 679 228 646T158 557T119 438T102 309T98 194Q98 98 140 55T262 11Z" />
<glyph unicode="1" horiz-adv-x="373" d="M303 690L206 0H181L268 619Q270 630 272 642T278 665L82 601L79 617L278 690H303Z" />
<glyph unicode="2" horiz-adv-x="548" d="M317 702Q376 702 417 694T480 663T502 593Q502 536 478 485T414 387T325 290L55 22Q85 22 113 22T172 22H455L452 0H18L20 15Q21 19 22 22T27 28L306 305Q352 351 390 398T452 493T476 592Q476 632 457 650T403 673T323
679Q291 679 262 678T201 671T124 657L118 675Q167 687 201 692T262 700T317 702Z" />
<glyph unicode="3" horiz-adv-x="544" d="M303 702Q403 702 446 677T490 585Q490 534 476 488T432 409T355 369L353 365Q412 356 436 318T460 230Q460 161 431 108T346 23T215 -12Q175 -13 122 -10T21 5L28 23Q56 17 89 14T154 11T210 11Q318 18 377 77T436 231Q436
263 424 291T378 337T285 355L155 356L158 374L286 377Q379 379 421 434T464 581Q464 638 428 658T303 679Q257 679 212 676T131 667L125 685Q173 693 215 697T303 702Z" />
<glyph unicode="4" horiz-adv-x="590" d="M362 690L77 266Q65 248 71 233T97 218H527L524 200L427 196H90Q70 196 57 208T43 238T54 275L333 690H362ZM493 560L414 0H389L452 443L475 560H493Z" />
<glyph unicode="5" horiz-adv-x="525" d="M494 690L490 668H179L130 403H184Q269 403 328 393T418 350T449 253Q449 129 385 61T197 -12Q160 -13 119 -8T28 16L34 34Q78 19 119 14T194 10Q306 15 365 78T425 253Q425 313 393 340T295 374T131 381H118Q111 381
108 385T105 396L160 690H494Z" />
<glyph unicode="6" horiz-adv-x="562" d="M383 702Q395 702 416 702T463 699T510 690L500 672Q483 675 463 676T422 678T380 679Q320 679 276 665T201 611T148 496T108 299Q97 224 97 170T111 80T160 27T254 10Q337 10 383 48T447 152T466 296Q466 352 439 385T339
419Q282 419 222 393T100 289L98 305Q135 359 174 388T255 429T344 441Q427 441 459 404T492 296Q492 207 470 137T394 28T250 -12Q187 -12 149 5T92 60T72 157T82 302Q100 431 125 510T187 631T271 687T383 702Z" />
<glyph unicode="7" horiz-adv-x="499" d="M473 690Q498 690 503 681T498 648L184 0H156L462 631Q467 641 472 650T483 669L96 668L97 690H473Z" />
<glyph unicode="8" horiz-adv-x="612" d="M361 698Q445 699 487 679T541 619T544 516Q537 467 523 434T484 383T424 360L421 356Q463 352 485 330T512 269T509 170Q500 105 477 67T405 11T266 -8Q178 -8 132 10T73 68T69 174Q77 232 93 271T136 331T206 356L209
360Q157 366 139 405T131 520Q140 582 163 621T233 679T361 698ZM317 347Q257 347 217 341T153 316T115 262T93 170Q85 114 96 80T147 30T265 15Q345 15 390 31T456 81T485 174Q493 231 490 265T467 317T412 341T317 347ZM362 675Q288 675 246 660T184 610T156
516Q147 452 157 421T205 379T316 369Q373 369 409 375T467 396T500 442T519 520Q528 578 519 611T473 660T362 675Z" />
<glyph unicode="9" horiz-adv-x="564" d="M327 702Q396 702 436 680T493 615T508 506T492 352Q473 235 449 163T390 53T307 2T190 -12Q168 -12 133 -10T57 0L65 18Q88 15 105 14T140 11T180 10Q247 10 293 22T371 70T425 174T466 353Q479 434 482 495T472 597T424
659T327 680Q258 680 216 656T152 585T118 470Q106 392 117 348T163 286T253 271Q295 273 330 285T402 325T478 401L480 384Q446 337 412 308T338 266T252 249Q200 246 165 258T110 298T87 370T93 476Q101 529 117 570T160 641T228 686T327 702Z" />
<glyph unicode=":" horiz-adv-x="205" d="M160 430Q168 430 169 427T170 417L161 355Q160 349 157 347T148 344H138Q125 344 127 357L136 418Q138 430 149 430H160ZM111 86Q119 86 120 83T121 73L112 11Q111 5 108 3T99 0H89Q76 0 78 13L87 74Q89 86 100 86H111Z" />
<glyph unicode=";" horiz-adv-x="207" d="M129 430Q137 430 138 427T139 417L130 355Q129 349 126 347T117 344H107Q94 344 96 357L105 418Q107 430 118 430H129ZM82 86Q87 86 89 84T90 75L80 9Q78 -9 72 -30T59 -74T43 -116L28 -111Q37 -81 42 -58T53 1Q50 1
48 4T47 11L57 75Q58 81 60 83T70 86H82Z" />
<glyph unicode="&lt;" horiz-adv-x="538" d="M484 489L481 465L88 295L433 130L430 107L62 284L65 306L484 489Z" />
<glyph unicode="=" horiz-adv-x="592" d="M519 407L516 385H99L102 407H519ZM490 195L487 173H70L73 195H490Z" />
<glyph unicode="&gt;" horiz-adv-x="535" d="M107 489L474 306L471 284L53 107L56 131L448 297L104 467L107 489Z" />
<glyph unicode="?" horiz-adv-x="497" d="M302 712Q399 712 444 674T478 555Q472 509 448 477T392 416T328 359T271 293T239 202L215 204Q223 261 247 300T304 369T369 426T424 485T454 559Q463 627 427 658T303 690Q252 690 221 689T163 684T102 676L98 694Q122
698 142 701T183 706T233 710T302 712ZM215 86Q221 86 224 83T226 73L217 12Q216 6 213 3T204 0H194Q181 0 183 13L192 74Q194 86 206 86H215Z" />
<glyph unicode="@" horiz-adv-x="739" d="M418 613Q509 613 561 603T635 562T658 467T645 299Q632 212 621 153T593 57T551 4T481 -12Q459 -12 444 -5T420 14T410 44T410 84L459 429H484L434 82Q429 44 440 27T482 10Q515 10 536 22T572 65T598 153T622 302Q633
384 635 438T629 523T595 568T527 587T419 591H127L129 609Q169 610 218 611T319 612T418 613ZM320 441Q355 441 393 439T484 429L474 411Q417 416 386 417T325 419Q264 419 224 411T160 381T121 320T95 218Q85 161 85 114T105 39T179 10Q239 10 302 48T424 155V128Q385
81 343 50T259 3T177 -12Q126 -12 101 9T67 65T61 141T71 222Q83 288 99 330T142 397T212 431T320 441Z" />
<glyph unicode="A" horiz-adv-x="599" d="M378 690Q383 690 386 688T391 680L543 0H517L382 613Q379 627 377 640T370 667H341Q334 653 328 639T313 611L6 0H-22L322 682Q324 687 327 688T335 690H378ZM474 274L471 252H121L124 274H474Z" />
<glyph unicode="B" horiz-adv-x="610" d="M353 698Q436 698 482 682T545 627T551 516Q541 443 508 405T412 360V356Q487 349 510 301T522 170Q512 100 487 61T414 7T287 -8Q235 -8 198 -8T129 -5T62 0L78 18Q99 17 154 16T286 15Q355 15 398 28T464 75T497 174Q507
242 493 279T439 331T326 347H124L127 368H327Q392 369 432 381T495 427T525 520Q534 584 521 617T466 662T353 675Q309 675 272 675T210 675T172 675L159 690Q191 694 218 695T277 697T353 698ZM184 690L87 0H62L159 690H184Z" />
<glyph unicode="C" horiz-adv-x="557" d="M386 702Q426 702 455 700T509 695T559 685L552 667Q525 672 501 674T451 678T387 679Q320 679 273 662T194 605T142 501T108 343Q91 220 102 147T158 43T289 11Q350 11 392 14T474 24L479 6Q438 -3 395 -7T290 -12Q195
-12 144 22T79 136T83 347Q97 445 120 513T178 622T264 683T386 702Z" />
<glyph unicode="D" horiz-adv-x="658" d="M388 699Q481 699 531 665T595 552T590 343Q577 244 554 177T497 68T412 9T292 -9Q225 -9 169 -7T62 0L77 17Q125 16 176 15T291 14Q354 14 399 31T477 86T531 188T565 347Q578 439 575 502T551 603T490 658T388 676Q345
676 307 676T235 674T168 672L159 690Q193 693 229 695T305 698T388 699ZM184 690L87 0H62L159 690H184Z" />
<glyph unicode="E" horiz-adv-x="548" d="M252 690Q302 690 351 690T449 689T547 686L543 668H257Q216 668 192 646T162 585L95 103Q90 67 109 45T164 22H452L453 4Q404 2 355 1T257 0T159 0Q114 0 89 29T70 103L138 589Q144 633 173 661T252 690ZM126 381L462
380L459 360L123 359L126 381Z" />
<glyph unicode="F" horiz-adv-x="530" d="M256 690Q329 690 400 690T544 686L540 668H261Q224 668 198 647T166 585L84 0H59L142 589Q149 636 179 663T256 690ZM129 377L458 376L455 356L126 355L129 377Z" />
<glyph unicode="G" horiz-adv-x="620" d="M388 702Q434 702 466 700T526 695T583 685L576 667Q545 672 518 674T461 678T389 679Q322 679 274 662T194 605T141 502T107 343Q92 223 102 150T151 44T263 11Q309 11 349 29T425 75T496 135L500 116Q473 86 444 63T385
23T323 -3T262 -12Q180 -12 135 25T78 141T82 347Q96 445 118 513T177 622T265 683T388 702ZM556 400L498 0H481L493 120L494 132L531 400H556Z" />
<glyph unicode="H" horiz-adv-x="657" d="M184 690L87 0H62L159 690H184ZM553 381L550 359H130L133 381H553ZM610 690L513 0H488L585 690H610Z" />
<glyph unicode="I" horiz-adv-x="231" d="M184 690L87 0H62L159 690H184Z" />
<glyph unicode="J" horiz-adv-x="322" d="M279 690L198 114Q190 54 156 24T61 -6Q52 -6 41 -5T18 -3T-3 0L2 16H59Q109 16 138 41T174 117L254 690H279Z" />
<glyph unicode="K" d="M568 690L301 393Q295 386 286 378T268 361V359Q273 352 278 346T287 331L488 0H460L239 361L537 690H568ZM183 690L150 453Q146 427 143 407T134 359Q133 333 130 310T123 262L86 0H62L159 690H183ZM268 371L265 349H120L123 371H268Z" />
<glyph unicode="L" horiz-adv-x="501" d="M181 690L99 103Q94 67 113 45T168 22H441L440 4Q370 1 301 1T163 0Q133 0 112 13T80 50T74 103L156 690H181Z" />
<glyph unicode="M" horiz-adv-x="855" d="M776 690Q783 690 787 686T790 674L725 0H700L764 668H740L430 68Q428 64 425 62T417 60H375Q371 60 367 63T362 70L220 668H196L72 0H47L172 676Q174 683 177 686T188 690H229Q234 690 237 688T242 680L362 175Q368 152
373 128T384 81H411Q423 105 435 130T460 179L721 682Q723 687 726 688T734 690H776Z" />
<glyph unicode="N" horiz-adv-x="688" d="M641 690L546 14Q545 7 542 4T530 0H489Q483 0 479 3T472 12L234 601Q227 618 220 634T206 668H181Q178 649 176 630T170 590L87 0H62L157 676Q159 684 162 687T173 690H211Q217 690 222 687T229 678L462 102Q470 82 478
62T494 21H522Q525 42 528 63T534 106L616 690H641Z" />
<glyph unicode="O" horiz-adv-x="660" d="M386 702Q481 702 532 668T597 554T592 343Q579 245 556 177T498 68T412 7T290 -12Q195 -12 144 22T79 136T83 347Q97 445 120 513T178 622T264 683T386 702ZM386 679Q299 679 244 647T158 542T108 343Q91 220 102 147T159
43T289 11Q376 11 431 43T518 149T567 347Q585 471 574 543T518 647T386 679Z" />
<glyph unicode="P" horiz-adv-x="580" d="M379 698Q453 698 494 680T549 618T552 494Q541 415 516 371T445 310T326 292Q286 292 251 292T189 294T142 295T115 297L119 315Q168 315 221 315T326 315Q390 316 430 331T493 386T526 497Q536 568 525 606T479 660T380
675Q304 675 248 675T172 672L159 690Q195 694 225 695T292 697T379 698ZM184 690L87 0H62L159 690H184Z" />
<glyph unicode="Q" horiz-adv-x="660" d="M386 702Q481 702 532 668T597 554T592 343Q579 245 556 177T498 68T412 7T290 -12Q195 -12 144 22T79 136T83 347Q97 445 120 513T178 622T264 683T386 702ZM248 -51Q290 -84 341 -104T460 -136L452 -161Q387 -152 331
-127T236 -65L248 -51ZM386 679Q299 679 244 647T158 542T108 343Q91 220 102 147T159 43T289 11Q376 11 431 43T518 149T567 347Q585 471 574 543T518 647T386 679Z" />
<glyph unicode="R" horiz-adv-x="606" d="M379 698Q453 698 494 681T550 622T553 502Q544 440 525 403T476 346T399 320V316Q416 311 428 297T450 263T463 220L508 0H481L437 219Q427 269 402 289T338 310Q280 311 237 311T165 313T118 315L122 333H329Q393 334
433 349T495 401T527 506Q537 574 526 610T479 661T380 675Q304 675 248 675T172 672L159 690Q195 694 225 695T292 697T379 698ZM184 690L87 0H62L159 690H184Z" />
<glyph unicode="S" horiz-adv-x="553" d="M329 701Q378 700 424 697T515 689L511 670Q467 673 437 675T378 677T311 678Q277 678 246 675T189 660T147 620T123 542Q119 505 124 479T149 432T209 393L359 330Q411 308 438 285T474 229T475 147Q464 74 432 41T349
-2T227 -11Q199 -11 150 -9T37 0L41 19Q78 16 110 15T174 13T241 12Q303 13 345 22T413 60T449 151Q455 194 450 220T422 266T358 304L208 367Q160 388 134 412T100 468T97 546Q105 602 124 634T174 680T244 698T329 701Z" />
<glyph unicode="T" horiz-adv-x="558" d="M347 690L250 0H225L322 690H347ZM590 690L587 668H77L80 690H590Z" />
<glyph unicode="U" horiz-adv-x="667" d="M625 690L564 254Q551 158 520 100T435 15T294 -12Q207 -12 159 15T95 101T93 256L154 690H179L118 254Q106 165 118 112T174 35T293 11Q370 11 420 35T498 113T539 256L600 690H625Z" />
<glyph unicode="V" horiz-adv-x="587" d="M618 690L286 8Q283 0 273 0H231Q227 0 224 3T219 10L78 690H104L226 95Q230 76 233 58T240 21H267Q275 40 284 59T303 98L591 690H618Z" />
<glyph unicode="W" horiz-adv-x="926" d="M949 690L671 9Q669 5 665 3T656 0H614Q609 0 606 3T601 12L536 592Q534 612 532 630T527 667H502Q494 648 487 629T471 590L244 10Q242 5 238 3T229 0H186Q181 0 178 3T173 11L86 690H111L187 90Q189 73 191 56T195 21H224Q231
38 237 56T250 91L482 680Q486 690 496 690H535Q540 690 544 687T549 678L616 90Q618 73 619 56T623 21H652Q659 38 665 56T679 91L923 690H949Z" />
<glyph unicode="X" horiz-adv-x="590" d="M133 690L294 358L26 0H-4L266 361L106 690H133ZM338 372L334 350H282L286 372H338ZM597 690L345 360L513 0H486L317 363L568 690H597Z" />
<glyph unicode="Y" horiz-adv-x="535" d="M569 690L269 250L251 251L73 690H99L233 356Q240 340 247 322T261 287H267Q278 304 291 322T314 357L541 690H569ZM277 281L237 0H212L252 281H277Z" />
<glyph unicode="Z" horiz-adv-x="553" d="M522 668L552 667L41 22L12 23L522 668ZM467 23L463 0H8L12 23H467ZM555 690L552 667H105L108 690H555Z" />
<glyph unicode="[" horiz-adv-x="308" d="M327 768L324 746H205Q200 746 196 742T190 733L69 -132Q67 -143 78 -143H199L196 -165H72Q59 -165 51 -156T45 -133L167 738Q169 752 178 760T201 768H327Z" />
<glyph unicode="\" horiz-adv-x="482" d="M112 690L401 -59H377L88 690H112Z" />
<glyph unicode="]" horiz-adv-x="308" d="M238 768Q252 768 260 759T266 736L143 -135Q142 -148 133 -156T109 -165H-17L-14 -143H105Q110 -143 114 -139T120 -130L242 735Q244 746 232 746H111L114 768H238Z" />
<glyph unicode="^" horiz-adv-x="392" d="M252 575L382 377L368 366L245 548H237L62 366L49 378L234 575H252Z" />
<glyph unicode="_" horiz-adv-x="431" d="M397 0L394 -22H-37L-34 0H397Z" />
<glyph unicode="`" horiz-adv-x="277" d="M132 709L261 562L247 550L113 691L132 709Z" />
<glyph unicode="a" horiz-adv-x="564" d="M319 492Q341 492 362 491T406 489T451 485T498 480L488 462Q434 465 398 467T322 470Q261 470 222 461T159 426T120 356T94 238Q82 159 84 109T109 35T182 11Q215 11 257 27T345 76T432 155V128Q390 80 344 49T255 3T182
-12Q121 -12 93 15T60 99T70 242Q82 317 98 365T141 442T211 481T319 492ZM473 480H498L430 0H412L427 122L425 126L473 480Z" />
<glyph unicode="b" horiz-adv-x="561" d="M358 492Q414 492 445 469T485 390T480 238Q469 160 453 111T411 35T347 -2T252 -12Q223 -12 198 -10T149 -4T103 6T53 19L74 37Q108 27 137 22T194 14T248 11Q304 11 340 21T398 58T433 129T455 242Q467 326 463 375T433
447T354 469Q305 469 251 437T120 342L118 363Q155 396 187 420T249 460T306 484T358 492ZM172 700L142 499Q136 457 131 427T119 362L122 349L76 19H52L148 700H172Z" />
<glyph unicode="c" horiz-adv-x="475" d="M313 492Q341 492 379 489T447 475L440 457Q415 464 378 466T318 469Q245 469 199 449T126 378T86 239Q74 151 86 101T138 31T250 11Q265 11 289 12T340 16T391 23L394 5Q360 -2 322 -7T248 -12Q168 -12 123 13T63 93T61
242Q74 334 103 389T183 468T313 492Z" />
<glyph unicode="d" horiz-adv-x="562" d="M319 492Q360 492 404 489T496 480L486 462Q432 465 396 467T321 470Q260 470 220 461T156 426T117 356T92 238Q81 163 82 113T105 37T173 11Q231 11 299 48T430 155V128Q399 94 367 68T301 24T235 -3T171 -12Q114 -12
88 17T59 103T68 242Q79 317 95 366T139 442T210 481T319 492ZM527 700L428 0H410L425 133L424 137L469 464L475 481Q477 507 479 527T485 574L503 700H527Z" />
<glyph unicode="e" horiz-adv-x="526" d="M310 492Q368 492 409 480T468 437T471 344Q462 305 444 282T394 248T312 231L69 205L72 226L313 253Q357 259 383 268T424 295T447 346Q462 401 447 427T397 461T317 470Q264 470 226 462T160 431T116 362T86 241Q72
149 82 99T132 30T244 10Q273 10 306 12T369 17T420 24L423 6Q405 1 371 -3T299 -9T234 -12Q155 -12 113 13T60 95T62 244Q74 322 94 370T144 445T215 482T310 492Z" />
<glyph unicode="f" horiz-adv-x="351" d="M303 714Q318 714 339 714T382 713T421 710L420 692H311Q251 692 222 667T185 580L92 -78Q83 -145 54 -177T-40 -210Q-56 -210 -82 -209T-128 -206L-127 -188H-48Q8 -188 34 -163T68 -76L161 582Q170 648 202 681T303
714ZM349 480L345 458H56L59 475L153 480H349Z" />
<glyph unicode="g" horiz-adv-x="569" d="M481 480H506L430 -6Q423 -53 406 -90T361 -155T297 -199T212 -220Q191 -222 157 -222T86 -222T22 -218L25 -200Q54 -201 84 -202T145 -202T204 -198Q293 -189 342 -143T406 -4Q415 52 422 87T435 138L429 146L481 480ZM319
492Q348 492 377 491T436 487T498 480L488 462Q434 465 398 467T322 470Q261 470 222 461T159 426T120 356T94 238Q82 159 84 109T109 35T182 11Q215 11 257 27T345 76T432 155L437 133Q394 83 347 51T257 4T182 -12Q121 -12 93 15T60 99T70 242Q82 317 98 365T141
442T211 481T319 492Z" />
<glyph unicode="h" horiz-adv-x="567" d="M374 492Q439 492 467 459T487 360L436 0H412L463 359Q471 418 448 443T370 469Q317 469 259 436T121 336L122 362Q193 421 255 456T374 492ZM175 700L145 484Q141 456 135 422T123 360L125 343L76 0H52L151 700H175Z" />
<glyph unicode="i" horiz-adv-x="218" d="M148 480L80 0H56L124 480H148ZM168 679Q174 679 177 676T179 666L170 604Q169 593 158 593H148Q134 593 136 606L145 668Q146 679 158 679H168Z" />
<glyph unicode="j" horiz-adv-x="219" d="M148 480L74 -47Q70 -79 58 -108T27 -162T-15 -210L-27 -200Q3 -166 23 -130T50 -45L124 480H148ZM168 679Q174 679 177 676T179 666L170 604Q169 593 158 593H148Q134 593 136 606L145 668Q146 679 158 679H168Z" />
<glyph unicode="k" horiz-adv-x="487" d="M175 700L121 310Q117 284 114 264T103 216Q104 215 104 213T106 209L76 0H52L151 700H175ZM461 480Q431 408 386 359T289 277T185 225T92 194V217Q180 241 247 279T362 367T436 480H461ZM268 271Q275 257 282 243T296
215L404 0H377L247 260L268 271Z" />
<glyph unicode="l" horiz-adv-x="265" d="M176 700L91 95Q85 56 103 36T159 16H218L219 0Q213 -2 201 -3T177 -5T155 -6Q109 -6 85 20T67 96L152 700H176Z" />
<glyph unicode="m" horiz-adv-x="876" d="M138 480L123 360L124 342L76 0H52L120 480H138ZM349 492Q414 492 442 459T462 360L411 0H387L438 359Q446 418 423 443T345 469Q313 469 280 454T208 411T121 339L122 362Q187 421 242 456T349 492ZM683 492Q748 492
776 459T796 360L745 0H721L772 359Q780 418 757 443T679 469Q647 469 614 454T542 411T455 339L456 362Q521 421 576 456T683 492Z" />
<glyph unicode="n" horiz-adv-x="567" d="M374 492Q417 492 444 477T482 433T487 360L436 0H412L463 359Q471 418 448 443T370 469Q317 469 259 436T121 339L122 362Q193 421 255 456T374 492ZM138 480L123 360L124 342L76 0H52L120 480H138Z" />
<glyph unicode="o" horiz-adv-x="557" d="M304 492Q382 492 425 467T481 387T481 238Q468 146 441 91T364 12T238 -12Q160 -12 117 13T61 93T61 242Q74 334 101 389T178 468T304 492ZM304 469Q236 469 192 448T123 376T86 238Q74 152 84 103T132 32T238 11Q306
11 350 32T419 104T456 242Q468 328 458 377T410 448T304 469Z" />
<glyph unicode="p" horiz-adv-x="563" d="M368 492Q429 492 457 465T489 381T480 238Q469 163 453 115T409 38T339 -1T231 -12Q209 -12 188 -11T144 -9T99 -5T52 0L62 18Q116 15 152 13T228 10Q289 10 328 19T392 54T431 124T456 242Q468 322 466 372T442 445T368
469Q336 469 293 453T205 404T118 325V352Q150 388 184 414T251 458T315 483T368 492ZM138 480L123 347L124 343L79 16L73 -1Q72 -27 70 -47T63 -94L45 -220H21L120 480H138Z" />
<glyph unicode="q" horiz-adv-x="563" d="M296 492Q325 492 350 490T398 484T444 474T494 461L473 443Q439 453 410 458T353 466T299 469Q244 469 208 459T150 423T114 352T92 238Q82 158 85 108T113 34T189 11Q230 11 265 25T339 71T431 153L430 128Q381 75 341
45T264 1T186 -12Q133 -12 102 11T63 89T67 242Q77 319 93 368T136 444T201 481T296 492ZM471 461H495L399 -220H375L406 -8Q412 34 417 64T429 129L426 142L471 461Z" />
<glyph unicode="r" horiz-adv-x="383" d="M138 480L123 359L124 343L76 0H52L120 480H138ZM388 492L380 469H364Q311 469 255 435T121 336L122 360Q190 422 251 457T368 492H388Z" />
<glyph unicode="s" horiz-adv-x="498" d="M264 492Q295 492 327 491T390 487T450 480L446 462Q403 465 356 467T265 470Q209 471 175 467T122 445T96 383Q89 338 104 319T160 284L320 224Q353 212 375 198T408 162T412 100Q405 48 379 25T308 -5T203 -12Q182 -12
156 -12T100 -8T33 0L37 18Q68 15 95 13T149 11T207 10Q268 11 306 18T363 44T388 104Q393 136 385 154T360 182T318 201L159 261Q130 272 108 284T76 320T72 387Q80 437 104 459T168 487T264 492Z" />
<glyph unicode="t" horiz-adv-x="341" d="M189 631L114 95Q108 55 126 36T182 16H271L272 0Q259 -2 242 -3T210 -5T187 -6Q131 -6 107 20T90 96L165 631H189ZM346 480L342 458H53L56 475L150 480H346Z" />
<glyph unicode="u" horiz-adv-x="556" d="M140 480L89 121Q81 64 104 38T182 11Q236 11 292 47T422 154L423 130Q354 60 293 24T178 -12Q114 -12 85 22T65 120L116 480H140ZM490 480L422 0H404L420 131L419 147L466 480H490Z" />
<glyph unicode="v" horiz-adv-x="503" d="M486 480Q468 409 449 357T409 265T363 184Q326 123 298 83T251 22Q243 13 236 8T220 2T201 0H172Q168 0 165 2T160 9L59 480H84L180 21H199Q214 21 222 26T242 46Q257 64 284 103T343 195Q388 271 416 340T461 480H486Z" />
<glyph unicode="w" horiz-adv-x="813" d="M83 480L169 21H181Q190 21 197 24T217 43Q232 63 257 104T305 197Q326 242 343 290T374 386T399 473Q400 477 403 479T410 481L435 480Q440 480 443 478T447 471L516 21H528Q540 21 549 27T566 46Q593 85 615 120T659
196Q700 275 722 345T760 480H785Q770 414 754 363T719 269T678 184Q648 128 620 84T576 23Q570 16 564 11T549 3T527 0H508Q504 0 501 2T496 9L427 460H417Q412 438 399 393T368 294T327 191Q314 161 296 127T259 64T227 20Q221 14 215 10T200 3T181 0H161Q157
0 154 2T149 9L58 480H83Z" />
<glyph unicode="x" horiz-adv-x="501" d="M102 480L239 249L25 0H-7L211 251L75 480H102ZM272 262L269 240H217L220 262H272ZM481 480L279 250L426 0H399L251 252L451 480H481Z" />
<glyph unicode="y" horiz-adv-x="511" d="M487 480Q476 439 462 397T431 312T394 226T350 141T301 58Q253 -15 213 -71T132 -163T43 -210L39 -195Q72 -184 101 -162T158 -106T215 -31T277 63Q324 137 357 204T415 339T462 480H487ZM82 480L175 47Q182 21 207 21L258
22L245 0H200Q183 0 171 10T154 37L56 480H82Z" />
<glyph unicode="z" horiz-adv-x="485" d="M423 459L455 458L45 21L13 22L423 459ZM396 22L393 0H10L13 22H396ZM458 480L455 458H78L81 480H458Z" />
<glyph unicode="{" horiz-adv-x="298" d="M316 768L314 750Q254 750 228 722T194 641L166 436Q160 396 151 375T124 345T74 328Q104 317 119 306T139 276T139 222L103 -40Q96 -92 113 -119T191 -147L189 -165Q143 -165 117 -152T82 -111T79 -38L117 234Q121 263
116 276T96 297T57 314L62 344Q90 352 105 358T128 379T140 428L171 643Q177 688 193 715T239 756T316 768Z" />
<glyph unicode="|" horiz-adv-x="233" d="M196 781L63 -169H41L174 781H196Z" />
<glyph unicode="}" horiz-adv-x="296" d="M114 768Q160 768 186 755T222 714T224 641L194 426Q190 392 193 377T210 356T249 342L244 312Q219 303 203 296T177 275T163 232L125 -40Q119 -84 103 -112T57 -152T-19 -165L-17 -147Q42 -147 68 -119T101 -38L138 224Q143
259 152 277T180 306T232 328Q204 335 189 345T170 376T172 438L201 643Q209 696 192 723T112 750L114 768Z" />
<glyph unicode="~" horiz-adv-x="533" d="M165 330Q198 328 221 318T266 296T310 274T365 262Q397 260 413 275T434 326L451 324Q447 281 424 259T366 240Q328 242 302 252T256 274T216 296T166 308Q135 311 118 294T96 240L79 242Q83 273 94 293T124 322T165 330Z" />
<glyph unicode="&#xa0;" horiz-adv-x="230" />
<glyph unicode="&#xa1;" horiz-adv-x="230" d="M123 277L104 126L57 -205H32L79 126L102 277H123ZM147 480Q153 480 155 477T157 467L148 408Q147 402 144 398T134 394H125Q112 394 114 407L123 469Q124 480 136 480H147Z" />
<glyph unicode="&#xa2;" horiz-adv-x="502" d="M330 602Q358 602 395 599T463 585L457 567Q432 574 395 576T335 579Q263 579 216 559T143 489T103 350Q91 262 102 212T154 142T266 121Q281 121 305 122T357 126T407 133L410 115Q376 108 338 103T264 98Q184 98
139 123T79 203T78 352Q91 444 120 499T200 578T330 602ZM246 113L222 0H201L225 113H246ZM346 589L246 110H225L325 589H346ZM367 690L346 586H325L346 690H367Z" />
<glyph unicode="&#xa3;" horiz-adv-x="557" d="M376 701Q406 701 445 699T531 691L528 673Q505 675 485 676T444 677T402 678T354 679Q275 679 240 644T197 529L171 247Q167 200 157 157T125 79T67 22Q81 22 95 22T125 22H463L460 0H31L33 22Q92 56 116 112T147
244L173 529Q179 588 196 622T239 674T300 696T376 701ZM434 373L430 353H74L77 373H434Z" />
<glyph unicode="&#xa4;" horiz-adv-x="600" d="M327 543Q388 543 428 517T486 447T498 350Q493 295 465 253T393 186T291 162Q233 162 192 187T132 255T118 354Q124 408 150 450T221 518T327 543ZM162 237L174 223L82 142L69 156L162 237ZM434 223L507 139L492
127L420 211L434 223ZM328 524Q245 524 196 475T138 350Q131 278 170 231T283 181Q337 179 379 201T447 262T478 354Q483 401 468 439T417 501T328 524ZM127 582L198 500L183 488L113 569L127 582ZM530 569L542 554L451 475L439 489L530 569Z" />
<glyph unicode="&#xa5;" horiz-adv-x="601" d="M603 690L307 280L289 281L107 690H133L268 386Q276 370 284 352T299 317H306Q317 334 330 352T355 385L574 690H603ZM315 311L271 0H246L290 311H315ZM497 196L494 176H78L81 196H497ZM512 306L509 286H93L96 306H512Z" />
<glyph unicode="&#xa6;" horiz-adv-x="233" d="M196 781L140 381H118L174 781H196ZM119 231L63 -169H41L97 231H119Z" />
<glyph unicode="&#xa7;" horiz-adv-x="543" d="M104 417L126 415Q115 369 112 334T119 272T163 226L341 117Q367 101 384 85T412 50T424 11T423 -34Q415 -87 389 -110T324 -139T233 -144Q201 -143 168 -142T99 -139T18 -132L21 -114Q80 -117 130 -119T232 -122Q274
-122 310 -119T369 -96T399 -30Q405 17 386 44T338 90L162 198Q119 224 103 254T89 325T104 417ZM307 702Q328 702 366 701T447 697T522 690L519 672Q486 674 458 675T396 678T308 680Q262 681 227 676T169 653T141 591Q135 547 152 520T203 472L379 363Q422 337
438 306T452 234T436 141L414 143Q426 190 428 226T420 289T377 335L201 445Q164 468 144 491T119 539T117 595Q124 642 147 665T211 695T307 702Z" />
<glyph unicode="&#xa8;" horiz-adv-x="399" d="M177 678Q183 678 185 675T186 666L178 613Q177 606 175 603T165 600H158Q147 600 148 612L156 666Q157 672 159 675T168 678H177ZM354 678Q360 678 362 675T363 666L355 613Q354 606 352 603T342 600H335Q324 600
325 612L333 666Q334 672 336 675T345 678H354Z" />
<glyph unicode="&#xa9;" horiz-adv-x="856" d="M484 702Q584 702 658 658T770 533T792 343Q778 240 726 160T588 34T388 -12Q314 -12 253 13T149 86T87 199T79 347Q93 450 146 530T285 656T484 702ZM472 580Q519 580 547 578T604 568L599 554Q568 558 542 559T473
560Q409 560 368 541T303 474T268 346Q257 269 266 223T311 156T409 136Q441 136 465 136T511 139T552 144L555 128Q524 122 492 119T411 116Q339 116 299 139T246 213T246 350Q258 435 283 485T355 557T472 580ZM483 683Q376 683 294 639T162 519T99 343Q86 241
121 166T226 49T388 7Q496 7 577 51T709 171T772 347Q786 450 752 525T647 641T483 683Z" />
<glyph unicode="&#xaa;" horiz-adv-x="444" d="M275 600Q304 600 334 598T396 591L388 576Q352 578 328 579T278 581Q230 581 197 571T145 528T115 430Q106 369 110 337T135 294T190 282Q221 282 264 304T347 368L348 350Q322 321 293 302T238 272T190 262Q151
262 126 274T93 322T94 432Q102 483 116 516T151 567T204 593T275 600ZM376 591H396L350 269H334L343 343L342 347L376 591Z" />
<glyph unicode="&#xab;" horiz-adv-x="451" d="M394 454L406 442L230 249L351 56L338 46L202 247L203 255L394 454ZM236 454L248 442L72 249L193 56L180 46L44 247L45 255L236 454Z" />
<glyph unicode="&#xac;" horiz-adv-x="591" d="M505 307L501 285H85L88 307H505ZM505 307L480 134H457L481 299L505 307Z" />
<glyph unicode="&#xad;" horiz-adv-x="482" d="M392 262L389 240H78L81 262H392Z" />
<glyph unicode="&#xae;" horiz-adv-x="580" d="M338 701Q408 701 455 673T525 594T538 477Q530 416 498 366T415 286T295 256Q230 256 182 284T110 365T94 486Q102 556 136 603T223 676T338 701ZM251 620L211 337H193L233 620H251ZM338 685Q240 685 181 629T111
482Q104 418 125 371T191 298T295 272Q358 272 406 300T484 375T521 481Q529 545 509 590T444 660T338 685ZM328 623Q368 623 393 618T429 596T436 543Q432 504 415 489T362 468V466Q374 463 382 454T395 426L419 337H400L377 426Q372 446 360 454T330 462Q279
462 258 462T230 463T217 464L219 476H324Q370 477 392 489T419 546Q424 588 404 598T334 608Q320 608 299 608T261 608T239 607L233 620Q261 622 284 622T328 623Z" />
<glyph unicode="&#xaf;" horiz-adv-x="400" d="M387 648L384 625H124L127 648H387Z" />
<glyph unicode="&#xb0;" horiz-adv-x="381" d="M242 702Q278 702 304 686T343 642T353 577Q347 520 307 488T217 455Q179 455 153 472T116 519T107 581Q113 637 152 669T242 702ZM242 683Q196 683 164 653T127 577Q123 533 147 504T217 474Q260 474 294 502T333
581Q338 626 313 654T242 683Z" />
<glyph unicode="&#xb1;" horiz-adv-x="597" d="M339 505L294 189H273L316 505H339ZM482 115L478 94H61L65 115H482ZM516 358L512 336H95L99 358H516Z" />
<glyph unicode="&#xb2;" horiz-adv-x="364" d="M263 753Q311 753 339 737T368 681Q368 648 352 619T310 562T256 508L112 373Q129 373 144 373T176 373H346L343 355H73L74 362Q75 365 76 367T79 370L247 528Q276 555 297 577T329 624T341 677Q341 710 320 721T263
733Q235 733 204 729T136 716L134 734Q175 745 207 749T263 753Z" />
<glyph unicode="&#xb3;" horiz-adv-x="387" d="M245 753Q303 753 331 738T359 683Q359 643 341 609T286 564V562Q315 555 328 536T341 487Q341 442 325 411T278 363T201 347Q165 347 133 352T75 364L84 381Q100 377 119 374T161 370T205 368Q264 368 290 399T317
488Q317 513 301 531T233 550L150 551L153 569L238 571Q289 573 311 603T334 678Q334 711 314 722T244 733Q217 733 186 728T135 718L132 735Q161 743 190 748T245 753Z" />
<glyph unicode="&#xb4;" horiz-adv-x="277" d="M273 710L290 691L118 550L104 564L273 710Z" />
<glyph unicode="&#xb5;" horiz-adv-x="564" d="M149 480L98 121Q90 64 110 38T185 11Q232 11 282 34T373 101T427 206L420 136Q389 85 348 52T264 4T184 -12Q141 -12 115 3T78 47T74 120L125 480H149ZM489 480L434 90Q430 59 433 37T468 15H512L513 0Q503 -3 489
-4T460 -6Q423 -6 415 18T412 84L420 137L419 157L465 480H489ZM93 91L65 -105L46 -197H29L78 145L93 91Z" />
<glyph unicode="&#xb6;" horiz-adv-x="597" d="M399 702Q429 702 470 698T544 685L536 667Q511 672 479 674T416 678T362 679L284 200Q199 208 149 242T82 334T76 470Q90 566 126 616T229 684T399 702ZM367 685L241 -210H216L342 685H367ZM544 685L447 0H422L519
685H544Z" />
<glyph unicode="&#xb7;" horiz-adv-x="205" d="M109 300Q117 300 118 297T119 287L110 225Q109 219 106 217T97 214H87Q74 214 76 227L85 288Q87 300 98 300H109Z" />
<glyph unicode="&#xb8;" horiz-adv-x="219" d="M61 -49Q87 -47 104 -54T128 -76T131 -116Q127 -149 107 -174T53 -212T-22 -219L-17 -204Q36 -206 70 -178T110 -112Q114 -85 103 -75T58 -63L61 -49Z" />
<glyph unicode="&#xb9;" horiz-adv-x="287" d="M238 747L182 355H160L209 700Q210 706 211 712T215 726L100 690L98 705L216 747H238Z" />
<glyph unicode="&#xba;" horiz-adv-x="446" d="M264 600Q348 600 376 562T392 429Q383 368 364 331T309 278T220 262Q137 262 109 300T93 433Q106 525 144 562T264 600ZM265 581Q218 581 188 567T141 520T116 429Q104 345 127 314T219 282Q290 282 323 315T368
433Q380 518 357 549T265 581Z" />
<glyph unicode="&#xbb;" horiz-adv-x="449" d="M44 46L32 58L208 251L87 444L100 454L236 253L235 245L44 46ZM202 46L190 58L366 251L245 444L258 454L394 253L393 245L202 46Z" />
<glyph unicode="&#xbc;" horiz-adv-x="832" d="M680 690L103 0H79L656 690H680ZM251 690L193 276H172L223 640Q225 648 226 655T229 670L100 632L98 646L230 690H251ZM644 414L460 161Q453 151 457 142T475 133H760L758 118L693 115H464Q450 115 442 122T432 141T438
164L621 414H644ZM743 336L696 0H675L713 266L727 336H743Z" />
<glyph unicode="&#xbd;" horiz-adv-x="860" d="M679 690L102 0H78L655 690H679ZM250 690L192 276H171L222 640Q224 648 225 655T228 670L99 632L97 646L229 690H250ZM665 421Q709 421 738 415T782 390T790 335Q785 295 758 260T676 175L500 19Q520 19 540 19T580
19H767L764 0H471L473 13Q474 17 475 19T479 24L659 184Q712 232 738 268T768 342Q773 383 745 392T669 402Q648 402 628 401T586 398T535 389L531 405Q581 416 609 418T665 421Z" />
<glyph unicode="&#xbe;" horiz-adv-x="924" d="M786 690L209 0H185L762 690H786ZM245 695Q325 695 353 674T374 598Q371 574 362 552T334 515T286 495L284 493Q331 486 346 457T356 387Q351 347 335 320T286 280T201 267Q165 267 130 270T63 277L67 293Q87 291
108 290T151 287T197 286Q261 286 294 310T334 392Q338 416 333 437T305 471T236 484L149 485L152 500L237 502Q284 503 308 519T341 557T353 599Q359 645 336 660T246 676Q213 676 183 674T129 669L126 685Q158 690 187 692T245 695ZM735 414L551 161Q544 151
548 142T566 133H851L849 118L784 115H555Q541 115 533 122T523 141T529 164L712 414H735ZM824 336L777 0H756L794 266L808 336H824Z" />
<glyph unicode="&#xbf;" horiz-adv-x="498" d="M267 286Q259 229 235 190T178 120T114 63T59 5T29 -69Q19 -136 55 -168T179 -200Q230 -200 262 -199T320 -194T380 -186L385 -204Q360 -208 340 -211T299 -216T249 -220T180 -222Q83 -222 38 -184T4 -65Q10 -19
34 13T90 74T154 131T212 197T244 288L267 286ZM289 490Q296 490 298 488T300 478L292 416Q291 409 288 407T279 404H269Q257 404 258 417L267 479Q268 490 279 490H289Z" />
<glyph unicode="&#xc0;" horiz-adv-x="599" d="M378 690Q383 690 386 688T391 680L543 0H517L382 613Q379 627 377 640T370 667H341Q334 653 328 639T313 611L6 0H-22L322 682Q324 687 327 688T335 690H378ZM474 274L471 252H121L124 274H474ZM271 895L400 748L386
736L252 877L271 895Z" />
<glyph unicode="&#xc1;" horiz-adv-x="599" d="M378 690Q383 690 386 688T391 680L543 0H517L382 613Q379 627 377 640T370 667H341Q334 653 328 639T313 611L6 0H-22L322 682Q324 687 327 688T335 690H378ZM474 274L471 252H121L124 274H474ZM482 896L499 877L327
736L313 750L482 896Z" />
<glyph unicode="&#xc2;" horiz-adv-x="599" d="M378 690Q383 690 386 688T391 680L543 0H517L382 613Q379 627 377 640T370 667H341Q334 653 328 639T313 611L6 0H-22L322 682Q324 687 327 688T335 690H378ZM474 274L471 252H121L124 274H474ZM388 880L509 763L497
751L382 853H373L228 750L218 763L370 880H388Z" />
<glyph unicode="&#xc3;" horiz-adv-x="599" d="M378 690Q383 690 386 688T391 680L543 0H517L382 613Q379 627 377 640T370 667H341Q334 653 328 639T313 611L6 0H-22L322 682Q324 687 327 688T335 690H378ZM474 274L471 252H121L124 274H474ZM307 866Q329 864
344 854T373 832T401 810T437 798Q469 796 485 811T506 862L523 860Q519 817 496 795T438 776Q413 778 396 788T366 810T340 832T308 844Q277 847 260 830T238 776L221 778Q226 824 249 846T307 866Z" />
<glyph unicode="&#xc4;" horiz-adv-x="599" d="M378 690Q383 690 386 688T391 680L543 0H517L382 613Q379 627 377 640T370 667H341Q334 653 328 639T313 611L6 0H-22L322 682Q324 687 327 688T335 690H378ZM474 274L471 252H121L124 274H474ZM293 856Q299 856
301 853T302 844L294 791Q293 784 291 781T281 778H274Q263 778 264 790L272 844Q273 850 275 853T284 856H293ZM470 856Q476 856 478 853T479 844L471 791Q470 784 468 781T458 778H451Q440 778 441 790L449 844Q450 850 452 853T461 856H470Z" />
<glyph unicode="&#xc5;" horiz-adv-x="599" d="M378 690Q383 690 386 688T391 680L543 0H517L382 613Q379 627 377 640T370 667H341Q334 653 328 639T313 611L6 0H-22L322 682Q324 687 327 688T335 690H378ZM474 274L471 252H121L124 274H474ZM380 909Q421 909
444 885T468 824Q468 781 437 750T362 719Q321 719 298 743T274 804Q274 848 305 878T380 909ZM380 890Q342 890 319 864T295 806Q295 778 312 758T362 738Q402 738 424 765T447 826Q447 852 430 871T380 890Z" />
<glyph unicode="&#xc6;" horiz-adv-x="903" d="M629 690Q723 690 785 689T902 686L900 668H632Q595 668 569 646T537 585L470 103Q465 67 484 45T539 22H809L808 4Q738 1 670 1T534 0Q489 0 464 29T445 103L513 588Q516 611 531 634T564 664H560Q542 657 519 639T472
591L0 0H-30L454 606Q477 634 498 650T540 675T583 687T629 690ZM484 294L480 272H203L220 294H484ZM501 381L817 380L814 360L498 359L501 381Z" />
<glyph unicode="&#xc7;" horiz-adv-x="557" d="M386 702Q426 702 455 700T509 695T559 685L552 667Q525 672 501 674T451 678T387 679Q320 679 273 662T194 605T142 501T108 343Q91 220 102 147T158 43T289 11Q350 11 392 14T474 24L479 6Q438 -3 395 -7T290 -12Q195
-12 144 22T79 136T83 347Q97 445 120 513T178 622T264 683T386 702ZM251 -61Q277 -59 294 -66T318 -88T321 -128Q317 -161 297 -186T243 -224T168 -231L173 -216Q226 -218 260 -190T300 -124Q304 -97 293 -87T248 -75L251 -61Z" />
<glyph unicode="&#xc8;" horiz-adv-x="548" d="M252 690Q302 690 351 690T449 689T547 686L543 668H257Q216 668 192 646T162 585L95 103Q90 67 109 45T164 22H452L453 4Q404 2 355 1T257 0T159 0Q114 0 89 29T70 103L138 589Q144 633 173 661T252 690ZM126 381L462
380L459 360L123 359L126 381ZM277 920L406 773L392 761L258 902L277 920Z" />
<glyph unicode="&#xc9;" horiz-adv-x="548" d="M252 690Q302 690 351 690T449 689T547 686L543 668H257Q216 668 192 646T162 585L95 103Q90 67 109 45T164 22H452L453 4Q404 2 355 1T257 0T159 0Q114 0 89 29T70 103L138 589Q144 633 173 661T252 690ZM126 381L462
380L459 360L123 359L126 381ZM488 921L505 902L333 761L319 775L488 921Z" />
<glyph unicode="&#xca;" horiz-adv-x="548" d="M252 690Q302 690 351 690T449 689T547 686L543 668H257Q216 668 192 646T162 585L95 103Q90 67 109 45T164 22H452L453 4Q404 2 355 1T257 0T159 0Q114 0 89 29T70 103L138 589Q144 633 173 661T252 690ZM126 381L462
380L459 360L123 359L126 381ZM394 905L515 788L503 776L388 878H379L234 775L224 788L376 905H394Z" />
<glyph unicode="&#xcb;" horiz-adv-x="548" d="M252 690Q302 690 351 690T449 689T547 686L543 668H257Q216 668 192 646T162 585L95 103Q90 67 109 45T164 22H452L453 4Q404 2 355 1T257 0T159 0Q114 0 89 29T70 103L138 589Q144 633 173 661T252 690ZM126 381L462
380L459 360L123 359L126 381ZM299 881Q305 881 307 878T308 869L300 816Q299 809 297 806T287 803H280Q269 803 270 815L278 869Q279 875 281 878T290 881H299ZM476 881Q482 881 484 878T485 869L477 816Q476 809 474 806T464 803H457Q446 803 447 815L455 869Q456
875 458 878T467 881H476Z" />
<glyph unicode="&#xcc;" horiz-adv-x="231" d="M184 690L87 0H62L159 690H184ZM88 895L217 748L203 736L69 877L88 895Z" />
<glyph unicode="&#xcd;" horiz-adv-x="231" d="M184 690L87 0H62L159 690H184ZM299 896L316 877L144 736L130 750L299 896Z" />
<glyph unicode="&#xce;" horiz-adv-x="231" d="M184 690L87 0H62L159 690H184ZM205 880L326 763L314 751L199 853H190L45 750L35 763L187 880H205Z" />
<glyph unicode="&#xcf;" horiz-adv-x="231" d="M184 690L87 0H62L159 690H184ZM110 856Q116 856 118 853T119 844L111 791Q110 784 108 781T98 778H91Q80 778 81 790L89 844Q90 850 92 853T101 856H110ZM287 856Q293 856 295 853T296 844L288 791Q287 784 285
781T275 778H268Q257 778 258 790L266 844Q267 850 269 853T278 856H287Z" />
<glyph unicode="&#xd0;" horiz-adv-x="658" d="M321 381L318 361H30L33 381H321ZM388 699Q481 699 531 665T595 552T590 343Q577 244 554 177T497 68T412 9T292 -9Q225 -9 169 -7T62 0L77 17Q125 16 176 15T291 14Q354 14 399 31T477 86T531 188T565 347Q578 439
575 502T551 603T490 658T388 676Q345 676 307 676T235 674T168 672L159 690Q193 693 229 695T305 698T388 699ZM184 690L87 0H62L159 690H184Z" />
<glyph unicode="&#xd1;" horiz-adv-x="688" d="M641 690L546 14Q545 7 542 4T530 0H489Q483 0 479 3T472 12L234 601Q227 618 220 634T206 668H181Q178 649 176 630T170 590L87 0H62L157 676Q159 684 162 687T173 690H211Q217 690 222 687T229 678L462 102Q470
82 478 62T494 21H522Q525 42 528 63T534 106L616 690H641ZM362 866Q384 864 399 854T428 832T456 810T492 798Q524 796 540 811T561 862L578 860Q574 817 551 795T493 776Q468 778 451 788T421 810T395 832T363 844Q332 847 315 830T293 776L276 778Q281 824 304
846T362 866Z" />
<glyph unicode="&#xd2;" horiz-adv-x="660" d="M386 702Q481 702 532 668T597 554T592 343Q579 245 556 177T498 68T412 7T290 -12Q195 -12 144 22T79 136T83 347Q97 445 120 513T178 622T264 683T386 702ZM386 679Q299 679 244 647T158 542T108 343Q91 220 102
147T159 43T289 11Q376 11 431 43T518 149T567 347Q585 471 574 543T518 647T386 679ZM299 895L428 748L414 736L280 877L299 895Z" />
<glyph unicode="&#xd3;" horiz-adv-x="660" d="M386 702Q481 702 532 668T597 554T592 343Q579 245 556 177T498 68T412 7T290 -12Q195 -12 144 22T79 136T83 347Q97 445 120 513T178 622T264 683T386 702ZM386 679Q299 679 244 647T158 542T108 343Q91 220 102
147T159 43T289 11Q376 11 431 43T518 149T567 347Q585 471 574 543T518 647T386 679ZM510 896L527 877L355 736L341 750L510 896Z" />
<glyph unicode="&#xd4;" horiz-adv-x="660" d="M386 702Q481 702 532 668T597 554T592 343Q579 245 556 177T498 68T412 7T290 -12Q195 -12 144 22T79 136T83 347Q97 445 120 513T178 622T264 683T386 702ZM386 679Q299 679 244 647T158 542T108 343Q91 220 102
147T159 43T289 11Q376 11 431 43T518 149T567 347Q585 471 574 543T518 647T386 679ZM416 880L537 763L525 751L410 853H401L256 750L246 763L398 880H416Z" />
<glyph unicode="&#xd5;" horiz-adv-x="660" d="M386 702Q481 702 532 668T597 554T592 343Q579 245 556 177T498 68T412 7T290 -12Q195 -12 144 22T79 136T83 347Q97 445 120 513T178 622T264 683T386 702ZM386 679Q299 679 244 647T158 542T108 343Q91 220 102
147T159 43T289 11Q376 11 431 43T518 149T567 347Q585 471 574 543T518 647T386 679ZM335 866Q357 864 372 854T401 832T429 810T465 798Q497 796 513 811T534 862L551 860Q547 817 524 795T466 776Q441 778 424 788T394 810T368 832T336 844Q305 847 288 830T266
776L249 778Q254 824 277 846T335 866Z" />
<glyph unicode="&#xd6;" horiz-adv-x="660" d="M386 702Q481 702 532 668T597 554T592 343Q579 245 556 177T498 68T412 7T290 -12Q195 -12 144 22T79 136T83 347Q97 445 120 513T178 622T264 683T386 702ZM386 679Q299 679 244 647T158 542T108 343Q91 220 102
147T159 43T289 11Q376 11 431 43T518 149T567 347Q585 471 574 543T518 647T386 679ZM321 856Q327 856 329 853T330 844L322 791Q321 784 319 781T309 778H302Q291 778 292 790L300 844Q301 850 303 853T312 856H321ZM498 856Q504 856 506 853T507 844L499 791Q498
784 496 781T486 778H479Q468 778 469 790L477 844Q478 850 480 853T489 856H498Z" />
<glyph unicode="&#xd7;" horiz-adv-x="526" d="M451 454L466 437L71 122L57 140L451 454ZM118 452L423 139L407 122L102 436L118 452Z" />
<glyph unicode="&#xd8;" horiz-adv-x="660" d="M565 741L585 731L108 -51L89 -41L565 741ZM386 702Q481 702 532 668T597 554T592 343Q579 245 556 177T498 68T412 7T290 -12Q195 -12 144 22T79 136T83 347Q97 445 120 513T178 622T264 683T386 702ZM386 679Q299
679 244 647T158 542T108 343Q91 220 102 147T159 43T289 11Q376 11 431 43T518 149T567 347Q585 471 574 543T518 647T386 679Z" />
<glyph unicode="&#xd9;" horiz-adv-x="667" d="M625 690L564 254Q551 158 520 100T435 15T294 -12Q207 -12 159 15T95 101T93 256L154 690H179L118 254Q106 165 118 112T174 35T293 11Q370 11 420 35T498 113T539 256L600 690H625ZM299 895L428 748L414 736L280
877L299 895Z" />
<glyph unicode="&#xda;" horiz-adv-x="667" d="M625 690L564 254Q551 158 520 100T435 15T294 -12Q207 -12 159 15T95 101T93 256L154 690H179L118 254Q106 165 118 112T174 35T293 11Q370 11 420 35T498 113T539 256L600 690H625ZM510 896L527 877L355 736L341
750L510 896Z" />
<glyph unicode="&#xdb;" horiz-adv-x="667" d="M625 690L564 254Q551 158 520 100T435 15T294 -12Q207 -12 159 15T95 101T93 256L154 690H179L118 254Q106 165 118 112T174 35T293 11Q370 11 420 35T498 113T539 256L600 690H625ZM416 880L537 763L525 751L410
853H401L256 750L246 763L398 880H416Z" />
<glyph unicode="&#xdc;" horiz-adv-x="667" d="M625 690L564 254Q551 158 520 100T435 15T294 -12Q207 -12 159 15T95 101T93 256L154 690H179L118 254Q106 165 118 112T174 35T293 11Q370 11 420 35T498 113T539 256L600 690H625ZM321 856Q327 856 329 853T330
844L322 791Q321 784 319 781T309 778H302Q291 778 292 790L300 844Q301 850 303 853T312 856H321ZM498 856Q504 856 506 853T507 844L499 791Q498 784 496 781T486 778H479Q468 778 469 790L477 844Q478 850 480 853T489 856H498Z" />
<glyph unicode="&#xdd;" horiz-adv-x="535" d="M569 690L269 250L251 251L73 690H99L233 356Q240 340 247 322T261 287H267Q278 304 291 322T314 357L541 690H569ZM277 281L237 0H212L252 281H277ZM444 896L461 877L289 736L275 750L444 896Z" />
<glyph unicode="&#xde;" horiz-adv-x="582" d="M360 555Q434 555 475 537T530 475T532 350Q521 271 496 227T426 166T307 149Q253 149 210 150T137 152T96 154L99 172Q148 172 201 172T306 172Q371 173 411 188T474 242T507 354Q517 425 506 463T459 517T361 532Q285
532 229 532T153 529L139 547Q175 551 206 552T273 554T360 555ZM185 690L88 0H63L160 690H185Z" />
<glyph unicode="&#xdf;" horiz-adv-x="646" d="M376 712Q448 712 493 703T558 669T576 599Q574 559 558 535T515 496T458 471Q417 458 385 448T333 419T311 363Q309 335 320 318T365 284L493 224Q540 202 560 177T573 100Q567 50 542 27T478 -4T387 -11Q364 -11
324 -9T233 0L236 18Q280 14 320 12T397 11Q442 12 474 19T525 45T549 104Q554 138 545 156T521 183T488 201L362 261Q320 282 302 304T288 367Q293 409 316 430T375 465T456 492Q472 497 494 507T535 540T555 603Q557 631 545 650T496 680T388 690Q317 690 274
677T209 630T178 530L92 -78Q85 -125 70 -154T26 -197T-46 -210Q-56 -210 -82 -209T-128 -206L-127 -188H-48Q8 -188 33 -163T68 -76L154 532Q163 595 183 631T233 684T299 707T376 712ZM164 480L160 458H56L59 475L153 480H164Z" />
<glyph unicode="&#xe0;" horiz-adv-x="564" d="M319 492Q341 492 362 491T406 489T451 485T498 480L488 462Q434 465 398 467T322 470Q261 470 222 461T159 426T120 356T94 238Q82 159 84 109T109 35T182 11Q215 11 257 27T345 76T432 155V128Q390 80 344 49T255
3T182 -12Q121 -12 93 15T60 99T70 242Q82 317 98 365T141 442T211 481T319 492ZM473 480H498L430 0H412L427 122L425 126L473 480ZM237 713L366 566L352 554L218 695L237 713Z" />
<glyph unicode="&#xe1;" horiz-adv-x="564" d="M319 492Q341 492 362 491T406 489T451 485T498 480L488 462Q434 465 398 467T322 470Q261 470 222 461T159 426T120 356T94 238Q82 159 84 109T109 35T182 11Q215 11 257 27T345 76T432 155V128Q390 80 344 49T255
3T182 -12Q121 -12 93 15T60 99T70 242Q82 317 98 365T141 442T211 481T319 492ZM473 480H498L430 0H412L427 122L425 126L473 480ZM448 714L465 695L293 554L279 568L448 714Z" />
<glyph unicode="&#xe2;" horiz-adv-x="564" d="M319 492Q341 492 362 491T406 489T451 485T498 480L488 462Q434 465 398 467T322 470Q261 470 222 461T159 426T120 356T94 238Q82 159 84 109T109 35T182 11Q215 11 257 27T345 76T432 155V128Q390 80 344 49T255
3T182 -12Q121 -12 93 15T60 99T70 242Q82 317 98 365T141 442T211 481T319 492ZM473 480H498L430 0H412L427 122L425 126L473 480ZM354 954L475 837L463 825L348 927H339L194 824L184 837L336 954H354Z" />
<glyph unicode="&#xe3;" horiz-adv-x="564" d="M319 492Q341 492 362 491T406 489T451 485T498 480L488 462Q434 465 398 467T322 470Q261 470 222 461T159 426T120 356T94 238Q82 159 84 109T109 35T182 11Q215 11 257 27T345 76T432 155V128Q390 80 344 49T255
3T182 -12Q121 -12 93 15T60 99T70 242Q82 317 98 365T141 442T211 481T319 492ZM473 480H498L430 0H412L427 122L425 126L473 480ZM273 940Q295 938 310 928T339 906T367 884T403 872Q435 870 451 885T472 936L489 934Q485 891 462 869T404 850Q379 852 362 862T332
884T306 906T274 918Q243 921 226 904T204 850L187 852Q192 898 215 920T273 940Z" />
<glyph unicode="&#xe4;" horiz-adv-x="564" d="M319 492Q341 492 362 491T406 489T451 485T498 480L488 462Q434 465 398 467T322 470Q261 470 222 461T159 426T120 356T94 238Q82 159 84 109T109 35T182 11Q215 11 257 27T345 76T432 155V128Q390 80 344 49T255
3T182 -12Q121 -12 93 15T60 99T70 242Q82 317 98 365T141 442T211 481T319 492ZM473 480H498L430 0H412L427 122L425 126L473 480ZM259 930Q265 930 267 927T268 918L260 865Q259 858 257 855T247 852H240Q229 852 230 864L238 918Q239 924 241 927T250 930H259ZM436
930Q442 930 444 927T445 918L437 865Q436 858 434 855T424 852H417Q406 852 407 864L415 918Q416 924 418 927T427 930H436Z" />
<glyph unicode="&#xe5;" horiz-adv-x="564" d="M319 492Q341 492 362 491T406 489T451 485T498 480L488 462Q434 465 398 467T322 470Q261 470 222 461T159 426T120 356T94 238Q82 159 84 109T109 35T182 11Q215 11 257 27T345 76T432 155V128Q390 80 344 49T255
3T182 -12Q121 -12 93 15T60 99T70 242Q82 317 98 365T141 442T211 481T319 492ZM473 480H498L430 0H412L427 122L425 126L473 480ZM346 727Q387 727 410 703T434 642Q434 599 403 568T328 537Q287 537 264 561T240 622Q240 666 271 696T346 727ZM346 708Q308 708
285 682T261 624Q261 596 278 576T328 556Q368 556 390 583T413 644Q413 670 396 689T346 708Z" />
<glyph unicode="&#xe6;" horiz-adv-x="872" d="M312 492Q349 492 383 489T453 482T525 470L505 452Q464 457 434 461T377 467T314 470Q254 470 216 460T153 423T116 352T91 238Q80 162 81 112T103 36T171 11Q206 11 246 27T329 75T412 156V129Q374 83 333 52T250
4T170 -12Q111 -12 85 19T57 107T67 242Q79 317 95 366T139 442T208 481T312 492ZM654 492Q712 492 753 480T812 437T815 344Q806 305 788 282T738 248T656 231L413 205L416 226L657 253Q701 259 727 268T768 295T791 346Q806 401 791 427T741 461T661 470Q608
470 570 462T504 431T460 362T430 241Q416 149 426 99T476 30T588 10Q617 10 650 12T713 17T764 24L767 6Q749 1 715 -3T643 -9T578 -12Q499 -12 457 13T403 95T406 244Q418 322 438 370T488 445T559 482T654 492Z" />
<glyph unicode="&#xe7;" horiz-adv-x="475" d="M313 492Q341 492 379 489T447 475L440 457Q415 464 378 466T318 469Q245 469 199 449T126 378T86 239Q74 151 86 101T138 31T250 11Q265 11 289 12T340 16T391 23L394 5Q360 -2 322 -7T248 -12Q168 -12 123 13T63
93T61 242Q74 334 103 389T183 468T313 492ZM206 -61Q232 -59 249 -66T273 -88T276 -128Q272 -161 252 -186T198 -224T123 -231L128 -216Q181 -218 215 -190T255 -124Q259 -97 248 -87T203 -75L206 -61Z" />
<glyph unicode="&#xe8;" horiz-adv-x="526" d="M310 492Q368 492 409 480T468 437T471 344Q462 305 444 282T394 248T312 231L69 205L72 226L313 253Q357 259 383 268T424 295T447 346Q462 401 447 427T397 461T317 470Q264 470 226 462T160 431T116 362T86 241Q72
149 82 99T132 30T244 10Q273 10 306 12T369 17T420 24L423 6Q405 1 371 -3T299 -9T234 -12Q155 -12 113 13T60 95T62 244Q74 322 94 370T144 445T215 482T310 492ZM225 713L354 566L340 554L206 695L225 713Z" />
<glyph unicode="&#xe9;" horiz-adv-x="526" d="M310 492Q368 492 409 480T468 437T471 344Q462 305 444 282T394 248T312 231L69 205L72 226L313 253Q357 259 383 268T424 295T447 346Q462 401 447 427T397 461T317 470Q264 470 226 462T160 431T116 362T86 241Q72
149 82 99T132 30T244 10Q273 10 306 12T369 17T420 24L423 6Q405 1 371 -3T299 -9T234 -12Q155 -12 113 13T60 95T62 244Q74 322 94 370T144 445T215 482T310 492ZM436 714L453 695L281 554L267 568L436 714Z" />
<glyph unicode="&#xea;" horiz-adv-x="526" d="M310 492Q368 492 409 480T468 437T471 344Q462 305 444 282T394 248T312 231L69 205L72 226L313 253Q357 259 383 268T424 295T447 346Q462 401 447 427T397 461T317 470Q264 470 226 462T160 431T116 362T86 241Q72
149 82 99T132 30T244 10Q273 10 306 12T369 17T420 24L423 6Q405 1 371 -3T299 -9T234 -12Q155 -12 113 13T60 95T62 244Q74 322 94 370T144 445T215 482T310 492ZM342 954L463 837L451 825L336 927H327L182 824L172 837L324 954H342Z" />
<glyph unicode="&#xeb;" horiz-adv-x="526" d="M310 492Q368 492 409 480T468 437T471 344Q462 305 444 282T394 248T312 231L69 205L72 226L313 253Q357 259 383 268T424 295T447 346Q462 401 447 427T397 461T317 470Q264 470 226 462T160 431T116 362T86 241Q72
149 82 99T132 30T244 10Q273 10 306 12T369 17T420 24L423 6Q405 1 371 -3T299 -9T234 -12Q155 -12 113 13T60 95T62 244Q74 322 94 370T144 445T215 482T310 492ZM247 930Q253 930 255 927T256 918L248 865Q247 858 245 855T235 852H228Q217 852 218 864L226
918Q227 924 229 927T238 930H247ZM424 930Q430 930 432 927T433 918L425 865Q424 858 422 855T412 852H405Q394 852 395 864L403 918Q404 924 406 927T415 930H424Z" />
<glyph unicode="&#xec;" horiz-adv-x="218" d="M148 480L80 0H56L124 480H148ZM312 713L441 566L427 554L293 695L312 713Z" />
<glyph unicode="&#xed;" horiz-adv-x="218" d="M148 480L80 0H56L124 480H148ZM523 714L540 695L368 554L354 568L523 714Z" />
<glyph unicode="&#xee;" horiz-adv-x="218" d="M148 480L80 0H56L124 480H148ZM429 954L550 837L538 825L423 927H414L269 824L259 837L411 954H429Z" />
<glyph unicode="&#xef;" horiz-adv-x="218" d="M148 480L80 0H56L124 480H148ZM334 930Q340 930 342 927T343 918L335 865Q334 858 332 855T322 852H315Q304 852 305 864L313 918Q314 924 316 927T325 930H334ZM511 930Q517 930 519 927T520 918L512 865Q511 858
509 855T499 852H492Q481 852 482 864L490 918Q491 924 493 927T502 930H511Z" />
<glyph unicode="&#xf0;" horiz-adv-x="545" d="M176 698Q214 699 259 691T346 659T421 589T466 466T463 277Q455 222 443 170T406 77T339 12T228 -12Q160 -12 118 12T62 89T59 223Q73 325 125 385T283 446Q305 446 329 442T379 427T426 395T466 338L459 323Q437
367 407 388T343 417T279 424Q214 424 174 397T113 324T83 218Q67 104 103 57T227 10Q304 10 346 45T409 143T441 288Q456 398 443 469T397 583T324 647T242 674T170 680L176 698ZM469 698L478 681L268 549L260 566L469 698Z" />
<glyph unicode="&#xf1;" horiz-adv-x="567" d="M374 492Q417 492 444 477T482 433T487 360L436 0H412L463 359Q471 418 448 443T370 469Q317 469 259 436T121 339L122 362Q193 421 255 456T374 492ZM138 480L123 360L124 342L76 0H52L120 480H138ZM258 940Q280
938 295 928T324 906T352 884T388 872Q420 870 436 885T457 936L474 934Q470 891 447 869T389 850Q364 852 347 862T317 884T291 906T259 918Q228 921 211 904T189 850L172 852Q177 898 200 920T258 940Z" />
<glyph unicode="&#xf2;" horiz-adv-x="557" d="M304 492Q382 492 425 467T481 387T481 238Q468 146 441 91T364 12T238 -12Q160 -12 117 13T61 93T61 242Q74 334 101 389T178 468T304 492ZM304 469Q236 469 192 448T123 376T86 238Q74 152 84 103T132 32T238 11Q306
11 350 32T419 104T456 242Q468 328 458 377T410 448T304 469ZM225 713L354 566L340 554L206 695L225 713Z" />
<glyph unicode="&#xf3;" horiz-adv-x="557" d="M304 492Q382 492 425 467T481 387T481 238Q468 146 441 91T364 12T238 -12Q160 -12 117 13T61 93T61 242Q74 334 101 389T178 468T304 492ZM304 469Q236 469 192 448T123 376T86 238Q74 152 84 103T132 32T238 11Q306
11 350 32T419 104T456 242Q468 328 458 377T410 448T304 469ZM436 714L453 695L281 554L267 568L436 714Z" />
<glyph unicode="&#xf4;" horiz-adv-x="557" d="M304 492Q382 492 425 467T481 387T481 238Q468 146 441 91T364 12T238 -12Q160 -12 117 13T61 93T61 242Q74 334 101 389T178 468T304 492ZM304 469Q236 469 192 448T123 376T86 238Q74 152 84 103T132 32T238 11Q306
11 350 32T419 104T456 242Q468 328 458 377T410 448T304 469ZM342 954L463 837L451 825L336 927H327L182 824L172 837L324 954H342Z" />
<glyph unicode="&#xf5;" horiz-adv-x="557" d="M304 492Q382 492 425 467T481 387T481 238Q468 146 441 91T364 12T238 -12Q160 -12 117 13T61 93T61 242Q74 334 101 389T178 468T304 492ZM304 469Q236 469 192 448T123 376T86 238Q74 152 84 103T132 32T238 11Q306
11 350 32T419 104T456 242Q468 328 458 377T410 448T304 469ZM261 940Q283 938 298 928T327 906T355 884T391 872Q423 870 439 885T460 936L477 934Q473 891 450 869T392 850Q367 852 350 862T320 884T294 906T262 918Q231 921 214 904T192 850L175 852Q180 898
203 920T261 940Z" />
<glyph unicode="&#xf6;" horiz-adv-x="557" d="M304 492Q382 492 425 467T481 387T481 238Q468 146 441 91T364 12T238 -12Q160 -12 117 13T61 93T61 242Q74 334 101 389T178 468T304 492ZM304 469Q236 469 192 448T123 376T86 238Q74 152 84 103T132 32T238 11Q306
11 350 32T419 104T456 242Q468 328 458 377T410 448T304 469ZM247 930Q253 930 255 927T256 918L248 865Q247 858 245 855T235 852H228Q217 852 218 864L226 918Q227 924 229 927T238 930H247ZM424 930Q430 930 432 927T433 918L425 865Q424 858 422 855T412 852H405Q394
852 395 864L403 918Q404 924 406 927T415 930H424Z" />
<glyph unicode="&#xf7;" horiz-adv-x="589" d="M505 307L502 285H85L88 307H505ZM283 175Q289 175 291 172T293 162L284 100Q283 94 280 92T271 89H261Q254 89 252 92T250 102L259 163Q260 169 263 172T272 175H283ZM327 502Q334 501 336 498T338 489L329 427Q328
421 325 419T316 416H306Q299 416 297 419T295 429L304 490Q305 496 308 499T317 502H327Z" />
<glyph unicode="&#xf8;" horiz-adv-x="557" d="M445 539L463 530L104 -61L86 -52L445 539ZM304 492Q382 492 425 467T481 387T481 238Q468 146 441 91T364 12T238 -12Q160 -12 117 13T61 93T61 242Q74 334 101 389T178 468T304 492ZM304 469Q236 469 192 448T123
376T86 238Q74 152 84 103T132 32T238 11Q306 11 350 32T419 104T456 242Q468 328 458 377T410 448T304 469Z" />
<glyph unicode="&#xf9;" horiz-adv-x="556" d="M140 480L89 121Q81 64 104 38T182 11Q236 11 292 47T422 154L423 130Q354 60 293 24T178 -12Q114 -12 85 22T65 120L116 480H140ZM490 480L422 0H404L420 131L419 147L466 480H490ZM221 713L350 566L336 554L202
695L221 713Z" />
<glyph unicode="&#xfa;" horiz-adv-x="556" d="M140 480L89 121Q81 64 104 38T182 11Q236 11 292 47T422 154L423 130Q354 60 293 24T178 -12Q114 -12 85 22T65 120L116 480H140ZM490 480L422 0H404L420 131L419 147L466 480H490ZM432 714L449 695L277 554L263
568L432 714Z" />
<glyph unicode="&#xfb;" horiz-adv-x="556" d="M140 480L89 121Q81 64 104 38T182 11Q236 11 292 47T422 154L423 130Q354 60 293 24T178 -12Q114 -12 85 22T65 120L116 480H140ZM490 480L422 0H404L420 131L419 147L466 480H490ZM338 954L459 837L447 825L332
927H323L178 824L168 837L320 954H338Z" />
<glyph unicode="&#xfc;" horiz-adv-x="556" d="M140 480L89 121Q81 64 104 38T182 11Q236 11 292 47T422 154L423 130Q354 60 293 24T178 -12Q114 -12 85 22T65 120L116 480H140ZM490 480L422 0H404L420 131L419 147L466 480H490ZM243 930Q249 930 251 927T252
918L244 865Q243 858 241 855T231 852H224Q213 852 214 864L222 918Q223 924 225 927T234 930H243ZM420 930Q426 930 428 927T429 918L421 865Q420 858 418 855T408 852H401Q390 852 391 864L399 918Q400 924 402 927T411 930H420Z" />
<glyph unicode="&#xfd;" horiz-adv-x="511" d="M487 480Q476 439 462 397T431 312T394 226T350 141T301 58Q253 -15 213 -71T132 -163T43 -210L39 -195Q72 -184 101 -162T158 -106T215 -31T277 63Q324 137 357 204T415 339T462 480H487ZM82 480L175 47Q182 21
207 21L258 22L245 0H200Q183 0 171 10T154 37L56 480H82ZM401 714L418 695L246 554L232 568L401 714Z" />
<glyph unicode="&#xfe;" horiz-adv-x="564" d="M369 492Q430 492 458 465T490 381T481 238Q470 163 454 115T410 38T340 -1T232 -12Q191 -12 149 -9T63 0L73 18Q124 15 158 13T229 10Q290 10 329 19T393 54T432 124T457 242Q469 322 467 372T443 445T369 469Q337
469 294 453T206 404T119 325V352Q162 401 208 431T296 477T369 492ZM176 700L139 441Q135 415 133 395T123 348L124 337L80 14L75 1Q74 -25 72 -45T65 -92L48 -210H24L152 700H176Z" />
<glyph unicode="&#xff;" horiz-adv-x="511" d="M487 480Q476 439 462 397T431 312T394 226T350 141T301 58Q253 -15 213 -71T132 -163T43 -210L39 -195Q72 -184 101 -162T158 -106T215 -31T277 63Q324 137 357 204T415 339T462 480H487ZM82 480L175 47Q182 21
207 21L258 22L245 0H200Q183 0 171 10T154 37L56 480H82ZM212 930Q218 930 220 927T221 918L213 865Q212 858 210 855T200 852H193Q182 852 183 864L191 918Q192 924 194 927T203 930H212ZM389 930Q395 930 397 927T398 918L390 865Q389 858 387 855T377 852H370Q359
852 360 864L368 918Q369 924 371 927T380 930H389Z" />
<glyph unicode="&#x2013;" horiz-adv-x="621" d="M532 262L529 240H78L81 262H532Z" />
<glyph unicode="&#x2014;" horiz-adv-x="931" d="M842 262L839 240H78L81 262H842Z" />
<glyph unicode="&#x2018;" horiz-adv-x="194" d="M122 528Q117 528 116 530T114 539L124 605Q126 623 131 644T144 688T159 730L173 725Q165 695 160 672T150 613Q152 613 154 611T155 603L146 539Q145 533 143 531T133 528H122Z" />
<glyph unicode="&#x2019;" horiz-adv-x="193" d="M165 721Q170 721 171 719T173 710L163 644Q161 626 156 605T143 561T128 519L114 524Q122 554 127 577T137 636Q135 636 133 639T132 646L141 710Q142 716 144 718T154 721H165Z" />
<glyph unicode="&#x201a;" horiz-adv-x="205" d="M82 86Q87 86 89 84T90 75L80 9Q78 -9 72 -30T59 -74T43 -116L28 -111Q37 -81 42 -58T53 1Q50 1 48 4T47 11L57 75Q58 81 60 83T70 86H82Z" />
<glyph unicode="&#x201c;" horiz-adv-x="308" d="M122 528Q117 528 116 530T114 539L124 605Q126 623 131 644T144 688T159 730L173 725Q165 695 160 672T150 613Q152 613 154 611T155 603L146 539Q145 533 143 531T133 528H122ZM236 528Q231 528 230 530T228
539L238 605Q240 623 245 644T258 688T273 730L287 725Q279 695 274 672T264 613Q266 613 268 611T269 603L260 539Q259 533 257 531T247 528H236Z" />
<glyph unicode="&#x201d;" horiz-adv-x="307" d="M279 721Q284 721 285 719T287 710L277 644Q275 626 270 605T257 561T242 519L228 524Q236 554 241 577T251 636Q249 636 247 639T246 646L255 710Q256 716 258 718T268 721H279ZM165 721Q170 721 171 719T173
710L163 644Q161 626 156 605T143 561T128 519L114 524Q122 554 127 577T137 636Q135 636 133 639T132 646L141 710Q142 716 144 718T154 721H165Z" />
<glyph unicode="&#x201e;" horiz-adv-x="317" d="M193 86Q198 86 199 84T201 75L191 9Q189 -9 184 -30T171 -74T156 -116L142 -111Q150 -81 155 -58T165 1Q163 1 161 4T160 11L169 75Q170 81 172 83T182 86H193ZM79 86Q84 86 85 84T87 75L77 9Q75 -9 70 -30T57
-74T42 -116L28 -111Q36 -81 41 -58T51 1Q49 1 47 4T46 11L55 75Q56 81 58 83T68 86H79Z" />
<glyph unicode="&#x2022;" horiz-adv-x="352" d="M187 337Q222 337 235 322T243 272L241 257Q238 233 231 220T208 203T169 198H159Q123 198 110 212T102 264L104 278Q108 303 115 315T138 332T177 337H187Z" />
<glyph unicode="&#x2039;" horiz-adv-x="293" d="M236 454L248 442L72 249L193 56L180 46L44 247L45 255L236 454Z" />
<glyph unicode="&#x203a;" horiz-adv-x="293" d="M102 454L238 254L237 246L44 46L32 58L210 253L89 444L102 454Z" />
</font>
</defs>
</svg>
