<?xml version="1.0" standalone="no"?>
<!DOCTYPE svg PUBLIC "-//W3C//DTD SVG 1.1//EN" "http://www.w3.org/Graphics/SVG/1.1/DTD/svg11.dtd">
<svg xmlns="http://www.w3.org/2000/svg">
<defs >
<font id="Exo2" horiz-adv-x="559" ><font-face
    font-family="Exo 2 ExtraLight"
    units-per-em="1000"
    panose-1="0 0 0 0 0 0 0 0 0 0"
    ascent="999"
    descent="-201"
    alphabetic="0" />
<glyph unicode=" " horiz-adv-x="228" />
<glyph unicode="!" horiz-adv-x="258" d="M149 695V363L146 205H113L109 363V695H149ZM136 94Q145 94 149 90T153 77V17Q153 8 149 4T136 0H123Q114 0 110 4T106 17V77Q106 86 110 90T123 94H136Z" />
<glyph unicode="&quot;" horiz-adv-x="334" d="M250 690L248 480H218L215 690H250ZM119 690L116 480H86L83 690H119Z" />
<glyph unicode="#" horiz-adv-x="672" d="M289 690L169 0H133L253 690H289ZM540 690L420 0H384L504 690H540ZM616 495L610 464H98L104 495H616ZM574 255L568 224H56L62 255H574Z" />
<glyph unicode="$" horiz-adv-x="560" d="M278 701Q326 700 374 697T470 687L466 657Q421 659 374 661T279 664Q234 664 202 661T148 645T117 604T107 522Q107 451 131 420T211 380L360 355Q437 344 468 302T500 171Q500 110 486 74T445 19T378 -5T284 -11Q245
-11 194 -9T77 2L81 33Q125 31 157 30T220 28T285 27Q349 28 386 37T441 78T458 171Q458 222 448 251T414 296T351 317L201 342Q127 353 97 396T66 523Q66 584 79 620T118 674T184 697T278 701ZM270 350L297 347L269 -133H241L270 350ZM325 803L299 347L271 350L298
803H325Z" />
<glyph unicode="%" horiz-adv-x="886" d="M210 702Q267 702 300 681T348 614T363 498Q363 427 349 382T301 316T210 294Q153 294 120 315T72 382T57 498Q57 569 71 614T119 680T210 702ZM210 674Q165 674 140 656T103 599T91 498Q91 436 102 397T139 340T210 322Q255
322 281 340T318 397T329 498Q329 560 318 599T281 656T210 674ZM694 690L222 0H189L661 690H694ZM676 401Q733 401 766 379T814 313T828 197Q828 126 814 81T767 14T676 -8Q619 -8 586 14T538 81T523 197Q523 268 537 312T585 379T676 401ZM675 373Q630 373 605
355T568 298T557 197Q557 135 568 96T604 39T675 20Q721 20 747 38T783 96T794 197Q794 259 784 298T747 355T675 373Z" />
<glyph unicode="&amp;" horiz-adv-x="780" d="M355 699Q387 699 427 698T514 690L508 660Q500 661 481 661T438 662T392 663T353 663Q273 663 226 653T159 612T139 517Q139 460 155 429T207 386T304 374H698L695 341H303Q236 341 196 327T138 278T120 178Q120
120 135 88T185 42T280 28Q370 28 427 56T530 144L544 118Q509 71 471 43T385 3T276 -9Q205 -9 161 8T97 65T77 174Q77 254 106 301T213 356V360Q149 365 123 406T97 521Q97 581 112 616T159 669T239 693T355 699ZM561 523V105Q561 66 580 48T637 29H721L726 1Q712
-1 695 -3T661 -6T635 -7Q579 -7 551 20T522 98V363L529 523H561Z" />
<glyph unicode="&apos;" horiz-adv-x="202" d="M119 690L116 480H86L83 690H119Z" />
<glyph unicode="(" horiz-adv-x="356" d="M309 790L315 766Q207 711 157 601T106 313Q106 198 128 110T196 -40T315 -141L309 -165Q183 -108 124 7T65 312Q65 502 124 618T309 790Z" />
<glyph unicode=")" horiz-adv-x="356" d="M47 790Q173 734 232 618T291 312Q291 123 232 8T47 -165L42 -141Q114 -102 160 -41T228 109T250 313Q250 490 200 600T42 766L47 790Z" />
<glyph unicode="*" horiz-adv-x="452" d="M242 690L236 535L332 406L308 389L226 513L144 390L119 407L215 535L211 690H242ZM78 594L199 550L198 537L192 528L67 565L78 594ZM376 593L386 564L259 528L253 537V550L376 593Z" />
<glyph unicode="+" horiz-adv-x="552" d="M487 314V281H65V314H487ZM293 498L292 97H260L259 498H293Z" />
<glyph unicode="," horiz-adv-x="213" d="M114 94Q123 94 127 90T131 77V13Q131 -7 128 -30T120 -77T108 -121L89 -114Q92 -84 93 -61T94 0Q82 0 83 15L84 77Q83 86 87 90T101 94H114Z" />
<glyph unicode="-" horiz-adv-x="474" d="M392 268V235H82V268H392Z" />
<glyph unicode="." horiz-adv-x="212" d="M113 94Q122 94 126 90T130 77V17Q130 8 126 4T113 0H99Q90 0 86 4T81 17V77Q81 86 85 90T99 94H113Z" />
<glyph unicode="/" horiz-adv-x="500" d="M465 690L72 -61H35L428 690H465Z" />
<glyph unicode="0" horiz-adv-x="589" d="M294 702Q377 702 425 664T494 547T515 345Q515 223 495 144T426 26T294 -12Q212 -12 164 26T95 143T74 345Q74 468 94 547T163 664T294 702ZM294 665Q244 665 210 647T154 589T124 489T115 345Q115 262 124 202T154 102T209
44T294 25Q345 25 379 43T435 101T465 201T474 345Q474 429 465 489T435 588T380 646T294 665Z" />
<glyph unicode="1" horiz-adv-x="383" d="M260 690V0H219V600Q219 612 220 624T222 649L40 589L33 618L219 690H260Z" />
<glyph unicode="2" horiz-adv-x="558" d="M266 702Q330 702 376 692T446 651T470 561Q470 515 456 474T412 390T335 293L112 37Q141 38 170 38T229 38H499V0H60V25Q60 31 62 35T67 45L297 309Q366 387 397 447T427 566Q425 611 405 632T350 659T268 665Q237 665
208 664T147 658T72 644L66 675Q114 687 147 692T209 700T266 702Z" />
<glyph unicode="3" horiz-adv-x="553" d="M250 702Q327 702 372 688T437 639T458 543Q458 501 448 465T415 403T351 369V365Q422 354 449 307T477 192Q478 123 459 78T393 10T267 -12Q215 -12 162 -7T59 5L65 37Q95 34 127 31T192 27T260 25Q323 25 361 41T417
95T436 194Q436 235 424 270T377 326T273 348L145 349V380L273 382Q323 383 352 398T395 436T414 485T418 537Q417 589 401 616T348 654T247 665Q200 665 155 662T76 654L69 685Q117 693 160 697T250 702Z" />
<glyph unicode="4" horiz-adv-x="600" d="M314 690L96 271Q86 252 95 238T124 224H548V194L452 189H107Q85 189 70 202T50 235T56 275L272 690H314ZM464 559V0H424V443L433 559H464Z" />
<glyph unicode="5" horiz-adv-x="529" d="M444 690L440 654H136L125 409L185 408Q258 406 310 397T397 367T447 306T464 204Q464 164 457 125T428 55T364 6T250 -12Q212 -12 163 -6T62 15L69 47Q115 37 162 31T243 24Q320 24 358 46T410 109T424 204Q424 263 408
297T357 347T265 367T128 374H105Q97 375 92 380T87 395L102 690H444Z" />
<glyph unicode="6" horiz-adv-x="566" d="M334 702Q353 702 387 701T458 689L450 659Q430 663 414 664T379 665T334 666Q273 666 232 653T166 602T130 494T119 306Q119 229 124 175T148 88T201 40T296 24Q369 24 404 46T451 110T462 213Q462 284 449 327T403 389T307
409Q270 409 238 400T174 368T104 303L100 326Q133 372 164 397T231 432T315 443Q387 443 427 421T485 348T502 210Q502 159 495 118T467 48T404 4T295 -12Q225 -12 182 5T117 59T86 158T77 309Q77 437 91 515T137 634T216 688T334 702Z" />
<glyph unicode="7" horiz-adv-x="507" d="M426 690Q444 690 453 685T463 670T460 644L237 0H196L408 613Q412 624 416 634T423 654H48L46 690H426Z" />
<glyph unicode="8" horiz-adv-x="610" d="M305 699Q369 699 409 688T473 655T506 599T515 518Q515 470 505 436T473 383T416 360V356Q459 352 483 330T518 269T529 172Q529 108 511 68T445 9T305 -9Q217 -9 168 9T100 67T81 172Q81 230 92 269T127 330T194 356V360Q159
364 137 383T105 436T95 518Q95 565 104 599T137 655T202 688T305 699ZM307 341Q250 341 214 335T157 311T129 262T121 177Q121 123 136 91T192 44T306 29Q381 29 420 43T474 90T489 177Q489 230 481 262T453 312T398 335T307 341ZM306 663Q237 663 200 649T149
603T135 516Q135 456 149 426T200 386T307 375Q378 375 414 386T463 427T476 516Q476 571 463 603T413 649T306 663Z" />
<glyph unicode="9" horiz-adv-x="567" d="M272 702Q345 702 388 685T452 627T479 520T486 354Q486 236 472 164T426 53T347 2T229 -12Q209 -12 174 -11T98 1L106 31Q128 28 144 27T179 25T229 25Q288 25 329 37T396 82T433 181T445 352Q445 441 441 501T421 598T370
650T271 666Q203 666 167 643T118 576T104 470Q104 411 117 369T164 304T257 281Q294 281 325 290T389 322T459 387L463 364Q430 319 399 294T333 258T249 247Q180 247 140 273T82 350T64 472Q64 545 82 596T145 675T272 702Z" />
<glyph unicode=":" horiz-adv-x="214" d="M113 432Q122 432 126 428T130 415V355Q130 346 126 342T113 338H99Q90 338 86 342T81 355V415Q81 424 85 428T99 432H113ZM113 94Q122 94 126 90T130 77V17Q130 8 126 4T113 0H99Q90 0 86 4T81 17V77Q81 86 85 90T99 94H113Z" />
<glyph unicode=";" horiz-adv-x="215" d="M114 432Q123 432 127 428T131 415V355Q131 346 127 342T114 338H100Q91 338 87 342T82 355V415Q82 424 86 428T100 432H114ZM115 94Q124 94 128 90T132 77V13Q132 -7 129 -30T121 -77T109 -121L90 -114Q93 -84 94 -61T95
0Q83 0 84 15L85 77Q84 86 88 90T102 94H115Z" />
<glyph unicode="&lt;" horiz-adv-x="538" d="M458 493V460L99 296L458 137V103L62 279V313L458 493Z" />
<glyph unicode="=" horiz-adv-x="588" d="M505 413V380H83V413H505ZM505 201V168H83V201H505Z" />
<glyph unicode="&gt;" horiz-adv-x="538" d="M80 493L476 313V279L80 103V137L439 296L80 460V493Z" />
<glyph unicode="?" horiz-adv-x="506" d="M255 712Q352 712 402 675T452 557Q452 511 434 479T387 418T331 361T284 295T264 205H228Q228 262 246 302T291 372T346 428T391 483T411 553Q411 616 372 646T250 677Q200 677 169 676T112 672T52 664L47 693Q72 697
92 700T133 706T184 710T255 712ZM252 94Q261 94 265 90T269 77V17Q269 8 265 4T252 0H239Q230 0 226 4T222 17V77Q222 86 226 90T239 94H252Z" />
<glyph unicode="@" horiz-adv-x="699" d="M482 572Q545 572 581 544T618 448V130H589L583 209Q563 191 528 171T449 138T360 124Q321 124 293 137T249 174T234 233V286Q234 333 264 359T349 385H581V447Q581 487 560 512T477 537H342Q271 537 229 531T164 498T135
417T128 265Q128 186 132 134T150 52T190 8T260 -11T368 -15H613V-46Q552 -47 491 -48T369 -50Q293 -51 243 -45T162 -22T116 31T95 123T89 265Q89 346 93 401T112 490T153 541T227 564T341 572H482ZM581 359L356 355Q315 354 294 336T273 283V237Q273 198 296
179T363 158Q399 158 439 168T516 197T581 238V359Z" />
<glyph unicode="A" horiz-adv-x="608" d="M332 690Q339 690 343 687T350 677L591 0H548L338 600Q333 614 328 628T318 656H290Q285 642 280 628T270 600L60 0H17L258 677Q260 684 265 687T276 690H332ZM478 279V243H128V279H478Z" />
<glyph unicode="B" horiz-adv-x="614" d="M301 698Q383 698 432 683T503 628T525 518Q525 444 498 405T408 360V356Q485 349 515 302T545 172Q545 101 524 62T456 8T331 -8Q277 -8 239 -8T168 -5T99 0L113 31Q134 30 192 29T327 28Q393 28 431 40T486 84T503 176Q503
241 485 276T427 326T318 341H112V374H318Q379 375 415 386T467 428T483 515Q483 575 466 606T408 650T300 662Q254 662 217 662T154 661T113 659L99 690Q131 694 159 695T220 697T301 698ZM140 690V0H99V690H140Z" />
<glyph unicode="C" horiz-adv-x="563" d="M331 702Q373 702 402 700T457 694T509 684L502 654Q474 658 450 660T397 664T331 665Q251 665 204 635T136 534T115 345Q115 226 136 156T204 56T331 25Q392 25 434 28T516 38L523 7Q482 -3 439 -7T331 -12Q236 -12 179
22T97 135T72 345Q72 477 97 555T179 667T331 702Z" />
<glyph unicode="D" horiz-adv-x="660" d="M332 699Q403 699 451 681T530 621T574 512T588 345Q588 247 574 179T530 70T452 10T332 -9Q265 -9 208 -7T99 0L118 31Q165 30 217 29T332 28Q411 28 457 58T524 157T545 345Q545 463 525 532T458 632T332 662Q269 662
217 661T116 659L99 690Q150 694 208 696T332 699ZM140 690V0H99V690H140Z" />
<glyph unicode="E" horiz-adv-x="553" d="M203 690Q252 690 301 690T400 689T497 686L495 655H210Q176 655 155 634T134 577V113Q134 78 155 57T210 35H495L497 4Q449 2 400 1T302 0T203 0Q154 0 124 30T93 106V584Q93 631 123 660T203 690ZM110 386L454 385V352L110
351V386Z" />
<glyph unicode="F" horiz-adv-x="532" d="M206 690Q254 690 302 690T398 689T493 685L490 655H216Q180 655 159 634T137 577V0H96V583Q96 630 127 660T206 690ZM113 380H450V346H113V380Z" />
<glyph unicode="G" horiz-adv-x="624" d="M338 702Q381 702 414 700T475 695T533 684L526 654Q495 658 467 660T408 664T339 665Q277 665 234 649T165 597T128 498T116 344Q116 231 134 161T194 58T305 25Q352 25 388 39T454 76T510 121L517 93Q493 65 460 41T386
3T298 -12Q217 -12 168 25T95 142T72 346Q72 479 97 557T181 668T338 702ZM546 400V0H517L508 100L505 114V400H546Z" />
<glyph unicode="H" horiz-adv-x="660" d="M140 690V0H99V690H140ZM531 388V352H132V388H531ZM561 690V0H520V690H561Z" />
<glyph unicode="I" horiz-adv-x="239" d="M140 690V0H99V690H140Z" />
<glyph unicode="J" horiz-adv-x="328" d="M232 690V123Q232 59 201 26T107 -7Q97 -7 84 -6T58 -3T36 1L41 29H97Q191 29 191 123V690H232Z" />
<glyph unicode="K" horiz-adv-x="569" d="M524 690L301 390Q294 381 288 374T274 361V359Q281 353 288 346T302 329L540 0H492L230 360L477 690H524ZM139 690V459Q139 432 138 410T134 361Q137 334 138 310T139 260V0H99V690H139ZM262 377V343H120V377H262Z" />
<glyph unicode="L" horiz-adv-x="509" d="M137 690V113Q137 78 158 57T215 35H481L482 5Q414 1 345 1T208 0Q156 0 126 31T96 109V690H137Z" />
<glyph unicode="M" horiz-adv-x="860" d="M726 690Q746 690 746 669L776 0H735L706 655H683L475 79Q471 65 456 65H404Q389 65 384 79L177 655H154L125 0H84L113 669Q114 690 134 690H191Q206 690 210 676L385 192Q394 169 401 146T418 99H442Q450 123 458 146T475
194L649 676Q654 690 669 690H726Z" />
<glyph unicode="N" horiz-adv-x="692" d="M594 690V20Q594 0 574 0H520Q512 0 507 3T497 15L199 579Q190 596 180 615T162 653H139Q140 634 140 615T140 578V0H99V670Q99 690 119 690H169Q178 690 183 687T193 675L483 124Q494 104 505 82T528 38H553Q553 62 553
85T553 132V690H594Z" />
<glyph unicode="O" horiz-adv-x="664" d="M332 702Q404 702 454 684T534 623T577 513T591 345Q591 245 578 177T534 67T454 7T332 -12Q260 -12 210 6T130 67T86 177T72 345Q72 445 86 513T130 623T210 683T332 702ZM332 665Q251 665 204 635T136 534T115 345Q115
226 136 156T204 56T332 25Q412 25 459 55T527 156T548 345Q548 464 528 534T460 634T332 665Z" />
<glyph unicode="P" horiz-adv-x="583" d="M324 698Q400 698 444 680T509 617T529 492Q529 411 510 366T446 304T326 286Q286 286 251 286T186 289T137 292T109 295L112 322Q162 322 216 322T324 322Q384 323 419 337T471 388T487 492Q487 560 471 596T420 647T324
662Q246 662 190 661T113 658L99 690Q135 694 166 695T234 697T324 698ZM140 690V0H99V690H140Z" />
<glyph unicode="Q" horiz-adv-x="664" d="M332 702Q404 702 454 684T534 623T577 513T591 345Q591 245 578 177T534 67T454 7T332 -12Q260 -12 210 6T130 67T86 177T72 345Q72 445 86 513T130 623T210 683T332 702ZM297 -49Q347 -80 404 -99T532 -130L519 -171Q450
-161 389 -135T282 -73L297 -49ZM332 665Q251 665 204 635T137 534T116 345Q116 226 136 156T204 56T332 25Q413 25 460 55T527 156T548 345Q548 464 528 534T460 634T332 665Z" />
<glyph unicode="R" horiz-adv-x="610" d="M324 698Q399 698 444 682T509 623T529 503Q529 443 516 405T475 347T402 321V316Q420 312 434 298T461 265T481 220L554 0H509L439 217Q423 265 397 284T331 304Q273 304 228 305T152 307T109 309L112 341H324Q384 342
419 356T471 404T487 502Q487 565 471 599T420 648T324 662Q246 662 190 661T113 659L99 690Q135 694 166 695T235 697T324 698ZM140 690V0H99V690H140Z" />
<glyph unicode="S" horiz-adv-x="556" d="M275 701Q323 700 371 697T467 687L463 657Q419 659 372 661T276 664Q231 664 199 661T145 645T115 604T105 522Q105 451 128 420T208 380L358 355Q435 344 466 302T497 171Q497 110 483 74T442 19T375 -5T281 -11Q242
-11 191 -9T75 2L78 33Q122 30 154 29T217 27T283 26Q346 27 383 37T438 78T455 171Q455 222 445 251T411 296T348 317L198 342Q124 353 94 396T63 523Q63 584 76 620T115 674T181 697T275 701Z" />
<glyph unicode="T" horiz-adv-x="568" d="M304 690V0H263V690H304ZM542 690V654H26V690H542Z" />
<glyph unicode="U" horiz-adv-x="667" d="M573 690V257Q573 160 550 101T474 15T335 -12Q246 -12 194 15T118 101T94 257V690H135V257Q135 172 154 121T217 48T334 25Q406 25 449 47T512 121T532 257V690H573Z" />
<glyph unicode="V" horiz-adv-x="596" d="M573 690L344 13Q342 8 337 4T325 0H271Q265 0 260 4T253 13L24 690H67L261 108Q267 89 273 71T284 34H312Q318 53 323 71T336 109L529 690H573Z" />
<glyph unicode="W" horiz-adv-x="935" d="M902 690L730 14Q729 8 724 4T711 0H654Q647 0 642 4T635 15L498 579Q493 599 489 618T479 657H456Q451 638 447 619T437 579L300 15Q299 8 294 4T281 0H224Q216 0 211 4T204 14L32 690H76L222 107Q227 89 231 71T239
34H266Q271 52 275 70T283 106L422 674Q424 681 429 685T441 690H494Q501 690 506 686T513 674L652 107Q657 88 661 70T668 34H695Q700 52 704 70T712 106L859 690H902Z" />
<glyph unicode="X" horiz-adv-x="598" d="M550 690L350 359L563 0H516L305 359L503 690H550ZM94 690L293 359L82 0H35L247 359L48 690H94ZM335 377V343H269V377H335Z" />
<glyph unicode="Y" horiz-adv-x="548" d="M528 690L291 246H258L19 690H64L235 368Q244 351 253 333T271 297H277Q285 315 294 332T312 367L483 690H528ZM295 285V0H253V285H295Z" />
<glyph unicode="Z" horiz-adv-x="560" d="M459 655L505 654L97 35L51 36L459 655ZM510 36V0H51V36H510ZM505 690V654H55V690H505Z" />
<glyph unicode="[" horiz-adv-x="316" d="M269 768V737H153Q141 737 141 724V-121Q141 -134 153 -134H269V-165H139Q123 -165 113 -155T102 -128V731Q102 747 112 757T139 768H269Z" />
<glyph unicode="\" horiz-adv-x="500" d="M72 690L465 -61H428L35 690H72Z" />
<glyph unicode="]" horiz-adv-x="316" d="M177 768Q193 768 203 758T214 731V-128Q214 -144 204 -154T177 -165H48V-134H163Q176 -134 176 -121V724Q176 737 163 737H48V768H177Z" />
<glyph unicode="^" horiz-adv-x="401" d="M215 581L371 381L353 367L205 546H197L49 367L30 381L186 581H215Z" />
<glyph unicode="_" horiz-adv-x="433" d="M433 0V-33H0V0H433Z" />
<glyph unicode="`" horiz-adv-x="287" d="M72 712L227 567L209 547L46 682L72 712Z" />
<glyph unicode="a" horiz-adv-x="541" d="M312 494Q357 494 389 480T437 436T454 354V0H424L416 106L414 113V354Q414 400 392 429T307 458Q257 458 199 454T86 443L82 473Q114 478 149 482T225 490T312 494ZM429 293L428 261L186 258Q144 257 124 236T103 175V121Q103
76 126 54T197 30Q233 29 275 42T357 80T425 133V98Q411 82 387 65T332 31T266 4T193 -7Q153 -7 124 7T78 50T62 118V178Q62 233 93 263T182 293H429Z" />
<glyph unicode="b" horiz-adv-x="561" d="M321 494Q414 494 454 436T495 241Q495 175 485 127T451 48T389 3T296 -12Q271 -12 245 -10T193 -4T141 6T88 20L121 48Q154 39 183 34T240 26T295 24Q352 24 387 45T438 113T454 241Q454 321 441 368T396 437T313 458Q267
458 224 433T123 361L121 393Q156 425 189 447T254 482T321 494ZM128 700V492Q128 463 128 441T123 395L127 379L128 19L88 20V700H128Z" />
<glyph unicode="c" horiz-adv-x="481" d="M287 494Q307 494 331 493T380 487T428 475L421 448Q393 454 356 456T294 458Q226 458 185 439T126 372T107 241Q107 157 125 110T185 43T294 24Q308 24 332 25T383 28T433 35L439 7Q405 -1 366 -6T288 -12Q207 -12 158
12T87 93T65 241Q65 334 87 389T158 469T287 494Z" />
<glyph unicode="d" horiz-adv-x="564" d="M244 494Q293 494 341 481T441 444L439 413Q382 435 339 446T249 458Q199 458 168 438T123 370T108 242Q108 161 122 114T167 45T248 24Q279 24 307 34T368 64T439 117L440 82Q390 38 342 13T240 -12Q147 -12 107 48T67
241Q67 333 85 388T142 469T244 494ZM473 700V0H443L437 84L433 89V426L437 442Q434 468 434 490T433 539V700H473Z" />
<glyph unicode="e" horiz-adv-x="530" d="M276 494Q374 494 421 459T470 352Q472 288 448 255T364 221H84V254H358Q399 254 415 280T429 350Q428 407 391 432T278 458Q214 458 177 438T123 371T107 245Q107 161 125 113T184 44T289 24Q336 24 379 28T454 36L459
8Q441 2 410 -2T345 -9T284 -12Q206 -12 158 13T88 95T65 243Q65 336 86 391T154 470T276 494Z" />
<glyph unicode="f" horiz-adv-x="361" d="M250 715Q264 715 286 715T332 713T373 710L371 680H264Q207 680 184 657T160 577V0H120V579Q120 624 132 654T173 699T250 715ZM333 482V448H33V477L126 482H333Z" />
<glyph unicode="g" horiz-adv-x="548" d="M270 494Q341 494 383 477T445 427T464 343Q464 293 445 260T384 210T269 194Q199 194 156 210T93 259T73 343Q73 394 92 427T155 477T270 494ZM269 461Q182 461 147 432T111 343Q111 283 147 255T269 227Q357 227 391
255T426 343Q426 403 392 432T269 461ZM521 482L518 456L398 451L363 482H521ZM135 228L163 224Q138 201 130 174T135 124T192 94L382 62Q447 51 469 21T491 -68Q491 -121 470 -151T401 -195T275 -209Q213 -209 171 -202T102 -178T65 -135T53 -69Q53 -35 59 -12T81
30T125 64L172 90L200 81L150 49Q127 34 115 19T97 -17T92 -67Q92 -107 109 -130T167 -164T274 -174Q340 -174 379 -164T435 -131T452 -67Q452 -37 446 -18T420 12T365 30L173 62Q142 67 123 81T96 115T91 155T105 195T135 228Z" />
<glyph unicode="h" horiz-adv-x="572" d="M355 494Q485 494 485 362V0H445V354Q445 409 421 433T346 458Q293 458 244 434T125 363L124 396Q185 442 242 468T355 494ZM130 700L131 491Q131 463 130 438T125 393L130 377V0H90V700H130Z" />
<glyph unicode="i" horiz-adv-x="227" d="M133 482V0H94V482H133ZM122 683Q138 683 138 667V607Q138 591 122 591H105Q89 591 89 607V667Q89 683 105 683H122Z" />
<glyph unicode="j" horiz-adv-x="228" d="M134 482V-37Q134 -71 125 -101T100 -158T61 -208L39 -191Q66 -157 80 -122T94 -37V482H134ZM123 683Q138 683 138 667V607Q138 591 123 591H105Q90 591 90 607V667Q90 683 105 683H123Z" />
<glyph unicode="k" horiz-adv-x="482" d="M437 482L264 298Q259 293 251 286T238 275V273Q243 269 251 261T264 244L453 0H405L192 277L388 482H437ZM130 700L131 373Q131 346 130 324T125 275Q128 248 129 224T130 174V0H90V700H130ZM225 291V259H111V291H225Z" />
<glyph unicode="l" horiz-adv-x="277" d="M131 700L130 106Q130 68 150 49T207 30H262L267 1Q260 -1 247 -3T220 -6T197 -7Q149 -7 120 20T91 100V700H131Z" />
<glyph unicode="m" horiz-adv-x="879" d="M667 494Q727 494 759 461T792 362V0H753V354Q752 408 728 433T655 458Q624 458 594 448T532 416T456 363L455 395Q510 445 562 469T667 494ZM122 482L126 393L130 377V0H91V482H122ZM336 494Q396 494 428 461T461 362V0H422V354Q422
408 398 433T324 458Q294 458 264 448T201 417T126 363L124 395Q179 445 231 469T336 494Z" />
<glyph unicode="n" horiz-adv-x="573" d="M356 494Q486 494 486 362V0H446V354Q446 409 422 433T347 458Q294 458 244 434T126 363L125 396Q185 444 242 469T356 494ZM123 482L127 393L130 377V0H91V482H123Z" />
<glyph unicode="o" horiz-adv-x="562" d="M281 494Q361 494 408 470T475 390T496 241Q496 149 476 93T408 13T281 -12Q203 -12 155 12T87 93T66 241Q66 334 86 389T155 469T281 494ZM281 458Q217 458 179 438T125 371T108 241Q108 159 124 111T179 43T281 23Q345
23 383 43T438 111T455 241Q455 324 438 371T383 438T281 458Z" />
<glyph unicode="p" horiz-adv-x="566" d="M327 494Q420 494 459 435T499 240Q499 148 481 93T424 13T322 -12Q273 -12 225 1T125 42L127 69Q185 47 228 36T317 24Q368 24 398 44T443 112T458 240Q458 320 444 368T400 437T319 458Q273 458 230 436T126 364V396Q159
428 192 450T259 483T327 494ZM122 482L127 391L130 385V56L127 44Q130 17 130 -5T130 -53V-208H91V482H122Z" />
<glyph unicode="q" horiz-adv-x="562" d="M270 494Q293 494 318 492T368 486T420 476T473 462L440 433Q408 443 378 448T322 456T272 458Q212 458 176 438T124 370T107 238Q107 125 137 75T241 24Q292 24 336 47T438 113L445 85Q408 54 373 32T304 -1T231 -12Q144
-12 105 49T66 241Q66 308 77 356T111 434T174 479T270 494ZM433 463L473 462V-208H433V-16Q433 14 433 35T438 81L433 97V463Z" />
<glyph unicode="r" horiz-adv-x="388" d="M121 482L126 393L130 377V0H91V482H121ZM366 494L360 456H340Q290 456 241 432T126 365L124 395Q182 442 237 468T346 494H366Z" />
<glyph unicode="s" horiz-adv-x="501" d="M239 494Q269 494 302 493T368 488T430 481L426 452Q382 454 335 456T243 459Q192 460 160 456T113 432T98 365Q98 316 118 297T176 272L333 249Q387 240 415 211T443 124Q443 63 421 35T355 -2T249 -11Q216 -11 172 -9T70
1L74 30Q104 28 131 27T185 25T245 24Q304 25 338 31T388 59T404 124Q404 172 381 191T321 215L164 238Q130 243 106 257T71 298T59 365Q59 425 79 452T139 487T239 494Z" />
<glyph unicode="t" horiz-adv-x="356" d="M159 631V106Q159 67 178 49T236 30H320L325 1Q311 -1 293 -3T259 -6T233 -7Q177 -7 148 21T119 102V631H159ZM331 482V448H32V477L126 482H331Z" />
<glyph unicode="u" horiz-adv-x="563" d="M127 482V128Q126 74 151 49T228 24Q278 24 325 48T437 118L440 85Q381 37 326 13T217 -12Q87 -12 87 120V482H127ZM472 482V0H441L437 89L432 105V482H472Z" />
<glyph unicode="v" horiz-adv-x="513" d="M486 482L294 11Q291 6 287 3T276 0H236Q231 0 227 3T219 11L27 482H70L214 122Q224 100 232 77T250 32H263Q272 55 281 77T300 122L443 482H486Z" />
<glyph unicode="w" horiz-adv-x="815" d="M783 482L623 13Q621 7 617 4T605 0H566Q559 0 554 4T547 14L434 379Q429 397 424 415T413 452H402Q397 434 392 416T380 379L268 14Q266 8 261 4T249 0H210Q204 0 199 3T192 13L32 482H74L202 97Q208 80 212 64T223 31H236Q241
48 246 64T257 98L371 468Q373 474 378 478T389 482H427Q433 482 438 478T444 468L559 98Q563 81 568 65T579 31H592Q598 48 602 64T613 98L741 482H783Z" />
<glyph unicode="x" horiz-adv-x="511" d="M466 482L301 250L478 0H432L256 250L420 482H466ZM91 482L255 250L79 0H33L210 250L45 482H91ZM288 268V235H222V268H288Z" />
<glyph unicode="y" horiz-adv-x="512" d="M486 482L271 -42Q258 -72 244 -99T209 -148T163 -186T101 -209L95 -184Q154 -162 185 -123T235 -34L256 16Q263 33 270 52T284 88L442 482H486ZM70 482L228 87Q233 73 239 60T249 33H269L255 0H236Q231 0 226 3T219 12L27
482H70Z" />
<glyph unicode="z" horiz-adv-x="502" d="M400 448L447 447L99 33L52 34L400 448ZM450 34V0H52V34H450ZM447 482V447H55V482H447Z" />
<glyph unicode="{" horiz-adv-x="303" d="M255 768V741Q197 741 177 716T156 639V440Q156 400 149 379T125 346T76 328Q110 317 127 306T152 275T160 220V-36Q160 -86 180 -112T259 -138V-165Q209 -166 179 -153T135 -111T121 -37V231Q121 259 114 272T93 292T53
309V347Q80 355 93 361T112 381T117 429V640Q117 686 130 714T174 756T255 768Z" />
<glyph unicode="|" horiz-adv-x="237" d="M135 781V-169H102V781H135Z" />
<glyph unicode="}" horiz-adv-x="304" d="M48 768Q99 769 129 756T173 715T187 640V429Q187 396 192 382T211 361T250 347V309Q227 300 212 293T190 272T183 231V-37Q183 -82 169 -111T125 -153T44 -165V-138Q103 -138 123 -112T144 -36V220Q144 255 151 274T177
305T227 328Q196 335 179 346T155 378T148 440V639Q148 690 128 715T48 741V768Z" />
<glyph unicode="~" horiz-adv-x="531" d="M160 335Q191 333 216 324T265 302T313 281T369 269Q399 267 411 281T424 330H448Q451 282 430 258T372 236Q336 238 309 247T259 268T213 290T163 302Q133 305 121 289T108 238H84Q82 271 91 293T118 326T160 335Z" />
<glyph unicode="&#xa0;" horiz-adv-x="228" />
<glyph unicode="&#xa1;" horiz-adv-x="239" d="M136 278L140 120V-203H99V120L103 278H136ZM127 483Q135 483 139 479T144 466V406Q144 397 140 393T127 389H114Q105 389 101 393T96 406V466Q96 475 100 479T114 483H127Z" />
<glyph unicode="&#xa2;" horiz-adv-x="505" d="M287 603Q306 603 330 601T380 595T428 584L421 556Q393 562 356 564T294 567Q225 567 184 548T124 481T105 350Q105 266 123 219T183 152T294 132Q308 132 332 133T383 137T433 144L438 116Q404 107 365 102T288
97Q207 97 158 121T87 201T65 350Q65 443 87 498T158 578T287 603ZM277 118L268 0H241L250 118H277ZM311 581L278 115H250L284 581H311ZM320 690L311 578H284L292 690H320Z" />
<glyph unicode="&#xa3;" horiz-adv-x="562" d="M319 701Q339 701 364 700T419 697T481 691L477 660Q455 662 435 663T396 664T353 665T301 665Q228 665 201 633T176 527L190 248Q192 201 188 161T167 90T117 35Q133 35 148 35T179 36H505V0H69V36Q122 68 138 122T150
248L136 525Q133 584 145 619T182 672T242 695T319 701ZM424 378L422 348H63V378H424Z" />
<glyph unicode="&#xa4;" horiz-adv-x="600" d="M299 516Q254 516 217 494T158 435T136 352Q136 307 158 270T217 211T299 189Q344 189 380 210T439 269T461 352Q461 397 439 434T381 494T299 516ZM100 572L182 489L162 469L80 551L100 572ZM499 572L519 551L439
471L419 491L499 572ZM165 239L186 219L100 132L79 153L165 239ZM434 237L520 152L499 132L414 217L434 237ZM299 544Q353 544 396 519T465 450T491 352Q491 299 465 256T396 186T299 160Q246 160 202 186T133 255T107 352Q107 406 132 449T202 518T299 544Z" />
<glyph unicode="&#xa5;" horiz-adv-x="606" d="M557 690L319 274H286L48 690H92L261 394Q271 378 281 359T300 323H306Q315 340 325 358T344 393L512 690H557ZM323 313V0H282V313H323ZM516 200V172H94V200H516ZM516 310V282H94V310H516Z" />
<glyph unicode="&#xa6;" horiz-adv-x="239" d="M136 781V381H103V781H136ZM136 231V-169H103V231H136Z" />
<glyph unicode="&#xa7;" horiz-adv-x="543" d="M116 409Q112 364 115 329T135 269T182 225L370 119Q406 99 428 77T462 29T473 -32Q473 -88 449 -112T383 -143T290 -149Q257 -148 222 -147T149 -143T74 -137L78 -106Q116 -108 150 -109T217 -112T285 -114Q327
-114 360 -111T412 -90T431 -31Q431 12 410 38T355 83L172 187Q128 211 107 242T81 314T84 409H116ZM253 702Q290 702 327 701T401 697T470 690L466 660Q434 662 407 663T345 666T259 667Q216 668 183 664T132 644T113 588Q113 545 134 519T189 474L373 370Q417
345 438 313T463 240T460 145H427Q433 191 428 226T407 288T361 332L174 439Q137 461 114 482T81 529T71 588Q71 638 93 662T156 695T253 702Z" />
<glyph unicode="&#xa8;" horiz-adv-x="402" d="M297 678Q311 678 311 664V608Q311 594 297 594H282Q269 594 269 608V664Q269 678 282 678H297ZM120 678Q133 678 133 664V608Q133 594 120 594H105Q92 594 92 608V664Q92 678 105 678H120Z" />
<glyph unicode="&#xa9;" horiz-adv-x="852" d="M426 702Q500 702 565 676T679 602T756 489T784 345Q784 267 757 202T680 89T565 15T426 -12Q352 -12 288 14T174 88T97 201T69 345Q69 423 97 488T174 601T287 675T426 702ZM431 577Q477 577 506 575T565 564L559
541Q527 544 501 545T431 546Q371 546 336 528T285 466T270 348Q270 274 285 231T335 168T431 149Q478 149 509 150T571 156L575 132Q545 125 513 122T431 119Q359 119 317 141T255 213T236 348Q236 432 255 482T316 554T431 577ZM426 675Q358 675 299 651T194
581T122 477T96 345Q96 274 122 214T193 109T298 40T426 15Q494 15 554 39T659 109T730 214T756 345Q756 417 731 476T660 581T554 650T426 675Z" />
<glyph unicode="&#xaa;" horiz-adv-x="443" d="M257 602Q304 602 331 581T358 506V271H333L326 342V348V506Q326 534 310 553T252 573Q215 573 174 571T93 564L89 588Q113 591 138 594T193 600T257 602ZM340 467L339 446L168 441Q138 440 123 427T108 388V354Q108
324 125 310T175 295Q202 295 231 304T288 330T334 363V340Q325 329 308 317T268 293T220 274T167 266Q124 266 100 287T75 349V390Q75 426 97 446T161 467H340Z" />
<glyph unicode="&#xab;" horiz-adv-x="461" d="M375 455L396 440L253 251L397 59L376 44L213 245V257L375 455ZM211 455L232 440L89 251L233 59L212 44L49 245V257L211 455Z" />
<glyph unicode="&#xac;" horiz-adv-x="592" d="M505 313V280H83V313H505ZM505 301V130H471V301H505Z" />
<glyph unicode="&#xad;" horiz-adv-x="474" d="M392 268V235H82V268H392Z" />
<glyph unicode="&#xae;" horiz-adv-x="574" d="M287 701Q349 701 399 671T479 591T509 479Q509 417 479 367T399 286T287 256Q225 256 175 286T94 366T64 479Q64 541 94 591T174 671T287 701ZM210 617V340H187V617H210ZM287 682Q232 682 186 655T113 581T86 479Q86
424 113 378T186 304T287 276Q343 276 388 303T461 377T488 479Q488 535 461 581T389 654T287 682ZM298 620Q354 620 377 604T400 541Q400 506 386 490T337 469V467Q350 465 360 455T376 428L412 340H386L352 426Q345 445 332 452T301 460Q257 460 229 460T192
462L193 478H298Q341 479 358 491T376 539Q376 576 359 588T298 600Q260 600 232 600T194 599L187 617Q213 619 236 619T298 620Z" />
<glyph unicode="&#xaf;" horiz-adv-x="400" d="M332 654V621H68V654H332Z" />
<glyph unicode="&#xb0;" horiz-adv-x="378" d="M190 702Q224 702 252 685T297 640T314 578Q314 544 297 516T252 470T189 453Q155 453 127 470T81 515T64 578Q64 612 81 640T126 685T190 702ZM189 674Q150 674 122 647T93 578Q93 553 106 531T140 495T189 481Q216
481 237 494T272 530T285 578Q285 619 257 646T189 674Z" />
<glyph unicode="&#xb1;" horiz-adv-x="596" d="M509 367V334H87V367H509ZM509 121V88H87V121H509ZM315 510L314 190H282L281 510H315Z" />
<glyph unicode="&#xb2;" horiz-adv-x="377" d="M193 758Q232 758 259 750T302 723T317 669Q317 628 295 594T230 515L106 384Q124 385 138 385T171 385L336 384V356H57V371Q57 375 59 378T63 384L203 533Q231 562 247 583T271 623T279 666Q278 704 256 716T195
729Q166 729 136 726T68 714L64 740Q105 751 137 754T193 758Z" />
<glyph unicode="&#xb3;" horiz-adv-x="392" d="M179 758Q248 758 278 738T309 667Q309 629 295 603T247 567V565Q286 557 302 532T319 465Q320 406 289 377T189 348Q154 348 120 352T57 364L64 389Q82 386 102 384T143 380T184 378Q237 378 259 398T282 467Q282
490 276 508T251 538T192 549L108 550V576L192 578Q230 578 247 592T269 625T273 663Q272 703 252 716T177 729Q149 729 119 725T68 716L63 742Q92 749 122 753T179 758Z" />
<glyph unicode="&#xb4;" horiz-adv-x="287" d="M212 714L238 684L75 549L57 568L212 714Z" />
<glyph unicode="&#xb5;" horiz-adv-x="573" d="M129 482V130Q129 75 155 50T233 25Q286 25 332 51T409 122T440 220L443 131Q423 84 388 52T312 4T230 -12Q186 -12 155 2T108 47T91 123V482H129ZM129 83V-98L122 -208H91V145L129 83ZM480 482V95Q480 77 481 61T489
35T513 25H550L554 1Q542 -3 529 -5T500 -7Q465 -7 454 18T443 82V131L440 147V482H480Z" />
<glyph unicode="&#xb6;" horiz-adv-x="596" d="M351 702Q379 702 418 699T490 685L484 658Q459 663 427 665T363 669T309 670L292 200Q162 210 106 268T50 450Q50 543 80 598T177 677T351 702ZM317 685V-210H282V685H317ZM490 685V0H455V685H490Z" />
<glyph unicode="&#xb7;" horiz-adv-x="214" d="M114 304Q123 304 127 300T131 287V227Q131 218 127 214T114 210H100Q91 210 87 214T82 227V287Q82 296 86 300T100 304H114Z" />
<glyph unicode="&#xb8;" horiz-adv-x="223" d="M100 -47Q129 -45 148 -51T177 -72T186 -112Q186 -148 168 -175T117 -214T40 -222L46 -199Q96 -201 125 -176T154 -114Q154 -89 142 -79T95 -68L100 -47Z" />
<glyph unicode="&#xb9;" horiz-adv-x="289" d="M178 752V356H145V692Q145 699 145 706T147 721L37 687L32 710L145 752H178Z" />
<glyph unicode="&#xba;" horiz-adv-x="448" d="M224 602Q308 602 342 564T377 432Q377 370 362 333T314 280T223 263Q139 263 105 301T71 432Q71 526 105 564T224 602ZM223 574Q158 574 132 544T105 432Q105 351 131 321T223 291Q289 291 315 321T341 432Q341
514 315 544T223 574Z" />
<glyph unicode="&#xbb;" horiz-adv-x="461" d="M85 455L247 257V245L84 44L63 59L207 251L64 440L85 455ZM249 455L411 257V245L248 44L228 59L371 251L229 440L249 455Z" />
<glyph unicode="&#xbc;" horiz-adv-x="846" d="M634 690L162 0H129L600 690H634ZM206 690V276H174V627Q174 635 174 643T176 659L55 624L50 646L174 690H206ZM642 414L500 165Q494 155 500 146T519 137H797V114L734 110H499Q477 110 466 126T466 163L608 414H642ZM751
336V0H719V266L726 336H751Z" />
<glyph unicode="&#xbd;" horiz-adv-x="875" d="M632 690L161 0H127L599 690H632ZM206 690V276H174V627Q174 635 174 643T176 659L55 624L50 646L174 690H206ZM660 421Q704 421 735 415T782 390T798 334Q798 295 777 260T709 177L563 29Q583 30 601 30T640 30L819
29L818 0H521V19Q521 24 522 27T526 34L677 186Q722 232 743 266T763 335Q762 374 734 383T660 392Q629 392 601 390T529 380L525 405Q573 416 602 418T660 421Z" />
<glyph unicode="&#xbe;" horiz-adv-x="936" d="M737 690L266 0H232L704 690H737ZM195 695Q275 695 306 675T337 600Q337 562 322 533T262 495V493Q311 486 329 459T348 389Q350 327 318 297T206 267Q170 267 134 270T65 277L69 302Q90 300 111 299T155 296T200
295Q261 295 287 317T314 392Q314 415 306 434T276 466T209 479L123 480V503L209 505Q253 506 273 520T299 555T305 593Q304 637 280 652T192 667Q160 667 130 665T76 660L72 685Q105 690 134 692T195 695ZM731 414L589 165Q584 155 590 146T609 137H886V114L824
110H589Q567 110 556 126T555 163L698 414H731ZM832 336V0H800V266L807 336H832Z" />
<glyph unicode="&#xbf;" horiz-adv-x="503" d="M277 287Q277 230 259 190T214 121T159 65T113 10T94 -61Q93 -124 132 -154T254 -185Q305 -185 336 -184T393 -179T452 -172L457 -201Q433 -205 413 -208T372 -214T321 -218T250 -220Q153 -220 103 -182T52 -65Q52
-19 71 14T118 75T174 131T221 197T240 287H277ZM266 492Q275 492 279 488T283 475V415Q283 406 279 402T266 398H253Q244 398 240 402T236 415V475Q236 484 240 488T253 492H266Z" />
<glyph unicode="&#xc0;" horiz-adv-x="608" d="M332 690Q339 690 343 687T350 677L591 0H548L338 600Q333 614 328 628T318 656H290Q285 642 280 628T270 600L60 0H17L258 677Q260 684 265 687T276 690H332ZM478 279V243H128V279H478ZM193 897L348 752L330 732L167
867L193 897Z" />
<glyph unicode="&#xc1;" horiz-adv-x="608" d="M332 690Q339 690 343 687T350 677L591 0H548L338 600Q333 614 328 628T318 656H290Q285 642 280 628T270 600L60 0H17L258 677Q260 684 265 687T276 690H332ZM478 279V243H128V279H478ZM405 899L431 869L268 734L250
753L405 899Z" />
<glyph unicode="&#xc2;" horiz-adv-x="608" d="M332 690Q339 690 343 687T350 677L591 0H548L338 600Q333 614 328 628T318 656H290Q285 642 280 628T270 600L60 0H17L258 677Q260 684 265 687T276 690H332ZM478 279V243H128V279H478ZM318 882L454 763L438 744L308
845H300L171 744L154 763L289 882H318Z" />
<glyph unicode="&#xc3;" horiz-adv-x="608" d="M332 690Q339 690 343 687T350 677L591 0H548L338 600Q333 614 328 628T318 656H290Q285 642 280 628T270 600L60 0H17L258 677Q260 684 265 687T276 690H332ZM478 279V243H128V279H478ZM232 867Q254 865 271 856T303
835T336 814T374 802Q405 800 417 814T430 862H453Q456 816 435 792T377 770Q344 773 322 788T279 818T234 835Q204 838 192 823T179 772H156Q154 805 163 827T191 859T232 867Z" />
<glyph unicode="&#xc4;" horiz-adv-x="608" d="M332 690Q339 690 343 687T350 677L591 0H548L338 600Q333 614 328 628T318 656H290Q285 642 280 628T270 600L60 0H17L258 677Q260 684 265 687T276 690H332ZM478 279V243H128V279H478ZM400 858Q414 858 414 844V788Q414
774 400 774H385Q372 774 372 788V844Q372 858 385 858H400ZM223 858Q236 858 236 844V788Q236 774 223 774H208Q195 774 195 788V844Q195 858 208 858H223Z" />
<glyph unicode="&#xc5;" horiz-adv-x="608" d="M332 690Q339 690 343 687T350 677L591 0H548L338 600Q333 614 328 628T318 656H290Q285 642 280 628T270 600L60 0H17L258 677Q260 684 265 687T276 690H332ZM478 279V243H128V279H478ZM304 913Q332 913 354 900T389
865T403 816Q403 790 390 768T355 732T304 718Q277 718 255 731T219 766T205 816Q205 843 218 865T254 900T304 913ZM304 888Q274 888 254 868T233 815Q233 784 253 764T304 743Q335 743 355 763T375 815Q375 847 355 867T304 888Z" />
<glyph unicode="&#xc6;" horiz-adv-x="907" d="M573 690Q666 690 729 689T851 686L850 654H585Q549 654 528 633T506 576V114Q506 78 527 57T585 35H850L851 4Q781 1 712 1T572 0Q526 0 496 30T466 106V580Q466 602 478 625T505 655H499Q483 648 465 631T427 586L54
0H8L392 599Q410 628 429 646T471 673T518 686T573 690ZM481 295V260H199L210 295H481ZM483 386L808 385V352L483 351V386Z" />
<glyph unicode="&#xc7;" horiz-adv-x="563" d="M331 702Q373 702 402 700T457 694T509 684L502 654Q474 658 450 660T397 664T331 665Q251 665 204 635T136 534T115 345Q115 226 136 156T204 56T331 25Q392 25 434 28T516 38L523 7Q482 -3 439 -7T331 -12Q236
-12 179 22T97 135T72 345Q72 477 97 555T179 667T331 702ZM297 -59Q326 -57 345 -63T374 -84T383 -124Q383 -160 365 -187T314 -226T237 -234L243 -211Q293 -213 322 -188T351 -126Q351 -101 339 -91T292 -80L297 -59Z" />
<glyph unicode="&#xc8;" horiz-adv-x="553" d="M203 690Q252 690 301 690T400 689T497 686L495 655H210Q176 655 155 634T134 577V113Q134 78 155 57T210 35H495L497 4Q449 2 400 1T302 0T203 0Q154 0 124 30T93 106V584Q93 631 123 660T203 690ZM110 386L454
385V352L110 351V386ZM198 921L353 776L335 756L172 891L198 921Z" />
<glyph unicode="&#xc9;" horiz-adv-x="553" d="M203 690Q252 690 301 690T400 689T497 686L495 655H210Q176 655 155 634T134 577V113Q134 78 155 57T210 35H495L497 4Q449 2 400 1T302 0T203 0Q154 0 124 30T93 106V584Q93 631 123 660T203 690ZM110 386L454
385V352L110 351V386ZM411 923L437 893L274 758L256 777L411 923Z" />
<glyph unicode="&#xca;" horiz-adv-x="553" d="M203 690Q252 690 301 690T400 689T497 686L495 655H210Q176 655 155 634T134 577V113Q134 78 155 57T210 35H495L497 4Q449 2 400 1T302 0T203 0Q154 0 124 30T93 106V584Q93 631 123 660T203 690ZM110 386L454
385V352L110 351V386ZM323 906L459 787L443 768L313 869H305L176 768L159 787L294 906H323Z" />
<glyph unicode="&#xcb;" horiz-adv-x="553" d="M203 690Q252 690 301 690T400 689T497 686L495 655H210Q176 655 155 634T134 577V113Q134 78 155 57T210 35H495L497 4Q449 2 400 1T302 0T203 0Q154 0 124 30T93 106V584Q93 631 123 660T203 690ZM110 386L454
385V352L110 351V386ZM405 881Q419 881 419 867V811Q419 797 405 797H390Q377 797 377 811V867Q377 881 390 881H405ZM228 881Q241 881 241 867V811Q241 797 228 797H213Q200 797 200 811V867Q200 881 213 881H228Z" />
<glyph unicode="&#xcc;" horiz-adv-x="239" d="M140 690V0H99V690H140ZM7 899L162 754L144 734L-19 869L7 899Z" />
<glyph unicode="&#xcd;" horiz-adv-x="239" d="M140 690V0H99V690H140ZM220 901L246 871L83 736L65 755L220 901Z" />
<glyph unicode="&#xce;" horiz-adv-x="239" d="M140 690V0H99V690H140ZM133 884L269 765L253 746L123 847H115L-14 746L-31 765L104 884H133Z" />
<glyph unicode="&#xcf;" horiz-adv-x="239" d="M140 690V0H99V690H140ZM214 859Q228 859 228 845V789Q228 775 214 775H199Q186 775 186 789V845Q186 859 199 859H214ZM37 859Q50 859 50 845V789Q50 775 37 775H22Q9 775 9 789V845Q9 859 22 859H37Z" />
<glyph unicode="&#xd0;" horiz-adv-x="664" d="M318 384V356H25V384H318ZM336 699Q406 699 455 681T534 621T577 512T591 345Q591 247 578 179T534 70T455 10T336 -9Q268 -9 211 -7T102 0L122 31Q168 30 220 29T336 28Q414 28 461 58T528 157T548 345Q548 463
528 532T461 632T336 662Q272 662 220 661T119 659L102 690Q153 694 211 696T336 699ZM143 690V0H102V690H143Z" />
<glyph unicode="&#xd1;" horiz-adv-x="692" d="M594 690V20Q594 0 574 0H520Q512 0 507 3T497 15L199 579Q190 596 180 615T162 653H139Q140 634 140 615T140 578V0H99V670Q99 690 119 690H169Q178 690 183 687T193 675L483 124Q494 104 505 82T528 38H553Q553
62 553 85T553 132V690H594ZM287 869Q309 867 326 858T358 837T391 816T429 804Q460 802 472 816T485 864H508Q511 818 490 794T432 772Q399 775 377 790T334 820T289 837Q259 840 247 825T234 774H211Q209 807 218 829T246 861T287 869Z" />
<glyph unicode="&#xd2;" horiz-adv-x="664" d="M332 702Q404 702 454 684T534 623T577 513T591 345Q591 245 578 177T534 67T454 7T332 -12Q260 -12 210 6T130 67T86 177T72 345Q72 445 86 513T130 623T210 683T332 702ZM332 665Q251 665 204 635T136 534T115
345Q115 226 136 156T204 56T332 25Q412 25 459 55T527 156T548 345Q548 464 528 534T460 634T332 665ZM221 899L376 754L358 734L195 869L221 899Z" />
<glyph unicode="&#xd3;" horiz-adv-x="664" d="M332 702Q404 702 454 684T534 623T577 513T591 345Q591 245 578 177T534 67T454 7T332 -12Q260 -12 210 6T130 67T86 177T72 345Q72 445 86 513T130 623T210 683T332 702ZM332 665Q251 665 204 635T136 534T115
345Q115 226 136 156T204 56T332 25Q412 25 459 55T527 156T548 345Q548 464 528 534T460 634T332 665ZM434 901L460 871L297 736L279 755L434 901Z" />
<glyph unicode="&#xd4;" horiz-adv-x="664" d="M332 702Q404 702 454 684T534 623T577 513T591 345Q591 245 578 177T534 67T454 7T332 -12Q260 -12 210 6T130 67T86 177T72 345Q72 445 86 513T130 623T210 683T332 702ZM332 665Q251 665 204 635T136 534T115
345Q115 226 136 156T204 56T332 25Q412 25 459 55T527 156T548 345Q548 464 528 534T460 634T332 665ZM346 884L482 765L466 746L336 847H328L199 746L182 765L317 884H346Z" />
<glyph unicode="&#xd5;" horiz-adv-x="664" d="M332 702Q404 702 454 684T534 623T577 513T591 345Q591 245 578 177T534 67T454 7T332 -12Q260 -12 210 6T130 67T86 177T72 345Q72 445 86 513T130 623T210 683T332 702ZM332 665Q251 665 204 635T136 534T115
345Q115 226 136 156T204 56T332 25Q412 25 459 55T527 156T548 345Q548 464 528 534T460 634T332 665ZM260 869Q282 867 299 858T331 837T364 816T402 804Q433 802 445 816T458 864H481Q484 818 463 794T405 772Q372 775 350 790T307 820T262 837Q232 840 220
825T207 774H184Q182 807 191 829T219 861T260 869Z" />
<glyph unicode="&#xd6;" horiz-adv-x="664" d="M332 702Q404 702 454 684T534 623T577 513T591 345Q591 245 578 177T534 67T454 7T332 -12Q260 -12 210 6T130 67T86 177T72 345Q72 445 86 513T130 623T210 683T332 702ZM332 665Q251 665 204 635T136 534T115
345Q115 226 136 156T204 56T332 25Q412 25 459 55T527 156T548 345Q548 464 528 534T460 634T332 665ZM428 859Q442 859 442 845V789Q442 775 428 775H413Q400 775 400 789V845Q400 859 413 859H428ZM251 859Q264 859 264 845V789Q264 775 251 775H236Q223 775
223 789V845Q223 859 236 859H251Z" />
<glyph unicode="&#xd7;" horiz-adv-x="487" d="M412 459L60 143L81 117L433 434L412 459ZM81 459L60 433L412 117L433 143L81 459Z" />
<glyph unicode="&#xd8;" horiz-adv-x="664" d="M494 743L522 731L154 -53L127 -40L494 743ZM332 702Q404 702 454 684T534 623T577 513T591 345Q591 245 578 177T534 67T454 7T332 -12Q260 -12 210 6T130 67T86 177T72 345Q72 445 86 513T130 623T210 683T332
702ZM332 665Q251 665 204 635T136 534T115 345Q115 226 136 156T204 56T332 25Q412 25 459 55T527 156T548 345Q548 464 528 534T460 634T332 665Z" />
<glyph unicode="&#xd9;" horiz-adv-x="667" d="M573 690V257Q573 160 550 101T474 15T335 -12Q246 -12 194 15T118 101T94 257V690H135V257Q135 172 154 121T217 48T334 25Q406 25 449 47T512 121T532 257V690H573ZM223 899L378 754L360 734L197 869L223 899Z" />
<glyph unicode="&#xda;" horiz-adv-x="667" d="M573 690V257Q573 160 550 101T474 15T335 -12Q246 -12 194 15T118 101T94 257V690H135V257Q135 172 154 121T217 48T334 25Q406 25 449 47T512 121T532 257V690H573ZM436 901L462 871L299 736L281 755L436 901Z" />
<glyph unicode="&#xdb;" horiz-adv-x="667" d="M573 690V257Q573 160 550 101T474 15T335 -12Q246 -12 194 15T118 101T94 257V690H135V257Q135 172 154 121T217 48T334 25Q406 25 449 47T512 121T532 257V690H573ZM348 884L484 765L468 746L338 847H330L201 746L184
765L319 884H348Z" />
<glyph unicode="&#xdc;" horiz-adv-x="667" d="M573 690V257Q573 160 550 101T474 15T335 -12Q246 -12 194 15T118 101T94 257V690H135V257Q135 172 154 121T217 48T334 25Q406 25 449 47T512 121T532 257V690H573ZM430 859Q444 859 444 845V789Q444 775 430 775H415Q402
775 402 789V845Q402 859 415 859H430ZM253 859Q266 859 266 845V789Q266 775 253 775H238Q225 775 225 789V845Q225 859 238 859H253Z" />
<glyph unicode="&#xdd;" horiz-adv-x="548" d="M528 690L291 246H258L19 690H64L235 368Q244 351 253 333T271 297H277Q285 315 294 332T312 367L483 690H528ZM295 285V0H253V285H295ZM376 898L402 868L239 733L221 752L376 898Z" />
<glyph unicode="&#xde;" horiz-adv-x="585" d="M324 558Q400 558 444 540T509 477T529 351Q529 270 509 225T445 162T327 144Q286 144 251 145T186 147T137 150T109 154L112 181Q162 181 216 181T324 181Q384 182 419 196T471 247T487 351Q487 420 471 456T420
507T324 522Q246 522 190 521T113 518L99 550Q135 554 166 555T235 557T324 558ZM140 690V0H99V690H140Z" />
<glyph unicode="&#xdf;" horiz-adv-x="657" d="M332 714Q400 714 447 704T519 669T544 598Q544 560 534 536T503 497T446 467Q405 452 378 442T338 415T324 366Q324 331 342 315T390 289L515 247Q545 237 566 223T598 185T610 123Q610 63 590 35T533 -2T446 -11Q414
-11 374 -9T282 0L285 30Q328 26 366 25T442 23Q485 24 513 31T556 58T570 124Q570 156 561 173T535 200T497 217L372 259Q332 272 309 295T285 365Q285 407 303 429T354 464T430 494Q475 511 491 532T507 597Q507 629 487 647T429 672T333 680Q268 680 231 668T177
624T161 532V0H121V534Q121 596 136 632T180 686T247 709T332 714ZM144 482V448H34V478L127 482H144Z" />
<glyph unicode="&#xe0;" horiz-adv-x="541" d="M312 494Q357 494 389 480T437 436T454 354V0H424L416 106L414 113V354Q414 400 392 429T307 458Q257 458 199 454T86 443L82 473Q114 478 149 482T225 490T312 494ZM429 293L428 261L186 258Q144 257 124 236T103
175V121Q103 76 126 54T197 30Q233 29 275 42T357 80T425 133V98Q411 82 387 65T332 31T266 4T193 -7Q153 -7 124 7T78 50T62 118V178Q62 233 93 263T182 293H429ZM157 718L312 573L294 553L131 688L157 718Z" />
<glyph unicode="&#xe1;" horiz-adv-x="541" d="M312 494Q357 494 389 480T437 436T454 354V0H424L416 106L414 113V354Q414 400 392 429T307 458Q257 458 199 454T86 443L82 473Q114 478 149 482T225 490T312 494ZM429 293L428 261L186 258Q144 257 124 236T103
175V121Q103 76 126 54T197 30Q233 29 275 42T357 80T425 133V98Q411 82 387 65T332 31T266 4T193 -7Q153 -7 124 7T78 50T62 118V178Q62 233 93 263T182 293H429ZM369 720L395 690L232 555L214 574L369 720Z" />
<glyph unicode="&#xe2;" horiz-adv-x="541" d="M312 494Q357 494 389 480T437 436T454 354V0H424L416 106L414 113V354Q414 400 392 429T307 458Q257 458 199 454T86 443L82 473Q114 478 149 482T225 490T312 494ZM429 293L428 261L186 258Q144 257 124 236T103
175V121Q103 76 126 54T197 30Q233 29 275 42T357 80T425 133V98Q411 82 387 65T332 31T266 4T193 -7Q153 -7 124 7T78 50T62 118V178Q62 233 93 263T182 293H429ZM282 958L418 839L402 820L272 921H264L135 820L118 839L253 958H282Z" />
<glyph unicode="&#xe3;" horiz-adv-x="541" d="M312 494Q357 494 389 480T437 436T454 354V0H424L416 106L414 113V354Q414 400 392 429T307 458Q257 458 199 454T86 443L82 473Q114 478 149 482T225 490T312 494ZM429 293L428 261L186 258Q144 257 124 236T103
175V121Q103 76 126 54T197 30Q233 29 275 42T357 80T425 133V98Q411 82 387 65T332 31T266 4T193 -7Q153 -7 124 7T78 50T62 118V178Q62 233 93 263T182 293H429ZM196 944Q218 942 235 933T267 912T300 891T338 879Q369 877 381 891T394 939H417Q420 893 399 869T341
847Q308 850 286 865T243 895T198 912Q168 915 156 900T143 849H120Q118 882 127 904T155 936T196 944Z" />
<glyph unicode="&#xe4;" horiz-adv-x="541" d="M312 494Q357 494 389 480T437 436T454 354V0H424L416 106L414 113V354Q414 400 392 429T307 458Q257 458 199 454T86 443L82 473Q114 478 149 482T225 490T312 494ZM429 293L428 261L186 258Q144 257 124 236T103
175V121Q103 76 126 54T197 30Q233 29 275 42T357 80T425 133V98Q411 82 387 65T332 31T266 4T193 -7Q153 -7 124 7T78 50T62 118V178Q62 233 93 263T182 293H429ZM364 678Q378 678 378 664V608Q378 594 364 594H349Q336 594 336 608V664Q336 678 349 678H364ZM187
678Q200 678 200 664V608Q200 594 187 594H172Q159 594 159 608V664Q159 678 172 678H187Z" />
<glyph unicode="&#xe5;" horiz-adv-x="541" d="M312 494Q357 494 389 480T437 436T454 354V0H424L416 106L414 113V354Q414 400 392 429T307 458Q257 458 199 454T86 443L82 473Q114 478 149 482T225 490T312 494ZM429 293L428 261L186 258Q144 257 124 236T103
175V121Q103 76 126 54T197 30Q233 29 275 42T357 80T425 133V98Q411 82 387 65T332 31T266 4T193 -7Q153 -7 124 7T78 50T62 118V178Q62 233 93 263T182 293H429ZM269 989Q297 989 319 976T354 941T368 892Q368 866 355 844T320 808T269 794Q242 794 220 807T184
842T170 892Q170 919 183 941T219 976T269 989ZM269 964Q239 964 219 944T198 891Q198 860 218 840T269 819Q300 819 320 839T340 891Q340 923 320 943T269 964Z" />
<glyph unicode="&#xe6;" horiz-adv-x="878" d="M625 494Q723 494 770 459T819 352Q820 305 806 276T762 234T680 221H433V254H674Q733 254 756 277T778 350Q778 405 741 431T626 458Q563 458 526 438T472 371T455 245Q455 161 474 113T533 44T638 24Q685 24 728
28T803 36L808 8Q790 2 759 -2T693 -9T633 -12Q555 -12 507 13T437 95T414 243Q414 336 435 391T503 470T625 494ZM429 293L428 261L186 258Q144 257 124 236T103 175V121Q103 76 126 54T197 30Q236 29 281 43T369 83T441 141V106Q426 89 400 70T341 33T270 4T193
-7Q153 -7 124 7T78 50T62 118V178Q62 233 93 263T182 293H429ZM312 494Q357 494 389 480T437 436T454 354V229L414 228V354Q414 400 392 429T307 458Q257 458 199 454T86 443L82 473Q114 478 149 482T225 490T312 494Z" />
<glyph unicode="&#xe7;" horiz-adv-x="481" d="M287 494Q307 494 331 493T380 487T428 475L421 448Q393 454 356 456T294 458Q226 458 185 439T126 372T107 241Q107 157 125 110T185 43T294 24Q308 24 332 25T383 28T433 35L439 7Q405 -1 366 -6T288 -12Q207 -12
158 12T87 93T65 241Q65 334 87 389T158 469T287 494ZM252 -59Q281 -57 300 -63T329 -84T338 -124Q338 -160 320 -187T269 -226T192 -234L198 -211Q248 -213 277 -188T306 -126Q306 -101 294 -91T247 -80L252 -59Z" />
<glyph unicode="&#xe8;" horiz-adv-x="530" d="M276 494Q374 494 421 459T470 352Q472 288 448 255T364 221H84V254H358Q399 254 415 280T429 350Q428 407 391 432T278 458Q214 458 177 438T123 371T107 245Q107 161 125 113T184 44T289 24Q336 24 379 28T454
36L459 8Q441 2 410 -2T345 -9T284 -12Q206 -12 158 13T88 95T65 243Q65 336 86 391T154 470T276 494ZM166 718L321 573L303 553L140 688L166 718Z" />
<glyph unicode="&#xe9;" horiz-adv-x="530" d="M276 494Q374 494 421 459T470 352Q472 288 448 255T364 221H84V254H358Q399 254 415 280T429 350Q428 407 391 432T278 458Q214 458 177 438T123 371T107 245Q107 161 125 113T184 44T289 24Q336 24 379 28T454
36L459 8Q441 2 410 -2T345 -9T284 -12Q206 -12 158 13T88 95T65 243Q65 336 86 391T154 470T276 494ZM379 720L405 690L242 555L224 574L379 720Z" />
<glyph unicode="&#xea;" horiz-adv-x="530" d="M276 494Q374 494 421 459T470 352Q472 288 448 255T364 221H84V254H358Q399 254 415 280T429 350Q428 407 391 432T278 458Q214 458 177 438T123 371T107 245Q107 161 125 113T184 44T289 24Q336 24 379 28T454
36L459 8Q441 2 410 -2T345 -9T284 -12Q206 -12 158 13T88 95T65 243Q65 336 86 391T154 470T276 494ZM292 958L428 839L412 820L282 921H274L145 820L128 839L263 958H292Z" />
<glyph unicode="&#xeb;" horiz-adv-x="530" d="M276 494Q374 494 421 459T470 352Q472 288 448 255T364 221H84V254H358Q399 254 415 280T429 350Q428 407 391 432T278 458Q214 458 177 438T123 371T107 245Q107 161 125 113T184 44T289 24Q336 24 379 28T454
36L459 8Q441 2 410 -2T345 -9T284 -12Q206 -12 158 13T88 95T65 243Q65 336 86 391T154 470T276 494ZM373 678Q387 678 387 664V608Q387 594 373 594H358Q345 594 345 608V664Q345 678 358 678H373ZM196 678Q209 678 209 664V608Q209 594 196 594H181Q168 594
168 608V664Q168 678 181 678H196Z" />
<glyph unicode="&#xec;" horiz-adv-x="227" d="M134 482V0H94V482H134ZM257 718L412 573L394 553L231 688L257 718Z" />
<glyph unicode="&#xed;" horiz-adv-x="227" d="M134 482V0H94V482H134ZM214 720L240 690L77 555L59 574L214 720Z" />
<glyph unicode="&#xee;" horiz-adv-x="227" d="M134 482V0H94V482H134ZM383 958L519 839L503 820L373 921H365L236 820L219 839L354 958H383Z" />
<glyph unicode="&#xef;" horiz-adv-x="227" d="M134 482V0H94V482H134ZM464 678Q478 678 478 664V608Q478 594 464 594H449Q436 594 436 608V664Q436 678 449 678H464ZM287 678Q300 678 300 664V608Q300 594 287 594H272Q259 594 259 608V664Q259 678 272 678H287Z" />
<glyph unicode="&#xf0;" horiz-adv-x="551" d="M124 698Q165 700 213 691T307 658T391 586T451 465T474 280Q474 221 468 169T441 75T380 11T271 -12Q167 -12 117 43T66 220Q66 291 85 341T149 419T267 447Q295 447 324 441T386 420T453 378L446 357Q395 389 354
400T266 412Q205 412 171 388T122 320T108 220Q108 112 148 68T272 23Q343 23 377 55T423 147T434 286Q434 392 412 461T354 573T276 635T192 662T117 669L124 698ZM414 702L430 679L235 540L219 563L414 702Z" />
<glyph unicode="&#xf1;" horiz-adv-x="573" d="M356 494Q486 494 486 362V0H446V354Q446 409 422 433T347 458Q294 458 244 434T126 363L125 396Q185 444 242 469T356 494ZM123 482L127 393L130 377V0H91V482H123ZM223 944Q245 942 262 933T294 912T327 891T365
879Q396 877 408 891T421 939H444Q447 893 426 869T368 847Q335 850 313 865T270 895T225 912Q195 915 183 900T170 849H147Q145 882 154 904T182 936T223 944Z" />
<glyph unicode="&#xf2;" horiz-adv-x="562" d="M281 494Q361 494 408 470T475 390T496 241Q496 149 476 93T408 13T281 -12Q203 -12 155 12T87 93T66 241Q66 334 86 389T155 469T281 494ZM281 458Q217 458 179 438T125 371T108 241Q108 159 124 111T179 43T281
23Q345 23 383 43T438 111T455 241Q455 324 438 371T383 438T281 458ZM169 717L324 572L306 552L143 687L169 717Z" />
<glyph unicode="&#xf3;" horiz-adv-x="562" d="M281 494Q361 494 408 470T475 390T496 241Q496 149 476 93T408 13T281 -12Q203 -12 155 12T87 93T66 241Q66 334 86 389T155 469T281 494ZM281 458Q217 458 179 438T125 371T108 241Q108 159 124 111T179 43T281
23Q345 23 383 43T438 111T455 241Q455 324 438 371T383 438T281 458ZM381 719L407 689L244 554L226 573L381 719Z" />
<glyph unicode="&#xf4;" horiz-adv-x="562" d="M281 494Q361 494 408 470T475 390T496 241Q496 149 476 93T408 13T281 -12Q203 -12 155 12T87 93T66 241Q66 334 86 389T155 469T281 494ZM281 458Q217 458 179 438T125 371T108 241Q108 159 124 111T179 43T281
23Q345 23 383 43T438 111T455 241Q455 324 438 371T383 438T281 458ZM294 957L430 838L414 819L284 920H276L147 819L130 838L265 957H294Z" />
<glyph unicode="&#xf5;" horiz-adv-x="562" d="M281 494Q361 494 408 470T475 390T496 241Q496 149 476 93T408 13T281 -12Q203 -12 155 12T87 93T66 241Q66 334 86 389T155 469T281 494ZM281 458Q217 458 179 438T125 371T108 241Q108 159 124 111T179 43T281
23Q345 23 383 43T438 111T455 241Q455 324 438 371T383 438T281 458ZM208 943Q230 941 247 932T279 911T312 890T350 878Q381 876 393 890T406 938H429Q432 892 411 868T353 846Q320 849 298 864T255 894T210 911Q180 914 168 899T155 848H132Q130 881 139 903T167
935T208 943Z" />
<glyph unicode="&#xf6;" horiz-adv-x="562" d="M281 494Q361 494 408 470T475 390T496 241Q496 149 476 93T408 13T281 -12Q203 -12 155 12T87 93T66 241Q66 334 86 389T155 469T281 494ZM281 458Q217 458 179 438T125 371T108 241Q108 159 124 111T179 43T281
23Q345 23 383 43T438 111T455 241Q455 324 438 371T383 438T281 458ZM376 933Q390 933 390 919V863Q390 849 376 849H361Q348 849 348 863V919Q348 933 361 933H376ZM199 933Q212 933 212 919V863Q212 849 199 849H184Q171 849 171 863V919Q171 933 184 933H199Z"
/>
<glyph unicode="&#xf7;" horiz-adv-x="584" d="M503 312V279H81V312H503ZM297 176Q306 176 310 172T314 159V100Q314 91 310 87T297 83H284Q275 83 271 87T267 100V159Q267 168 271 172T284 176H297ZM297 508Q306 508 310 504T314 491V432Q314 423 310 419T297
415H284Q275 415 271 419T267 432V491Q267 500 271 504T284 508H297Z" />
<glyph unicode="&#xf8;" horiz-adv-x="562" d="M404 544L428 533L150 -65L125 -53L404 544ZM281 494Q361 494 408 470T475 390T496 241Q496 149 476 93T408 13T281 -12Q202 -12 155 12T87 93T66 241Q66 334 86 389T154 469T281 494ZM281 458Q217 458 179 438T125
371T108 241Q108 159 124 111T179 43T281 23Q345 23 383 43T438 111T455 241Q455 324 438 371T383 438T281 458Z" />
<glyph unicode="&#xf9;" horiz-adv-x="563" d="M127 482V128Q126 74 151 49T228 24Q278 24 325 48T437 118L440 85Q381 37 326 13T217 -12Q87 -12 87 120V482H127ZM472 482V0H441L437 89L432 105V482H472ZM170 718L325 573L307 553L144 688L170 718Z" />
<glyph unicode="&#xfa;" horiz-adv-x="563" d="M127 482V128Q126 74 151 49T228 24Q278 24 325 48T437 118L440 85Q381 37 326 13T217 -12Q87 -12 87 120V482H127ZM472 482V0H441L437 89L432 105V482H472ZM382 720L408 690L245 555L227 574L382 720Z" />
<glyph unicode="&#xfb;" horiz-adv-x="563" d="M127 482V128Q126 74 151 49T228 24Q278 24 325 48T437 118L440 85Q381 37 326 13T217 -12Q87 -12 87 120V482H127ZM472 482V0H441L437 89L432 105V482H472ZM295 959L431 840L415 821L285 922H277L148 821L131 840L266
959H295Z" />
<glyph unicode="&#xfc;" horiz-adv-x="563" d="M127 482V128Q126 74 151 49T228 24Q278 24 325 48T437 118L440 85Q381 37 326 13T217 -12Q87 -12 87 120V482H127ZM472 482V0H441L437 89L432 105V482H472ZM377 679Q391 679 391 665V609Q391 595 377 595H362Q349
595 349 609V665Q349 679 362 679H377ZM200 679Q213 679 213 665V609Q213 595 200 595H185Q172 595 172 609V665Q172 679 185 679H200Z" />
<glyph unicode="&#xfd;" horiz-adv-x="512" d="M486 482L271 -42Q258 -72 244 -99T209 -148T163 -186T101 -209L95 -184Q154 -162 185 -123T235 -34L256 16Q263 33 270 52T284 88L442 482H486ZM70 482L228 87Q233 73 239 60T249 33H269L255 0H236Q231 0 226 3T219
12L27 482H70ZM360 720L386 690L223 555L205 574L360 720Z" />
<glyph unicode="&#xfe;" horiz-adv-x="565" d="M323 494Q418 494 457 436T497 240Q497 148 479 93T423 13T322 -12Q272 -12 222 2T121 43L125 71Q183 47 226 35T315 23Q366 23 397 44T442 112T456 240Q456 321 442 368T397 437T316 458Q271 458 228 437T126 373L121
405Q172 448 221 471T323 494ZM130 700V505Q130 478 130 456T127 408L130 396V56L127 44Q130 17 130 -5T130 -53V-208H91V700H130Z" />
<glyph unicode="&#xff;" horiz-adv-x="512" d="M486 482L271 -42Q258 -72 244 -99T209 -148T163 -186T101 -209L95 -184Q154 -162 185 -123T235 -34L256 16Q263 33 270 52T284 88L442 482H486ZM70 482L228 87Q233 73 239 60T249 33H269L255 0H236Q231 0 226 3T219
12L27 482H70ZM354 678Q368 678 368 664V608Q368 594 354 594H339Q326 594 326 608V664Q326 678 339 678H354ZM177 678Q190 678 190 664V608Q190 594 177 594H162Q149 594 149 608V664Q149 678 162 678H177Z" />
<glyph unicode="&#x2013;" horiz-adv-x="615" d="M533 268V235H82V268H533Z" />
<glyph unicode="&#x2014;" horiz-adv-x="923" d="M841 268V235H82V268H841Z" />
<glyph unicode="&#x2018;" horiz-adv-x="202" d="M95 520Q86 520 82 524T78 537V599Q79 620 81 642T88 688T100 731L118 724Q116 694 115 672T114 612Q126 612 124 598V537Q124 528 120 524T108 520H95Z" />
<glyph unicode="&#x2019;" horiz-adv-x="200" d="M107 721Q116 721 120 717T124 705V642Q123 622 121 599T113 554T102 511L83 517Q86 547 87 569T88 629Q76 629 78 643V705Q78 713 82 717T94 721H107Z" />
<glyph unicode="&#x201a;" horiz-adv-x="213" d="M114 92Q123 92 127 89T132 76L131 13Q131 -7 128 -30T121 -75T108 -118L89 -112Q92 -82 93 -60T94 0Q82 0 83 14L84 76Q83 85 87 88T101 92H114Z" />
<glyph unicode="&#x201c;" horiz-adv-x="326" d="M95 520Q86 520 82 524T78 537V599Q79 620 81 642T88 688T100 731L118 724Q116 694 115 672T114 612Q126 612 124 598V537Q124 528 120 524T108 520H95ZM219 520Q210 520 206 524T202 537V599Q203 620 205 642T213
688T224 731L243 724Q240 694 239 672T238 612Q250 612 248 598V537Q248 528 244 524T232 520H219Z" />
<glyph unicode="&#x201d;" horiz-adv-x="324" d="M231 721Q240 721 244 717T248 705V642Q247 622 245 599T238 554T226 511L207 517Q210 547 211 569T212 629Q200 629 202 643V705Q202 713 206 717T218 721H231ZM107 721Q116 721 120 717T124 705V642Q123 622
121 599T113 554T102 511L83 517Q86 547 87 569T88 629Q76 629 78 643V705Q78 713 82 717T94 721H107Z" />
<glyph unicode="&#x201e;" horiz-adv-x="336" d="M237 92Q245 92 249 89T254 76L253 13Q253 -7 251 -30T243 -75T231 -118L213 -112Q216 -82 217 -60T218 0Q206 0 207 14L208 76Q207 85 211 88T224 92H237ZM113 92Q121 92 125 89T130 76L129 13Q129 -7 127 -30T119
-75T107 -118L89 -112Q92 -82 93 -60T94 0Q82 0 83 14L84 76Q83 85 87 88T100 92H113Z" />
<glyph unicode="&#x2022;" horiz-adv-x="354" d="M183 342Q222 342 237 328T252 274V263Q252 223 237 208T183 193H173Q132 193 117 208T102 263V274Q102 313 117 327T173 342H183Z" />
<glyph unicode="&#x2039;" horiz-adv-x="240" d="M187 455L208 440L65 251L209 59L188 44L25 245V257L187 455Z" />
<glyph unicode="&#x203a;" horiz-adv-x="242" d="M53 455L216 257V245L52 44L32 59L175 251L33 440L53 455Z" />
</font>
</defs>
</svg>
