<?xml version="1.0" standalone="no"?>
<!DOCTYPE svg PUBLIC "-//W3C//DTD SVG 1.1//EN" "http://www.w3.org/Graphics/SVG/1.1/DTD/svg11.dtd">
<svg xmlns="http://www.w3.org/2000/svg">
<defs >
<font id="Exo2" horiz-adv-x="559" ><font-face
    font-family="Exo 2 Black"
    units-per-em="1000"
    panose-1="0 0 0 0 0 0 0 0 0 0"
    ascent="999"
    descent="-201"
    alphabetic="0" />
<glyph unicode=" " horiz-adv-x="210" />
<glyph unicode="!" horiz-adv-x="329" d="M268 695V461L246 227H82L60 461V695H268ZM188 185Q229 185 244 170T260 113V72Q260 31 245 16T188 0H141Q100 0 85 15T69 72V113Q69 154 84 169T141 185H188Z" />
<glyph unicode="&quot;" horiz-adv-x="393" d="M358 690L346 462H226L214 690H358ZM179 690L167 462H47L35 690H179Z" />
<glyph unicode="#" horiz-adv-x="740" d="M383 690L263 0H108L228 690H383ZM634 690L514 0H359L479 690H634ZM719 526L695 404H64L88 526H719ZM677 304L653 182H22L46 304H677Z" />
<glyph unicode="$" horiz-adv-x="595" d="M309 704Q362 704 427 698T553 669L540 530Q497 531 432 531T303 532Q285 532 274 531T255 527T246 519T243 506Q243 492 255 483T303 459L422 407Q505 370 538 322T572 197Q572 139 559 99T514 34T430 -2T298 -14Q264
-14 195 -9T37 20L50 172Q107 171 156 170T241 168T294 167Q320 167 334 169T353 176T359 191Q359 201 355 207T341 220T312 233L181 293Q100 331 66 378T32 501Q32 560 46 599T94 661T180 694T309 704ZM263 362H315L269 -110H216L263 362ZM392 789L339 362H285L338
789H392Z" />
<glyph unicode="%" horiz-adv-x="921" d="M203 704Q271 704 311 686T368 623T386 498Q386 419 369 374T311 311T203 292Q136 292 97 310T40 374T22 498Q22 578 39 622T96 685T203 704ZM203 595Q191 595 185 590T177 565T175 498Q175 452 177 432T185 406T203 401Q216
401 222 406T230 431T233 498Q233 544 231 564T222 590T203 595ZM713 690L333 0H207L587 690H713ZM717 398Q785 398 825 380T882 317T900 192Q900 113 883 68T825 5T717 -14Q650 -14 611 4T554 68T536 192Q536 272 553 316T610 379T717 398ZM717 289Q705 289 699
284T691 259T689 192Q689 146 691 126T699 100T717 95Q730 95 736 100T744 125T747 192Q747 239 745 259T736 284T717 289Z" />
<glyph unicode="&amp;" horiz-adv-x="761" d="M335 704Q367 704 411 702T501 690L476 550Q461 550 445 550T412 551T374 552T329 553Q307 553 296 548T280 529T275 486Q275 460 279 445T295 425T329 419H723V288H317Q294 288 283 283T268 263T264 221Q264 192
267 177T282 156T317 150Q348 151 389 157T457 170L472 60Q445 35 416 19T347 -6T251 -14Q175 -14 127 4T57 64T35 176Q35 255 65 301T172 355V361Q110 367 84 405T57 520Q57 581 72 617T120 672T206 697T335 704ZM636 508V182Q636 163 643 155T669 146H719L742
12Q723 3 695 -2T639 -11T592 -14Q520 -14 480 23T439 126V358L458 508H636Z" />
<glyph unicode="&apos;" horiz-adv-x="214" d="M179 690L167 462H47L35 690H179Z" />
<glyph unicode="(" horiz-adv-x="372" d="M342 790L366 702Q288 671 258 569T228 313Q228 213 241 134T284 0T366 -77L342 -165Q178 -122 102 -6T25 312Q25 516 101 632T342 790Z" />
<glyph unicode=")" horiz-adv-x="372" d="M30 790Q194 748 270 632T347 312Q347 110 271 -6T30 -165L6 -77Q58 -54 88 0T131 133T144 313Q144 466 114 568T6 702L30 790Z" />
<glyph unicode="*" horiz-adv-x="456" d="M284 692L268 517L381 388L292 322L228 441L165 322L75 388L190 516L172 692H284ZM57 622L170 571V522L145 492L23 516L57 622ZM399 623L433 516L313 492L288 522L286 571L399 623Z" />
<glyph unicode="+" horiz-adv-x="523" d="M497 381V226H26V381H497ZM338 539V68H185V539H338Z" />
<glyph unicode="," horiz-adv-x="255" d="M147 185Q187 185 202 170T219 113V49Q219 -1 211 -37T188 -103T152 -162L74 -137Q85 -103 88 -69T93 0Q34 0 32 64L35 113Q36 154 51 169T106 185H147Z" />
<glyph unicode="-" horiz-adv-x="379" d="M335 318V196H44V318H335Z" />
<glyph unicode="." horiz-adv-x="259" d="M153 185Q194 185 209 170T225 113V72Q225 32 210 16T153 0H106Q65 0 50 16T34 72V113Q34 154 49 169T106 185H153Z" />
<glyph unicode="/" horiz-adv-x="588" d="M573 690L180 -79H15L408 690H573Z" />
<glyph unicode="0" horiz-adv-x="658" d="M328 704Q438 704 503 672T596 561T624 345Q624 208 596 130T503 19T328 -14Q219 -14 155 18T62 129T34 345Q34 482 62 560T154 671T328 704ZM327 543Q303 543 288 537T265 511T253 452T249 345Q249 278 252 239T264 180T288
154T327 147Q352 147 368 153T393 179T405 238T409 345Q409 412 406 451T393 510T368 536T327 543Z" />
<glyph unicode="1" horiz-adv-x="466" d="M394 690V0H178V432Q178 455 179 477T186 521L27 490L2 623L178 690H394Z" />
<glyph unicode="2" horiz-adv-x="600" d="M297 702Q374 702 431 688T520 637T552 530Q552 494 545 465T516 404T447 326L284 172Q307 179 329 181T376 182H568V0H33V108Q33 134 40 155T63 195L207 336Q263 392 296 435T330 502Q330 512 324 516T305 521T269 523Q232
523 200 523T132 523T46 521L39 680Q91 690 134 694T218 700T297 702Z" />
<glyph unicode="3" horiz-adv-x="578" d="M285 704Q374 704 426 690T502 640T525 543Q525 492 516 456T483 398T411 369V365Q486 354 514 314T543 192Q544 118 519 73T438 7T286 -14Q222 -14 156 -9T28 5L34 157Q81 155 112 154T170 153T226 152Q267 152 289 156T320
176T329 222Q329 249 323 264T301 285T252 291L119 289V421H252Q277 421 291 425T312 436T321 456T323 483Q323 506 317 518T294 534T246 539Q191 539 140 539T49 539L43 685Q104 695 165 699T285 704Z" />
<glyph unicode="4" horiz-adv-x="659" d="M382 690L242 303Q238 292 243 285T259 278H642V160L565 140H89Q61 140 41 154T13 193T15 243L182 690H382ZM563 554V0H366V448L401 554H563Z" />
<glyph unicode="5" horiz-adv-x="568" d="M520 690L513 535H229L223 463L351 446Q410 439 447 417T504 361T533 291T541 215Q541 167 528 126T485 53T405 5T280 -12Q225 -12 159 -7T24 6L42 167Q93 165 139 163T223 161Q263 161 284 167T315 186T326 223Q328 241
323 253T307 273T278 285T234 291L108 307Q81 311 65 330T49 375L68 690H520Z" />
<glyph unicode="6" horiz-adv-x="608" d="M347 702Q376 702 428 700T536 680L528 551Q498 551 473 551T419 551T347 551Q310 551 289 543T257 512T245 445T242 327Q242 264 244 227T253 170T274 145T315 139Q347 139 361 148T378 180T381 241Q381 273 376 288T356
309T312 314Q289 314 271 308T228 289T163 253L159 325Q193 377 223 405T289 445T377 456Q458 456 502 434T565 366T583 246Q583 177 572 128T531 48T449 3T313 -12Q235 -12 182 3T96 57T50 164T35 339Q35 457 54 529T113 638T210 689T347 702Z" />
<glyph unicode="7" horiz-adv-x="543" d="M457 690Q486 690 507 676T536 639T534 589L327 0H116L275 438Q282 458 290 478T313 517H23L14 690H457Z" />
<glyph unicode="8" horiz-adv-x="639" d="M320 704Q403 704 455 693T535 660T574 602T585 518Q585 483 574 448T540 389T477 360V356Q529 352 556 325T593 257T603 172Q603 103 580 62T496 4T320 -14Q208 -14 147 3T61 62T37 172Q37 216 47 256T84 324T163 356V360Q125
364 101 388T66 448T55 518Q55 567 66 602T105 659T186 693T320 704ZM322 292Q297 292 281 289T256 277T244 253T240 212Q240 181 246 165T270 143T321 137Q353 137 370 143T393 165T399 212Q399 237 396 252T384 276T361 288T322 292ZM321 564Q292 564 277 559T255
537T249 489Q249 462 255 448T277 429T323 424Q352 424 366 429T386 448T391 489Q391 521 386 537T365 558T321 564Z" />
<glyph unicode="9" horiz-adv-x="608" d="M296 702Q380 702 434 687T518 633T560 527T572 351Q572 233 555 161T502 52T406 1T260 -12Q229 -12 174 -9T55 10L64 140Q97 140 123 140T180 139T260 139Q298 139 319 149T350 185T362 254T365 364Q365 426 363 463T355
520T334 545T294 551Q264 551 251 542T234 511T230 449Q230 418 235 402T255 381T296 376Q319 376 337 382T379 401T443 437L447 365Q413 313 383 285T318 245T230 234Q151 234 107 260T45 333T27 444Q27 536 49 592T130 675T296 702Z" />
<glyph unicode=":" horiz-adv-x="277" d="M154 462Q195 462 210 447T226 390V349Q226 309 211 293T154 277H107Q66 277 51 293T35 349V390Q35 431 50 446T107 462H154ZM154 186Q195 186 210 171T226 114V73Q226 33 211 17T154 1H107Q66 1 51 17T35 73V114Q35 155
50 170T107 186H154Z" />
<glyph unicode=";" horiz-adv-x="277" d="M163 462Q204 462 219 447T235 390V349Q235 309 220 293T163 277H116Q75 277 60 293T44 349V390Q44 431 59 446T116 462H163ZM157 185Q197 185 212 170T229 113V49Q229 -1 221 -37T198 -103T162 -162L84 -137Q95 -103
98 -69T103 0Q44 0 42 64L45 113Q46 154 61 169T116 185H157Z" />
<glyph unicode="&lt;" horiz-adv-x="505" d="M461 541V378L202 303L461 228V65L26 223V384L461 541Z" />
<glyph unicode="=" horiz-adv-x="571" d="M526 483V337H45V483H526ZM526 267V121H45V267H526Z" />
<glyph unicode="&gt;" horiz-adv-x="502" d="M44 541L476 384V223L44 65V228L300 303L44 378V541Z" />
<glyph unicode="?" horiz-adv-x="536" d="M288 712Q404 712 459 675T515 557Q515 514 499 483T457 425T406 372T359 311T333 227H169Q166 277 176 316T205 385T242 439T275 481T292 513Q297 532 284 539T236 546Q185 546 152 546T92 546T29 546L24 684Q55 690
80 695T134 704T198 710T288 712ZM274 185Q315 185 330 170T346 113V72Q346 31 331 16T274 0H227Q186 0 171 15T155 72V113Q155 154 170 169T227 185H274Z" />
<glyph unicode="@" horiz-adv-x="801" d="M561 617Q657 617 708 576T759 428V138H606L590 201Q575 182 553 165T502 136T434 125Q393 125 358 139T301 182T279 253V298Q279 353 318 384T426 416H567V429Q567 453 557 463T517 474H399Q342 474 309 470T258 448T236
388T230 270Q230 206 234 167T250 106T287 77T352 67T451 66H760V-62Q684 -69 606 -74T451 -79Q340 -79 266 -72T146 -44T77 15T47 116T39 270Q39 361 45 422T72 522T132 581T237 609T399 617H561ZM567 329L498 324Q482 323 473 316T464 296V282Q464 270 473 262T501
254Q511 254 522 256T545 264T567 275V329Z" />
<glyph unicode="A" horiz-adv-x="683" d="M440 690Q466 690 486 675T513 634L692 0H471L367 449Q363 468 360 488T355 528H328Q326 509 323 489T316 449L212 0H-9L170 634Q177 660 197 675T243 690H440ZM525 301V149H158V301H525Z" />
<glyph unicode="B" horiz-adv-x="660" d="M350 698Q446 698 503 683T585 628T610 518Q610 444 581 406T484 361V355Q567 348 600 302T633 172Q633 101 607 62T525 8T383 -8Q309 -8 253 -8T149 -5T52 0L68 142Q94 141 169 140T344 139Q374 139 390 145T411 168T417
216Q417 248 411 265T390 288T343 294H67V421H341Q366 421 379 426T398 445T403 487Q403 514 398 527T379 546T339 551Q276 551 229 551T144 552T68 548L52 690Q97 694 140 695T233 697T350 698ZM264 690V0H52V690H264Z" />
<glyph unicode="C" horiz-adv-x="605" d="M345 702Q399 702 437 699T506 691T572 675L556 517Q521 518 491 518T427 518T345 519Q311 519 293 505T267 453T260 345Q260 275 267 238T292 186T345 171Q420 171 470 172T571 179L587 21Q535 3 481 -4T345 -12Q231
-12 162 22T63 135T32 345Q32 477 62 555T162 667T345 702Z" />
<glyph unicode="D" horiz-adv-x="701" d="M347 700Q436 700 497 684T597 628T652 519T669 345Q669 240 652 171T597 63T498 7T347 -10Q261 -10 189 -7T52 0L140 154Q175 150 228 149T347 147Q384 147 404 163T432 222T440 345Q440 425 432 468T404 527T347 543Q286
543 240 543T149 544L52 690Q118 694 188 697T347 700ZM269 690V0H52V690H269Z" />
<glyph unicode="E" horiz-adv-x="596" d="M209 694Q269 694 332 694T457 691T568 681L558 528H305Q286 528 275 518T264 492V198Q264 182 275 172T305 162H558L568 9Q518 3 457 0T333 -3T209 -4Q138 -4 93 39T47 153V537Q47 607 92 650T209 694ZM65 425H522V281H65V425Z" />
<glyph unicode="F" horiz-adv-x="574" d="M214 694Q272 694 334 694T455 690T561 680L551 528H310Q290 528 279 518T267 492V0H50V537Q50 607 96 650T214 694ZM68 411H514V267H68V411Z" />
<glyph unicode="G" horiz-adv-x="668" d="M357 704Q412 704 453 701T530 692T602 675L586 519Q548 520 514 520T442 520T358 521Q329 521 310 514T280 487T265 433T260 345Q260 275 268 238T295 186T348 171Q370 171 388 172T422 177T446 182L467 91Q455 71 428
46T358 4T261 -14Q182 -14 131 21T56 136T32 345Q32 478 63 556T166 669T357 704ZM631 397V0H471L443 107L423 144V397H631Z" />
<glyph unicode="H" horiz-adv-x="714" d="M270 690V0H53V690H270ZM455 442V290H262V442H455ZM661 690V0H444V690H661Z" />
<glyph unicode="I" horiz-adv-x="321" d="M268 690V0H53V690H268Z" />
<glyph unicode="J" horiz-adv-x="404" d="M354 690V127Q354 60 305 23T171 -14Q149 -14 118 -11T57 -3T10 12L33 148H80Q139 148 139 183V690H354Z" />
<glyph unicode="K" horiz-adv-x="676" d="M675 690L516 420Q503 397 486 381T455 359V355Q469 349 490 330T524 287L685 0H444L261 361L442 690H675ZM270 690V516Q270 478 263 438T239 362Q251 330 260 293T270 225V0H53V690H270ZM324 428V288H208V428H324Z" />
<glyph unicode="L" horiz-adv-x="557" d="M267 690V208Q267 192 278 182T309 172H541L551 10Q474 0 387 -2T214 -4Q139 -4 95 39T50 153V690H267Z" />
<glyph unicode="M" horiz-adv-x="952" d="M812 690Q885 690 888 615L912 0H717L696 528H681L613 176Q603 110 531 110H419Q348 110 336 176L267 528H252L235 0H40L64 615Q67 690 140 690H327Q397 690 409 623L459 349Q463 324 465 298T470 246H479Q482 272 484
298T491 349L538 623Q550 690 621 690H812Z" />
<glyph unicode="N" horiz-adv-x="738" d="M687 690V75Q687 0 612 0H529Q495 0 479 16T445 63L295 300Q281 326 270 356T249 418H242Q247 387 249 355T252 292V0H52V615Q52 690 127 690H210Q244 690 260 674T294 627L438 401Q452 376 465 346T491 283H498Q494 315
492 346T489 408L488 690H687Z" />
<glyph unicode="O" horiz-adv-x="707" d="M353 704Q442 704 503 688T603 631T658 522T675 345Q675 239 658 169T603 59T504 3T353 -14Q265 -14 204 2T104 59T49 169T32 345Q32 452 49 521T104 631T203 687T353 704ZM353 543Q316 543 296 527T268 468T260 345Q260
265 268 222T296 163T353 147Q390 147 410 163T438 222T446 345Q446 425 438 468T410 527T353 543Z" />
<glyph unicode="P" horiz-adv-x="646" d="M344 700Q454 700 516 680T604 608T630 465Q630 374 606 324T525 253T374 232Q324 232 274 237T181 251T106 269T63 287L66 385Q131 385 201 385T339 385Q369 385 385 391T407 415T413 465Q413 498 407 516T385 540T339
547Q237 547 165 546T67 542L52 690Q98 695 138 697T227 699T344 700ZM269 690V0H52V690H269Z" />
<glyph unicode="Q" horiz-adv-x="707" d="M353 704Q442 704 503 688T603 631T658 522T675 345Q675 239 658 169T603 59T504 3T353 -14Q265 -14 204 2T104 59T49 169T32 345Q32 452 49 521T104 631T203 687T353 704ZM294 -26Q369 -54 448 -70T623 -100L570 -275Q468
-246 388 -209T248 -129L294 -26ZM353 543Q316 543 296 527T268 468T260 345Q260 265 268 222T296 163T353 147Q390 147 410 163T438 222T446 345Q446 425 438 468T410 527T353 543Z" />
<glyph unicode="R" horiz-adv-x="676" d="M345 700Q447 700 511 681T605 617T636 490Q636 449 624 414T581 355T496 326V320Q515 318 538 309T581 277T609 212L663 0H436L391 205Q385 234 373 243T332 252Q257 253 210 253T129 254T63 257L66 405H340Q371 405
388 411T411 432T418 476Q418 505 412 520T388 541T340 547Q236 547 165 546T68 542L52 690Q98 695 138 697T227 699T345 700ZM265 690V0H52V690H265Z" />
<glyph unicode="S" horiz-adv-x="610" d="M314 704Q368 704 435 698T565 669L552 530Q507 531 441 531T309 532Q290 532 278 531T258 527T248 519T245 506Q245 492 257 483T305 459L430 407Q516 370 550 322T585 197Q585 139 571 99T525 34T438 -2T303 -14Q268
-14 197 -9T36 20L49 172Q109 171 159 170T245 168T300 167Q328 167 342 169T362 176T368 191Q368 201 364 207T350 220T321 233L184 293Q100 331 65 378T30 501Q30 560 45 599T94 661T181 694T314 704Z" />
<glyph unicode="T" horiz-adv-x="623" d="M420 690V0H203V690H420ZM613 690V528H10V690H613Z" />
<glyph unicode="U" horiz-adv-x="705" d="M658 690V285Q658 175 630 110T537 15T364 -14Q247 -14 178 15T78 109T47 285V690H264V285Q264 230 271 200T298 159T353 147Q388 147 407 158T433 200T441 285V690H658Z" />
<glyph unicode="V" horiz-adv-x="670" d="M672 690L504 58Q498 32 478 16T430 0H240Q212 0 192 16T166 58L-2 690H221L310 241Q314 222 317 202T323 162H347Q349 181 352 201T360 241L449 690H672Z" />
<glyph unicode="W" horiz-adv-x="1003" d="M983 690L897 58Q893 32 872 16T823 0H639Q611 0 590 16T565 58L518 439Q515 464 514 489T510 540H493Q492 515 490 489T485 438L439 58Q436 32 415 16T365 0H180Q152 0 131 16T106 58L20 690H234L269 267Q271 242 272
214T273 152H289Q293 178 297 209T305 268L351 626Q354 655 374 672T424 690H579Q608 690 628 673T652 626L699 266Q702 239 706 209T714 152H730Q730 180 732 210T735 265L769 690H983Z" />
<glyph unicode="X" horiz-adv-x="677" d="M668 690L511 352L682 0H467L311 352L454 690H668ZM223 690L366 352L210 0H-5L166 352L9 690H223ZM434 414V294H226V414H434Z" />
<glyph unicode="Y" horiz-adv-x="654" d="M664 690L431 205H223L-10 690H213L300 473Q309 451 313 425T321 376H334Q338 399 342 425T355 474L441 690H664ZM436 328V0H219V328H436Z" />
<glyph unicode="Z" horiz-adv-x="605" d="M328 539L567 538L268 151L29 152L328 539ZM577 152V0H29V152H577ZM567 690V538H39V690H567Z" />
<glyph unicode="[" horiz-adv-x="363" d="M339 768V640H279Q257 640 257 618V-15Q257 -37 279 -37H339V-165H162Q117 -165 89 -145T61 -64V667Q61 712 89 740T162 768H339Z" />
<glyph unicode="\" horiz-adv-x="588" d="M180 690L573 -79H408L15 690H180Z" />
<glyph unicode="]" horiz-adv-x="363" d="M201 768Q246 768 274 740T302 667V-64Q302 -109 274 -137T201 -165H24V-37H84Q106 -37 106 -15V618Q106 640 84 640H24V768H201Z" />
<glyph unicode="^" horiz-adv-x="497" d="M326 653L467 414L386 372L254 529H246L110 372L30 414L174 653H326Z" />
<glyph unicode="_" horiz-adv-x="451" d="M451 0V-122H0V0H451Z" />
<glyph unicode="`" horiz-adv-x="392" d="M119 767L352 617L295 531L40 634L119 767Z" />
<glyph unicode="a" horiz-adv-x="590" d="M333 514Q404 514 452 496T526 433T552 310V0H385L356 107L342 127V311Q341 337 329 349T283 361Q244 361 188 360T67 356L48 489Q86 496 138 501T243 510T333 514ZM471 307L470 206H263Q244 206 235 198T225 175V159Q225
146 235 137T267 128Q291 128 317 139T367 169T408 206V142Q401 125 386 99T346 47T283 4T193 -14Q147 -14 108 2T45 49T21 128V178Q21 238 65 272T186 307H471Z" />
<glyph unicode="b" horiz-adv-x="618" d="M402 514Q507 514 549 454T591 256Q591 205 581 158T542 72T461 11T322 -12Q295 -12 256 -10T176 -2T100 11T42 30L210 143Q220 139 240 135T282 130T318 129Q340 131 352 141T369 177T375 255Q375 298 370 319T352 349T314
357Q288 357 270 351T232 336L217 418Q238 442 266 464T329 500T402 514ZM252 700L254 561Q255 525 250 488T231 418L252 406V20L42 30V700H252Z" />
<glyph unicode="c" horiz-adv-x="528" d="M294 514Q325 514 362 511T436 500T503 477L482 347Q434 347 398 347T330 347Q298 347 280 339T254 311T246 251Q246 212 253 191T279 162T330 154Q347 154 372 154T429 156T491 161L510 30Q466 7 408 -2T292 -12Q194
-12 136 13T52 97T26 251Q26 348 52 405T137 488T294 514Z" />
<glyph unicode="d" horiz-adv-x="620" d="M218 514Q275 514 324 497T405 438L390 356Q370 362 352 369T302 377Q281 377 269 370T250 337T244 258Q244 212 249 191T267 163T299 156Q321 156 336 159T362 169T387 182L400 96Q380 50 335 19T209 -12Q111 -12 70
58T28 256Q28 359 49 414T113 492T218 514ZM577 700V0H410L390 96L367 112V426L373 438Q371 470 369 507T367 581V700H577Z" />
<glyph unicode="e" horiz-adv-x="590" d="M309 514Q450 514 509 469T569 336Q570 266 528 235T375 204H106V303H316Q350 303 359 309T368 341Q368 365 356 372T315 379Q286 380 271 373T251 343T245 269Q245 223 251 197T277 160T333 149Q363 149 417 151T536
160L555 34Q520 16 480 6T398 -8T310 -12Q206 -12 143 17T53 103T25 246Q25 345 53 403T143 488T309 514Z" />
<glyph unicode="f" horiz-adv-x="427" d="M276 724Q296 724 329 723T398 718T459 710L439 584H351Q323 584 313 573T303 532V0H92V561Q92 608 109 645T167 703T276 724ZM422 500V374H8V495L93 500H422Z" />
<glyph unicode="g" horiz-adv-x="604" d="M288 514Q382 514 438 499T519 449T544 356Q544 298 520 264T439 214T287 198Q193 198 136 213T54 263T29 356Q29 414 54 448T137 498T288 514ZM287 399Q250 399 237 391T224 356Q224 330 237 321T287 312Q324 312 336
321T349 356Q349 382 337 390T287 399ZM601 500L591 423L451 399L414 500H601ZM128 226L225 209Q214 207 209 195T211 170T241 156L423 144Q509 138 546 100T583 -13Q583 -84 553 -120T460 -168T294 -181Q204 -181 148 -173T61 -149T19 -105T7 -39Q7 -8 19 15T65
57T159 90L245 109L313 83L281 66Q251 45 234 35T210 17T203 -7Q203 -20 210 -27T237 -36T291 -39Q329 -39 350 -37T379 -29T387 -12Q387 1 379 6T354 14T309 19L173 29Q128 33 102 51T67 96T61 150T83 198T128 226Z" />
<glyph unicode="h" horiz-adv-x="621" d="M433 514Q581 514 581 374V0H371V307Q371 324 363 330T335 337Q316 337 293 334T231 318L209 409Q262 462 320 488T433 514ZM253 700L254 551Q254 506 248 465T233 398L253 386V0H43V700H253Z" />
<glyph unicode="i" horiz-adv-x="303" d="M256 500V0H47V500H256ZM196 729Q257 729 257 667V616Q257 554 196 554H107Q46 554 46 616V667Q46 729 107 729H196Z" />
<glyph unicode="j" horiz-adv-x="304" d="M257 500V58Q257 6 238 -43T182 -130T95 -190L-21 -98Q19 -58 33 -22T48 58V500H257ZM194 739Q255 739 255 677V626Q255 564 194 564H105Q44 564 44 626V677Q44 739 105 739H194Z" />
<glyph unicode="k" horiz-adv-x="609" d="M599 500L494 336Q483 316 465 300T436 276V272Q447 266 465 246T494 205L618 0H387L241 277L369 500H599ZM253 700V432Q253 394 248 354T232 279Q240 247 246 210T253 143V0H43V700H253ZM308 334V216H191V334H308Z" />
<glyph unicode="l" horiz-adv-x="358" d="M253 700V182Q253 163 265 155T303 146H337L360 12Q345 3 318 -2T262 -11T213 -14Q134 -14 89 23T44 126V700H253Z" />
<glyph unicode="m" horiz-adv-x="885" d="M701 514Q772 514 808 479T845 374V0H636V307Q636 324 629 330T603 337Q594 337 585 336T562 331T527 318L516 421Q560 468 602 491T701 514ZM207 500L232 398L252 386V0H43V500H207ZM404 514Q473 514 509 479T545 374V0H343V307Q343
324 335 330T309 337Q300 337 290 336T266 331T230 318L219 421Q263 468 305 491T404 514Z" />
<glyph unicode="n" horiz-adv-x="621" d="M433 514Q581 514 581 374V0H371V307Q371 324 363 330T335 337Q316 337 293 334T231 318L221 421Q271 468 326 491T433 514ZM208 500L234 398L253 386V0H43V500H208Z" />
<glyph unicode="o" horiz-adv-x="611" d="M306 514Q408 514 469 489T558 405T585 249Q585 153 558 96T470 14T306 -12Q204 -12 143 13T54 96T26 249Q26 347 53 405T142 488T306 514ZM306 372Q282 372 269 363T251 327T246 249Q246 199 251 174T269 139T306 130Q330
130 343 139T360 173T365 249Q365 301 361 327T343 362T306 372Z" />
<glyph unicode="p" horiz-adv-x="620" d="M412 512Q510 512 551 442T592 244Q592 141 571 85T507 8T403 -14Q346 -14 297 3T217 62L231 144Q251 137 269 130T319 123Q340 123 352 130T370 163T376 242Q376 296 371 321T353 354T322 361Q296 361 281 356T250 342L221
421Q234 446 262 466T330 499T412 512ZM211 500L231 421L253 405V74L247 62Q250 30 252 -8T253 -81V-180H43V500H211Z" />
<glyph unicode="q" horiz-adv-x="618" d="M296 514Q323 514 362 512T442 504T518 491T576 472L408 358Q399 363 379 367T336 372T300 373Q278 372 266 362T248 325T243 247Q243 189 255 172T303 155Q330 155 349 162T389 176L404 103Q389 80 361 53T296 7T215
-12Q111 -12 69 56T27 246Q27 304 37 353T76 438T157 494T296 514ZM366 482L576 472V-180H366V-50Q365 -14 370 24T387 94L366 106V482Z" />
<glyph unicode="r" horiz-adv-x="452" d="M207 500L233 398L253 386V0H43V500H207ZM450 514L432 322H379Q352 322 319 320T231 308L219 421Q268 468 320 491T421 514H450Z" />
<glyph unicode="s" horiz-adv-x="553" d="M256 514Q296 514 343 511T436 504T512 492L499 370Q449 370 399 370T302 370Q269 370 253 370T232 367T227 358Q227 350 238 347T286 334L401 305Q468 286 500 253T533 154Q533 91 509 55T432 4T291 -11Q255 -11 185
-8T31 10L44 132Q57 132 85 132T150 132T222 132Q270 132 293 132T323 136T330 147Q330 156 317 159T265 174L155 204Q100 220 72 243T34 298T24 368Q24 414 45 446T117 496T256 514Z" />
<glyph unicode="t" horiz-adv-x="438" d="M305 631V182Q305 163 315 155T348 146H401L424 12Q403 3 372 -2T310 -11T254 -14Q181 -14 138 23T95 126L94 631H305ZM426 500V374H10V495L106 500H426Z" />
<glyph unicode="u" horiz-adv-x="615" d="M250 500V193Q250 177 259 170T287 162Q307 162 328 165T383 182L395 79Q344 32 294 9T188 -14Q40 -14 40 126V500H250ZM572 500V0H407L381 102L361 114V500H572Z" />
<glyph unicode="v" horiz-adv-x="601" d="M604 500L456 49Q449 27 432 14T390 0H211Q187 0 170 13T145 49L-3 500H219L280 224Q285 201 288 177T294 130H307Q310 153 314 177T322 224L382 500H604Z" />
<glyph unicode="w" horiz-adv-x="876" d="M868 500L766 53Q761 29 743 15T698 0H551Q523 0 503 17T479 62L450 289Q448 312 447 333T444 377H431Q430 355 428 334T424 289L395 62Q392 34 372 17T323 0H178Q153 0 134 14T110 53L8 500H216L252 219Q254 197 256
175T260 130H272Q274 153 276 175T281 219L309 439Q312 466 332 483T380 500H495Q523 500 543 483T566 438L593 219Q595 197 598 175T603 130H615Q617 153 619 175T624 219L659 500H868Z" />
<glyph unicode="x" horiz-adv-x="606" d="M598 500L464 255L609 0H401L268 255L391 500H598ZM215 500L338 255L205 0H-3L142 255L8 500H215ZM407 316V198H201V316H407Z" />
<glyph unicode="y" horiz-adv-x="602" d="M604 500L445 14Q432 -27 408 -71T344 -149T247 -198T112 -197L98 -84Q160 -71 196 -50T252 14L289 94Q300 119 308 158T322 224L381 500H604ZM220 500L279 224Q283 201 286 177T292 130H322L257 0H211Q187 0 170 13T145
49L-3 500H220Z" />
<glyph unicode="z" horiz-adv-x="541" d="M262 366L506 365L273 134L29 135L262 366ZM512 135V0H29V135H512ZM506 500V365H35V500H506Z" />
<glyph unicode="{" horiz-adv-x="359" d="M330 768V640Q294 640 281 636T267 602V477Q268 435 259 404T224 354T151 328Q198 316 224 295T260 246T271 183V-2Q271 -31 284 -34T334 -37V-165Q241 -180 183 -164T98 -109T71 -19V203Q71 225 66 235T51 250T22 263V393Q41
399 50 403T63 419T67 457V622Q67 674 94 712T179 766T330 768Z" />
<glyph unicode="|" horiz-adv-x="276" d="M211 781V-169H65V781H211Z" />
<glyph unicode="}" horiz-adv-x="359" d="M29 768Q122 783 180 767T265 712T292 622V457Q292 431 295 420T309 404T337 393V263Q320 256 309 251T293 235T288 203V-19Q288 -70 261 -108T176 -163T25 -165V-37Q61 -37 74 -34T88 -2V183Q89 218 99 246T135 295T208
328Q161 335 136 354T101 404T92 477V602Q92 631 79 635T29 640V768Z" />
<glyph unicode="~" horiz-adv-x="500" d="M130 376Q148 376 178 370T242 356T302 342T339 333Q362 329 365 338T368 371H455Q471 284 444 243T370 202Q352 202 322 208T260 221T200 236T160 245Q138 249 135 240T132 207H45Q35 267 45 304T78 359T130 376Z" />
<glyph unicode="&#xa0;" horiz-adv-x="210" />
<glyph unicode="&#xa1;" horiz-adv-x="312" d="M238 293L260 59V-175H52V59L74 293H238ZM180 520Q221 520 236 505T252 448V407Q252 366 237 351T180 335H133Q92 335 77 350T61 407V448Q61 489 76 504T133 520H180Z" />
<glyph unicode="&#xa2;" horiz-adv-x="541" d="M296 610Q327 610 364 607T439 596T507 573L486 453Q438 453 401 453T332 453Q293 453 271 445T241 414T232 347Q232 303 240 280T271 249T332 240Q349 240 375 240T432 242T495 247L514 126Q469 103 411 94T294
84Q195 84 136 109T51 193T25 347Q25 444 51 501T137 584T296 610ZM327 175L306 0H251L272 175H327ZM370 490L330 175H275L315 490H370ZM398 690L373 490H318L342 690H398Z" />
<glyph unicode="&#xa3;" horiz-adv-x="603" d="M319 703Q342 703 379 702T461 699T553 693L543 538Q530 538 520 538T494 538T446 538T358 538Q330 538 319 529T309 499L330 304Q334 259 324 232T295 189T256 157Q277 165 298 166T342 167H575V0H38V167Q91 192
105 226T114 304L97 509Q93 567 104 604T143 663T214 694T319 703ZM489 414L484 314H37L35 414H489Z" />
<glyph unicode="&#xa4;" horiz-adv-x="575" d="M287 445Q263 445 243 433T210 400T197 354Q197 328 209 307T242 274T287 261Q311 261 331 273T364 307T377 353Q377 379 365 399T332 432T287 445ZM122 604L209 516L124 431L36 519L122 604ZM457 604L542 519L457
434L372 519L457 604ZM126 287L217 195L122 100L30 192L126 287ZM448 276L542 184L456 99L363 191L448 276ZM287 561Q345 561 392 533T467 457T496 352Q496 295 468 248T392 172T287 143Q230 143 183 171T107 247T78 352Q78 410 106 457T182 532T287 561Z" />
<glyph unicode="&#xa5;" horiz-adv-x="710" d="M692 690L459 205H251L18 690H241L328 473Q337 451 341 425T349 376H362Q366 399 370 425T383 474L469 690H692ZM464 328V0H247V328H464ZM611 228V128H101L99 228H611ZM611 358V258H101L99 358H611Z" />
<glyph unicode="&#xa6;" horiz-adv-x="278" d="M212 781V381H66V781H212ZM212 231V-169H66V231H212Z" />
<glyph unicode="&#xa7;" horiz-adv-x="565" d="M201 330Q201 294 207 275T232 244T284 212L429 136Q448 126 472 110T514 62T532 -31Q532 -96 504 -132T421 -183T282 -197Q260 -197 218 -196T129 -192T46 -185L60 -43Q84 -44 104 -44T150 -45T217 -45Q249 -45
268 -43T296 -37T307 -23Q311 -7 297 2T264 20L149 75Q87 105 60 141T33 223T57 330H201ZM283 704Q305 704 346 703T435 699T519 692L505 550Q481 552 460 552T413 552T348 551Q317 551 298 550T269 544T258 530Q254 514 268 504T301 486L416 432Q479 403 506 367T532
284T508 177H364Q364 213 358 231T334 263T281 295L136 371Q118 381 94 397T52 445T33 537Q33 603 61 639T144 690T283 704Z" />
<glyph unicode="&#xa8;" horiz-adv-x="436" d="M347 720Q386 720 386 681V618Q386 579 347 579H278Q239 579 239 618V681Q239 720 278 720H347ZM158 720Q197 720 197 681V618Q197 579 158 579H89Q50 579 50 618V681Q50 720 89 720H158Z" />
<glyph unicode="&#xa9;" horiz-adv-x="782" d="M391 704Q468 704 534 678T649 603T727 489T755 345Q755 267 727 201T650 87T534 13T391 -14Q315 -14 249 12T133 87T55 201T27 345Q27 423 55 489T132 603T248 677T391 704ZM395 541Q445 541 473 537T534 525L523
416Q491 415 465 415T395 416Q379 416 372 411T362 391T360 346Q360 316 362 301T371 281T395 276Q440 276 470 276T532 279L543 171Q510 160 478 155T395 150Q324 150 282 169T220 231T201 346Q201 418 220 461T281 522T395 541ZM391 607Q337 607 290 588T207
533T150 450T129 345Q129 288 149 240T206 157T290 103T391 83Q445 83 492 102T576 157T632 240T653 345Q653 402 633 450T576 533T493 587T391 607Z" />
<glyph unicode="&#xaa;" horiz-adv-x="433" d="M243 623Q316 623 354 593T393 482V277H272L252 349L242 363V483Q242 500 234 506T207 513Q181 513 143 513T63 510L49 606Q74 611 110 614T182 620T243 623ZM336 484L335 425L200 412Q188 411 182 407T176 394V386Q176
379 182 374T201 369Q217 369 233 376T265 395T290 419V374Q286 363 276 345T250 309T208 279T146 267Q100 267 65 291T30 363V396Q30 437 60 460T142 484H336Z" />
<glyph unicode="&#xab;" horiz-adv-x="552" d="M414 470L524 401L438 251L524 95L414 26L256 229V273L414 470ZM179 470L289 401L203 251L289 95L179 26L21 229V273L179 470Z" />
<glyph unicode="&#xac;" horiz-adv-x="571" d="M523 381V237H41V381H523ZM523 370V138L368 137V359L523 370Z" />
<glyph unicode="&#xad;" horiz-adv-x="380" d="M335 318V196H44V318H335Z" />
<glyph unicode="&#xae;" horiz-adv-x="493" d="M247 704Q309 704 359 674T439 594T469 482Q469 420 439 370T359 289T247 259Q185 259 135 289T54 369T24 482Q24 544 54 594T134 674T247 704ZM233 591V383H148V591H233ZM247 647Q202 647 165 625T105 565T82 482Q82
436 104 399T164 339T247 316Q292 316 329 338T388 398T411 482Q411 528 389 565T329 624T247 647ZM251 594Q305 594 330 581T355 530Q355 514 345 500T306 482V480Q317 479 329 474T347 446L364 383H274L263 443Q260 451 257 452T245 454Q205 454 188 454T153
455V505H248Q262 505 265 508T269 521Q269 530 266 532T248 535Q213 535 188 535T154 533L148 591Q172 593 193 593T251 594Z" />
<glyph unicode="&#xaf;" horiz-adv-x="400" d="M360 713V590H40V713H360Z" />
<glyph unicode="&#xb0;" horiz-adv-x="325" d="M163 704Q202 704 234 686T285 636T305 565Q305 526 286 494T234 444T163 425Q124 425 92 443T40 494T20 565Q20 604 39 635T91 685T163 704ZM163 614Q144 614 130 600T116 565Q116 551 122 540T139 522T163 515Q176
515 186 521T202 539T209 565Q209 586 196 600T163 614Z" />
<glyph unicode="&#xb1;" horiz-adv-x="558" d="M514 465V311H44V465H514ZM514 174V19H44V174H514ZM355 573L356 204H203V573H355Z" />
<glyph unicode="&#xb2;" horiz-adv-x="431" d="M201 781Q264 781 305 772T366 738T386 663Q386 644 370 616T322 561L231 486Q246 491 259 493T288 494L396 491V360H37V439Q37 459 41 474T59 503L134 566Q155 584 171 598T197 623T212 640Q217 647 209 648T184
650Q150 650 121 650T45 652L41 769Q91 777 135 779T201 781Z" />
<glyph unicode="&#xb3;" horiz-adv-x="411" d="M207 783Q300 783 336 763T372 686Q372 638 357 613T292 581V579Q345 572 364 549T384 475Q385 407 345 379T207 351Q163 351 118 354T32 363L36 476Q68 475 88 475T125 475T161 475Q201 475 210 478T220 498Q220
508 218 513T206 520T179 522L92 525V618L179 622Q196 623 204 624T214 629T217 642Q217 654 211 657T178 660Q141 660 107 660T46 662L42 771Q84 777 125 780T207 783Z" />
<glyph unicode="&#xb4;" horiz-adv-x="392" d="M273 747L352 614L97 511L40 597L273 747Z" />
<glyph unicode="&#xb5;" horiz-adv-x="636" d="M253 500V208Q253 177 261 170T283 162Q299 162 316 177T346 227T359 314L362 84Q350 57 330 35T282 0T223 -14Q174 -14 133 -2T68 42T43 129V500H253ZM252 118V-65L226 -180H43V186L252 118ZM568 500V162Q568 146
570 136T577 122T593 117H623L630 15Q602 5 564 -4T483 -13Q434 -13 398 9T362 81V84L359 100V500H568Z" />
<glyph unicode="&#xb6;" horiz-adv-x="621" d="M357 702Q397 702 451 699T549 685L543 567Q517 572 483 574T416 578T358 579L266 200Q134 210 77 268T20 450Q20 543 54 598T162 677T357 702ZM383 685V-210H256V685H383ZM549 685V0H422V685H549Z" />
<glyph unicode="&#xb7;" horiz-adv-x="265" d="M156 351Q197 351 212 336T228 279V238Q228 198 213 182T156 166H109Q68 166 53 182T37 238V279Q37 320 52 335T109 351H156Z" />
<glyph unicode="&#xb8;" horiz-adv-x="263" d="M72 -33Q135 -26 174 -26T232 -42T248 -98Q246 -155 214 -190T129 -239T14 -245L36 -167Q69 -167 94 -159T123 -116Q125 -105 113 -105T53 -105L72 -33Z" />
<glyph unicode="&#xb9;" horiz-adv-x="321" d="M275 774V360H115V591Q115 606 116 620T121 651L24 637L6 735L115 774H275Z" />
<glyph unicode="&#xba;" horiz-adv-x="435" d="M218 623Q323 623 365 583T408 444Q408 380 390 342T330 286T218 269Q113 269 70 308T27 444Q27 542 70 582T218 623ZM218 521Q197 521 191 508T185 444Q185 397 191 384T218 370Q238 370 244 383T250 444Q250 494
244 507T218 521Z" />
<glyph unicode="&#xbb;" horiz-adv-x="552" d="M138 470L296 273V229L138 26L28 95L114 251L28 401L138 470ZM373 470L531 273V229L373 26L263 95L349 251L263 401L373 470Z" />
<glyph unicode="&#xbc;" horiz-adv-x="944" d="M683 690L296 0H170L557 690H683ZM280 690V276H120V507Q120 522 121 536T126 567L37 553L19 651L120 690H280ZM751 414L668 187Q666 181 668 179T678 177H920V90L876 76H556Q528 76 513 96T507 141L610 414H751ZM875
331V0H728V270L753 331H875Z" />
<glyph unicode="&#xbd;" horiz-adv-x="943" d="M683 690L296 0H170L556 690H683ZM280 690V276H120V507Q120 522 121 536T126 567L37 553L19 651L120 690H280ZM721 421Q784 421 824 412T884 378T904 303Q904 284 888 256T841 201L754 126Q769 131 781 133T809 134L913
131V0H560V79Q560 99 564 114T582 143L654 206Q683 232 703 251T730 280Q735 287 728 288T704 290Q670 290 642 290T568 292L564 409Q613 417 656 419T721 421Z" />
<glyph unicode="&#xbe;" horiz-adv-x="1017" d="M759 690L372 0H246L632 690H759ZM203 696Q294 696 328 676T363 599Q363 551 349 526T285 494V492Q338 485 356 462T375 388Q376 320 337 292T202 264Q159 264 115 267T30 276L34 389Q66 388 86 388T122 388T156
388Q194 388 202 391T211 411Q211 423 209 428T199 436T174 438L89 437V532H174Q190 532 197 533T206 540T208 555Q208 567 203 569T173 573Q137 574 104 574T44 575L40 684Q81 690 122 693T203 696ZM826 414L743 187Q741 181 744 179T754 177H995V90L951 76H632Q603
76 588 96T582 141L685 414H826ZM950 331V0H803V270L828 331H950Z" />
<glyph unicode="&#xbf;" horiz-adv-x="531" d="M365 291Q368 241 358 202T329 133T292 79T259 37T242 5Q238 -14 251 -21T298 -28Q350 -28 382 -28T442 -28T505 -28L510 -166Q479 -172 454 -177T400 -186T336 -192T246 -194Q131 -194 75 -156T19 -39Q19 5 35 36T77
93T128 146T175 207T201 291H365ZM307 518Q348 518 363 503T379 446V405Q379 364 364 349T307 333H260Q219 333 204 348T188 405V446Q188 487 203 502T260 518H307Z" />
<glyph unicode="&#xc0;" horiz-adv-x="683" d="M440 690Q466 690 486 675T513 634L692 0H471L367 449Q363 468 360 488T355 528H328Q326 509 323 489T316 449L212 0H-9L170 634Q177 660 197 675T243 690H440ZM525 301V149H158V301H525ZM210 976L443 826L386 740L131
843L210 976Z" />
<glyph unicode="&#xc1;" horiz-adv-x="683" d="M440 690Q466 690 486 675T513 634L692 0H471L367 449Q363 468 360 488T355 528H328Q326 509 323 489T316 449L212 0H-9L170 634Q177 660 197 675T243 690H440ZM525 301V149H158V301H525ZM474 956L553 823L298 720L241
806L474 956Z" />
<glyph unicode="&#xc2;" horiz-adv-x="683" d="M440 690Q466 690 486 675T513 634L692 0H471L367 449Q363 468 360 488T355 528H328Q326 509 323 489T316 449L212 0H-9L170 634Q177 660 197 675T243 690H440ZM525 301V149H158V301H525ZM420 930L555 789L507 720L348
813H340L178 720L128 797L268 930H420Z" />
<glyph unicode="&#xc3;" horiz-adv-x="683" d="M440 690Q466 690 486 675T513 634L692 0H471L367 449Q363 468 360 488T355 528H328Q326 509 323 489T316 449L212 0H-9L170 634Q177 660 197 675T243 690H440ZM525 301V149H158V301H525ZM237 920Q263 918 285 913T327
901T367 888T406 877Q429 873 432 882T435 915H522Q538 831 511 787T437 746Q403 749 373 757T316 775T267 789Q245 793 242 784T239 751H152Q141 811 152 849T187 904T237 920Z" />
<glyph unicode="&#xc4;" horiz-adv-x="683" d="M440 690Q466 690 486 675T513 634L692 0H471L367 449Q363 468 360 488T355 528H328Q326 509 323 489T316 449L212 0H-9L170 634Q177 660 197 675T243 690H440ZM525 301V149H158V301H525ZM470 904Q509 904 509 865V802Q509
763 470 763H401Q362 763 362 802V865Q362 904 401 904H470ZM281 904Q320 904 320 865V802Q320 763 281 763H212Q173 763 173 802V865Q173 904 212 904H281Z" />
<glyph unicode="&#xc5;" horiz-adv-x="683" d="M440 690Q466 690 486 675T513 634L692 0H471L367 449Q363 468 360 488T355 528H328Q326 509 323 489T316 449L212 0H-9L170 634Q177 660 197 675T243 690H440ZM525 301V149H158V301H525ZM343 963Q378 963 407 946T454
901T472 838Q472 803 455 775T408 730T343 713Q308 713 279 729T232 774T214 838Q214 873 231 901T278 946T343 963ZM343 883Q325 883 312 870T299 838Q299 819 312 806T343 793Q361 793 374 806T387 838Q387 856 374 869T343 883Z" />
<glyph unicode="&#xc6;" horiz-adv-x="954" d="M576 692Q672 692 753 691T926 681L916 531H680Q663 531 652 521T641 495V195Q641 179 651 169T680 159H916L926 9Q848 -1 760 -2T585 -4Q517 -4 478 39T439 153V498Q439 514 443 530T454 560H440Q433 550 428 538T417
516L202 0H-19L222 534Q241 576 265 606T328 655T427 683T576 692ZM488 309V161H130L131 309H488ZM447 420H882V286H447V420Z" />
<glyph unicode="&#xc7;" horiz-adv-x="605" d="M345 702Q399 702 437 699T506 691T572 675L556 517Q521 518 491 518T427 518T345 519Q311 519 293 505T267 453T260 345Q260 275 267 238T292 186T345 171Q420 171 470 172T571 179L587 21Q535 3 481 -4T345 -12Q231
-12 162 22T63 135T32 345Q32 477 62 555T162 667T345 702ZM255 -65Q318 -58 357 -58T415 -74T431 -130Q429 -187 397 -222T312 -271T197 -277L219 -199Q252 -199 277 -191T306 -148Q308 -137 296 -137T236 -137L255 -65Z" />
<glyph unicode="&#xc8;" horiz-adv-x="596" d="M209 694Q269 694 332 694T457 691T568 681L558 528H305Q286 528 275 518T264 492V198Q264 182 275 172T305 162H558L568 9Q518 3 457 0T333 -3T209 -4Q138 -4 93 39T47 153V537Q47 607 92 650T209 694ZM65 425H522V281H65V425ZM190
976L423 826L366 740L111 843L190 976Z" />
<glyph unicode="&#xc9;" horiz-adv-x="596" d="M209 694Q269 694 332 694T457 691T568 681L558 528H305Q286 528 275 518T264 492V198Q264 182 275 172T305 162H558L568 9Q518 3 457 0T333 -3T209 -4Q138 -4 93 39T47 153V537Q47 607 92 650T209 694ZM65 425H522V281H65V425ZM454
956L533 823L278 720L221 806L454 956Z" />
<glyph unicode="&#xca;" horiz-adv-x="596" d="M209 694Q269 694 332 694T457 691T568 681L558 528H305Q286 528 275 518T264 492V198Q264 182 275 172T305 162H558L568 9Q518 3 457 0T333 -3T209 -4Q138 -4 93 39T47 153V537Q47 607 92 650T209 694ZM65 425H522V281H65V425ZM400
930L535 789L487 720L328 813H320L158 720L108 797L248 930H400Z" />
<glyph unicode="&#xcb;" horiz-adv-x="596" d="M209 694Q269 694 332 694T457 691T568 681L558 528H305Q286 528 275 518T264 492V198Q264 182 275 172T305 162H558L568 9Q518 3 457 0T333 -3T209 -4Q138 -4 93 39T47 153V537Q47 607 92 650T209 694ZM65 425H522V281H65V425ZM450
904Q489 904 489 865V802Q489 763 450 763H381Q342 763 342 802V865Q342 904 381 904H450ZM261 904Q300 904 300 865V802Q300 763 261 763H192Q153 763 153 802V865Q153 904 192 904H261Z" />
<glyph unicode="&#xcc;" horiz-adv-x="321" d="M268 690V0H53V690H268ZM28 976L261 826L204 740L-51 843L28 976Z" />
<glyph unicode="&#xcd;" horiz-adv-x="321" d="M268 690V0H53V690H268ZM292 956L371 823L116 720L59 806L292 956Z" />
<glyph unicode="&#xce;" horiz-adv-x="321" d="M268 690V0H53V690H268ZM238 930L373 789L325 720L166 813H158L-4 720L-54 797L86 930H238Z" />
<glyph unicode="&#xcf;" horiz-adv-x="321" d="M268 690V0H53V690H268ZM288 904Q327 904 327 865V802Q327 763 288 763H219Q180 763 180 802V865Q180 904 219 904H288ZM99 904Q138 904 138 865V802Q138 763 99 763H30Q-9 763 -9 802V865Q-9 904 30 904H99Z" />
<glyph unicode="&#xd0;" horiz-adv-x="701" d="M368 409V305H7V409H368ZM347 700Q436 700 497 684T597 628T652 519T669 345Q669 240 652 171T597 63T498 7T347 -10Q261 -10 189 -7T52 0L140 154Q175 150 228 149T347 147Q384 147 404 163T432 222T440 345Q440
425 432 468T404 527T347 543Q286 543 240 543T149 544L52 690Q118 694 188 697T347 700ZM269 690V0H52V690H269Z" />
<glyph unicode="&#xd1;" horiz-adv-x="738" d="M687 690V75Q687 0 612 0H529Q495 0 479 16T445 63L295 300Q281 326 270 356T249 418H242Q247 387 249 355T252 292V0H52V615Q52 690 127 690H210Q244 690 260 674T294 627L438 401Q452 376 465 346T491 283H498Q494
315 492 346T489 408L488 690H687ZM275 920Q301 918 323 913T365 901T405 888T444 877Q467 873 470 882T473 915H560Q576 831 549 787T475 746Q441 749 411 757T354 775T305 789Q283 793 280 784T277 751H190Q179 811 190 849T225 904T275 920Z" />
<glyph unicode="&#xd2;" horiz-adv-x="707" d="M353 704Q442 704 503 688T603 631T658 522T675 345Q675 239 658 169T603 59T504 3T353 -14Q265 -14 204 2T104 59T49 169T32 345Q32 452 49 521T104 631T203 687T353 704ZM353 543Q316 543 296 527T268 468T260
345Q260 265 268 222T296 163T353 147Q390 147 410 163T438 222T446 345Q446 425 438 468T410 527T353 543ZM219 976L452 826L395 740L140 843L219 976Z" />
<glyph unicode="&#xd3;" horiz-adv-x="707" d="M353 704Q442 704 503 688T603 631T658 522T675 345Q675 239 658 169T603 59T504 3T353 -14Q265 -14 204 2T104 59T49 169T32 345Q32 452 49 521T104 631T203 687T353 704ZM353 543Q316 543 296 527T268 468T260
345Q260 265 268 222T296 163T353 147Q390 147 410 163T438 222T446 345Q446 425 438 468T410 527T353 543ZM483 976L562 843L307 740L250 826L483 976Z" />
<glyph unicode="&#xd4;" horiz-adv-x="707" d="M353 704Q442 704 503 688T603 631T658 522T675 345Q675 239 658 169T603 59T504 3T353 -14Q265 -14 204 2T104 59T49 169T32 345Q32 452 49 521T104 631T203 687T353 704ZM353 543Q316 543 296 527T268 468T260
345Q260 265 268 222T296 163T353 147Q390 147 410 163T438 222T446 345Q446 425 438 468T410 527T353 543ZM429 930L564 789L516 720L357 813H349L187 720L137 797L277 930H429Z" />
<glyph unicode="&#xd5;" horiz-adv-x="707" d="M353 704Q442 704 503 688T603 631T658 522T675 345Q675 239 658 169T603 59T504 3T353 -14Q265 -14 204 2T104 59T49 169T32 345Q32 452 49 521T104 631T203 687T353 704ZM353 543Q316 543 296 527T268 468T260
345Q260 265 268 222T296 163T353 147Q390 147 410 163T438 222T446 345Q446 425 438 468T410 527T353 543ZM246 920Q272 918 294 913T336 901T376 888T415 877Q438 873 441 882T444 915H531Q547 831 520 787T446 746Q412 749 382 757T325 775T276 789Q254 793
251 784T248 751H161Q150 811 161 849T196 904T246 920Z" />
<glyph unicode="&#xd6;" horiz-adv-x="707" d="M353 704Q442 704 503 688T603 631T658 522T675 345Q675 239 658 169T603 59T504 3T353 -14Q265 -14 204 2T104 59T49 169T32 345Q32 452 49 521T104 631T203 687T353 704ZM353 543Q316 543 296 527T268 468T260
345Q260 265 268 222T296 163T353 147Q390 147 410 163T438 222T446 345Q446 425 438 468T410 527T353 543ZM479 904Q518 904 518 865V802Q518 763 479 763H410Q371 763 371 802V865Q371 904 410 904H479ZM290 904Q329 904 329 865V802Q329 763 290 763H221Q182
763 182 802V865Q182 904 221 904H290Z" />
<glyph unicode="&#xd7;" horiz-adv-x="506" d="M392 516L19 185L115 70L489 400L392 516ZM115 516L19 400L392 70L489 185L115 516Z" />
<glyph unicode="&#xd8;" horiz-adv-x="707" d="M507 757L565 730L191 -71L133 -44L507 757ZM353 704Q442 704 503 688T603 631T658 522T675 345Q675 239 658 169T603 59T504 3T353 -14Q265 -14 204 2T104 59T49 169T32 345Q32 452 49 521T104 631T203 687T353
704ZM353 543Q316 543 296 527T268 468T260 345Q260 265 268 222T296 163T353 147Q390 147 410 163T438 222T446 345Q446 425 438 468T410 527T353 543Z" />
<glyph unicode="&#xd9;" horiz-adv-x="705" d="M658 690V285Q658 175 630 110T537 15T364 -14Q247 -14 178 15T78 109T47 285V690H264V285Q264 230 271 200T298 159T353 147Q388 147 407 158T433 200T441 285V690H658ZM221 976L454 826L397 740L142 843L221 976Z" />
<glyph unicode="&#xda;" horiz-adv-x="705" d="M658 690V285Q658 175 630 110T537 15T364 -14Q247 -14 178 15T78 109T47 285V690H264V285Q264 230 271 200T298 159T353 147Q388 147 407 158T433 200T441 285V690H658ZM485 956L564 823L309 720L252 806L485 956Z" />
<glyph unicode="&#xdb;" horiz-adv-x="705" d="M658 690V285Q658 175 630 110T537 15T364 -14Q247 -14 178 15T78 109T47 285V690H264V285Q264 230 271 200T298 159T353 147Q388 147 407 158T433 200T441 285V690H658ZM431 930L566 789L518 720L359 813H351L189
720L139 797L279 930H431Z" />
<glyph unicode="&#xdc;" horiz-adv-x="705" d="M658 690V285Q658 175 630 110T537 15T364 -14Q247 -14 178 15T78 109T47 285V690H264V285Q264 230 271 200T298 159T353 147Q388 147 407 158T433 200T441 285V690H658ZM481 904Q520 904 520 865V802Q520 763 481
763H412Q373 763 373 802V865Q373 904 412 904H481ZM292 904Q331 904 331 865V802Q331 763 292 763H223Q184 763 184 802V865Q184 904 223 904H292Z" />
<glyph unicode="&#xdd;" horiz-adv-x="654" d="M664 690L431 205H223L-10 690H213L300 473Q309 451 313 425T321 376H334Q338 399 342 425T355 474L441 690H664ZM436 328V0H219V328H436ZM459 956L538 823L283 720L226 806L459 956Z" />
<glyph unicode="&#xde;" horiz-adv-x="633" d="M337 578Q444 578 505 558T591 486T616 343Q616 252 592 202T514 131T367 110Q318 110 270 115T179 129T106 147T64 165L67 263Q130 263 197 263T332 263Q359 263 373 269T393 293T399 343Q399 376 394 393T374 418T332
425Q233 425 163 424T68 420L53 568Q98 573 137 575T223 577T337 578ZM270 690V0H53V690H270Z" />
<glyph unicode="&#xdf;" horiz-adv-x="738" d="M368 742Q475 742 531 725T607 671T627 574Q627 554 624 539T611 505T581 461Q571 448 562 435T546 409T539 386Q539 370 557 355T598 319L650 277Q681 250 699 232T724 193T732 141Q732 93 715 59T652 7T526 -11Q483
-11 443 -8T345 0L358 128Q384 128 411 128T475 128Q493 128 502 128T515 133T519 148Q519 159 508 171T479 198T440 231L410 251Q378 277 360 304T341 370Q341 392 348 407T370 440T402 484Q422 513 429 527T436 560Q436 577 431 586T412 598T370 602Q341 602
326 598T305 580T300 541V0H90V566Q90 615 105 649T152 703T238 733T368 742ZM192 500V374H8V495L90 500H192Z" />
<glyph unicode="&#xe0;" horiz-adv-x="590" d="M333 514Q404 514 452 496T526 433T552 310V0H385L356 107L342 127V311Q341 337 329 349T283 361Q244 361 188 360T67 356L48 489Q86 496 138 501T243 510T333 514ZM471 307L470 206H263Q244 206 235 198T225 175V159Q225
146 235 137T267 128Q291 128 317 139T367 169T408 206V142Q401 125 386 99T346 47T283 4T193 -14Q147 -14 108 2T45 49T21 128V178Q21 238 65 272T186 307H471ZM170 806L403 656L346 570L91 673L170 806Z" />
<glyph unicode="&#xe1;" horiz-adv-x="590" d="M333 514Q404 514 452 496T526 433T552 310V0H385L356 107L342 127V311Q341 337 329 349T283 361Q244 361 188 360T67 356L48 489Q86 496 138 501T243 510T333 514ZM471 307L470 206H263Q244 206 235 198T225 175V159Q225
146 235 137T267 128Q291 128 317 139T367 169T408 206V142Q401 125 386 99T346 47T283 4T193 -14Q147 -14 108 2T45 49T21 128V178Q21 238 65 272T186 307H471ZM434 786L513 653L258 550L201 636L434 786Z" />
<glyph unicode="&#xe2;" horiz-adv-x="590" d="M333 514Q404 514 452 496T526 433T552 310V0H385L356 107L342 127V311Q341 337 329 349T283 361Q244 361 188 360T67 356L48 489Q86 496 138 501T243 510T333 514ZM471 307L470 206H263Q244 206 235 198T225 175V159Q225
146 235 137T267 128Q291 128 317 139T367 169T408 206V142Q401 125 386 99T346 47T283 4T193 -14Q147 -14 108 2T45 49T21 128V178Q21 238 65 272T186 307H471ZM380 760L515 619L467 550L308 643H300L138 550L88 627L228 760H380Z" />
<glyph unicode="&#xe3;" horiz-adv-x="590" d="M333 514Q404 514 452 496T526 433T552 310V0H385L356 107L342 127V311Q341 337 329 349T283 361Q244 361 188 360T67 356L48 489Q86 496 138 501T243 510T333 514ZM471 307L470 206H263Q244 206 235 198T225 175V159Q225
146 235 137T267 128Q291 128 317 139T367 169T408 206V142Q401 125 386 99T346 47T283 4T193 -14Q147 -14 108 2T45 49T21 128V178Q21 238 65 272T186 307H471ZM197 750Q223 748 245 743T287 731T327 718T366 707Q389 703 392 712T395 745H482Q498 661 471 617T397
576Q363 579 333 587T276 605T227 619Q205 623 202 614T199 581H112Q101 641 112 679T147 734T197 750Z" />
<glyph unicode="&#xe4;" horiz-adv-x="590" d="M333 514Q404 514 452 496T526 433T552 310V0H385L356 107L342 127V311Q341 337 329 349T283 361Q244 361 188 360T67 356L48 489Q86 496 138 501T243 510T333 514ZM471 307L470 206H263Q244 206 235 198T225 175V159Q225
146 235 137T267 128Q291 128 317 139T367 169T408 206V142Q401 125 386 99T346 47T283 4T193 -14Q147 -14 108 2T45 49T21 128V178Q21 238 65 272T186 307H471ZM430 734Q469 734 469 695V632Q469 593 430 593H361Q322 593 322 632V695Q322 734 361 734H430ZM241
734Q280 734 280 695V632Q280 593 241 593H172Q133 593 133 632V695Q133 734 172 734H241Z" />
<glyph unicode="&#xe5;" horiz-adv-x="590" d="M333 514Q404 514 452 496T526 433T552 310V0H385L356 107L342 127V311Q341 337 329 349T283 361Q244 361 188 360T67 356L48 489Q86 496 138 501T243 510T333 514ZM471 307L470 206H263Q244 206 235 198T225 175V159Q225
146 235 137T267 128Q291 128 317 139T367 169T408 206V142Q401 125 386 99T346 47T283 4T193 -14Q147 -14 108 2T45 49T21 128V178Q21 238 65 272T186 307H471ZM303 793Q338 793 367 776T414 731T432 668Q432 633 415 605T368 560T303 543Q268 543 239 559T192
604T174 668Q174 703 191 731T238 776T303 793ZM303 713Q285 713 272 700T259 668Q259 649 272 636T303 623Q321 623 334 636T347 668Q347 686 334 699T303 713Z" />
<glyph unicode="&#xe6;" horiz-adv-x="886" d="M610 514Q749 514 806 469T865 336Q866 290 848 261T788 218T672 204H413V303H613Q646 303 655 309T664 341Q664 365 653 372T616 379Q585 380 569 373T548 343T542 269Q542 223 548 197T574 160T634 149Q662 149
715 151T832 160L851 34Q816 16 778 6T698 -8T611 -12Q508 -12 447 17T359 103T331 246Q331 345 358 403T447 488T610 514ZM462 304L461 204L261 206Q243 206 234 198T225 175V159Q225 146 235 137T264 128Q287 128 311 139T359 169T398 206L408 132Q401 116 386
92T346 44T282 3T189 -14Q144 -14 106 2T44 49T21 128V178Q21 236 64 270T182 304H462ZM327 514Q397 514 444 496T517 433T542 310V224H331V311Q331 337 319 349T277 361Q239 361 184 360T66 356L47 489Q84 496 135 501T238 510T327 514Z" />
<glyph unicode="&#xe7;" horiz-adv-x="528" d="M294 514Q325 514 362 511T436 500T503 477L482 347Q434 347 398 347T330 347Q298 347 280 339T254 311T246 251Q246 212 253 191T279 162T330 154Q347 154 372 154T429 156T491 161L510 30Q466 7 408 -2T292 -12Q194
-12 136 13T52 97T26 251Q26 348 52 405T137 488T294 514ZM208 -50Q271 -43 310 -43T368 -59T384 -115Q382 -172 350 -207T265 -256T150 -262L172 -184Q205 -184 230 -176T259 -133Q261 -122 249 -122T189 -122L208 -50Z" />
<glyph unicode="&#xe8;" horiz-adv-x="590" d="M309 514Q450 514 509 469T569 336Q570 266 528 235T375 204H106V303H316Q350 303 359 309T368 341Q368 365 356 372T315 379Q286 380 271 373T251 343T245 269Q245 223 251 197T277 160T333 149Q363 149 417 151T536
160L555 34Q520 16 480 6T398 -8T310 -12Q206 -12 143 17T53 103T25 246Q25 345 53 403T143 488T309 514ZM179 798L412 648L355 562L100 665L179 798Z" />
<glyph unicode="&#xe9;" horiz-adv-x="590" d="M309 514Q450 514 509 469T569 336Q570 266 528 235T375 204H106V303H316Q350 303 359 309T368 341Q368 365 356 372T315 379Q286 380 271 373T251 343T245 269Q245 223 251 197T277 160T333 149Q363 149 417 151T536
160L555 34Q520 16 480 6T398 -8T310 -12Q206 -12 143 17T53 103T25 246Q25 345 53 403T143 488T309 514ZM443 778L522 645L267 542L210 628L443 778Z" />
<glyph unicode="&#xea;" horiz-adv-x="590" d="M309 514Q450 514 509 469T569 336Q570 266 528 235T375 204H106V303H316Q350 303 359 309T368 341Q368 365 356 372T315 379Q286 380 271 373T251 343T245 269Q245 223 251 197T277 160T333 149Q363 149 417 151T536
160L555 34Q520 16 480 6T398 -8T310 -12Q206 -12 143 17T53 103T25 246Q25 345 53 403T143 488T309 514ZM389 752L524 611L476 542L317 635H309L147 542L97 619L237 752H389Z" />
<glyph unicode="&#xeb;" horiz-adv-x="590" d="M309 514Q450 514 509 469T569 336Q570 266 528 235T375 204H106V303H316Q350 303 359 309T368 341Q368 365 356 372T315 379Q286 380 271 373T251 343T245 269Q245 223 251 197T277 160T333 149Q363 149 417 151T536
160L555 34Q520 16 480 6T398 -8T310 -12Q206 -12 143 17T53 103T25 246Q25 345 53 403T143 488T309 514ZM439 726Q478 726 478 687V624Q478 585 439 585H370Q331 585 331 624V687Q331 726 370 726H439ZM250 726Q289 726 289 687V624Q289 585 250 585H181Q142 585
142 624V687Q142 726 181 726H250Z" />
<glyph unicode="&#xec;" horiz-adv-x="305" d="M258 500V0H47V500H258ZM273 798L506 648L449 562L194 665L273 798Z" />
<glyph unicode="&#xed;" horiz-adv-x="305" d="M258 500V0H47V500H258ZM281 778L360 645L105 542L48 628L281 778Z" />
<glyph unicode="&#xee;" horiz-adv-x="305" d="M258 500V0H47V500H258ZM483 752L618 611L570 542L411 635H403L241 542L191 619L331 752H483Z" />
<glyph unicode="&#xef;" horiz-adv-x="305" d="M258 500V0H47V500H258ZM533 726Q572 726 572 687V624Q572 585 533 585H464Q425 585 425 624V687Q425 726 464 726H533ZM344 726Q383 726 383 687V624Q383 585 344 585H275Q236 585 236 624V687Q236 726 275 726H344Z" />
<glyph unicode="&#xf0;" horiz-adv-x="604" d="M146 698Q236 704 306 687T427 634T511 545T560 428T576 291Q576 204 560 146T509 52T422 2T297 -14Q158 -14 93 41T27 214Q27 296 49 349T120 427T252 453Q278 453 313 449T381 428T431 376L423 292Q404 300 372
305T302 311Q284 311 272 306T253 282T247 218Q247 165 257 148T299 130Q324 130 336 142T352 188T356 290Q356 353 352 401T335 483T297 537T231 565T129 568L146 698ZM432 734L485 673L244 463L190 524L432 734Z" />
<glyph unicode="&#xf1;" horiz-adv-x="621" d="M433 514Q581 514 581 374V0H371V307Q371 324 363 330T335 337Q316 337 293 334T231 318L221 421Q271 468 326 491T433 514ZM208 500L234 398L253 386V0H43V500H208ZM206 742Q232 740 254 735T296 723T336 710T375
699Q398 695 401 704T404 737H491Q507 653 480 609T406 568Q372 571 342 579T285 597T236 611Q214 615 211 606T208 573H121Q110 633 121 671T156 726T206 742Z" />
<glyph unicode="&#xf2;" horiz-adv-x="611" d="M306 514Q408 514 469 489T558 405T585 249Q585 153 558 96T470 14T306 -12Q204 -12 143 13T54 96T26 249Q26 347 53 405T142 488T306 514ZM306 372Q282 372 269 363T251 327T246 249Q246 199 251 174T269 139T306
130Q330 130 343 139T360 173T365 249Q365 301 361 327T343 362T306 372ZM173 788L406 638L349 552L94 655L173 788Z" />
<glyph unicode="&#xf3;" horiz-adv-x="611" d="M306 514Q408 514 469 489T558 405T585 249Q585 153 558 96T470 14T306 -12Q204 -12 143 13T54 96T26 249Q26 347 53 405T142 488T306 514ZM306 372Q282 372 269 363T251 327T246 249Q246 199 251 174T269 139T306
130Q330 130 343 139T360 173T365 249Q365 301 361 327T343 362T306 372ZM437 768L516 635L261 532L204 618L437 768Z" />
<glyph unicode="&#xf4;" horiz-adv-x="611" d="M306 514Q408 514 469 489T558 405T585 249Q585 153 558 96T470 14T306 -12Q204 -12 143 13T54 96T26 249Q26 347 53 405T142 488T306 514ZM306 372Q282 372 269 363T251 327T246 249Q246 199 251 174T269 139T306
130Q330 130 343 139T360 173T365 249Q365 301 361 327T343 362T306 372ZM383 998L518 857L470 788L311 881H303L141 788L91 865L231 998H383Z" />
<glyph unicode="&#xf5;" horiz-adv-x="611" d="M306 514Q408 514 469 489T558 405T585 249Q585 153 558 96T470 14T306 -12Q204 -12 143 13T54 96T26 249Q26 347 53 405T142 488T306 514ZM306 372Q282 372 269 363T251 327T246 249Q246 199 251 174T269 139T306
130Q330 130 343 139T360 173T365 249Q365 301 361 327T343 362T306 372ZM200 732Q226 730 248 725T290 713T330 700T369 689Q392 685 395 694T398 727H485Q501 643 474 599T400 558Q366 561 336 569T279 587T230 601Q208 605 205 596T202 563H115Q104 623 115
661T150 716T200 732Z" />
<glyph unicode="&#xf6;" horiz-adv-x="611" d="M306 514Q408 514 469 489T558 405T585 249Q585 153 558 96T470 14T306 -12Q204 -12 143 13T54 96T26 249Q26 347 53 405T142 488T306 514ZM306 372Q282 372 269 363T251 327T246 249Q246 199 251 174T269 139T306
130Q330 130 343 139T360 173T365 249Q365 301 361 327T343 362T306 372ZM433 972Q472 972 472 933V870Q472 831 433 831H364Q325 831 325 870V933Q325 972 364 972H433ZM244 972Q283 972 283 933V870Q283 831 244 831H175Q136 831 136 870V933Q136 972 175 972H244Z"
/>
<glyph unicode="&#xf7;" horiz-adv-x="535" d="M508 365V219H27V365H508ZM292 176Q336 176 352 160T369 99V81Q369 38 353 21T292 4H242Q198 4 182 21T165 81V99Q165 143 181 159T242 176H292ZM292 577Q336 577 352 561T369 500V482Q369 438 353 422T292 405H242Q198
405 182 421T165 482V500Q165 544 181 560T242 577H292Z" />
<glyph unicode="&#xf8;" horiz-adv-x="611" d="M437 597L483 575L173 -93L127 -71L437 597ZM306 514Q408 514 469 489T558 405T585 249Q585 153 558 96T470 14T306 -12Q204 -12 143 13T54 96T26 249Q26 347 53 405T142 488T306 514ZM306 372Q282 372 269 363T251
327T246 249Q246 199 251 174T269 139T306 130Q330 130 343 139T360 173T365 249Q365 301 361 327T343 362T306 372Z" />
<glyph unicode="&#xf9;" horiz-adv-x="615" d="M250 500V193Q250 177 259 170T287 162Q307 162 328 165T383 182L395 79Q344 32 294 9T188 -14Q40 -14 40 126V500H250ZM572 500V0H407L381 102L361 114V500H572ZM173 798L406 648L349 562L94 665L173 798Z" />
<glyph unicode="&#xfa;" horiz-adv-x="615" d="M250 500V193Q250 177 259 170T287 162Q307 162 328 165T383 182L395 79Q344 32 294 9T188 -14Q40 -14 40 126V500H250ZM572 500V0H407L381 102L361 114V500H572ZM437 778L516 645L261 542L204 628L437 778Z" />
<glyph unicode="&#xfb;" horiz-adv-x="615" d="M250 500V193Q250 177 259 170T287 162Q307 162 328 165T383 182L395 79Q344 32 294 9T188 -14Q40 -14 40 126V500H250ZM572 500V0H407L381 102L361 114V500H572ZM383 752L518 611L470 542L311 635H303L141 542L91
619L231 752H383Z" />
<glyph unicode="&#xfc;" horiz-adv-x="615" d="M250 500V193Q250 177 259 170T287 162Q307 162 328 165T383 182L395 79Q344 32 294 9T188 -14Q40 -14 40 126V500H250ZM572 500V0H407L381 102L361 114V500H572ZM433 726Q472 726 472 687V624Q472 585 433 585H364Q325
585 325 624V687Q325 726 364 726H433ZM244 726Q283 726 283 687V624Q283 585 244 585H175Q136 585 136 624V687Q136 726 175 726H244Z" />
<glyph unicode="&#xfd;" horiz-adv-x="602" d="M604 500L445 14Q432 -27 408 -71T344 -149T247 -198T112 -197L98 -84Q160 -71 196 -50T252 14L289 94Q300 119 308 158T322 224L381 500H604ZM220 500L279 224Q283 201 286 177T292 130H322L257 0H211Q187 0 170
13T145 49L-3 500H220ZM437 778L516 645L261 542L204 628L437 778Z" />
<glyph unicode="&#xfe;" horiz-adv-x="620" d="M410 512Q509 512 550 442T592 244Q592 141 571 85T507 8T403 -14Q346 -14 296 3T214 62L230 144Q250 137 269 130T318 123Q339 123 352 130T370 163T376 242Q376 296 371 321T353 354T321 361Q296 361 281 356T250
342L219 421Q240 458 285 485T410 512ZM253 700V600Q254 565 252 527T247 457L253 445V74L247 62Q249 30 251 -8T253 -81V-180H43V700H253Z" />
<glyph unicode="&#xff;" horiz-adv-x="602" d="M604 500L445 14Q432 -27 408 -71T344 -149T247 -198T112 -197L98 -84Q160 -71 196 -50T252 14L289 94Q300 119 308 158T322 224L381 500H604ZM220 500L279 224Q283 201 286 177T292 130H322L257 0H211Q187 0 170
13T145 49L-3 500H220ZM433 726Q472 726 472 687V624Q472 585 433 585H364Q325 585 325 624V687Q325 726 364 726H433ZM244 726Q283 726 283 687V624Q283 585 244 585H175Q136 585 136 624V687Q136 726 175 726H244Z" />
<glyph unicode="&#x2013;" horiz-adv-x="529" d="M485 318V196H44V318H485Z" />
<glyph unicode="&#x2014;" horiz-adv-x="819" d="M775 318V196H44V318H775Z" />
<glyph unicode="&#x2018;" horiz-adv-x="221" d="M96 395Q61 395 48 409T33 460V518Q33 564 40 597T60 657T91 710L159 688Q149 657 146 626T142 563Q194 563 195 505L193 460Q192 423 179 409T131 395H96Z" />
<glyph unicode="&#x2019;" horiz-adv-x="218" d="M124 700Q159 700 172 686T187 635V577Q187 531 180 498T160 438T129 385L61 407Q71 438 74 469T78 532Q26 532 25 590L27 635Q28 672 41 686T89 700H124Z" />
<glyph unicode="&#x201a;" horiz-adv-x="232" d="M133 185Q168 185 181 170T196 113V49Q196 -1 189 -37T169 -103T138 -162L70 -137Q80 -103 83 -69T87 0Q36 0 34 64L36 113Q37 154 50 169T98 185H133Z" />
<glyph unicode="&#x201c;" horiz-adv-x="420" d="M96 395Q61 395 48 409T33 460V518Q33 564 40 597T60 657T91 710L159 688Q149 657 146 626T142 563Q194 563 195 505L193 460Q192 423 179 409T131 395H96ZM295 395Q260 395 247 409T232 460V518Q232 564 239 597T259
657T290 710L358 688Q348 657 345 626T341 563Q393 563 394 505L392 460Q391 423 378 409T330 395H295Z" />
<glyph unicode="&#x201d;" horiz-adv-x="417" d="M323 700Q358 700 371 686T386 635V577Q386 531 379 498T359 438T328 385L260 407Q270 438 273 469T277 532Q225 532 224 590L226 635Q227 672 240 686T288 700H323ZM124 700Q159 700 172 686T187 635V577Q187
531 180 498T160 438T129 385L61 407Q71 438 74 469T78 532Q26 532 25 590L27 635Q28 672 41 686T89 700H124Z" />
<glyph unicode="&#x201e;" horiz-adv-x="429" d="M331 153Q366 153 379 139T394 88V30Q394 -16 387 -49T367 -109T336 -162L268 -140Q278 -109 281 -78T285 -15Q233 -15 232 43L234 88Q235 125 248 139T296 153H331ZM132 153Q167 153 180 139T195 88V30Q195 -16
188 -49T168 -109T137 -162L69 -140Q79 -109 82 -78T86 -15Q34 -15 33 43L35 88Q36 125 49 139T97 153H132Z" />
<glyph unicode="&#x2022;" horiz-adv-x="381" d="M203 402Q271 402 298 375T325 280V263Q325 189 298 161T203 133H186Q112 133 84 161T56 263V280Q56 348 84 375T186 402H203Z" />
<glyph unicode="&#x2039;" horiz-adv-x="317" d="M179 470L289 401L203 251L289 95L179 26L21 229V273L179 470Z" />
<glyph unicode="&#x203a;" horiz-adv-x="317" d="M138 470L296 273V229L138 26L28 95L115 251L28 401L138 470Z" />
</font>
</defs>
</svg>
