<?xml version="1.0" standalone="no"?>
<!DOCTYPE svg PUBLIC "-//W3C//DTD SVG 1.1//EN" "http://www.w3.org/Graphics/SVG/1.1/DTD/svg11.dtd">
<svg xmlns="http://www.w3.org/2000/svg">
<defs >
<font id="Exo2" horiz-adv-x="559" ><font-face
    font-family="Exo 2 Black"
    units-per-em="1000"
    panose-1="0 0 0 0 0 0 0 0 0 0"
    ascent="999"
    descent="-201"
    alphabetic="0" />
<glyph unicode=" " horiz-adv-x="210" />
<glyph unicode="!" horiz-adv-x="328" d="M324 695L292 461L237 227H73L84 461L116 695H324ZM164 185Q199 185 218 166T233 109L227 68Q223 33 204 17T147 0H107Q29 0 38 76L43 117Q53 185 124 185H164Z" />
<glyph unicode="&quot;" horiz-adv-x="394" d="M414 690L370 462H250L270 690H414ZM235 690L191 462H71L91 690H235Z" />
<glyph unicode="#" horiz-adv-x="743" d="M692 690L475 0H318L535 690H692ZM681 304L639 182H6L48 304H681ZM441 690L224 0H67L284 690H441ZM754 526L713 404H80L121 526H754Z" />
<glyph unicode="$" horiz-adv-x="583" d="M348 704Q404 704 468 696T589 668L569 530Q540 531 501 531T418 531T332 532Q317 532 306 531T288 526T278 518T272 504Q271 497 273 490T284 476T313 459L423 404Q478 376 506 346T542 278T545 189Q536 110 507 66T420
4T264 -14Q221 -14 149 -7T0 21L21 172Q77 171 125 170T207 168T254 167Q282 167 297 170T320 179T330 196Q332 205 330 211T321 223T301 235L180 297Q124 327 96 359T61 429T58 509Q64 566 84 604T140 663T227 694T348 704ZM265 362H320L209 -110H154L265 362ZM455
789L342 362H287L400 789H455Z" />
<glyph unicode="%" horiz-adv-x="919" d="M769 690L292 0H162L639 690H769ZM243 595Q230 595 223 589T212 560T201 490Q196 450 195 431T199 407T218 401Q232 401 239 407T251 436T261 506Q265 546 265 565T261 589T243 595ZM247 704Q313 704 353 685T409 619T412
490Q401 413 379 370T318 309T213 292Q148 292 108 311T54 378T50 506Q61 584 82 627T143 687T247 704ZM714 289Q701 289 694 283T683 254T672 184Q667 144 666 125T670 101T689 95Q703 95 710 101T722 130T732 200Q736 240 736 259T732 283T714 289ZM718 398Q784
398 824 379T880 313T883 184Q872 107 850 64T789 3T684 -14Q619 -14 579 5T525 71T521 200Q532 278 553 321T614 381T718 398Z" />
<glyph unicode="&amp;" horiz-adv-x="759" d="M373 704Q410 704 455 700T544 680L511 541Q482 546 448 549T380 553Q352 553 335 549T310 530T297 488Q294 461 297 446T313 425T345 419H762L743 288H326Q305 288 289 282T262 260T248 213Q246 195 249 183T261
163T284 153T316 150Q363 150 403 168T472 247Q491 287 502 349T516 502H688Q687 415 676 335T635 187Q608 126 562 81T443 11T265 -14Q170 -14 112 8T31 74T16 184Q22 230 40 267T91 329T174 355L175 361Q142 364 119 388T87 449T85 528Q99 606 139 643T239 692T373
704Z" />
<glyph unicode="&apos;" horiz-adv-x="215" d="M235 690L191 462H71L91 690H235Z" />
<glyph unicode="(" horiz-adv-x="373" d="M404 791L429 700Q347 669 300 565T230 305Q216 209 216 132T239 1T310 -75L284 -160Q126 -117 63 0T29 320Q58 521 146 635T404 791Z" />
<glyph unicode=")" horiz-adv-x="373" d="M95 786Q253 744 316 627T350 304Q322 105 233 -9T-25 -166L-50 -75Q33 -40 80 64T149 321Q163 420 163 497T141 627T70 700L95 786Z" />
<glyph unicode="*" horiz-adv-x="457" d="M343 692L301 517L396 388L302 322L255 441L175 322L90 388L222 516L229 692H343ZM100 624L208 572L205 523L174 494L56 517L100 624ZM444 623L466 516L344 490L319 522L330 571L444 623Z" />
<glyph unicode="+" horiz-adv-x="520" d="M372 539L305 68H152L219 539H372ZM508 381L485 226H16L39 381H508Z" />
<glyph unicode="," horiz-adv-x="257" d="M129 185Q169 185 185 168T196 109L187 45Q182 10 169 -29T138 -103T97 -165L12 -133Q27 -99 36 -65T55 4Q22 3 11 19T3 68L10 114Q16 155 36 170T93 185H129Z" />
<glyph unicode="-" horiz-adv-x="382" d="M341 318L323 196H32L50 318H341Z" />
<glyph unicode="." horiz-adv-x="255" d="M129 185Q164 185 183 166T198 109L192 68Q188 33 169 17T112 0H72Q-6 0 3 76L8 117Q18 185 89 185H129Z" />
<glyph unicode="/" horiz-adv-x="597" d="M635 690L134 -79H-35L466 690H635Z" />
<glyph unicode="0" horiz-adv-x="656" d="M301 -13Q221 -13 161 6T67 74T34 211Q35 297 42 372T69 508T126 612T222 679T369 703Q451 703 510 684T603 616T636 481Q636 398 629 324T603 188T546 81T449 12T301 -13ZM321 147Q346 147 363 162T392 204T410 270T419
356T424 456Q426 503 408 523T347 543Q322 543 305 528T277 485T260 419T251 333T246 231Q245 187 262 167T321 147Z" />
<glyph unicode="1" horiz-adv-x="469" d="M453 690L356 0H140L204 436Q207 459 211 481T223 525L61 490L43 619L244 690H453Z" />
<glyph unicode="2" horiz-adv-x="590" d="M330 702Q410 702 464 690T546 646T574 554Q574 505 560 466T519 394T452 326L267 167Q293 176 316 179T363 182H545L521 0H-11L5 112Q9 138 15 158T40 198L205 339Q243 374 277 404T334 460T356 505Q356 512 351 516T336
521T310 523Q271 523 238 523T168 523T82 521L86 681Q140 691 186 695T268 700T330 702Z" />
<glyph unicode="3" horiz-adv-x="571" d="M321 704Q434 704 493 674T552 558Q552 506 537 465T492 399T414 368L413 364Q477 356 503 324T529 240Q529 149 493 93T388 12T223 -14Q171 -14 110 -8T-6 6L8 157Q54 154 84 153T140 152T193 152Q254 152 286 177T319
257Q319 270 313 277T295 287T264 291H119L136 421H277Q320 421 334 439T348 502Q348 521 338 530T290 539Q234 539 182 539T91 539V686Q154 696 215 700T321 704Z" />
<glyph unicode="4" horiz-adv-x="653" d="M443 690L247 299Q241 288 241 283T253 278H633L617 160L548 140H80Q46 140 25 155T0 196T8 247L238 690H443ZM603 554L525 0H328L389 448L438 554H603Z" />
<glyph unicode="5" d="M564 690L536 535H272L254 456L337 446Q413 436 454 407T511 339T527 263Q527 135 447 65T227 -12Q171 -15 112 -9T-10 6L17 167Q67 163 110 161T188 161Q241 164 276 183T312 253Q312 267 304 274T279 285T234 293L122 310Q91 315 74 337T62
390L121 690H564Z" />
<glyph unicode="6" horiz-adv-x="604" d="M401 702Q420 702 446 701T505 696T574 680L548 551Q518 551 497 551T449 551T380 551Q345 551 323 542T288 510T265 442T246 327Q238 266 233 229T229 173T244 146T287 139Q325 139 342 160T364 211T371 267Q373 285
357 299T310 313Q275 313 242 290T162 232L158 305Q188 357 223 390T302 439T401 455Q493 455 536 415T577 312Q573 206 547 134T458 25T284 -12Q206 -12 153 4T70 59T33 166T41 339Q58 455 87 526T161 636T265 688T401 702Z" />
<glyph unicode="7" horiz-adv-x="548" d="M505 690Q562 690 580 661T578 585L285 0H72L294 442Q303 462 316 481T346 519H54L67 690H505Z" />
<glyph unicode="8" horiz-adv-x="634" d="M356 704Q463 704 520 682T597 617T607 510Q602 474 588 442T546 388T474 360L473 356Q526 351 550 323T579 252T577 164Q568 100 542 61T457 3T294 -15Q178 -15 115 7T31 72T16 180Q21 223 37 262T85 327T171 356L172
360Q114 370 95 416T83 526Q91 588 118 627T202 685T356 704ZM313 292Q293 292 278 290T252 278T234 252T224 204Q221 178 225 163T245 143T294 137Q322 137 339 142T366 166T381 220Q384 243 383 257T374 278T352 289T313 292ZM356 564Q329 564 312 559T287 535T273
481Q271 459 273 447T289 429T333 424Q354 424 368 427T390 437T404 459T413 497Q417 526 414 540T397 559T356 564Z" />
<glyph unicode="9" horiz-adv-x="605" d="M345 700Q427 700 479 683T557 626T588 516T577 341Q563 236 539 168T475 59T377 3T237 -14Q202 -14 142 -10T18 9L32 140Q64 140 91 140T151 140T226 140Q266 140 291 151T333 189T358 260T374 369Q381 430 384 466T385
520T367 543T325 549Q298 549 283 543T260 520T249 469Q245 430 247 410T259 382T291 374Q320 374 342 380T391 405T457 457L459 380Q423 321 385 289T307 244T225 232Q161 232 124 253T69 310T49 384T51 460Q60 525 76 571T123 645T207 687T345 700Z" />
<glyph unicode=":" horiz-adv-x="275" d="M162 462Q197 462 216 443T231 386L225 345Q221 310 202 294T145 277H105Q27 277 36 353L41 394Q51 462 122 462H162ZM379 186Q414 186 433 167T448 110L442 69Q438 34 419 18T362 1H322Q244 1 253 77L258 118Q268 186
339 186H379Z" />
<glyph unicode=";" horiz-adv-x="273" d="M177 462Q212 462 231 443T246 386L240 345Q236 310 217 294T160 277H120Q42 277 51 353L56 394Q66 462 137 462H177ZM138 185Q178 185 194 168T205 109L196 45Q191 10 178 -29T147 -103T106 -165L21 -133Q36 -99 45 -65T64
4Q31 3 20 19T12 68L19 114Q25 155 45 170T102 185H138Z" />
<glyph unicode="&lt;" horiz-adv-x="503" d="M494 542L472 374L204 305L450 228L429 66L16 223L38 384L494 542Z" />
<glyph unicode="=" horiz-adv-x="571" d="M552 483L530 329H52L74 483H552ZM523 271L499 117H21L45 271H523Z" />
<glyph unicode="&gt;" horiz-adv-x="500" d="M77 541L487 384L465 223L12 64L35 231L300 310L58 389L77 541Z" />
<glyph unicode="?" horiz-adv-x="540" d="M337 712Q457 712 510 672T553 549Q547 507 527 477T478 421T421 370T366 310T326 228H162Q166 274 181 312T216 380T258 435T295 478T319 511Q330 534 322 540T287 546Q233 546 199 546T137 546T74 546L75 685Q107 691
133 696T187 704T250 710T337 712ZM257 185Q293 185 312 166T327 109L321 68Q317 33 299 17T242 0H201Q123 0 131 76L137 117Q146 185 217 185H257Z" />
<glyph unicode="@" horiz-adv-x="822" d="M427 655Q552 656 630 645T748 599T795 498T787 320Q773 226 758 162T713 59T631 3T490 -14Q430 -14 393 3T336 48T312 105T310 161L354 427H540L496 156Q493 137 498 129T517 121Q540 121 552 129T573 158T588 221T608
328Q618 383 619 418T613 473T582 502T521 513T425 515H78L87 645Q142 648 200 650T316 653T427 655ZM274 455Q340 455 404 447T540 427L457 325Q389 327 352 327T294 328Q281 328 270 326T248 314T230 283T214 224Q207 184 208 166T219 144T242 139Q274 139 299
176T361 292L390 236Q370 173 342 116T273 24T170 -12Q128 -12 97 2T48 47T24 123T29 231Q41 305 63 350T116 417T186 447T274 455Z" />
<glyph unicode="A" horiz-adv-x="678" d="M489 690Q515 690 535 673T558 630L647 0H430L394 453Q392 473 392 492T393 530H365Q362 514 358 495T345 455L176 0H-49L217 638Q227 664 247 677T293 690H489ZM522 304L504 146H141L160 304H522Z" />
<glyph unicode="B" horiz-adv-x="657" d="M391 698Q483 698 538 682T616 624T629 510Q619 439 589 403T487 361L486 355Q568 348 597 299T614 164Q605 95 575 58T490 6T348 -8Q270 -8 213 -8T108 -5T11 0L40 145Q66 144 139 143T306 142Q338 142 356 148T383 172T397
224Q401 252 398 266T383 286T345 292H67L84 423H349Q375 423 389 428T410 449T422 495Q425 515 423 526T411 543T384 548Q319 548 272 548T186 548T110 545L108 690Q151 694 193 695T283 697T391 698ZM320 690L223 0H11L108 690H320Z" />
<glyph unicode="C" horiz-adv-x="603" d="M391 702Q443 702 481 699T552 690T618 674L593 517Q557 518 526 518T460 518T380 519Q353 519 335 513T305 489T284 435T267 337Q258 269 258 233T272 184T324 171Q399 171 448 173T545 179L553 20Q498 3 444 -4T314
-12Q199 -12 133 22T44 137T41 353Q56 457 80 525T144 631T244 686T391 702Z" />
<glyph unicode="D" horiz-adv-x="700" d="M389 700Q501 700 571 669T667 558T674 337Q659 234 635 166T571 60T470 6T321 -10Q230 -10 155 -7T11 0L114 154Q148 150 204 149T318 147Q344 147 364 155T399 185T426 247T446 353Q454 411 455 448T451 506T428 535T382
543Q344 543 311 543T249 543T192 544L108 690Q147 693 192 695T287 699T389 700ZM325 690L228 0H11L108 690H325Z" />
<glyph unicode="E" horiz-adv-x="587" d="M259 694Q320 694 382 693T503 690T607 680L583 528H343Q318 528 307 520T292 488L252 201Q249 182 258 172T289 162H529L525 8Q477 1 419 -1T301 -3T187 -4Q102 -4 62 49T32 184L82 541Q92 611 137 652T259 694ZM85 425H532L514
281H62L85 425Z" />
<glyph unicode="F" horiz-adv-x="567" d="M261 694Q350 694 442 692T603 679L579 528H349Q322 528 310 520T295 488L227 0H9L85 541Q95 612 143 653T261 694ZM85 411H525L507 267H64L85 411Z" />
<glyph unicode="G" horiz-adv-x="670" d="M420 704Q461 704 500 701T578 692T651 674L627 519Q590 520 556 520T485 520T405 521Q372 521 350 512T312 482T287 426T268 337Q258 269 259 233T275 184T324 171Q355 171 374 179T406 197T429 212L465 126Q453 112
433 89T382 42T313 2T223 -14Q155 -14 108 20T42 134T42 353Q57 460 85 528T158 635T267 689T420 704ZM648 397L592 0H433L422 107L406 144L441 397H648Z" />
<glyph unicode="H" horiz-adv-x="705" d="M326 690L229 0H12L109 690H326ZM467 443L445 289H262L283 443H467ZM708 690L611 0H394L491 690H708Z" />
<glyph unicode="I" horiz-adv-x="322" d="M325 690L228 0H12L109 690H325Z" />
<glyph unicode="J" horiz-adv-x="395" d="M400 690L322 123Q312 56 263 21T138 -14Q113 -14 81 -11T21 -1T-24 14L10 148H47Q79 148 94 158T111 187L184 690H400Z" />
<glyph unicode="K" horiz-adv-x="668" d="M725 690L532 402Q516 377 496 363T460 343L459 339Q473 333 489 312T514 269L634 0H400L269 353L485 690H725ZM327 690L300 499Q296 464 284 427T249 354Q260 323 263 287T261 221L230 0H12L109 690H327ZM340 428L321
288H208L227 428H340Z" />
<glyph unicode="L" horiz-adv-x="552" d="M323 690L252 212Q250 190 257 181T288 172H516L512 9Q443 0 355 -2T181 -4Q131 -4 95 17T42 74T31 157L105 690H323Z" />
<glyph unicode="M" horiz-adv-x="947" d="M857 690Q894 690 913 669T928 611L866 0H671L725 528H711L595 172Q585 139 564 125T508 110H398Q364 110 344 128T321 180L302 528H286L195 0H0L111 619Q118 656 135 673T190 690H374Q408 690 428 672T449 619L461 345Q463
320 462 295T459 242H469Q475 271 481 294T494 343L578 627Q587 661 608 675T664 690H857Z" />
<glyph unicode="N" horiz-adv-x="730" d="M734 690L647 71Q642 34 624 17T568 0H496Q462 0 448 18T419 67L301 304Q289 328 281 357T266 418H259Q260 386 259 355T253 290L210 0H11L98 619Q103 656 121 673T177 690H249Q283 690 297 672T325 623L441 398Q453 373
463 345T483 279H491Q488 313 488 340T493 396L535 690H734Z" />
<glyph unicode="O" horiz-adv-x="700" d="M389 704Q503 704 573 672T668 561T675 337Q661 231 635 162T566 55T464 2T322 -14Q203 -14 135 18T44 131T41 353Q56 458 82 526T149 634T249 688T389 704ZM387 543Q351 543 330 527T295 467T268 337Q256 258 257 217T275
162T327 147Q365 147 386 163T420 223T447 353Q459 432 458 472T440 528T387 543Z" />
<glyph unicode="P" horiz-adv-x="638" d="M386 700Q492 700 553 679T636 604T645 457Q633 368 604 319T519 251T372 232Q321 232 272 237T180 252T107 271T66 289L72 385Q140 385 213 385T353 385Q379 385 394 390T417 414T431 473Q435 501 433 517T418 540T381
547Q278 547 207 546T110 541L108 690Q153 695 192 697T276 699T386 700ZM324 690L227 0H11L108 690H324Z" />
<glyph unicode="Q" horiz-adv-x="700" d="M389 704Q503 704 573 672T668 561T675 337Q661 231 635 162T566 55T464 2T322 -14Q203 -14 135 18T44 131T41 353Q56 458 82 526T149 634T249 688T389 704ZM241 -27Q312 -55 389 -71T560 -101L482 -276Q384 -247 309
-210T181 -130L241 -27ZM387 543Q351 543 330 527T295 467T268 337Q256 258 257 217T275 162T327 147Q365 147 386 163T420 223T447 353Q459 432 458 472T440 528T387 543Z" />
<glyph unicode="R" horiz-adv-x="669" d="M387 700Q483 700 547 680T639 613T656 482Q651 443 636 410T588 354T500 326L499 319Q516 317 535 307T570 273T590 208L616 0H392L374 209Q373 238 365 245T334 252Q257 253 209 253T129 254T65 257L81 405H355Q385
405 401 411T426 434T440 484Q444 508 440 522T423 541T385 547Q278 547 207 546T110 541L108 690Q153 695 192 697T278 699T387 700ZM320 690L223 0H11L108 690H320Z" />
<glyph unicode="S" horiz-adv-x="602" d="M357 704Q415 704 480 696T604 668L585 530Q555 531 515 531T430 531T343 532Q326 532 314 531T294 526T282 518T275 504Q274 497 276 490T289 476T319 459L435 404Q492 377 521 347T558 279T561 189Q552 110 522 66T433
4T273 -14Q230 -14 157 -7T4 21L24 172Q82 171 131 170T215 168T262 167Q293 167 310 170T336 179T347 196Q349 205 347 211T336 222T314 235L188 297Q130 326 101 358T64 429T61 509Q68 566 88 604T145 663T234 694T357 704Z" />
<glyph unicode="T" horiz-adv-x="618" d="M473 690L376 0H159L256 690H473ZM664 690L641 528H43L66 690H664Z" />
<glyph unicode="U" horiz-adv-x="700" d="M710 690L651 281Q636 171 601 107T499 14T322 -14Q217 -14 151 16T58 112T45 289L103 690H319L261 281Q253 229 255 200T274 159T327 147Q365 147 385 159T416 203T436 289L493 690H710Z" />
<glyph unicode="V" horiz-adv-x="665" d="M723 690L466 54Q445 0 390 0H201Q173 0 154 18T132 62L54 690H272L296 249Q298 227 298 204T296 159H322Q326 182 332 203T345 245L495 690H723Z" />
<glyph unicode="W" horiz-adv-x="995" d="M1030 690L856 54Q849 28 829 14T780 0H598Q570 0 549 18T529 62L536 431Q537 460 538 484T541 536H523Q519 511 514 485T503 434L404 54Q397 28 377 14T328 0H141Q113 0 92 18T72 62L74 690H287L260 263Q259 238 257
210T252 148H269Q275 180 282 212T297 272L393 630Q409 690 470 690H621Q650 690 669 671T688 622V262Q688 235 688 205T686 148H704Q707 176 713 210T725 269L817 690H1030Z" />
<glyph unicode="X" horiz-adv-x="672" d="M277 690L372 332L184 0H-46L172 352L68 690H277ZM448 414L431 294H224L241 414H448ZM720 690L516 352L633 0H420L321 374L499 690H720Z" />
<glyph unicode="Y" horiz-adv-x="649" d="M715 690L417 205L209 206L46 690H262L315 469Q322 439 322 415T322 368H337Q339 389 347 415T367 467L484 690H715ZM436 328L391 0H173L219 328H436Z" />
<glyph unicode="Z" horiz-adv-x="598" d="M344 539L594 538L260 151L9 152L344 539ZM549 152L528 0H-11L9 152H549ZM615 690L594 538H75L96 690H615Z" />
<glyph unicode="[" horiz-adv-x="364" d="M407 768L389 640H335Q319 640 312 635T303 614L214 -14Q211 -37 233 -37H294L276 -165H105Q60 -165 32 -143T12 -60L115 671Q122 716 150 742T224 768H407Z" />
<glyph unicode="\" horiz-adv-x="581" d="M226 690L516 -79H360L70 690H226Z" />
<glyph unicode="]" horiz-adv-x="364" d="M263 768Q308 768 334 738T355 663L252 -68Q246 -113 218 -139T144 -165H-39L-21 -37H33Q48 -37 55 -32T64 -11L153 617Q156 640 135 640H74L92 768H263Z" />
<glyph unicode="^" horiz-adv-x="497" d="M376 653L489 414L406 372L295 529H287L130 372L52 414L224 653H376Z" />
<glyph unicode="_" horiz-adv-x="451" d="M416 0L399 -122H-52L-35 0H416Z" />
<glyph unicode="`" horiz-adv-x="392" d="M167 747L402 597L335 511L87 617L167 747Z" />
<glyph unicode="a" horiz-adv-x="613" d="M354 514Q380 514 415 511T487 503T553 493T597 482L434 376Q409 377 386 377T328 377Q312 377 298 374T273 360T253 328T239 270Q232 219 230 193T234 157T260 149Q279 151 302 169T346 216T380 277L414 221Q399 148
366 98T283 20T170 -12Q98 -17 62 16T19 113T25 264Q39 353 66 403T135 477T232 507T354 514ZM392 500L597 482L529 0H367L365 109L338 125L392 500Z" />
<glyph unicode="b" horiz-adv-x="616" d="M439 514Q501 514 537 485T585 397T583 248Q576 199 560 153T511 69T426 10T290 -12Q262 -12 223 -10T141 -2T63 11T6 30L180 141Q189 137 207 134T245 130T280 129Q300 130 314 136T338 157T356 198T370 263Q376 299
376 318T368 344T345 351Q311 351 285 336T229 300L202 367Q221 398 245 424T299 471T364 502T439 514ZM311 700L295 577Q291 540 283 505T257 430L275 422L216 20L6 30L100 700H311Z" />
<glyph unicode="c" horiz-adv-x="536" d="M303 514Q361 514 423 505T532 475L504 347Q448 347 404 347T328 347Q298 347 281 338T254 309T240 253Q234 212 237 191T256 162T302 154Q322 154 349 154T407 156T470 161L485 28Q436 5 378 -3T265 -12Q177 -12 118
15T33 102T21 259Q34 349 64 405T151 487T303 514Z" />
<glyph unicode="d" horiz-adv-x="617" d="M236 514Q318 514 387 503T492 465L473 387Q438 387 408 387T327 387Q305 387 290 383T266 366T250 331T238 270Q234 234 232 210T237 173T264 162Q296 164 321 180T368 212L406 126Q394 112 372 89T319 43T252 4T175
-12Q113 -12 76 18T25 110T24 264Q34 339 53 388T100 464T162 503T236 514ZM631 700L532 0H366L360 134L341 145L387 484L396 500Q396 525 397 551T403 605L421 700H631Z" />
<glyph unicode="e" horiz-adv-x="590" d="M326 514Q430 514 487 493T563 430T574 328Q568 283 543 258T474 221T361 204L95 184L108 283L306 303Q327 305 341 308T363 321T374 349Q375 360 372 367T359 377T328 379Q307 379 293 374T270 356T255 320T242 261Q234
212 236 188T256 157T307 149Q328 149 364 150T441 154T512 160L526 32Q491 16 451 6T370 -8T289 -12Q175 -12 114 19T33 109T21 254Q29 334 53 385T115 464T206 503T326 514Z" />
<glyph unicode="f" horiz-adv-x="423" d="M321 724Q344 724 378 723T447 718T506 709L474 584H394Q364 584 351 572T333 528L250 -32Q240 -102 198 -146T60 -191Q31 -191 -5 -187T-95 -176L-63 -51H-14Q18 -51 31 -39T50 5L131 565Q142 636 184 680T321 724ZM446
500L429 374H22L37 495L123 500H446Z" />
<glyph unicode="g" horiz-adv-x="618" d="M397 500L602 482L547 90Q534 -8 503 -67T428 -155T333 -194T228 -204Q208 -204 169 -202T85 -193T5 -169L15 -56Q30 -56 44 -56T81 -56T141 -56Q212 -56 262 -43T336 8Q353 34 358 61T376 113L343 125L397 500ZM299 514Q366
514 426 509T533 497T602 482L440 376Q414 377 390 377T331 377Q306 377 291 372T266 354T251 322T240 270Q231 219 230 192T237 155T263 149Q284 153 306 170T350 216T385 277L419 221Q404 151 369 102T285 27T173 -2Q101 -5 65 27T21 120T26 264Q40 353 64 403T122
477T200 507T299 514Z" />
<glyph unicode="h" horiz-adv-x="619" d="M451 514Q528 514 563 477T589 370L537 0H327L371 311Q374 328 370 332T352 337Q328 337 304 327T242 287L207 374Q272 447 335 480T451 514ZM311 700L290 547Q283 493 267 444T237 365L262 356L213 0H3L101 700H311Z" />
<glyph unicode="i" horiz-adv-x="304" d="M285 500L216 0H7L76 500H285ZM250 729Q284 729 299 713T310 663L303 612Q296 554 234 554H152Q86 554 93 620L100 671Q106 729 169 729H250Z" />
<glyph unicode="j" horiz-adv-x="306" d="M289 500L224 54Q218 2 194 -46T132 -133T42 -192L-73 -95Q-30 -55 -10 -18T16 62L79 500H289ZM250 729Q285 729 299 713T309 663L302 612Q295 554 231 554H152Q85 554 92 620L99 671Q106 729 171 729H250Z" />
<glyph unicode="k" horiz-adv-x="609" d="M311 700L273 428Q268 397 258 367T230 306Q232 270 234 223T233 139L213 0H3L101 700H311ZM604 500Q585 418 543 361T444 265T325 202T203 160L183 284Q231 302 274 334T347 410T388 500H604ZM393 279Q432 264 454 240T489
189L580 0H365L259 230L393 279Z" />
<glyph unicode="l" horiz-adv-x="360" d="M311 700L236 178Q232 159 240 153T275 146H315L327 10Q311 1 284 -4T229 -11T184 -14Q100 -14 57 25T21 130L102 700H311Z" />
<glyph unicode="m" horiz-adv-x="884" d="M236 500L245 398L265 386L212 0H3L73 500H236ZM424 514Q497 514 531 477T556 370L504 0H303L346 311Q349 328 344 332T327 337Q317 337 303 333T271 319T227 289L191 374Q254 448 307 481T424 514ZM721 514Q796 514 830
476T855 370L803 0H595L638 311Q640 328 634 332T619 337Q610 337 597 333T565 319T524 289L487 374Q550 448 603 481T721 514Z" />
<glyph unicode="n" horiz-adv-x="619" d="M460 514Q501 514 533 498T581 450T590 370L538 0H327L370 302Q373 322 368 330T343 337Q325 336 301 326T242 287L207 374Q257 438 325 476T460 514ZM236 500L243 366L263 354L213 0H3L72 500H236Z" />
<glyph unicode="o" horiz-adv-x="615" d="M327 514Q427 514 488 487T573 401T582 241Q569 147 536 92T440 12T278 -12Q179 -12 117 14T31 100T21 257Q35 353 68 409T164 489T327 514ZM323 372Q296 372 281 362T257 324T240 241Q234 195 234 171T247 139T286 130Q312
130 326 140T348 177T365 257Q372 305 371 329T359 363T323 372Z" />
<glyph unicode="p" horiz-adv-x="615" d="M440 512Q497 512 532 481T579 388T580 236Q570 158 549 109T498 34T430 -3T347 -14Q323 -14 291 -12T224 -4T160 11T112 35L132 113Q167 113 197 113T277 113Q302 113 317 118T340 135T354 171T365 230Q372 279 372 305T366
341T343 351Q327 351 308 342T270 319T240 287L202 367Q212 382 233 406T286 454T357 495T440 512ZM239 500V374L261 358L220 27L209 11Q210 -14 209 -39T202 -94L188 -180H-22L72 500H239Z" />
<glyph unicode="q" horiz-adv-x="617" d="M313 514Q343 514 383 512T465 504T543 491T600 472L426 361Q417 366 397 368T356 372T325 373Q306 372 292 367T267 349T250 316T237 259Q232 225 232 204T239 172T267 162Q287 162 304 170T338 190T369 210L408 129Q379
86 340 55T259 6T183 -12Q116 -12 76 15T23 102T23 254Q31 311 46 358T91 441T175 495T313 514ZM390 482L600 472L507 -180H297L311 -75Q316 -32 326 13T353 98L335 106L390 482Z" />
<glyph unicode="r" horiz-adv-x="452" d="M237 500L247 398L266 386L214 0H3L73 500H237ZM479 514L436 322H389Q362 322 329 319T242 307L234 424Q289 471 342 492T443 514H479Z" />
<glyph unicode="s" horiz-adv-x="548" d="M278 514Q318 514 365 511T456 503T530 491L513 370Q464 370 415 370T322 370Q287 370 269 370T243 367T235 360Q234 353 243 347T284 333L393 304Q434 293 461 272T500 220T507 146Q499 80 467 47T382 1T253 -11Q222
-11 183 -10T97 -3T-3 11L14 132Q27 132 55 132T117 132T182 132Q234 132 260 133T295 138T306 148Q307 153 303 156T287 164T252 175L147 205Q100 219 74 243T39 302T36 376Q43 420 66 450T139 497T278 514Z" />
<glyph unicode="t" horiz-adv-x="439" d="M354 631L289 178Q286 159 291 153T320 146H379L390 10Q367 1 336 -4T275 -11T223 -14Q147 -14 105 25T73 130L147 631H354ZM455 500L438 374H23L38 495L135 500H455Z" />
<glyph unicode="u" horiz-adv-x="613" d="M280 500L235 189Q233 173 240 168T258 162Q282 162 305 173T365 212L401 126Q335 53 276 20T157 -14Q79 -14 44 23T18 130L69 500H280ZM598 500L529 0H365L359 134L340 146L390 500H598Z" />
<glyph unicode="v" horiz-adv-x="607" d="M613 500Q608 463 600 425T583 351T564 286Q543 221 521 174T487 104Q462 59 435 37T373 8T292 0H144Q120 0 104 15T85 53L32 500H262L259 126H268Q289 126 298 138T323 190Q334 218 342 248T359 318Q370 369 375 419T384
500H613Z" />
<glyph unicode="w" horiz-adv-x="925" d="M254 501L246 130H252Q267 130 276 146T294 196Q299 214 303 236T312 287Q316 309 319 334T327 387T336 448Q338 465 352 482T398 500H570Q594 500 610 485T627 447L630 130H637Q656 130 662 152T675 208Q682 239 686
266T695 322Q701 361 705 403T714 500H922Q918 465 913 430T902 361T888 294Q878 248 866 206T839 128Q821 83 797 55T731 13T619 0H542Q517 0 500 16T483 56L485 376H473Q472 368 470 349T463 306T454 253Q451 234 447 214T439 176T431 142Q413 74 384 44T316
7T226 0H116Q91 0 75 16T57 56L41 501H254Z" />
<glyph unicode="x" horiz-adv-x="604" d="M233 500L331 238L171 0H-45L136 255L39 500H233ZM409 316L393 198H188L203 316H409ZM627 500L458 255L564 0H367L263 273L417 500H627Z" />
<glyph unicode="y" horiz-adv-x="622" d="M629 500Q622 445 606 385T568 265T526 155T486 65T455 8Q408 -66 350 -115T221 -187T66 -206L53 -93Q89 -80 120 -70T180 -44T236 3T290 88Q319 145 339 205T375 338T404 500H629ZM260 500L268 142Q268 126 284 126H340L299
0H154Q129 0 112 15T92 53L30 500H260Z" />
<glyph unicode="z" horiz-adv-x="538" d="M265 366L515 365L257 134L6 135L265 366ZM486 135L468 0H-10L7 135H486ZM531 500L514 365H47L65 500H531Z" />
<glyph unicode="{" horiz-adv-x="366" d="M396 767L380 640Q349 640 334 634T315 598L297 473Q292 431 280 401T240 352T161 326Q203 314 226 293T257 243T260 179L236 5Q233 -15 244 -26T290 -37L284 -166Q187 -181 129 -164T49 -106T33 -15L64 207Q67 229 63
238T47 252T19 264L35 394Q55 400 66 405T85 423T96 461L119 626Q126 678 157 715T246 767T396 767Z" />
<glyph unicode="|" horiz-adv-x="276" d="M280 781L146 -169H0L134 781H280Z" />
<glyph unicode="}" horiz-adv-x="365" d="M88 769Q185 784 243 767T324 710T340 618L316 453Q312 427 315 417T329 402T357 392L340 262Q322 255 309 249T287 232T276 199L245 -23Q238 -74 207 -111T118 -164T-32 -164L-16 -37Q16 -37 30 -32T48 2L74 187Q80 222
93 249T134 297T214 330Q171 336 148 355T119 407T119 481L138 606Q141 626 129 633T82 640L88 769Z" />
<glyph unicode="~" horiz-adv-x="500" d="M131 376Q149 376 178 370T239 356T296 341T332 332Q360 326 368 339T380 375L464 367Q467 282 441 242T369 202Q350 202 321 208T260 222T203 237T166 246Q140 251 132 239T119 203L35 211Q33 271 46 307T82 359T131 376Z" />
<glyph unicode="&#xa0;" horiz-adv-x="210" />
<glyph unicode="&#xa1;" horiz-adv-x="312" d="M238 293L227 59L195 -175H-13L19 59L74 293H238ZM202 520Q237 520 256 501T271 444L265 403Q261 368 242 352T185 335H145Q67 335 76 411L81 452Q91 520 162 520H202Z" />
<glyph unicode="&#xa2;" horiz-adv-x="538" d="M312 611Q370 611 431 602T539 572L510 444Q455 444 412 444T337 444Q309 444 293 435T269 406T255 350Q249 309 252 288T270 259T312 251Q332 251 358 251T415 253T477 258L491 125Q443 102 386 94T275 85Q190 85
132 112T48 199T36 356Q49 446 78 502T164 584T312 611ZM315 175L270 0H215L260 175H315ZM409 490L323 175H268L354 490H409ZM459 690L407 490H352L403 690H459Z" />
<glyph unicode="&#xa3;" horiz-adv-x="596" d="M362 703Q400 703 465 701T598 693L579 538Q566 538 556 538T529 538T482 538T393 538Q363 538 351 529T337 495L330 300Q329 258 316 232T281 188T236 154Q254 161 275 164T318 167H550L528 0H-1L17 169Q72 194
93 229T117 308L128 513Q133 571 148 608T192 666T262 695T362 703ZM481 414L462 314H42L54 414H481Z" />
<glyph unicode="&#xa4;" horiz-adv-x="570" d="M309 561Q370 561 416 532T485 453T499 344Q492 289 459 243T378 170T274 143Q214 143 168 172T98 251T83 360Q91 416 124 461T206 534T309 561ZM126 295L208 204L104 109L21 200L126 295ZM438 276L526 181L434 98L347
193L438 276ZM303 445Q259 445 233 421T200 355Q194 312 219 287T281 261Q308 261 329 272T365 303T383 351Q387 380 378 401T349 433T303 445ZM152 608L239 511L147 428L59 525L152 608ZM483 602L566 511L473 426L390 517L483 602Z" />
<glyph unicode="&#xa5;" horiz-adv-x="705" d="M741 690L444 205L236 206L74 690H290L343 469Q349 439 349 415T349 368H364Q366 389 374 415T394 467L510 690H741ZM463 328L418 0H200L246 328H463ZM594 228L580 128H75L87 228H594ZM612 358L598 258H93L105 358H612Z" />
<glyph unicode="&#xa6;" horiz-adv-x="279" d="M282 781L225 381H79L136 781H282ZM204 231L148 -169H2L58 231H204Z" />
<glyph unicode="&#xa7;" horiz-adv-x="540" d="M61 334L206 326Q202 290 204 272T219 241T262 210L384 134Q395 127 410 116T439 87T460 38T460 -39Q451 -103 421 -137T340 -184T217 -197Q191 -197 149 -196T62 -191T-15 -184L7 -43Q36 -43 70 -44T141 -45Q171
-45 191 -43T222 -35T236 -15Q238 -3 232 5T212 22L118 77Q62 107 40 143T23 227T61 334ZM314 704Q339 704 380 703T465 699T544 692L522 550Q508 551 495 551T453 552T366 551Q341 551 325 549T302 540T293 522Q292 513 298 503T328 478L411 430Q467 401 489 364T506
281T468 173L323 181Q328 217 326 235T310 265T267 297L145 379Q124 395 104 415T73 467T68 545Q77 614 113 648T202 693T314 704Z" />
<glyph unicode="&#xa8;" horiz-adv-x="436" d="M228 720Q246 720 253 712T258 687L247 611Q245 594 237 587T212 579H131Q97 579 101 612L112 685Q115 704 123 712T151 720H228ZM417 720Q434 720 441 712T447 687L436 612Q433 594 426 587T401 579H320Q286 579
290 612L301 686Q304 705 312 712T337 720H417Z" />
<glyph unicode="&#xa9;" horiz-adv-x="787" d="M430 704Q542 704 621 659T738 531T764 337Q753 231 703 152T569 30T374 -14Q292 -14 226 10T115 82T49 197T38 353Q50 463 102 541T238 662T430 704ZM432 541Q472 541 503 537T564 524L549 416Q514 415 486 415T417
416Q401 416 392 411T377 392T369 348Q366 318 367 303T377 282T400 276Q416 275 439 275T485 276T526 279L535 170Q501 159 468 155T399 150Q323 150 279 169T220 234T213 354Q222 425 246 466T315 524T432 541ZM433 611Q349 611 286 579T184 485T138 337Q132
259 155 201T231 111T369 79Q451 79 514 110T617 203T664 353Q671 433 647 490T570 579T433 611Z" />
<glyph unicode="&#xaa;" horiz-adv-x="449" d="M281 618Q338 619 383 612T445 597L326 524Q311 525 298 525T261 525Q250 525 240 521T222 502T208 457Q204 426 203 409T205 387T220 382Q236 384 258 408T291 462L313 425Q303 377 282 344T231 293T159 272Q105
269 79 290T49 354T52 454Q61 512 80 545T127 594T194 614T281 618ZM300 609L445 597L400 280H284L282 351L264 362L300 609Z" />
<glyph unicode="&#xab;" horiz-adv-x="554" d="M417 470L530 400L442 251L504 97L394 25L252 227L255 272L417 470ZM183 470L296 400L208 251L270 97L160 25L18 227L21 272L183 470Z" />
<glyph unicode="&#xac;" horiz-adv-x="569" d="M534 387L511 233H31L54 387H534ZM534 387L498 138H332L368 379L534 387Z" />
<glyph unicode="&#xad;" horiz-adv-x="384" d="M341 318L323 196H32L50 318H341Z" />
<glyph unicode="&#xae;" horiz-adv-x="494" d="M303 704Q364 704 410 675T480 594T494 474Q485 411 452 363T367 287T244 259Q183 259 136 288T66 369T52 490Q62 554 94 602T180 677T303 704ZM275 591L246 383H161L190 591H275ZM299 653Q217 653 168 605T107 474Q101
424 118 387T170 330T248 310Q303 310 343 332T408 395T439 490Q446 540 428 576T376 633T299 653ZM281 594Q320 594 345 588T380 566T387 527Q386 514 376 500T337 482L336 480Q349 479 358 472T370 442L376 383H288L287 444Q287 450 285 452T277 454Q249 454
233 454T205 454T182 455L183 505H282Q291 505 296 507T302 519Q304 527 302 531T290 535Q266 535 247 535T214 535T195 535L190 591Q213 593 231 593T281 594Z" />
<glyph unicode="&#xaf;" horiz-adv-x="400" d="M425 713L408 590H88L105 713H425Z" />
<glyph unicode="&#xb0;" horiz-adv-x="332" d="M210 698Q249 698 282 680T334 630T347 554Q340 495 299 460T194 425Q154 425 121 443T71 493T60 570Q68 626 106 662T210 698ZM206 610Q183 610 171 597T156 564Q153 540 165 527T200 513Q221 513 235 525T251 560Q253
582 242 596T206 610Z" />
<glyph unicode="&#xb1;" horiz-adv-x="555" d="M395 573L342 204H190L242 573H395ZM496 174L474 19H5L28 174H496ZM538 465L515 311H47L69 465H538Z" />
<glyph unicode="&#xb2;" horiz-adv-x="431" d="M276 781Q361 781 403 764T446 688Q446 660 435 638T406 596T366 561L264 486Q280 491 293 493T322 494L430 491L411 360H52L64 439Q66 459 72 474T95 503L178 566Q199 582 220 598T255 628T269 645Q269 648 262
649T240 650Q206 650 177 650T101 652L114 769Q164 777 209 779T276 781Z" />
<glyph unicode="&#xb3;" horiz-adv-x="411" d="M278 783Q358 783 396 768T435 711Q435 649 412 618T339 581V579Q380 574 399 558T418 509Q418 447 397 413T333 365T226 351Q182 351 136 354T48 363L68 476Q100 475 120 475T157 475T193 475Q228 475 242 478T256
507Q256 516 249 518T218 522L131 525L144 618L232 622Q258 623 265 627T273 648Q273 656 266 658T236 660Q199 660 165 660T104 662L116 771Q159 777 199 780T278 783Z" />
<glyph unicode="&#xb4;" horiz-adv-x="392" d="M337 753L403 607L137 511L90 597L337 753Z" />
<glyph unicode="&#xb5;" horiz-adv-x="644" d="M299 500L255 196Q253 179 258 171T277 162Q293 162 312 175T349 222T376 322L353 92Q327 52 300 29T242 -4T177 -14Q125 -14 92 3T45 52T37 130L88 500H299ZM611 500L563 162Q559 138 562 128T582 117H622L615 15Q585
5 541 -4T454 -13Q405 -13 376 8T346 81V84V100L400 500H611ZM237 61L219 -65L176 -180H-7L49 217L237 61Z" />
<glyph unicode="&#xb6;" horiz-adv-x="595" d="M382 702Q426 702 479 698T576 685L560 568Q536 573 505 575T443 578T392 579L242 200Q160 207 112 241T47 331T40 458Q54 549 91 602T200 678T382 702ZM419 685L293 -210H168L294 685H419ZM576 685L480 0H355L451 685H576Z" />
<glyph unicode="&#xb7;" horiz-adv-x="262" d="M155 351Q190 351 209 332T224 275L218 234Q214 199 195 183T138 166H98Q20 166 29 242L34 283Q44 351 115 351H155Z" />
<glyph unicode="&#xb8;" horiz-adv-x="263" d="M26 -33Q80 -26 121 -27T183 -46T198 -106Q189 -161 153 -194T65 -240T-50 -244L-29 -167Q4 -167 33 -160T70 -121Q72 -111 63 -108T8 -105L26 -33Z" />
<glyph unicode="&#xb9;" horiz-adv-x="321" d="M348 774L290 360H130L162 591Q164 606 167 620T177 651L78 637L74 735L188 774H348Z" />
<glyph unicode="&#xba;" horiz-adv-x="434" d="M251 623Q355 623 398 580T427 436Q419 374 397 337T334 285T226 269Q123 269 79 310T48 452Q62 547 108 585T251 623ZM249 521Q236 521 228 514T214 489T204 436Q200 408 202 389T227 370Q248 370 256 387T271 452Q278
499 272 510T249 521Z" />
<glyph unicode="&#xbb;" horiz-adv-x="555" d="M125 27L12 97L100 246L38 400L148 472L290 270L287 225L125 27ZM359 27L246 97L334 246L272 400L382 472L524 270L521 225L359 27Z" />
<glyph unicode="&#xbc;" horiz-adv-x="957" d="M744 690L261 0H128L611 690H744ZM337 690L278 276H119L152 511Q154 526 157 540T166 571L76 553L70 651L177 690H337ZM778 414L670 190Q666 182 669 179T677 176H915L904 90L857 77H546Q522 77 509 90T495 121T502
156L635 414H778ZM892 331L845 0H705L741 262L775 331H892Z" />
<glyph unicode="&#xbd;" horiz-adv-x="945" d="M742 690L260 0H127L610 690H742ZM337 690L278 276H118L151 511Q153 526 156 540T165 571L75 553L70 651L176 690H337ZM729 421Q784 421 827 413T893 377T906 295Q902 273 888 251T836 203L726 127Q742 132 754 133T782
134L892 131L874 0H520L532 83Q535 103 539 118T557 146L640 209Q674 233 696 249T729 275Q739 283 736 289T721 296Q694 296 673 296T631 296T577 298V410Q627 418 670 419T729 421Z" />
<glyph unicode="&#xbe;" horiz-adv-x="1006" d="M813 690L331 0H199L680 690H813ZM245 699Q342 699 376 676T403 594Q401 574 392 553T364 516T309 497L308 494Q360 488 376 458T388 383Q384 350 366 324T309 282T201 267Q164 267 119 271T35 280L43 392Q79 391
102 391T143 391T178 391Q209 391 219 401T230 422Q231 430 230 434T224 439T211 441L111 443L124 536L222 535Q231 535 236 537T244 546T247 562Q247 568 244 572T226 576Q206 576 173 576T92 578L90 688Q132 694 173 696T245 699ZM832 416L723 192Q719 184 722
181T730 178H968L957 92L911 79H601Q577 79 564 92T550 123T556 158L689 416H832ZM945 333L898 2H759L795 262L828 333H945Z" />
<glyph unicode="&#xbf;" horiz-adv-x="535" d="M365 290Q361 238 346 199T311 130T270 78T231 38T206 7Q197 -9 203 -18T241 -28Q295 -28 329 -28T392 -28T454 -28L452 -167Q420 -173 394 -178T341 -186T277 -192T190 -194Q70 -194 17 -154T-26 -31Q-20 11 0 40T49
94T108 144T163 204T201 290H365ZM330 518Q365 518 384 499T399 442L393 401Q389 366 371 350T314 333H273Q195 333 204 409L209 450Q219 518 289 518H330Z" />
<glyph unicode="&#xc0;" horiz-adv-x="678" d="M489 690Q515 690 535 673T558 630L647 0H430L394 453Q392 473 392 492T393 530H365Q362 514 358 495T345 455L176 0H-49L217 638Q227 664 247 677T293 690H489ZM522 304L504 146H141L160 304H522ZM274 956L509 806L442
720L194 826L274 956Z" />
<glyph unicode="&#xc1;" horiz-adv-x="678" d="M489 690Q515 690 535 673T558 630L647 0H430L394 453Q392 473 392 492T393 530H365Q362 514 358 495T345 455L176 0H-49L217 638Q227 664 247 677T293 690H489ZM522 304L504 146H141L160 304H522ZM554 962L620 816L354
720L307 806L554 962Z" />
<glyph unicode="&#xc2;" horiz-adv-x="678" d="M489 690Q515 690 535 673T558 630L647 0H430L394 453Q392 473 392 492T393 530H365Q362 514 358 495T345 455L176 0H-49L217 638Q227 664 247 677T293 690H489ZM522 304L504 146H141L160 304H522ZM479 927L610 787L555
719L408 813H400L236 719L188 791L338 927H479Z" />
<glyph unicode="&#xc3;" horiz-adv-x="678" d="M489 690Q515 690 535 673T558 630L647 0H430L394 453Q392 473 392 492T393 530H365Q362 514 358 495T345 455L176 0H-49L217 638Q227 664 247 677T293 690H489ZM522 304L504 146H141L160 304H522ZM308 920Q327 920
349 915T394 901T435 886T468 876Q494 870 503 882T515 919L600 911Q604 824 577 785T505 746Q486 746 463 751T417 765T375 780T341 790Q316 795 308 783T295 747L210 755Q208 841 235 880T308 920Z" />
<glyph unicode="&#xc4;" horiz-adv-x="678" d="M489 690Q515 690 535 673T558 630L647 0H430L394 453Q392 473 392 492T393 530H365Q362 514 358 495T345 455L176 0H-49L217 638Q227 664 247 677T293 690H489ZM522 304L504 146H141L160 304H522ZM364 904Q382 904
389 896T394 871L383 795Q381 778 373 771T348 763H267Q233 763 237 796L248 869Q251 888 259 896T287 904H364ZM553 904Q570 904 577 896T583 871L572 796Q569 778 562 771T537 763H456Q422 763 426 796L437 870Q440 889 448 896T473 904H553Z" />
<glyph unicode="&#xc5;" horiz-adv-x="678" d="M489 690Q515 690 535 673T558 630L647 0H430L394 453Q392 473 392 492T393 530H365Q362 514 358 495T345 455L176 0H-49L217 638Q227 664 247 677T293 690H489ZM522 304L504 146H141L160 304H522ZM418 959Q470 959
506 929T542 848Q542 790 505 754T408 717Q357 717 321 748T284 828Q284 886 322 922T418 959ZM414 884Q394 884 381 872T368 836Q368 817 380 805T411 792Q433 792 445 805T458 841Q458 861 446 872T414 884Z" />
<glyph unicode="&#xc6;" horiz-adv-x="956" d="M623 692Q723 692 805 691T977 681L951 531H721Q696 531 686 523T672 491L629 199Q627 180 634 170T665 159H897L894 8Q815 -2 727 -3T559 -4Q486 -4 450 41T423 157L471 502Q473 516 479 533T492 564H481Q475 553
467 537T454 512L167 0H-58L257 538Q281 580 309 609T377 657T476 683T623 692ZM493 314L473 156H116L136 314H493ZM468 420H900L884 286H448L468 420Z" />
<glyph unicode="&#xc7;" horiz-adv-x="603" d="M391 702Q443 702 481 699T552 690T618 674L593 517Q557 518 526 518T460 518T380 519Q353 519 335 513T305 489T284 435T267 337Q258 269 258 233T272 184T324 171Q399 171 448 173T545 179L553 20Q498 3 444 -4T314
-12Q199 -12 133 22T44 137T41 353Q56 457 80 525T144 631T244 686T391 702ZM200 -57Q254 -50 295 -51T357 -70T372 -130Q363 -185 327 -218T239 -264T124 -268L145 -191Q178 -191 207 -184T244 -145Q246 -135 237 -132T182 -129L200 -57Z" />
<glyph unicode="&#xc8;" horiz-adv-x="587" d="M259 694Q320 694 382 693T503 690T607 680L583 528H343Q318 528 307 520T292 488L252 201Q249 182 258 172T289 162H529L525 8Q477 1 419 -1T301 -3T187 -4Q102 -4 62 49T32 184L82 541Q92 611 137 652T259 694ZM85
425H532L514 281H62L85 425ZM256 956L491 806L424 720L176 826L256 956Z" />
<glyph unicode="&#xc9;" horiz-adv-x="587" d="M259 694Q320 694 382 693T503 690T607 680L583 528H343Q318 528 307 520T292 488L252 201Q249 182 258 172T289 162H529L525 8Q477 1 419 -1T301 -3T187 -4Q102 -4 62 49T32 184L82 541Q92 611 137 652T259 694ZM85
425H532L514 281H62L85 425ZM536 962L602 816L336 720L289 806L536 962Z" />
<glyph unicode="&#xca;" horiz-adv-x="587" d="M259 694Q320 694 382 693T503 690T607 680L583 528H343Q318 528 307 520T292 488L252 201Q249 182 258 172T289 162H529L525 8Q477 1 419 -1T301 -3T187 -4Q102 -4 62 49T32 184L82 541Q92 611 137 652T259 694ZM85
425H532L514 281H62L85 425ZM461 927L592 787L537 719L390 813H382L218 719L170 791L320 927H461Z" />
<glyph unicode="&#xcb;" horiz-adv-x="587" d="M259 694Q320 694 382 693T503 690T607 680L583 528H343Q318 528 307 520T292 488L252 201Q249 182 258 172T289 162H529L525 8Q477 1 419 -1T301 -3T187 -4Q102 -4 62 49T32 184L82 541Q92 611 137 652T259 694ZM85
425H532L514 281H62L85 425ZM346 904Q364 904 371 896T376 871L365 795Q363 778 355 771T330 763H249Q215 763 219 796L230 869Q233 888 241 896T269 904H346ZM535 904Q552 904 559 896T565 871L554 796Q551 778 544 771T519 763H438Q404 763 408 796L419 870Q422
889 430 896T455 904H535Z" />
<glyph unicode="&#xcc;" horiz-adv-x="322" d="M325 690L228 0H12L109 690H325ZM101 956L336 806L269 720L21 826L101 956Z" />
<glyph unicode="&#xcd;" horiz-adv-x="322" d="M325 690L228 0H12L109 690H325ZM381 962L447 816L181 720L134 806L381 962Z" />
<glyph unicode="&#xce;" horiz-adv-x="322" d="M325 690L228 0H12L109 690H325ZM306 927L437 787L382 719L235 813H227L63 719L15 791L165 927H306Z" />
<glyph unicode="&#xcf;" horiz-adv-x="322" d="M325 690L228 0H12L109 690H325ZM191 904Q209 904 216 896T221 871L210 795Q208 778 200 771T175 763H94Q60 763 64 796L75 869Q78 888 86 896T114 904H191ZM380 904Q397 904 404 896T410 871L399 796Q396 778 389
771T364 763H283Q249 763 253 796L264 870Q267 889 275 896T300 904H380Z" />
<glyph unicode="&#xd0;" horiz-adv-x="700" d="M373 413L359 313H8L22 413H373ZM389 700Q501 700 571 669T667 558T674 337Q659 234 635 166T571 60T470 6T321 -10Q230 -10 155 -7T11 0L114 154Q148 150 204 149T318 147Q344 147 364 155T399 185T426 247T446
353Q454 411 455 448T451 506T428 535T382 543Q344 543 311 543T249 543T192 544L108 690Q147 693 192 695T287 699T389 700ZM325 690L228 0H11L108 690H325Z" />
<glyph unicode="&#xd1;" horiz-adv-x="730" d="M734 690L647 71Q642 34 624 17T568 0H496Q462 0 448 18T419 67L301 304Q289 328 281 357T266 418H259Q260 386 259 355T253 290L210 0H11L98 619Q103 656 121 673T177 690H249Q283 690 297 672T325 623L441 398Q453
373 463 345T483 279H491Q488 313 488 340T493 396L535 690H734ZM333 920Q352 920 374 915T419 901T460 886T493 876Q519 870 528 882T540 919L625 911Q629 824 602 785T530 746Q511 746 488 751T442 765T400 780T366 790Q341 795 333 783T320 747L235 755Q233
841 260 880T333 920Z" />
<glyph unicode="&#xd2;" horiz-adv-x="700" d="M389 704Q503 704 573 672T668 561T675 337Q661 231 635 162T566 55T464 2T322 -14Q203 -14 135 18T44 131T41 353Q56 458 82 526T149 634T249 688T389 704ZM387 543Q351 543 330 527T295 467T268 337Q256 258 257
217T275 162T327 147Q365 147 386 163T420 223T447 353Q459 432 458 472T440 528T387 543ZM288 956L523 806L456 720L208 826L288 956Z" />
<glyph unicode="&#xd3;" horiz-adv-x="700" d="M389 704Q503 704 573 672T668 561T675 337Q661 231 635 162T566 55T464 2T322 -14Q203 -14 135 18T44 131T41 353Q56 458 82 526T149 634T249 688T389 704ZM387 543Q351 543 330 527T295 467T268 337Q256 258 257
217T275 162T327 147Q365 147 386 163T420 223T447 353Q459 432 458 472T440 528T387 543ZM568 962L634 816L368 720L321 806L568 962Z" />
<glyph unicode="&#xd4;" horiz-adv-x="700" d="M389 704Q503 704 573 672T668 561T675 337Q661 231 635 162T566 55T464 2T322 -14Q203 -14 135 18T44 131T41 353Q56 458 82 526T149 634T249 688T389 704ZM387 543Q351 543 330 527T295 467T268 337Q256 258 257
217T275 162T327 147Q365 147 386 163T420 223T447 353Q459 432 458 472T440 528T387 543ZM493 927L624 787L569 719L422 813H414L250 719L202 791L352 927H493Z" />
<glyph unicode="&#xd5;" horiz-adv-x="700" d="M389 704Q503 704 573 672T668 561T675 337Q661 231 635 162T566 55T464 2T322 -14Q203 -14 135 18T44 131T41 353Q56 458 82 526T149 634T249 688T389 704ZM387 543Q351 543 330 527T295 467T268 337Q256 258 257
217T275 162T327 147Q365 147 386 163T420 223T447 353Q459 432 458 472T440 528T387 543ZM322 920Q341 920 363 915T408 901T449 886T482 876Q508 870 517 882T529 919L614 911Q618 824 591 785T519 746Q500 746 477 751T431 765T389 780T355 790Q330 795 322
783T309 747L224 755Q222 841 249 880T322 920Z" />
<glyph unicode="&#xd6;" horiz-adv-x="700" d="M389 704Q503 704 573 672T668 561T675 337Q661 231 635 162T566 55T464 2T322 -14Q203 -14 135 18T44 131T41 353Q56 458 82 526T149 634T249 688T389 704ZM387 543Q351 543 330 527T295 467T268 337Q256 258 257
217T275 162T327 147Q365 147 386 163T420 223T447 353Q459 432 458 472T440 528T387 543ZM378 904Q396 904 403 896T408 871L397 795Q395 778 387 771T362 763H281Q247 763 251 796L262 869Q265 888 273 896T301 904H378ZM567 904Q584 904 591 896T597 871L586
796Q583 778 576 771T551 763H470Q436 763 440 796L451 870Q454 889 462 896T487 904H567Z" />
<glyph unicode="&#xd7;" horiz-adv-x="526" d="M436 524L513 400L87 65L10 190L436 524ZM152 514L488 188L377 63L42 399L152 514Z" />
<glyph unicode="&#xd8;" horiz-adv-x="700" d="M571 757L629 730L145 -71L87 -44L571 757ZM389 704Q503 704 573 672T668 561T675 337Q661 231 635 162T566 55T464 2T322 -14Q203 -14 135 18T44 131T41 353Q56 458 82 526T149 634T249 688T389 704ZM387 543Q351
543 330 527T295 467T268 337Q256 258 257 217T275 162T327 147Q365 147 386 163T420 223T447 353Q459 432 458 472T440 528T387 543Z" />
<glyph unicode="&#xd9;" horiz-adv-x="700" d="M710 690L651 281Q636 171 601 107T499 14T322 -14Q217 -14 151 16T58 112T45 289L103 690H319L261 281Q253 229 255 200T274 159T327 147Q365 147 385 159T416 203T436 289L493 690H710ZM288 956L523 806L456 720L208
826L288 956Z" />
<glyph unicode="&#xda;" horiz-adv-x="700" d="M710 690L651 281Q636 171 601 107T499 14T322 -14Q217 -14 151 16T58 112T45 289L103 690H319L261 281Q253 229 255 200T274 159T327 147Q365 147 385 159T416 203T436 289L493 690H710ZM568 962L634 816L368 720L321
806L568 962Z" />
<glyph unicode="&#xdb;" horiz-adv-x="700" d="M710 690L651 281Q636 171 601 107T499 14T322 -14Q217 -14 151 16T58 112T45 289L103 690H319L261 281Q253 229 255 200T274 159T327 147Q365 147 385 159T416 203T436 289L493 690H710ZM493 927L624 787L569 719L422
813H414L250 719L202 791L352 927H493Z" />
<glyph unicode="&#xdc;" horiz-adv-x="700" d="M710 690L651 281Q636 171 601 107T499 14T322 -14Q217 -14 151 16T58 112T45 289L103 690H319L261 281Q253 229 255 200T274 159T327 147Q365 147 385 159T416 203T436 289L493 690H710ZM378 904Q396 904 403 896T408
871L397 795Q395 778 387 771T362 763H281Q247 763 251 796L262 869Q265 888 273 896T301 904H378ZM567 904Q584 904 591 896T597 871L586 796Q583 778 576 771T551 763H470Q436 763 440 796L451 870Q454 889 462 896T487 904H567Z" />
<glyph unicode="&#xdd;" horiz-adv-x="649" d="M715 690L417 205L209 206L46 690H262L315 469Q322 439 322 415T322 368H337Q339 389 347 415T367 467L484 690H715ZM436 328L391 0H173L219 328H436ZM539 962L605 816L339 720L292 806L539 962Z" />
<glyph unicode="&#xde;" horiz-adv-x="636" d="M367 578Q471 578 532 557T616 482T626 335Q614 246 585 197T500 129T355 110Q287 110 223 119T112 142T50 167L56 263Q124 263 196 263T336 263Q361 263 375 268T397 292T411 351Q415 379 413 395T400 418T364 425Q262
425 191 424T94 419L97 568Q141 573 178 575T260 577T367 578ZM326 690L229 0H12L109 690H326Z" />
<glyph unicode="&#xdf;" horiz-adv-x="731" d="M413 742Q524 742 581 724T655 666T662 566Q660 552 655 535T639 497T608 454Q594 438 582 425T561 401T551 378Q550 364 561 351T594 316L640 273Q681 232 695 197T702 123Q695 78 674 49T607 4T482 -11Q446 -11
406 -8T309 0L327 128Q353 128 378 128T437 128Q454 128 467 130T487 138T495 157Q495 164 491 172T474 195T434 234L408 254Q377 283 362 309T352 378Q355 398 362 413T384 447T422 491Q441 512 451 524T465 547T471 568Q473 583 469 590T455 600T425 602Q392
602 373 597T346 577T333 537L254 -32Q247 -77 227 -113T168 -170T63 -191Q36 -191 0 -187T-89 -176L-58 -51H-9Q21 -51 34 -39T52 5L131 570Q138 619 156 652T207 705T291 733T413 742ZM221 500L203 374H21L36 495L121 500H221Z" />
<glyph unicode="&#xe0;" horiz-adv-x="613" d="M354 514Q380 514 415 511T487 503T553 493T597 482L434 376Q409 377 386 377T328 377Q312 377 298 374T273 360T253 328T239 270Q232 219 230 193T234 157T260 149Q279 151 302 169T346 216T380 277L414 221Q399
148 366 98T283 20T170 -12Q98 -17 62 16T19 113T25 264Q39 353 66 403T135 477T232 507T354 514ZM392 500L597 482L529 0H367L365 109L338 125L392 500ZM231 768L466 618L399 532L151 638L231 768Z" />
<glyph unicode="&#xe1;" horiz-adv-x="613" d="M354 514Q380 514 415 511T487 503T553 493T597 482L434 376Q409 377 386 377T328 377Q312 377 298 374T273 360T253 328T239 270Q232 219 230 193T234 157T260 149Q279 151 302 169T346 216T380 277L414 221Q399
148 366 98T283 20T170 -12Q98 -17 62 16T19 113T25 264Q39 353 66 403T135 477T232 507T354 514ZM392 500L597 482L529 0H367L365 109L338 125L392 500ZM511 774L577 628L311 532L264 618L511 774Z" />
<glyph unicode="&#xe2;" horiz-adv-x="613" d="M354 514Q380 514 415 511T487 503T553 493T597 482L434 376Q409 377 386 377T328 377Q312 377 298 374T273 360T253 328T239 270Q232 219 230 193T234 157T260 149Q279 151 302 169T346 216T380 277L414 221Q399
148 366 98T283 20T170 -12Q98 -17 62 16T19 113T25 264Q39 353 66 403T135 477T232 507T354 514ZM392 500L597 482L529 0H367L365 109L338 125L392 500ZM436 995L567 855L512 787L365 881H357L193 787L145 859L295 995H436Z" />
<glyph unicode="&#xe3;" horiz-adv-x="613" d="M354 514Q380 514 415 511T487 503T553 493T597 482L434 376Q409 377 386 377T328 377Q312 377 298 374T273 360T253 328T239 270Q232 219 230 193T234 157T260 149Q279 151 302 169T346 216T380 277L414 221Q399
148 366 98T283 20T170 -12Q98 -17 62 16T19 113T25 264Q39 353 66 403T135 477T232 507T354 514ZM392 500L597 482L529 0H367L365 109L338 125L392 500ZM265 732Q284 732 306 727T351 713T392 698T425 688Q451 682 460 694T472 731L557 723Q561 636 534 597T462
558Q443 558 420 563T374 577T332 592T298 602Q273 607 265 595T252 559L167 567Q165 653 192 692T265 732Z" />
<glyph unicode="&#xe4;" horiz-adv-x="613" d="M354 514Q380 514 415 511T487 503T553 493T597 482L434 376Q409 377 386 377T328 377Q312 377 298 374T273 360T253 328T239 270Q232 219 230 193T234 157T260 149Q279 151 302 169T346 216T380 277L414 221Q399
148 366 98T283 20T170 -12Q98 -17 62 16T19 113T25 264Q39 353 66 403T135 477T232 507T354 514ZM392 500L597 482L529 0H367L365 109L338 125L392 500ZM321 972Q339 972 346 964T351 939L340 863Q338 846 330 839T305 831H224Q190 831 194 864L205 937Q208 956
216 964T244 972H321ZM510 972Q527 972 534 964T540 939L529 864Q526 846 519 839T494 831H413Q379 831 383 864L394 938Q397 957 405 964T430 972H510Z" />
<glyph unicode="&#xe5;" horiz-adv-x="613" d="M354 514Q380 514 415 511T487 503T553 493T597 482L434 376Q409 377 386 377T328 377Q312 377 298 374T273 360T253 328T239 270Q232 219 230 193T234 157T260 149Q279 151 302 169T346 216T380 277L414 221Q399
148 366 98T283 20T170 -12Q98 -17 62 16T19 113T25 264Q39 353 66 403T135 477T232 507T354 514ZM392 500L597 482L529 0H367L365 109L338 125L392 500ZM375 771Q427 771 463 741T499 660Q499 602 462 566T365 529Q314 529 278 560T241 640Q241 698 279 734T375
771ZM371 696Q351 696 338 684T325 648Q325 629 337 617T368 604Q390 604 402 617T415 653Q415 673 403 684T371 696Z" />
<glyph unicode="&#xe6;" horiz-adv-x="916" d="M305 514Q371 515 428 510T529 498T594 482L430 376Q414 377 399 377T367 377T326 377Q308 377 294 374T270 360T252 328T239 270Q232 219 230 193T234 157T260 149Q278 151 300 169T344 216T376 277L410 221Q395
148 362 98T281 20T169 -12Q98 -17 63 16T20 113T25 264Q38 353 61 403T120 477T201 507T305 514ZM655 514Q757 514 813 493T889 430T900 328Q894 283 870 258T801 221T690 204L429 184L442 283L634 303Q654 305 668 308T690 321T700 349Q701 360 698 367T686 377T657
379Q634 379 619 374T595 356T580 320T568 261Q560 212 562 188T582 157T637 149Q656 149 692 150T768 154T838 160L851 32Q816 16 777 6T698 -8T618 -12Q506 -12 446 19T366 109T354 254Q362 334 385 385T447 464T538 503T655 514Z" />
<glyph unicode="&#xe7;" horiz-adv-x="536" d="M303 514Q361 514 423 505T532 475L504 347Q448 347 404 347T328 347Q298 347 281 338T254 309T240 253Q234 212 237 191T256 162T302 154Q322 154 349 154T407 156T470 161L485 28Q436 5 378 -3T265 -12Q177 -12
118 15T33 102T21 259Q34 349 64 405T151 487T303 514ZM158 -45Q212 -38 253 -39T315 -58T330 -118Q321 -173 285 -206T197 -252T82 -256L103 -179Q136 -179 165 -172T202 -133Q204 -123 195 -120T140 -117L158 -45Z" />
<glyph unicode="&#xe8;" horiz-adv-x="590" d="M326 514Q430 514 487 493T563 430T574 328Q568 283 543 258T474 221T361 204L95 184L108 283L306 303Q327 305 341 308T363 321T374 349Q375 360 372 367T359 377T328 379Q307 379 293 374T270 356T255 320T242
261Q234 212 236 188T256 157T307 149Q328 149 364 150T441 154T512 160L526 32Q491 16 451 6T370 -8T289 -12Q175 -12 114 19T33 109T21 254Q29 334 53 385T115 464T206 503T326 514ZM222 768L457 618L390 532L142 638L222 768Z" />
<glyph unicode="&#xe9;" horiz-adv-x="590" d="M326 514Q430 514 487 493T563 430T574 328Q568 283 543 258T474 221T361 204L95 184L108 283L306 303Q327 305 341 308T363 321T374 349Q375 360 372 367T359 377T328 379Q307 379 293 374T270 356T255 320T242
261Q234 212 236 188T256 157T307 149Q328 149 364 150T441 154T512 160L526 32Q491 16 451 6T370 -8T289 -12Q175 -12 114 19T33 109T21 254Q29 334 53 385T115 464T206 503T326 514ZM502 774L568 628L302 532L255 618L502 774Z" />
<glyph unicode="&#xea;" horiz-adv-x="590" d="M326 514Q430 514 487 493T563 430T574 328Q568 283 543 258T474 221T361 204L95 184L108 283L306 303Q327 305 341 308T363 321T374 349Q375 360 372 367T359 377T328 379Q307 379 293 374T270 356T255 320T242
261Q234 212 236 188T256 157T307 149Q328 149 364 150T441 154T512 160L526 32Q491 16 451 6T370 -8T289 -12Q175 -12 114 19T33 109T21 254Q29 334 53 385T115 464T206 503T326 514ZM427 995L558 855L503 787L356 881H348L184 787L136 859L286 995H427Z" />
<glyph unicode="&#xeb;" horiz-adv-x="590" d="M326 514Q430 514 487 493T563 430T574 328Q568 283 543 258T474 221T361 204L95 184L108 283L306 303Q327 305 341 308T363 321T374 349Q375 360 372 367T359 377T328 379Q307 379 293 374T270 356T255 320T242
261Q234 212 236 188T256 157T307 149Q328 149 364 150T441 154T512 160L526 32Q491 16 451 6T370 -8T289 -12Q175 -12 114 19T33 109T21 254Q29 334 53 385T115 464T206 503T326 514ZM312 972Q330 972 337 964T342 939L331 863Q329 846 321 839T296 831H215Q181
831 185 864L196 937Q199 956 207 964T235 972H312ZM501 972Q518 972 525 964T531 939L520 864Q517 846 510 839T485 831H404Q370 831 374 864L385 938Q388 957 396 964T421 972H501Z" />
<glyph unicode="&#xec;" horiz-adv-x="306" d="M288 500L218 0H7L77 500H288ZM320 768L555 618L488 532L240 638L320 768Z" />
<glyph unicode="&#xed;" horiz-adv-x="306" d="M288 500L218 0H7L77 500H288ZM344 774L410 628L144 532L97 618L344 774Z" />
<glyph unicode="&#xee;" horiz-adv-x="306" d="M288 500L218 0H7L77 500H288ZM525 995L656 855L601 787L454 881H446L282 787L234 859L384 995H525Z" />
<glyph unicode="&#xef;" horiz-adv-x="306" d="M288 500L218 0H7L77 500H288ZM410 972Q428 972 435 964T440 939L429 863Q427 846 419 839T394 831H313Q279 831 283 864L294 937Q297 956 305 964T333 972H410ZM599 972Q616 972 623 964T629 939L618 864Q615 846
608 839T583 831H502Q468 831 472 864L483 938Q486 957 494 964T519 972H599Z" />
<glyph unicode="&#xf0;" horiz-adv-x="604" d="M198 698Q288 704 356 691T470 647T543 565T577 444T573 283Q563 199 539 142T477 50T385 1T261 -14Q178 -14 120 11T34 88T18 222Q35 347 95 400T257 453Q281 453 308 449T362 432T408 392T438 322L428 244Q416
268 399 285T361 311T315 321Q289 321 274 311T252 278T238 220Q230 168 235 149T276 130Q302 130 315 145T337 197T355 298Q364 360 367 407T363 487T335 539T276 565T175 568L198 698ZM488 734L536 673L272 463L224 524L488 734Z" />
<glyph unicode="&#xf1;" horiz-adv-x="619" d="M460 514Q501 514 533 498T581 450T590 370L538 0H327L370 302Q373 322 368 330T343 337Q325 336 301 326T242 287L207 374Q257 438 325 476T460 514ZM236 500L243 366L263 354L213 0H3L72 500H236ZM257 732Q276
732 298 727T343 713T384 698T417 688Q443 682 452 694T464 731L549 723Q553 636 526 597T454 558Q435 558 412 563T366 577T324 592T290 602Q265 607 257 595T244 559L159 567Q157 653 184 692T257 732Z" />
<glyph unicode="&#xf2;" horiz-adv-x="615" d="M327 514Q427 514 488 487T573 401T582 241Q569 147 536 92T440 12T278 -12Q179 -12 117 14T31 100T21 257Q35 353 68 409T164 489T327 514ZM323 372Q296 372 281 362T257 324T240 241Q234 195 234 171T247 139T286
130Q312 130 326 140T348 177T365 257Q372 305 371 329T359 363T323 372ZM222 768L457 618L390 532L142 638L222 768Z" />
<glyph unicode="&#xf3;" horiz-adv-x="615" d="M327 514Q427 514 488 487T573 401T582 241Q569 147 536 92T440 12T278 -12Q179 -12 117 14T31 100T21 257Q35 353 68 409T164 489T327 514ZM323 372Q296 372 281 362T257 324T240 241Q234 195 234 171T247 139T286
130Q312 130 326 140T348 177T365 257Q372 305 371 329T359 363T323 372ZM502 774L568 628L302 532L255 618L502 774Z" />
<glyph unicode="&#xf4;" horiz-adv-x="615" d="M327 514Q427 514 488 487T573 401T582 241Q569 147 536 92T440 12T278 -12Q179 -12 117 14T31 100T21 257Q35 353 68 409T164 489T327 514ZM323 372Q296 372 281 362T257 324T240 241Q234 195 234 171T247 139T286
130Q312 130 326 140T348 177T365 257Q372 305 371 329T359 363T323 372ZM427 995L558 855L503 787L356 881H348L184 787L136 859L286 995H427Z" />
<glyph unicode="&#xf5;" horiz-adv-x="615" d="M327 514Q427 514 488 487T573 401T582 241Q569 147 536 92T440 12T278 -12Q179 -12 117 14T31 100T21 257Q35 353 68 409T164 489T327 514ZM323 372Q296 372 281 362T257 324T240 241Q234 195 234 171T247 139T286
130Q312 130 326 140T348 177T365 257Q372 305 371 329T359 363T323 372ZM256 732Q275 732 297 727T342 713T383 698T416 688Q442 682 451 694T463 731L548 723Q552 636 525 597T453 558Q434 558 411 563T365 577T323 592T289 602Q264 607 256 595T243 559L158
567Q156 653 183 692T256 732Z" />
<glyph unicode="&#xf6;" horiz-adv-x="615" d="M327 514Q427 514 488 487T573 401T582 241Q569 147 536 92T440 12T278 -12Q179 -12 117 14T31 100T21 257Q35 353 68 409T164 489T327 514ZM323 372Q296 372 281 362T257 324T240 241Q234 195 234 171T247 139T286
130Q312 130 326 140T348 177T365 257Q372 305 371 329T359 363T323 372ZM312 972Q330 972 337 964T342 939L331 863Q329 846 321 839T296 831H215Q181 831 185 864L196 937Q199 956 207 964T235 972H312ZM501 972Q518 972 525 964T531 939L520 864Q517 846 510
839T485 831H404Q370 831 374 864L385 938Q388 957 396 964T421 972H501Z" />
<glyph unicode="&#xf7;" horiz-adv-x="528" d="M514 369L491 215H14L37 369H514ZM264 176Q311 176 329 159T340 93L338 79Q332 31 313 15T246 -2H200Q151 -2 134 16T124 82L126 96Q132 144 154 160T224 176H264ZM324 582Q371 582 389 565T399 500L398 486Q391
438 372 421T305 404H259Q210 404 193 422T183 488L185 502Q192 550 214 566T283 582H324Z" />
<glyph unicode="&#xf8;" horiz-adv-x="615" d="M486 597L533 575L131 -93L84 -71L486 597ZM327 514Q427 514 488 487T573 401T582 241Q569 147 536 92T440 12T278 -12Q179 -12 117 14T31 100T21 257Q35 353 68 409T164 489T327 514ZM323 372Q296 372 281 362T257
324T240 241Q234 195 234 171T247 139T286 130Q312 130 326 140T348 177T365 257Q372 305 371 329T359 363T323 372Z" />
<glyph unicode="&#xf9;" horiz-adv-x="613" d="M280 500L235 189Q233 173 240 168T258 162Q282 162 305 173T365 212L401 126Q335 53 276 20T157 -14Q79 -14 44 23T18 130L69 500H280ZM598 500L529 0H365L359 134L340 146L390 500H598ZM219 779L454 629L387 543L139
649L219 779Z" />
<glyph unicode="&#xfa;" horiz-adv-x="613" d="M280 500L235 189Q233 173 240 168T258 162Q282 162 305 173T365 212L401 126Q335 53 276 20T157 -14Q79 -14 44 23T18 130L69 500H280ZM598 500L529 0H365L359 134L340 146L390 500H598ZM499 785L565 639L299 543L252
629L499 785Z" />
<glyph unicode="&#xfb;" horiz-adv-x="613" d="M280 500L235 189Q233 173 240 168T258 162Q282 162 305 173T365 212L401 126Q335 53 276 20T157 -14Q79 -14 44 23T18 130L69 500H280ZM598 500L529 0H365L359 134L340 146L390 500H598ZM424 750L555 610L500 542L353
636H345L181 542L133 614L283 750H424Z" />
<glyph unicode="&#xfc;" horiz-adv-x="613" d="M280 500L235 189Q233 173 240 168T258 162Q282 162 305 173T365 212L401 126Q335 53 276 20T157 -14Q79 -14 44 23T18 130L69 500H280ZM598 500L529 0H365L359 134L340 146L390 500H598ZM309 727Q327 727 334 719T339
694L328 618Q326 601 318 594T293 586H212Q178 586 182 619L193 692Q196 711 204 719T232 727H309ZM498 727Q515 727 522 719T528 694L517 619Q514 601 507 594T482 586H401Q367 586 371 619L382 693Q385 712 393 719T418 727H498Z" />
<glyph unicode="&#xfd;" horiz-adv-x="622" d="M629 500Q622 445 606 385T568 265T526 155T486 65T455 8Q408 -66 350 -115T221 -187T66 -206L53 -93Q89 -80 120 -70T180 -44T236 3T290 88Q319 145 339 205T375 338T404 500H629ZM260 500L268 142Q268 126 284
126H340L299 0H154Q129 0 112 15T92 53L30 500H260ZM494 774L560 628L294 532L247 618L494 774Z" />
<glyph unicode="&#xfe;" horiz-adv-x="616" d="M429 512Q496 512 533 481T581 389T581 236Q573 168 554 120T506 43T443 0T369 -14Q288 -14 219 -3T113 35L132 113Q167 113 198 113T278 113Q300 113 315 117T339 134T355 169T366 230Q371 271 373 298T369 338T341
351Q314 351 295 335T260 293T233 238L204 323Q212 367 242 410T321 483T429 512ZM311 700L297 596Q293 561 286 523T270 453L273 445L225 74L215 58Q213 26 211 -12T202 -85L188 -180H-22L101 700H311Z" />
<glyph unicode="&#xff;" horiz-adv-x="622" d="M629 500Q622 445 606 385T568 265T526 155T486 65T455 8Q408 -66 350 -115T221 -187T66 -206L53 -93Q89 -80 120 -70T180 -44T236 3T290 88Q319 145 339 205T375 338T404 500H629ZM260 500L268 142Q268 126 284
126H340L299 0H154Q129 0 112 15T92 53L30 500H260ZM304 972Q322 972 329 964T334 939L323 863Q321 846 313 839T288 831H207Q173 831 177 864L188 937Q191 956 199 964T227 972H304ZM493 972Q510 972 517 964T523 939L512 864Q509 846 502 839T477 831H396Q362
831 366 864L377 938Q380 957 388 964T413 972H493Z" />
<glyph unicode="&#x2013;" horiz-adv-x="532" d="M491 318L473 196H32L50 318H491Z" />
<glyph unicode="&#x2014;" horiz-adv-x="822" d="M781 318L763 196H32L50 318H781Z" />
<glyph unicode="&#x2018;" horiz-adv-x="222" d="M115 395Q81 395 67 410T57 464L65 522Q69 554 80 589T108 657T143 713L217 684Q204 653 196 622T179 559Q208 560 218 546T224 501L218 459Q213 422 196 409T146 395H115Z" />
<glyph unicode="&#x2019;" horiz-adv-x="221" d="M177 700Q211 700 225 685T235 631L227 573Q223 541 212 506T184 438T149 382L75 411Q88 442 96 473T113 536Q84 535 74 549T68 594L74 636Q79 673 96 686T146 700H177Z" />
<glyph unicode="&#x201a;" horiz-adv-x="232" d="M110 153Q145 153 159 138T168 84L160 26Q156 -6 145 -41T117 -109T82 -165L8 -136Q22 -105 30 -74T46 -11Q18 -12 8 2T1 47L7 89Q12 127 29 140T79 153H110Z" />
<glyph unicode="&#x201c;" horiz-adv-x="421" d="M115 395Q81 395 67 410T57 464L65 522Q69 554 80 589T108 657T143 713L217 684Q204 653 196 622T179 559Q208 560 218 546T224 501L218 459Q213 422 196 409T146 395H115ZM314 395Q280 395 266 410T256 464L264
522Q268 554 279 589T307 657T342 713L416 684Q403 653 395 622T378 559Q407 560 417 546T423 501L417 459Q412 422 395 409T345 395H314Z" />
<glyph unicode="&#x201d;" horiz-adv-x="420" d="M376 700Q410 700 424 685T434 631L426 573Q422 541 411 506T383 438T348 382L274 411Q287 442 295 473T312 536Q283 535 273 549T267 594L273 636Q278 673 295 686T345 700H376ZM177 700Q211 700 225 685T235
631L227 573Q223 541 212 506T184 438T149 382L75 411Q88 442 96 473T113 536Q84 535 74 549T68 594L74 636Q79 673 96 686T146 700H177Z" />
<glyph unicode="&#x201e;" horiz-adv-x="431" d="M309 153Q343 153 357 138T367 84L359 26Q355 -6 344 -41T316 -109T281 -165L207 -136Q220 -105 228 -74T245 -11Q216 -12 206 2T200 47L206 89Q211 126 228 139T278 153H309ZM110 153Q144 153 158 138T168 84L160
26Q156 -6 145 -41T117 -109T82 -165L8 -136Q21 -105 29 -74T46 -11Q17 -12 7 2T1 47L7 89Q12 126 29 139T79 153H110Z" />
<glyph unicode="&#x2022;" horiz-adv-x="379" d="M216 402Q282 402 306 373T322 276L319 259Q312 210 299 183T259 144T186 133H159Q91 133 66 163T51 267L54 284Q61 330 74 355T116 391T192 402H216Z" />
<glyph unicode="&#x2039;" horiz-adv-x="320" d="M183 470L296 400L208 251L270 97L160 25L18 227L21 272L183 470Z" />
<glyph unicode="&#x203a;" horiz-adv-x="319" d="M147 470L289 269L286 224L124 25L11 95L99 244L37 399L147 470Z" />
</font>
</defs>
</svg>
