<?xml version="1.0" standalone="no"?>
<!DOCTYPE svg PUBLIC "-//W3C//DTD SVG 1.1//EN" "http://www.w3.org/Graphics/SVG/1.1/DTD/svg11.dtd">
<svg xmlns="http://www.w3.org/2000/svg">
<defs >
<font id="ExpletusSans" horiz-adv-x="1091" ><font-face
    font-family="Expletus Sans Medium"
    units-per-em="2000"
    panose-1="0 0 0 0 0 0 0 0 0 0"
    ascent="2066"
    descent="-612"
    alphabetic="0" />
<glyph unicode=" " horiz-adv-x="514" />
<glyph unicode="!" horiz-adv-x="702" d="M155 395L127 1454H341L309 395H155ZM230 -29Q174 -29 137 8T99 101Q99 158 136 197T230 236Q287 236 325 197T363 101Q363 45 325 8T230 -29Z" />
<glyph unicode="&quot;" horiz-adv-x="767" d="M96 1046V1454H282V1046H96ZM461 1046V1454H647V1046H461Z" />
<glyph unicode="#" horiz-adv-x="1788" d="M316 0L374 303L381 325L357 324H155V465H403L488 913L496 943L460 941H273V1084H522L582 1404H754L693 1084H1135L1196 1404H1368L1306 1084H1527V942H1280L1188 466H1409V324H1163L1102 0H930L988 301L994 325L969
324H619Q632 362 654 394T712 446T802 466H1017L1101 911L1110 943L1077 941H667L488 0H316Z" />
<glyph unicode="$" horiz-adv-x="1028" d="M445 -214V-22Q364 -16 270 6T80 74L138 220Q235 176 320 158T479 140Q561 140 622 170T717 251T751 359Q751 438 704 493T584 591T427 676T270 770T149 897T102 1080Q102 1172 146 1245T267 1364T445 1421V1620H607V1418Q665
1412 725 1399T863 1361L802 1217Q715 1243 649 1252T522 1262Q425 1262 368 1209T311 1084Q311 1011 358 959T480 863T638 775T796 675T918 542T965 355Q965 267 923 191T801 60T607 -13V-214H445Z" />
<glyph unicode="%" horiz-adv-x="1628" d="M305 0L1181 1404H1343L467 0H305ZM373 619Q227 619 136 725T45 1027Q45 1220 136 1327T373 1434Q519 1434 610 1327T701 1027Q701 834 610 727T373 619ZM373 749Q441 749 479 817T517 1027Q517 1166 479 1235T373 1304Q308
1304 269 1235T229 1027Q229 886 268 818T373 749ZM1275 -26Q1129 -26 1039 80T949 382Q949 574 1039 681T1275 788Q1421 788 1512 681T1604 382Q1604 189 1513 82T1275 -26ZM1275 103Q1343 103 1381 172T1420 382Q1420 520 1382 589T1275 659Q1210 659 1171 590T1132
382Q1132 241 1171 172T1275 103Z" />
<glyph unicode="&amp;" horiz-adv-x="1522" d="M670 -22Q535 -22 439 39T290 201T238 418Q238 554 309 656T478 831Q421 914 395 983T369 1117Q369 1223 418 1303T559 1429T775 1474Q841 1474 920 1457T1067 1406L1015 1264Q960 1289 893 1301T771 1313Q680 1313
622 1263T563 1135Q563 1049 612 978T743 808L1056 443L1070 423L1079 444Q1120 522 1144 596T1183 758H1350Q1323 626 1285 510T1184 293L1437 0H1178L591 687L577 707L559 685Q513 638 483 580T453 444Q453 310 517 225T700 139Q721 139 741 143T786 154Q853
171 906 155T1005 95Q935 40 855 9T670 -22Z" />
<glyph unicode="&apos;" horiz-adv-x="382" d="M93 1046V1454H279V1046H93Z" />
<glyph unicode="(" horiz-adv-x="806" d="M714 -352Q599 -274 527 -187T417 10T364 262T349 592Q349 779 363 921T416 1172T527 1368T714 1534L807 1426Q711 1347 656 1269T574 1097T541 881T534 592Q534 426 541 303T574 86T655 -86T807 -243L714 -352Z" />
<glyph unicode=")" horiz-adv-x="802" d="M95 -352L2 -243Q99 -165 154 -87T235 86T268 303T275 592Q275 758 268 880T235 1096T154 1268T2 1426L95 1534Q211 1456 282 1369T392 1172T445 921T459 592Q459 405 445 263T393 11T283 -186T95 -352Z" />
<glyph unicode="*" horiz-adv-x="1060" d="M375 704L228 788L424 1048L102 1007V1177L424 1138L224 1394L372 1479L501 1180L629 1479L777 1394Q693 1289 653 1236T598 1162T578 1136L900 1176V1007Q787 1022 723 1030T629 1041T590 1044T575 1046L773 788L626
704L501 1004L375 704Z" />
<glyph unicode="+" horiz-adv-x="1136" d="M479 124V537H94V683H479V1092H643V683H1030V537H643V124H479Z" />
<glyph unicode="," horiz-adv-x="425" d="M112 -212V196H305V40Q305 -8 296 -58T265 -147T206 -206T112 -212Z" />
<glyph unicode="-" horiz-adv-x="750" d="M90 536V683H694V536H90Z" />
<glyph unicode="." horiz-adv-x="594" d="M289 -30Q233 -30 196 7T158 101Q158 158 195 196T289 235Q347 235 385 197T423 101Q423 45 385 8T289 -30Z" />
<glyph unicode="/" horiz-adv-x="664" d="M7 -124L493 1454H674L188 -124H7Z" />
<glyph unicode="0" horiz-adv-x="1349" d="M658 -34Q491 -34 367 54T172 307T102 698Q102 920 170 1085T362 1342T657 1434Q790 1434 893 1379T1067 1225T1175 991T1212 698Q1212 527 1171 392T1056 161T881 16T658 -34ZM658 127Q815 127 901 279T987 698Q987
966 901 1119T658 1273Q500 1273 414 1120T328 698Q328 431 414 279T658 127Z" />
<glyph unicode="1" horiz-adv-x="638" d="M280 0V1157L56 1038L-18 1174L406 1402H489V0H280Z" />
<glyph unicode="2" horiz-adv-x="1057" d="M107 0V87Q174 204 256 309T422 512T576 699T688 872T731 1034Q731 1142 657 1201T480 1261Q427 1261 363 1247T218 1192L162 1340Q256 1389 340 1405T501 1422Q631 1422 733 1379T894 1254T953 1056Q953 965 912 875T805
696T664 523T517 358T396 203L365 168L410 176H977V0H107Z" />
<glyph unicode="3" horiz-adv-x="1056" d="M406 -22Q293 -22 201 7T46 71L98 216Q153 187 230 164T392 140Q485 140 551 181T652 284T687 411Q687 508 637 562T500 639T299 661L281 786L375 824Q443 854 504 886T603 964T641 1077Q641 1162 582 1212T434 1262Q377
1262 309 1249T156 1192L101 1341Q199 1390 289 1407T460 1424Q578 1424 669 1384T812 1271T864 1104Q864 1010 811 928T661 791L611 774L655 764Q722 740 780 690T874 569T910 407Q910 289 844 192T664 36T406 -22Z" />
<glyph unicode="4" horiz-adv-x="1190" d="M732 0V1077L736 1134L706 1082L304 487L279 460L314 464H467Q522 464 561 436T625 370T661 304H79V445L713 1402H931V462H1092V304H931V0H732Z" />
<glyph unicode="5" horiz-adv-x="1071" d="M429 -23Q378 -23 316 -12T191 20T76 75L128 219Q214 175 292 157T427 139Q534 139 599 183T692 293T721 421Q721 557 632 622T402 687Q351 687 280 678T140 651L191 1402H884V1228H351L324 865L321 834L354 839Q381
843 405 844T451 846Q616 846 725 785T889 627T944 417Q944 297 882 197T704 37T429 -23Z" />
<glyph unicode="6" horiz-adv-x="1292" d="M679 -29Q528 -29 425 28T259 184T169 404T141 653Q141 794 187 930T321 1175T536 1349T827 1414Q877 1414 934 1403T1050 1368L1001 1221Q953 1240 909 1247T827 1254Q685 1254 581 1176T421 963T364 657Q364 575 377
484T424 312T518 181T674 131Q747 131 803 170T891 279T923 436Q923 569 864 635T722 702Q709 702 693 700T655 693Q606 682 565 694T492 729T443 773Q541 824 604 843T731 862Q849 862 943 813T1091 670T1146 436Q1146 350 1114 267T1020 117T872 11T679 -29Z"
/>
<glyph unicode="7" horiz-adv-x="1003" d="M246 0Q277 229 334 433T479 827T690 1197L709 1220L678 1219H76V1402H936V1239Q854 1134 779 1016T642 753T534 424T467 0H246Z" />
<glyph unicode="8" horiz-adv-x="1254" d="M638 -27Q504 -27 396 17T225 147T162 356Q162 424 195 503T331 691Q369 643 390 584T386 469Q374 441 368 419T361 373Q361 260 440 196T638 132Q763 132 838 196T914 356Q914 429 876 477T775 561T637 627T487 692T349
774T248 891T210 1062Q210 1176 271 1257T432 1382T644 1425Q763 1425 860 1382T1016 1258T1075 1062Q1075 977 1031 898T918 740L894 717L918 704Q1004 651 1062 570T1121 356Q1121 233 1055 148T880 18T638 -27ZM744 791Q803 852 838 911T873 1039Q873 1115 840
1165T754 1239T644 1263Q586 1263 534 1240T450 1171T417 1062Q417 989 464 943T585 862T744 791Z" />
<glyph unicode="9" horiz-adv-x="1292" d="M459 -20Q410 -20 352 -8T235 29L286 176Q335 157 378 150T459 142Q602 142 706 219T866 432T923 741Q923 822 910 912T863 1082T769 1212T615 1263Q540 1263 484 1224T396 1115T364 959Q364 828 423 761T565 694Q577
694 593 696T633 701Q682 713 723 702T794 667T843 622Q745 570 683 553T557 535Q438 535 344 583T194 726T139 959Q139 1046 172 1129T267 1278T415 1384T609 1423Q759 1423 862 1366T1027 1210T1118 992T1146 745Q1146 602 1100 466T966 220T750 45T459 -20Z"
/>
<glyph unicode=":" horiz-adv-x="598" d="M304 -30Q248 -30 211 7T173 101Q173 158 210 196T304 235Q362 235 400 197T438 101Q438 45 400 8T304 -30ZM304 720Q248 720 211 757T173 851Q173 908 210 946T304 985Q362 985 400 947T438 851Q438 795 400 758T304 720Z" />
<glyph unicode=";" horiz-adv-x="598" d="M209 -212V196H402V40Q402 -8 393 -58T362 -147T303 -206T209 -212ZM304 720Q248 720 211 757T173 851Q173 908 210 946T304 985Q362 985 400 947T438 851Q438 795 400 758T304 720Z" />
<glyph unicode="&lt;" horiz-adv-x="1226" d="M1108 0L74 491V613L1108 1104V917L327 566L275 552L327 540L1108 189V0Z" />
<glyph unicode="=" horiz-adv-x="1212" d="M134 786V938H1078V786H134ZM134 344V496H1078V344H134Z" />
<glyph unicode="&gt;" horiz-adv-x="1226" d="M84 0V189L865 540L917 552L865 566L84 917V1104L1118 613V491L84 0Z" />
<glyph unicode="?" horiz-adv-x="1166" d="M397 395Q397 519 431 608T515 764T615 887T699 1003T733 1137Q733 1214 676 1263T527 1313Q470 1313 407 1300T259 1243L203 1392Q301 1442 383 1458T547 1474Q667 1474 759 1435T902 1326T954 1167Q954 1071 915 996T818
854T703 721T606 575T567 395H397ZM481 -29Q424 -29 386 8T348 101Q348 158 386 197T481 236Q538 236 576 197T614 101Q614 45 576 8T481 -29Z" />
<glyph unicode="@" horiz-adv-x="1838" d="M894 -249Q741 -249 609 -205T376 -69T221 168T165 514Q165 701 225 844T392 1084T636 1231T924 1281Q1076 1281 1206 1238T1433 1112T1585 909T1639 634Q1639 494 1577 386T1405 208T1151 111Q1129 123 1118 143T1097
188L1093 226L1073 186Q1015 128 961 111T853 94Q728 94 656 155T583 316Q583 437 681 497T1007 581Q1005 563 994 533T959 478T895 447Q809 435 776 402T742 324Q742 278 779 249T879 219Q930 219 985 243T1087 328V611Q1087 703 1041 754T894 806Q852 806 805
797T701 767L658 878Q734 910 796 921T922 932Q1075 932 1159 846T1243 601V296L1242 250L1272 274Q1383 347 1430 437T1478 634Q1478 796 1409 911T1215 1088T922 1150Q751 1150 617 1078T405 865T327 514Q327 306 403 166T608 -46T894 -118Q952 -118 1006 -114T1122
-96T1266 -57L1312 -179Q1217 -209 1148 -224T1020 -244T894 -249Z" />
<glyph unicode="A" horiz-adv-x="1393" d="M67 0L591 1454H802L1326 0H1097L703 1147L689 1210L674 1146L464 538L442 497L467 501H705Q756 501 790 478T847 417T883 340H399L282 0H67Z" />
<glyph unicode="B" horiz-adv-x="1305" d="M732 -23Q675 -23 614 -16T465 12Q484 47 510 79T573 129T657 142Q675 140 690 139T725 138Q795 138 852 173T944 268T979 405Q979 499 929 561T793 654T602 685H385V0H171V1435Q254 1451 325 1460T463 1475T602 1480Q774
1480 889 1429T1062 1289T1120 1087Q1120 1015 1080 933T966 804L908 776L964 762Q1038 729 1092 676T1176 556T1206 410Q1206 333 1174 256T1080 116T931 15T732 -23ZM385 837H602Q693 837 759 870T862 959T898 1087Q898 1149 865 1201T767 1285T602 1317Q548
1317 494 1314T385 1305V837Z" />
<glyph unicode="C" horiz-adv-x="1277" d="M869 -24Q652 -24 486 69T225 331T131 725Q131 890 185 1028T339 1267T572 1424T869 1480Q953 1480 1041 1464T1222 1412L1165 1267Q1077 1295 1008 1306T869 1318Q761 1318 669 1278T508 1161T401 975T362 725Q362 598
400 491T507 304T668 181T869 137Q938 137 1011 154T1164 212L1222 68Q1130 20 1042 -2T869 -24Z" />
<glyph unicode="D" horiz-adv-x="1445" d="M736 -24Q693 -24 654 -22T571 -12T469 10Q487 45 513 76T576 125T661 140Q684 138 697 138T728 137Q829 137 911 185T1053 315T1145 505T1177 730Q1177 913 1115 1045T924 1247T600 1318Q545 1318 492 1314T390 1303V0H175V1431Q280
1456 396 1468T600 1480Q857 1480 1037 1391T1313 1133T1408 730Q1408 568 1356 431T1211 191T997 33T736 -24Z" />
<glyph unicode="E" horiz-adv-x="1160" d="M175 0V1454H1015V1293H391V161H1045V0H175ZM467 684Q481 723 503 759T561 818T647 841H947V684H467Z" />
<glyph unicode="F" horiz-adv-x="1152" d="M175 0V1454H1015V1293H391V0H175ZM467 684Q481 723 503 759T561 818T647 841H947V684H467Z" />
<glyph unicode="G" horiz-adv-x="1333" d="M835 -24Q673 -24 535 29T293 180T132 417T74 726Q74 892 132 1030T294 1269T536 1425T837 1480Q922 1480 1027 1461T1240 1392L1182 1245Q1074 1291 990 1304T837 1318Q730 1318 634 1279T464 1163T348 978T305 726Q305
587 347 478T462 292T632 177T835 137Q879 137 932 142T1051 168V674H1254V74Q1182 37 1107 16T962 -15T835 -24Z" />
<glyph unicode="H" horiz-adv-x="1479" d="M1092 0V683H467Q481 723 503 759T560 818T645 841H1092V1454H1307V0H1092ZM175 0V1454H391V0H175Z" />
<glyph unicode="I" horiz-adv-x="560" d="M175 0V1454H384V0H175Z" />
<glyph unicode="J" horiz-adv-x="702" d="M80 -424L-13 -305Q62 -243 123 -190T229 -76T297 63T321 256V1454H538V256Q538 123 507 26T416 -145T273 -285T80 -424Z" />
<glyph unicode="K" horiz-adv-x="1348" d="M1054 0L682 680L668 720L648 681L499 486Q480 539 482 607T507 744T572 870L1001 1454H1243L792 868L1310 0H1054ZM175 0V1454H391V0H175Z" />
<glyph unicode="L" horiz-adv-x="1046" d="M174 0V1454H392V163H977L976 0H174Z" />
<glyph unicode="M" horiz-adv-x="1916" d="M141 0L297 1454H574L945 299L959 234L973 299L1343 1454H1621L1775 0H1571L1467 1145L1461 1234L1437 1145L1063 20H853L476 1147L451 1234L445 1147L343 0H141Z" />
<glyph unicode="N" horiz-adv-x="1514" d="M203 0V1454H416L1097 367L1122 297L1118 370V1454H1309V0H1117L412 1123L383 1192L387 1124V0H203Z" />
<glyph unicode="O" horiz-adv-x="1581" d="M777 -28Q578 -28 423 65T178 328T89 728Q89 910 146 1050T300 1287T521 1434T777 1484Q949 1484 1077 1423T1292 1255T1421 1013T1464 728Q1464 562 1412 424T1267 184T1048 28T777 -28ZM777 133Q909 133 1012 210T1174
421T1233 728Q1233 908 1173 1041T1010 1248T777 1322Q645 1322 542 1248T379 1039T320 728Q320 601 353 493T446 304T591 178T777 133Z" />
<glyph unicode="P" horiz-adv-x="1237" d="M175 0V1439Q259 1455 327 1464T460 1477T597 1481Q759 1481 880 1423T1069 1264T1137 1036Q1137 907 1071 814T897 666T670 601Q627 597 577 600T470 618Q485 653 509 684T568 735T645 756Q710 758 770 794T870 894T910
1036Q910 1116 869 1180T756 1281T597 1318Q543 1318 494 1315T391 1306V0H175Z" />
<glyph unicode="Q" horiz-adv-x="1572" d="M778 -28Q581 -28 428 66T188 330T101 728Q101 899 154 1038T301 1276T520 1430T788 1484Q987 1484 1142 1391T1385 1129T1474 728Q1474 592 1429 474T1295 231L1439 84L1319 -33L825 469L945 589L1134 393L1160 353L1174
403Q1213 479 1228 562T1243 728Q1243 905 1185 1039T1023 1247T788 1322Q657 1322 554 1248T390 1039T330 728Q330 599 363 490T456 302T599 178T778 134Q808 134 833 138T886 147Q943 157 1001 137T1092 81Q1012 24 934 -2T778 -28Z" />
<glyph unicode="R" horiz-adv-x="1316" d="M175 0V1436Q259 1452 327 1462T460 1477T597 1482Q757 1482 878 1425T1068 1270T1137 1048Q1137 927 1074 837T910 693L860 676L901 658Q972 608 1010 537T1072 379T1123 196T1195 0H969Q931 84 907 178T859 361T793
519T680 623Q627 618 576 621T470 638Q485 673 509 704T568 755T645 777Q710 780 770 815T870 911T910 1049Q910 1125 868 1186T755 1284T597 1320Q543 1320 501 1318T391 1303V0H175Z" />
<glyph unicode="S" horiz-adv-x="1121" d="M539 -25Q454 -25 340 -4T114 71L172 216Q267 173 359 155T523 136Q655 136 731 203T807 367Q807 450 758 506T633 607T470 695T307 793T182 924T133 1113Q133 1222 186 1304T333 1433T547 1480Q635 1480 722 1467T917
1418L858 1274Q772 1300 699 1309T566 1319Q460 1319 402 1260T344 1120Q344 1044 393 990T519 891T683 801T847 698T973 560T1023 366Q1023 259 966 171T800 29T539 -25Z" />
<glyph unicode="T" horiz-adv-x="1083" d="M429 0V1293H17V1454H1060V1293H646V0H429Z" />
<glyph unicode="U" horiz-adv-x="1406" d="M709 -28Q536 -28 413 41T225 239T159 541V1454H372V510Q372 337 465 235T709 133Q859 133 952 235T1045 510V1454H1258V541Q1258 370 1190 242T997 43T709 -28Z" />
<glyph unicode="V" horiz-adv-x="1280" d="M533 0L23 1454H256L634 285L648 216L664 283L1041 1454H1265L759 0H533Z" />
<glyph unicode="W" horiz-adv-x="1991" d="M443 0L47 1454H263L552 305L568 203L590 305L886 1434H1120L1410 304L1430 202L1447 300L1735 1454H1945L1550 0H1310L1016 1115L999 1199L983 1119L691 0H443Z" />
<glyph unicode="X" horiz-adv-x="1271" d="M960 0L90 1454H338L619 938L637 885L653 938L937 1454H1177L750 749L1202 0H960ZM65 0L464 657Q488 625 509 579T534 482T511 385L299 0H65Z" />
<glyph unicode="Y" horiz-adv-x="1341" d="M553 0V625L54 1454H297L764 675V0H553ZM821 753Q797 784 776 830T752 929T777 1034L1011 1454H1248L821 753Z" />
<glyph unicode="Z" horiz-adv-x="1204" d="M149 0V87L904 1266L936 1300L888 1294H230V1454H1188V1367L431 185L401 155L445 161H1208V0H149Z" />
<glyph unicode="[" horiz-adv-x="894" d="M277 -398V1542H817V1381H475V-237H818L817 -398H277Z" />
<glyph unicode="\" horiz-adv-x="731" d="M515 -124L29 1454H225L711 -124H515Z" />
<glyph unicode="]" horiz-adv-x="909" d="M100 -398L99 -237H442V1381H100V1542H638V-398H100Z" />
<glyph unicode="^" horiz-adv-x="1256" d="M152 420L566 1454H696L1110 420H929L645 1140L632 1195L619 1140L337 420H152Z" />
<glyph unicode="_" horiz-adv-x="994" d="M54 -143V0H940V-143H54Z" />
<glyph unicode="`" horiz-adv-x="392" d="M689 1204Q655 1195 615 1197T536 1216T467 1270L296 1480H513L689 1204Z" />
<glyph unicode="a" horiz-adv-x="1062" d="M418 -22Q316 -22 242 17T129 121T89 267Q89 363 141 431T313 544T641 610Q636 580 622 545T579 483T499 447Q422 435 380 410T322 352T306 283Q306 225 348 182T459 139Q524 139 590 174T713 282V637Q713 751 656 822T470
894Q417 894 363 883T237 846L185 984Q281 1026 361 1040T509 1055Q706 1055 814 943T923 626V317Q923 215 932 137T955 0H800Q773 16 757 43T728 101L725 139L702 103Q622 25 557 2T418 -22Z" />
<glyph unicode="b" horiz-adv-x="1179" d="M563 -23Q454 -23 355 2T161 81V1516H372V167Q419 151 469 145T563 138Q699 138 777 247T855 531Q855 644 825 725T736 849T597 888Q547 885 510 915T441 995Q495 1021 554 1034T660 1048Q746 1048 821 1012T955 909T1046
746T1079 531Q1079 371 1015 246T834 49T563 -23Z" />
<glyph unicode="c" horiz-adv-x="856" d="M573 -22Q438 -22 325 38T144 219T76 518Q76 693 145 813T328 994T573 1056Q627 1056 692 1046T817 1013L765 868Q710 882 663 888T573 895Q498 895 437 854T338 728T301 518Q301 391 337 307T435 181T573 139Q617 139
669 152T788 195L843 48Q763 9 693 -6T573 -22Z" />
<glyph unicode="d" horiz-adv-x="1207" d="M537 -22Q395 -22 296 49T144 244T92 523Q92 639 129 735T232 901T379 1009T549 1048Q596 1048 646 1041T757 1013Q730 959 687 925T579 889Q507 890 448 850T352 729T316 523Q316 413 346 326T433 189T572 139Q638 139
701 174T826 284V1516H1037V317Q1037 215 1045 137T1067 0H911Q887 19 871 43T841 104L835 140L815 103Q749 33 674 6T537 -22Z" />
<glyph unicode="e" horiz-adv-x="1099" d="M602 -22Q485 -22 393 21T236 140T139 315T106 528Q106 691 168 809T343 992T605 1056Q710 1056 792 1011T926 887T988 707T964 492H390Q411 552 450 593T556 634H789Q798 707 774 766T700 862T587 898Q511 898 450 857T353
733T317 529Q317 412 356 324T466 188T625 139Q694 139 757 154T907 212L962 65Q863 16 772 -3T602 -22Z" />
<glyph unicode="f" horiz-adv-x="806" d="M190 0V880H19V993L190 1034V1090Q190 1222 237 1320T373 1472T588 1526Q638 1526 701 1515T837 1472L789 1335Q728 1357 687 1364T613 1371Q554 1371 503 1343T420 1255T388 1105V0H190ZM459 880Q473 919 495 954T552
1012T637 1034H749V880H459Z" />
<glyph unicode="g" horiz-adv-x="1153" d="M521 -500Q443 -500 348 -484T149 -416L206 -266Q296 -308 369 -324T505 -341Q586 -341 654 -306T762 -201T803 -22V874Q759 885 721 889T643 894Q497 894 411 791T325 503Q325 404 351 321T432 191T572 151Q621 155
660 132T734 59Q684 27 629 9T527 -14Q436 -19 359 18T223 126T133 293T101 503Q101 665 168 789T357 984T640 1055Q696 1055 752 1049T870 1030T1010 992V0Q1010 -158 949 -270T777 -441T521 -500Z" />
<glyph unicode="h" horiz-adv-x="1178" d="M161 0V1516H372V0H161ZM807 0V747Q807 811 782 852T701 893Q679 893 665 889T623 879Q568 868 525 888T442 955Q547 1016 617 1036T743 1056Q817 1056 881 1025T983 924T1022 734V0H807Z" />
<glyph unicode="i" horiz-adv-x="525" d="M155 0V1034H371V0H155ZM263 1202Q207 1202 169 1240T131 1334Q131 1392 169 1430T263 1469Q320 1469 357 1431T395 1334Q395 1278 358 1240T263 1202Z" />
<glyph unicode="j" horiz-adv-x="567" d="M39 -497L-55 -380Q51 -288 104 -220T174 -82T192 83V1034H406V83Q406 -29 377 -121T269 -302T39 -497ZM299 1202Q242 1202 205 1239T168 1334Q168 1393 205 1431T299 1470Q357 1470 395 1432T434 1334Q434 1277 396 1240T299
1202Z" />
<glyph unicode="k" horiz-adv-x="1185" d="M903 0L637 492L619 533L594 503L470 364Q448 445 467 537T546 700L832 1034H1080L749 672L1141 0H903ZM161 0V1516H372V0H161Z" />
<glyph unicode="l" horiz-adv-x="523" d="M165 0V1516H373V0H165Z" />
<glyph unicode="m" horiz-adv-x="1819" d="M1448 0V747Q1448 811 1420 852T1330 893Q1308 893 1288 888T1240 878Q1185 868 1138 888T1053 955Q1161 1013 1236 1034T1371 1056Q1447 1056 1514 1025T1622 924T1663 734V0H1448ZM165 0V782Q165 838 159 901T135 1034H303Q351
980 366 927T381 814V0H165ZM807 0V747Q807 811 781 852T699 893Q676 893 658 889T615 880Q559 870 515 890T432 957Q539 1015 611 1035T741 1056Q817 1056 881 1025T984 924T1023 734V0H807Z" />
<glyph unicode="n" horiz-adv-x="1182" d="M806 0V747Q806 811 778 852T691 893Q668 893 650 888T605 878Q550 868 505 888T421 953Q526 1014 598 1035T729 1056Q806 1056 873 1025T980 924T1021 734V0H806ZM153 0V782Q153 838 146 901T122 1034H290Q338 980 353
927T369 814V0H153Z" />
<glyph unicode="o" horiz-adv-x="1156" d="M573 -22Q438 -22 325 40T145 223T77 518Q77 656 121 757T237 925T398 1023T573 1056Q728 1056 839 985T1010 792T1070 518Q1070 389 1030 289T920 119T761 14T573 -22ZM573 139Q665 139 725 190T815 328T845 518Q845
641 809 725T712 852T573 895Q497 895 436 852T338 725T301 518Q301 351 373 245T573 139Z" />
<glyph unicode="p" horiz-adv-x="1209" d="M169 -482V717Q169 819 160 898T138 1034H294Q320 1015 336 991T365 928L369 893L389 931Q457 1001 532 1028T670 1056Q811 1056 910 985T1061 790T1113 511Q1113 395 1076 299T973 133T827 25T656 -14Q609 -14 559 -7T448
21Q476 76 519 110T625 145Q698 144 758 184T853 306T888 511Q888 621 859 708T772 845T633 895Q568 895 505 860T379 750V-482H169Z" />
<glyph unicode="q" horiz-adv-x="1177" d="M808 -482V874Q764 885 725 889T648 894Q501 894 415 791T329 503Q329 404 355 321T436 191T577 151Q625 155 664 132T739 59Q688 27 633 9T531 -14Q441 -19 363 18T228 126T138 293T105 503Q105 665 173 789T362 984T645
1055Q701 1055 756 1049T874 1030T1015 992V-482H808Z" />
<glyph unicode="r" horiz-adv-x="782" d="M163 0V711Q163 793 156 878T131 1034H289Q317 1006 332 966T355 877L356 838L373 877Q413 955 483 1002T631 1050Q656 1050 682 1046T737 1031L711 856Q678 865 654 868T609 871Q545 871 489 834T398 722T363 533V0H163Z" />
<glyph unicode="s" horiz-adv-x="843" d="M447 -20Q371 -20 281 -6T69 64L121 211Q202 174 278 158T417 141Q503 141 544 180T585 277Q585 330 550 364T460 426T343 481T226 546T136 638T101 776Q101 840 137 903T248 1009T435 1052Q495 1052 564 1042T721 1000L670
856Q603 877 551 886T455 895Q389 895 347 866T304 779Q304 729 339 695T429 633T546 576T663 509T753 414T788 273Q788 191 740 125T615 19T447 -20Z" />
<glyph unicode="t" horiz-adv-x="868" d="M558 -23Q387 -23 296 84T205 386V880H26V988L205 1034V1293L405 1357V370Q405 267 449 201T565 135Q602 135 638 141T727 165L775 24Q699 -1 653 -12T558 -23ZM653 880Q603 880 569 901T512 958T476 1034H760V880H653Z" />
<glyph unicode="u" horiz-adv-x="1188" d="M426 -22Q350 -22 285 9T179 110T139 300V1034H352V287Q352 223 379 182T466 141Q489 141 506 146T551 156Q607 167 652 147T735 81Q631 21 558 0T426 -22ZM866 0Q818 54 803 107T788 220V1034H999V252Q999 197 1006
134T1031 0H866Z" />
<glyph unicode="v" horiz-adv-x="1049" d="M415 0L27 1034H252L516 248L532 195L546 248L808 1034H1026L638 0H415Z" />
<glyph unicode="w" horiz-adv-x="1727" d="M1101 0L737 1034H963L1206 248L1220 195L1234 248L1475 1034H1692L1328 0H1101ZM439 0L73 1034H299L542 248L556 195L570 248L743 710Q773 670 793 606T816 467T792 324L657 0H439Z" />
<glyph unicode="x" horiz-adv-x="1006" d="M726 0Q646 129 563 257T395 513L51 1034H291L489 695L501 653L515 695L717 1034H942L602 522L962 0H726ZM33 0L341 447Q368 415 386 372T404 282T376 188L257 0H33Z" />
<glyph unicode="y" horiz-adv-x="1097" d="M245 -493Q205 -491 160 -484T71 -461L123 -316Q156 -325 186 -329T245 -333Q320 -333 366 -281T447 -137T523 74L830 1034H1049L683 22Q640 -90 602 -184T518 -347T407 -454T245 -493ZM405 22L31 1034H256L454 414Q477
343 476 268T456 127T405 22Z" />
<glyph unicode="z" horiz-adv-x="910" d="M67 0V87L572 858L602 892L560 886H130V1034H844V947L345 180L314 146L359 152H854V0H67Z" />
<glyph unicode="{" horiz-adv-x="806" d="M709 -352Q581 -266 506 -164T395 71T348 381Q343 452 287 493T154 547V669Q231 683 289 724T352 835Q364 1000 401 1126T512 1352T709 1534L803 1426Q709 1349 654 1269T571 1094T535 878Q529 796 489 733T385 628L335
606L385 583Q449 541 489 480T535 336Q543 206 568 105T649 -80T803 -243L709 -352Z" />
<glyph unicode="|" horiz-adv-x="634" d="M230 -586V1622H415V-586H230Z" />
<glyph unicode="}" horiz-adv-x="820" d="M255 -352L161 -243Q258 -164 313 -80T395 105T429 336Q435 419 476 481T580 585L629 606L578 628Q515 670 475 733T429 878Q420 998 393 1093T311 1269T161 1426L255 1534Q378 1451 451 1352T562 1127T612 835Q617 765
675 724T810 669V547Q734 534 678 493T616 381Q606 203 570 71T458 -163T255 -352Z" />
<glyph unicode="~" horiz-adv-x="1228" d="M307 456L126 472Q130 573 171 639T279 738T429 772Q499 772 557 746T663 686Q706 656 750 633T852 610Q898 610 924 654T957 769L1138 753Q1131 639 1090 574T984 482T845 453Q771 452 712 479T605 539Q562 569 521
591T425 614Q382 614 348 575T307 456Z" />
<glyph unicode="&#xa0;" horiz-adv-x="514" />
<glyph unicode="&#xa1;" horiz-adv-x="702" d="M127 -420L155 639H309L341 -420H127ZM230 798Q174 798 137 837T99 933Q99 989 136 1026T230 1063Q287 1063 325 1026T363 933Q363 876 325 837T230 798Z" />
<glyph unicode="&#xa2;" horiz-adv-x="854" d="M477 -28V177Q363 195 273 261T129 439T76 709Q76 862 130 972T275 1149T477 1236V1432H635V1244Q679 1240 726 1231T817 1204L762 1057Q709 1073 662 1079T573 1085Q498 1085 437 1044T338 918T301 709Q301 582
337 498T435 372T573 330Q617 330 669 343T788 385L843 239Q785 210 732 195T635 173V-28H477Z" />
<glyph unicode="&#xa3;" horiz-adv-x="1026" d="M100 0V130Q208 184 277 275T346 484Q346 521 344 557T336 633H142V781H312Q304 828 297 894T290 1024Q290 1153 346 1242T497 1378T710 1424Q781 1424 855 1408T1017 1350L961 1201Q888 1236 820 1249T710 1263Q602
1263 547 1197T491 1022Q491 901 508 796T535 592T525 394Q511 340 486 296T424 211L383 173L435 177H966V0H100ZM759 633Q708 633 674 653T619 707T583 781H903V633H759Z" />
<glyph unicode="&#xa4;" horiz-adv-x="1026" d="M143 211L55 300L202 442Q174 480 152 542T130 679Q130 756 153 818T205 920L54 1062L140 1152L288 1010Q329 1045 387 1066T512 1088Q583 1088 642 1067T741 1011L893 1151L977 1063L821 920Q848 881 868 821T888
688Q888 609 868 546T821 446L973 299L887 212L739 357Q697 318 635 297T509 275Q447 275 386 296T285 352L143 211ZM509 401Q565 401 617 433T704 528T738 686Q738 755 711 818T633 922T510 962Q441 962 390 924T310 822T281 680Q281 588 316 526T404 433T509
401Z" />
<glyph unicode="&#xa5;" horiz-adv-x="1320" d="M542 0V271H222V375H542V516H222V621H542V625L43 1454H285L753 675V623L1072 621V516H753V375H1072V271H753V0H542ZM810 753Q785 784 764 830T740 929T765 1034L1000 1454H1237L810 753Z" />
<glyph unicode="&#xa6;" horiz-adv-x="508" d="M169 -586V282H355V-586H169ZM169 774V1622H355V774H169Z" />
<glyph unicode="&#xa7;" horiz-adv-x="1000" d="M510 -102Q452 -102 385 -97T239 -73T73 -18L134 124Q225 88 316 70T481 52Q594 52 650 90T706 192Q706 247 663 283T551 347T406 403T261 469T150 563T106 704Q106 760 143 815T250 912L299 932L257 950Q199 989
163 1041T126 1170Q126 1238 171 1299T301 1400T500 1440Q568 1440 650 1429T832 1388L774 1248Q698 1269 636 1278T524 1287Q430 1287 376 1258T322 1172Q322 1118 365 1082T477 1018T622 960T767 892T878 795T922 650Q922 584 885 531T787 441L741 422L783 403Q836
365 869 312T903 185Q903 100 850 35T707 -66T510 -102ZM616 492Q678 530 706 573T735 660Q735 711 691 745T577 806T432 864Q366 836 330 796T293 708Q293 654 340 618T462 553T616 492Z" />
<glyph unicode="&#xa8;" horiz-adv-x="880" d="M224 1230Q180 1230 147 1262T114 1340Q114 1386 147 1418T224 1450Q270 1450 303 1419T336 1340Q336 1295 303 1263T224 1230ZM614 1230Q569 1230 536 1262T503 1340Q503 1386 536 1418T614 1450Q659 1450 692 1419T725
1340Q725 1295 692 1263T614 1230Z" />
<glyph unicode="&#xa9;" horiz-adv-x="1440" d="M714 57Q568 57 448 107T240 246T106 455T59 714Q59 848 106 966T240 1173T448 1314T714 1365Q859 1365 978 1315T1184 1176T1316 969T1363 714Q1363 578 1316 459T1183 250T978 108T714 57ZM754 352Q663 352 588
394T469 516T424 714Q424 830 469 910T590 1032T754 1074Q833 1074 920 1046L883 941Q847 953 816 957T754 962Q679 962 624 898T569 714Q569 592 623 527T754 462Q783 462 819 470T902 499L938 398Q883 371 835 362T754 352ZM714 183Q858 182 969 248T1145 434T1209
714Q1209 870 1145 988T970 1174T714 1241Q567 1240 454 1173T277 987T213 708Q213 551 277 433T454 250T714 183Z" />
<glyph unicode="&#xaa;" horiz-adv-x="1054" d="M321 590Q215 590 150 645T85 788Q85 893 172 949T475 1029Q472 1013 463 988T433 940T375 912Q291 898 265 867T239 798Q239 757 266 729T344 701Q391 701 438 724T525 799V1054Q525 1137 483 1182T351 1228Q314
1228 276 1221T189 1195L155 1294Q223 1324 277 1333T377 1342Q518 1342 595 1264T673 1044V844Q673 760 679 701T695 604H585Q565 617 554 635T534 676V700L518 676Q468 626 421 608T321 590Z" />
<glyph unicode="&#xab;" horiz-adv-x="1226" d="M572 97L130 516L572 935L666 843L388 516L666 189L572 97ZM1086 97L644 516L1086 935L1180 843L902 516L1180 189L1086 97Z" />
<glyph unicode="&#xac;" horiz-adv-x="1150" d="M903 312V739H86V885H1067V312H903Z" />
<glyph unicode="&#xad;" horiz-adv-x="750" d="M90 536V683H694V536H90Z" />
<glyph unicode="&#xae;" horiz-adv-x="1440" d="M714 57Q568 57 448 107T240 246T106 455T59 714Q59 848 106 966T240 1173T448 1314T714 1365Q859 1365 978 1315T1184 1176T1316 969T1363 714Q1363 578 1316 459T1183 250T978 108T714 57ZM714 183Q858 182 969
248T1145 434T1209 714Q1209 870 1145 988T970 1174T714 1241Q567 1240 454 1173T277 987T213 708Q213 551 277 433T454 250T714 183ZM497 378V1045Q554 1059 605 1065T708 1072Q826 1072 903 1016T981 862Q981 808 955 767T881 700L852 689L875 675Q914 645 931
599T962 495T1003 378H861Q836 432 824 491T792 597T723 663Q702 662 698 662T672 662Q683 690 702 720T764 758Q799 765 820 794T841 862Q841 905 805 935T708 966Q690 966 674 965T631 960V378H497Z" />
<glyph unicode="&#xaf;" horiz-adv-x="1000" d="M227 1221V1359H816V1221H227Z" />
<glyph unicode="&#xb0;" horiz-adv-x="674" d="M350 961Q271 961 204 997T95 1098T53 1246Q53 1324 93 1389T200 1492T350 1531Q422 1531 490 1498T603 1401T647 1246Q647 1157 603 1093T491 995T350 961ZM350 1073Q404 1073 439 1099T493 1166T511 1246Q511 1327
462 1373T350 1419Q299 1419 263 1395T209 1330T191 1246Q191 1177 232 1125T350 1073Z" />
<glyph unicode="&#xb1;" horiz-adv-x="1136" d="M479 255V597H94V743H479V1081H643V743H1030V597H643V255H479ZM94 0V145H1030V0H94Z" />
<glyph unicode="&#xb2;" horiz-adv-x="804" d="M144 620V697Q201 793 265 868T384 1007T475 1127T511 1242Q511 1303 472 1329T370 1356Q336 1356 301 1348T227 1323L180 1422Q234 1452 286 1462T387 1472Q461 1472 523 1447T622 1374T659 1256Q659 1184 624 1120T537
996T432 879T341 762L323 742L349 746H668V620H144Z" />
<glyph unicode="&#xb3;" horiz-adv-x="762" d="M316 602Q249 602 195 621T110 658L148 760Q184 745 223 733T314 720Q393 720 435 765T477 866Q477 938 421 971T263 1005L250 1100L314 1126Q368 1149 408 1180T449 1262Q449 1301 420 1326T340 1352Q306 1352 268
1344T189 1319L142 1420Q198 1450 250 1460T352 1470Q462 1470 530 1419T599 1279Q599 1216 557 1163T445 1077Q514 1061 570 1007T627 863Q627 791 588 732T479 638T316 602Z" />
<glyph unicode="&#xb4;" horiz-adv-x="644" d="M131 1204L307 1480H524L353 1270Q323 1233 284 1216T205 1197T131 1204Z" />
<glyph unicode="&#xb5;" horiz-adv-x="1106" d="M138 -422V1034H342V420Q342 302 394 223T548 143Q610 143 664 177T751 270T784 398V1034H990V295Q990 211 1014 178T1100 147L1119 7Q1086 -5 1056 -10T1002 -16Q943 -16 893 14T820 118L811 162L789 117Q750 63
688 22T530 -20Q480 -20 434 -4T356 44L326 85L330 26V-422H138Z" />
<glyph unicode="&#xb6;" horiz-adv-x="1218" d="M650 -60V608Q649 608 648 609T646 610Q526 620 427 675T268 824T208 1040Q208 1156 265 1256T434 1418T706 1480Q816 1480 903 1472T1102 1440V-60H956V1316Q911 1324 872 1327T796 1332V-60H650Z" />
<glyph unicode="&#xb7;" horiz-adv-x="612" d="M304 477Q248 477 211 514T173 608Q173 665 210 703T304 742Q362 742 400 704T438 608Q438 552 400 515T304 477Z" />
<glyph unicode="&#xb8;" horiz-adv-x="1000" d="M468 -416Q434 -416 396 -407T309 -377L339 -285Q377 -299 407 -304T468 -310Q503 -310 535 -297T567 -252Q567 -216 528 -198T418 -172L462 -5L568 5L543 -96Q600 -104 651 -143T703 -246Q703 -306 668 -343T578
-398T468 -416Z" />
<glyph unicode="&#xb9;" horiz-adv-x="638" d="M356 618V1273L235 1212L177 1315L436 1454H510V618H356Z" />
<glyph unicode="&#xba;" horiz-adv-x="860" d="M428 588Q274 588 180 690T85 966Q85 1070 126 1155T243 1291T428 1342Q526 1342 603 1299T726 1171T771 966Q771 854 729 769T610 636T428 588ZM428 706Q490 706 532 742T595 837T617 966Q617 1032 599 1091T539
1188T428 1226Q366 1226 325 1190T262 1095T241 966Q241 843 292 775T428 706Z" />
<glyph unicode="&#xbb;" horiz-adv-x="1226" d="M219 97L125 189L403 516L125 843L219 935L660 516L219 97ZM732 97L638 189L916 516L638 843L732 935L1173 516L732 97Z" />
<glyph unicode="&#xbc;" horiz-adv-x="1396" d="M165 0L1037 1454H1187L315 0H165ZM236 618V1273L115 1212L57 1315L316 1454H390V618H236ZM1082 0V646L838 292H890Q946 292 978 251T1026 174H690V289L1064 846H1221V290H1317V174H1221V0H1082Z" />
<glyph unicode="&#xbd;" horiz-adv-x="1526" d="M165 0L1037 1454H1187L315 0H165ZM236 618V1273L115 1212L57 1315L316 1454H390V618H236ZM850 0V77Q907 173 971 248T1090 387T1181 507T1217 622Q1217 683 1178 709T1076 736Q1042 736 1007 728T933 703L886 802Q940
832 992 842T1093 852Q1167 852 1229 827T1328 754T1365 636Q1365 564 1330 500T1243 377T1138 260T1047 143L1029 122L1057 126H1374V0H850Z" />
<glyph unicode="&#xbe;" horiz-adv-x="1432" d="M240 0L1112 1454H1261L389 0H240ZM255 602Q188 602 134 621T49 658L87 760Q123 745 161 733T253 720Q331 720 373 765T415 866Q415 938 359 971T201 1005L189 1100L253 1126Q307 1149 347 1180T387 1262Q387 1301
359 1326T279 1352Q245 1352 207 1344T128 1319L81 1420Q137 1450 189 1460T291 1470Q401 1470 469 1419T538 1279Q538 1216 496 1163T384 1077Q453 1061 509 1007T566 863Q566 791 527 732T417 638T255 602ZM1157 0V646L913 292H965Q1021 292 1054 251T1102 174H765V289L1139
846H1296V290H1392V174H1296V0H1157Z" />
<glyph unicode="&#xbf;" horiz-adv-x="1166" d="M611 -441Q491 -441 400 -402T257 -293T205 -133Q205 -38 244 37T340 179T456 313T553 458T592 639H761Q761 515 727 426T643 270T543 147T459 31T425 -103Q425 -179 482 -229T631 -279Q688 -279 751 -266T899 -210L955
-359Q859 -408 777 -424T611 -441ZM678 798Q621 798 583 837T545 932Q545 988 583 1025T678 1063Q734 1063 772 1026T811 932Q811 876 773 837T678 798Z" />
<glyph unicode="&#xc0;" horiz-adv-x="1393" d="M67 0L591 1454H802L1326 0H1097L703 1147L689 1210L674 1146L464 538L442 497L467 501H705Q756 501 790 478T847 417T883 340H399L282 0H67ZM813 1531Q779 1523 738 1525T659 1543T595 1593L456 1780H665L813 1531Z" />
<glyph unicode="&#xc1;" horiz-adv-x="1393" d="M67 0L591 1454H802L1326 0H1097L703 1147L689 1210L674 1146L464 538L442 497L467 501H705Q756 501 790 478T847 417T883 340H399L282 0H67ZM590 1531L766 1780H980L813 1593Q782 1559 743 1543T664 1525T590 1531Z" />
<glyph unicode="&#xc2;" horiz-adv-x="1393" d="M67 0L591 1454H802L1326 0H1097L703 1147L689 1210L674 1146L464 538L442 497L467 501H705Q756 501 790 478T847 417T883 340H399L282 0H67ZM527 1519L412 1542L628 1780H767L987 1542L867 1521L696 1637L527 1519Z" />
<glyph unicode="&#xc3;" horiz-adv-x="1393" d="M67 0L591 1454H802L1326 0H1097L703 1147L689 1210L674 1146L464 538L442 497L467 501H705Q756 501 790 478T847 417T883 340H399L282 0H67ZM523 1554L402 1566Q405 1679 459 1732T585 1787Q626 1787 659 1773T721
1735Q747 1713 767 1695T821 1677Q848 1677 863 1706T883 1786L1000 1774Q996 1690 969 1642T904 1573T827 1553Q782 1553 749 1567T689 1605Q663 1627 644 1645T593 1663Q569 1663 549 1639T523 1554Z" />
<glyph unicode="&#xc4;" horiz-adv-x="1393" d="M67 0L591 1454H802L1326 0H1097L703 1147L689 1210L674 1146L464 538L442 497L467 501H705Q756 501 790 478T847 417T883 340H399L282 0H67ZM501 1570Q457 1570 424 1602T391 1680Q391 1726 424 1758T501 1790Q547
1790 580 1759T613 1680Q613 1635 580 1603T501 1570ZM891 1570Q846 1570 813 1602T780 1680Q780 1726 813 1758T891 1790Q936 1790 969 1759T1002 1680Q1002 1635 969 1603T891 1570Z" />
<glyph unicode="&#xc5;" horiz-adv-x="1393" d="M67 0L591 1454H802L1326 0H1097L703 1147L689 1210L674 1146L464 538L442 497L467 501H705Q756 501 790 478T847 417T883 340H399L282 0H67ZM697 1424Q609 1424 552 1474T495 1600Q495 1679 553 1731T700 1784Q790
1784 845 1733T900 1602Q900 1524 842 1474T697 1424ZM698 1508Q742 1508 766 1536T790 1604Q790 1645 766 1672T697 1700Q658 1700 634 1672T609 1600Q609 1566 633 1537T698 1508Z" />
<glyph unicode="&#xc6;" horiz-adv-x="1950" d="M31 0L770 1454H1688V1293H1054L1228 161H1829V0H1051L868 1181L863 1259L834 1182L515 538L486 497L523 501H746Q797 501 831 478T887 417T924 340H420L251 0H31ZM1217 684Q1230 725 1252 761T1309 819T1399 841H1708V684H1217Z"
/>
<glyph unicode="&#xc7;" horiz-adv-x="1277" d="M869 -24Q652 -24 486 69T225 331T131 725Q131 890 185 1028T339 1267T572 1424T869 1480Q953 1480 1041 1464T1222 1412L1165 1267Q1077 1295 1008 1306T869 1318Q761 1318 669 1278T508 1161T401 975T362 725Q362
598 400 491T507 304T668 181T869 137Q938 137 1011 154T1164 212L1222 68Q1130 20 1042 -2T869 -24ZM704 -416Q670 -416 632 -407T545 -377L575 -285Q613 -299 643 -304T704 -310Q739 -310 771 -297T803 -252Q803 -216 764 -198T654 -172L698 -5L804 5L779 -96Q836
-104 887 -143T939 -246Q939 -306 904 -343T814 -398T704 -416Z" />
<glyph unicode="&#xc8;" horiz-adv-x="1160" d="M175 0V1454H1015V1293H391V161H1045V0H175ZM467 684Q481 723 503 759T561 818T647 841H947V684H467ZM725 1531Q691 1523 650 1525T571 1543T507 1593L368 1780H577L725 1531Z" />
<glyph unicode="&#xc9;" horiz-adv-x="1160" d="M175 0V1454H1015V1293H391V161H1045V0H175ZM467 684Q481 723 503 759T561 818T647 841H947V684H467ZM501 1531L677 1780H891L724 1593Q693 1559 654 1543T575 1525T501 1531Z" />
<glyph unicode="&#xca;" horiz-adv-x="1160" d="M175 0V1454H1015V1293H391V161H1045V0H175ZM467 684Q481 723 503 759T561 818T647 841H947V684H467ZM438 1519L323 1542L539 1780H678L898 1542L778 1521L607 1637L438 1519Z" />
<glyph unicode="&#xcb;" horiz-adv-x="1160" d="M175 0V1454H1015V1293H391V161H1045V0H175ZM467 684Q481 723 503 759T561 818T647 841H947V684H467ZM413 1570Q369 1570 336 1602T303 1680Q303 1726 336 1758T413 1790Q459 1790 492 1759T525 1680Q525 1635 492
1603T413 1570ZM803 1570Q758 1570 725 1602T692 1680Q692 1726 725 1758T803 1790Q848 1790 881 1759T914 1680Q914 1635 881 1603T803 1570Z" />
<glyph unicode="&#xcc;" horiz-adv-x="560" d="M175 0V1454H384V0H175ZM652 1531Q618 1523 577 1525T498 1543T434 1593L295 1780H504L652 1531Z" />
<glyph unicode="&#xcd;" horiz-adv-x="560" d="M175 0V1454H384V0H175ZM172 1531L348 1780H562L395 1593Q364 1559 325 1543T246 1525T172 1531Z" />
<glyph unicode="&#xce;" horiz-adv-x="560" d="M175 0V1454H384V0H175ZM365 1519L250 1542L466 1780H605L825 1542L705 1521L534 1637L365 1519Z" />
<glyph unicode="&#xcf;" horiz-adv-x="560" d="M175 0V1454H384V0H175ZM84 1570Q40 1570 7 1602T-26 1680Q-26 1726 7 1758T84 1790Q130 1790 163 1759T196 1680Q196 1635 163 1603T84 1570ZM474 1570Q429 1570 396 1602T363 1680Q363 1726 396 1758T474 1790Q519
1790 552 1759T585 1680Q585 1635 552 1603T474 1570Z" />
<glyph unicode="&#xd0;" horiz-adv-x="1445" d="M736 -24Q693 -24 654 -22T571 -12T469 10Q487 45 513 76T576 125T661 140Q684 138 697 138T728 137Q829 137 911 185T1053 315T1145 505T1177 730Q1177 913 1115 1045T924 1247T600 1318Q545 1318 492 1314T390
1303V0H175V1431Q280 1456 396 1468T600 1480Q857 1480 1037 1391T1313 1133T1408 730Q1408 568 1356 431T1211 191T997 33T736 -24ZM1086 783V639H268V783H1086Z" />
<glyph unicode="&#xd1;" horiz-adv-x="1514" d="M203 0V1454H416L1097 367L1122 297L1118 370V1454H1309V0H1117L412 1123L383 1192L387 1124V0H203ZM594 1554L473 1566Q476 1679 530 1732T656 1787Q697 1787 730 1773T792 1735Q818 1713 838 1695T892 1677Q919
1677 934 1706T954 1786L1071 1774Q1067 1690 1040 1642T975 1573T898 1553Q853 1553 820 1567T760 1605Q734 1627 715 1645T664 1663Q640 1663 620 1639T594 1554Z" />
<glyph unicode="&#xd2;" horiz-adv-x="1581" d="M777 -28Q578 -28 423 65T178 328T89 728Q89 910 146 1050T300 1287T521 1434T777 1484Q949 1484 1077 1423T1292 1255T1421 1013T1464 728Q1464 562 1412 424T1267 184T1048 28T777 -28ZM777 133Q909 133 1012
210T1174 421T1233 728Q1233 908 1173 1041T1010 1248T777 1322Q645 1322 542 1248T379 1039T320 728Q320 601 353 493T446 304T591 178T777 133ZM893 1531Q859 1523 818 1525T739 1543T675 1593L536 1780H745L893 1531Z" />
<glyph unicode="&#xd3;" horiz-adv-x="1581" d="M777 -28Q578 -28 423 65T178 328T89 728Q89 910 146 1050T300 1287T521 1434T777 1484Q949 1484 1077 1423T1292 1255T1421 1013T1464 728Q1464 562 1412 424T1267 184T1048 28T777 -28ZM777 133Q909 133 1012
210T1174 421T1233 728Q1233 908 1173 1041T1010 1248T777 1322Q645 1322 542 1248T379 1039T320 728Q320 601 353 493T446 304T591 178T777 133ZM669 1531L845 1780H1059L892 1593Q861 1559 822 1543T743 1525T669 1531Z" />
<glyph unicode="&#xd4;" horiz-adv-x="1581" d="M777 -28Q578 -28 423 65T178 328T89 728Q89 910 146 1050T300 1287T521 1434T777 1484Q949 1484 1077 1423T1292 1255T1421 1013T1464 728Q1464 562 1412 424T1267 184T1048 28T777 -28ZM777 133Q909 133 1012
210T1174 421T1233 728Q1233 908 1173 1041T1010 1248T777 1322Q645 1322 542 1248T379 1039T320 728Q320 601 353 493T446 304T591 178T777 133ZM606 1519L491 1542L707 1780H846L1066 1542L946 1521L775 1637L606 1519Z" />
<glyph unicode="&#xd5;" horiz-adv-x="1581" d="M777 -28Q578 -28 423 65T178 328T89 728Q89 910 146 1050T300 1287T521 1434T777 1484Q949 1484 1077 1423T1292 1255T1421 1013T1464 728Q1464 562 1412 424T1267 184T1048 28T777 -28ZM777 133Q909 133 1012
210T1174 421T1233 728Q1233 908 1173 1041T1010 1248T777 1322Q645 1322 542 1248T379 1039T320 728Q320 601 353 493T446 304T591 178T777 133ZM602 1554L481 1566Q484 1679 538 1732T664 1787Q705 1787 738 1773T800 1735Q826 1713 846 1695T900 1677Q927 1677
942 1706T962 1786L1079 1774Q1075 1690 1048 1642T983 1573T906 1553Q861 1553 828 1567T768 1605Q742 1627 723 1645T672 1663Q648 1663 628 1639T602 1554Z" />
<glyph unicode="&#xd6;" horiz-adv-x="1581" d="M777 -28Q578 -28 423 65T178 328T89 728Q89 910 146 1050T300 1287T521 1434T777 1484Q949 1484 1077 1423T1292 1255T1421 1013T1464 728Q1464 562 1412 424T1267 184T1048 28T777 -28ZM777 133Q909 133 1012
210T1174 421T1233 728Q1233 908 1173 1041T1010 1248T777 1322Q645 1322 542 1248T379 1039T320 728Q320 601 353 493T446 304T591 178T777 133ZM581 1570Q537 1570 504 1602T471 1680Q471 1726 504 1758T581 1790Q627 1790 660 1759T693 1680Q693 1635 660 1603T581
1570ZM971 1570Q926 1570 893 1602T860 1680Q860 1726 893 1758T971 1790Q1016 1790 1049 1759T1082 1680Q1082 1635 1049 1603T971 1570Z" />
<glyph unicode="&#xd7;" horiz-adv-x="1136" d="M206 150L100 256L454 612L100 964L208 1070L562 718L912 1070L1018 964L668 612L1022 256L916 150L562 504L206 150Z" />
<glyph unicode="&#xd8;" horiz-adv-x="1581" d="M777 -28Q578 -28 423 65T178 328T89 728Q89 910 146 1050T300 1287T521 1434T777 1484Q949 1484 1077 1423T1292 1255T1421 1013T1464 728Q1464 562 1412 424T1267 184T1048 28T777 -28ZM777 133Q909 133 1012
210T1174 421T1233 728Q1233 908 1173 1041T1010 1248T777 1322Q645 1322 542 1248T379 1039T320 728Q320 601 353 493T446 304T591 178T777 133ZM588 526Q563 556 544 594T523 676T543 763L1180 1832H1360L588 526ZM194 134L354 406L483 323L374 134H194Z" />
<glyph unicode="&#xd9;" horiz-adv-x="1406" d="M709 -28Q536 -28 413 41T225 239T159 541V1454H372V510Q372 337 465 235T709 133Q859 133 952 235T1045 510V1454H1258V541Q1258 370 1190 242T997 43T709 -28ZM825 1531Q791 1523 750 1525T671 1543T607 1593L468
1780H677L825 1531Z" />
<glyph unicode="&#xda;" horiz-adv-x="1406" d="M709 -28Q536 -28 413 41T225 239T159 541V1454H372V510Q372 337 465 235T709 133Q859 133 952 235T1045 510V1454H1258V541Q1258 370 1190 242T997 43T709 -28ZM601 1531L777 1780H991L824 1593Q793 1559 754 1543T675
1525T601 1531Z" />
<glyph unicode="&#xdb;" horiz-adv-x="1406" d="M709 -28Q536 -28 413 41T225 239T159 541V1454H372V510Q372 337 465 235T709 133Q859 133 952 235T1045 510V1454H1258V541Q1258 370 1190 242T997 43T709 -28ZM538 1519L423 1542L639 1780H778L998 1542L878 1521L707
1637L538 1519Z" />
<glyph unicode="&#xdc;" horiz-adv-x="1406" d="M709 -28Q536 -28 413 41T225 239T159 541V1454H372V510Q372 337 465 235T709 133Q859 133 952 235T1045 510V1454H1258V541Q1258 370 1190 242T997 43T709 -28ZM513 1570Q469 1570 436 1602T403 1680Q403 1726
436 1758T513 1790Q559 1790 592 1759T625 1680Q625 1635 592 1603T513 1570ZM903 1570Q858 1570 825 1602T792 1680Q792 1726 825 1758T903 1790Q948 1790 981 1759T1014 1680Q1014 1635 981 1603T903 1570Z" />
<glyph unicode="&#xdd;" horiz-adv-x="1341" d="M553 0V625L54 1454H297L764 675V0H553ZM821 753Q797 784 776 830T752 929T777 1034L1011 1454H1248L821 753ZM547 1531L723 1780H937L770 1593Q739 1559 700 1543T621 1525T547 1531Z" />
<glyph unicode="&#xde;" horiz-adv-x="1218" d="M173 0V1454H381V1163Q480 1174 586 1174Q748 1174 869 1116T1058 956T1126 727Q1126 596 1060 502T886 354T659 289Q616 285 566 287T459 305Q474 341 499 372T557 423T634 444Q699 445 760 482T860 582T899 727Q899
808 858 872T745 974T586 1011Q532 1011 484 1008T381 999V0H173Z" />
<glyph unicode="&#xdf;" horiz-adv-x="1134" d="M788 -24Q728 -24 661 -11T498 50L552 189Q617 160 672 149T766 137Q825 137 865 176T905 276Q905 338 870 381T783 461T679 543T592 648T557 802Q557 889 616 965T783 1085Q789 1108 791 1130T794 1176Q794 1234
767 1278T695 1348T599 1373Q543 1373 490 1345T403 1259T369 1110V0L169 -1V1089Q169 1226 220 1324T364 1474T579 1526Q703 1526 790 1479T922 1352T968 1176Q968 1078 897 964Q828 932 792 896T755 802Q755 741 790 699T877 618T981 536T1068 428T1103 267Q1103
185 1060 119T945 15T788 -24Z" />
<glyph unicode="&#xe0;" horiz-adv-x="1062" d="M418 -22Q316 -22 242 17T129 121T89 267Q89 363 141 431T313 544T641 610Q636 580 622 545T579 483T499 447Q422 435 380 410T322 352T306 283Q306 225 348 182T459 139Q524 139 590 174T713 282V637Q713 751 656
822T470 894Q417 894 363 883T237 846L185 984Q281 1026 361 1040T509 1055Q706 1055 814 943T923 626V317Q923 215 932 137T955 0H800Q773 16 757 43T728 101L725 139L702 103Q622 25 557 2T418 -22ZM644 1204Q610 1195 570 1197T491 1216T422 1270L251 1480H468L644
1204Z" />
<glyph unicode="&#xe1;" horiz-adv-x="1062" d="M418 -22Q316 -22 242 17T129 121T89 267Q89 363 141 431T313 544T641 610Q636 580 622 545T579 483T499 447Q422 435 380 410T322 352T306 283Q306 225 348 182T459 139Q524 139 590 174T713 282V637Q713 751 656
822T470 894Q417 894 363 883T237 846L185 984Q281 1026 361 1040T509 1055Q706 1055 814 943T923 626V317Q923 215 932 137T955 0H800Q773 16 757 43T728 101L725 139L702 103Q622 25 557 2T418 -22ZM442 1204L618 1480H835L664 1270Q634 1233 595 1216T516 1197T442
1204Z" />
<glyph unicode="&#xe2;" horiz-adv-x="1062" d="M418 -22Q316 -22 242 17T129 121T89 267Q89 363 141 431T313 544T641 610Q636 580 622 545T579 483T499 447Q422 435 380 410T322 352T306 283Q306 225 348 182T459 139Q524 139 590 174T713 282V637Q713 751 656
822T470 894Q417 894 363 883T237 846L185 984Q281 1026 361 1040T509 1055Q706 1055 814 943T923 626V317Q923 215 932 137T955 0H800Q773 16 757 43T728 101L725 139L702 103Q622 25 557 2T418 -22ZM370 1176L255 1199L471 1486H610L830 1199L710 1177L539 1339L370
1176Z" />
<glyph unicode="&#xe3;" horiz-adv-x="1062" d="M418 -22Q316 -22 242 17T129 121T89 267Q89 363 141 431T313 544T641 610Q636 580 622 545T579 483T499 447Q422 435 380 410T322 352T306 283Q306 225 348 182T459 139Q524 139 590 174T713 282V637Q713 751 656
822T470 894Q417 894 363 883T237 846L185 984Q281 1026 361 1040T509 1055Q706 1055 814 943T923 626V317Q923 215 932 137T955 0H800Q773 16 757 43T728 101L725 139L702 103Q622 25 557 2T418 -22ZM360 1236L239 1248Q242 1361 296 1414T422 1469Q463 1469 496
1455T558 1417Q584 1395 604 1377T658 1359Q685 1359 700 1388T720 1468L837 1456Q833 1372 806 1324T741 1255T664 1235Q619 1235 586 1249T526 1287Q500 1309 481 1327T430 1345Q406 1345 386 1321T360 1236Z" />
<glyph unicode="&#xe4;" horiz-adv-x="1062" d="M418 -22Q316 -22 242 17T129 121T89 267Q89 363 141 431T313 544T641 610Q636 580 622 545T579 483T499 447Q422 435 380 410T322 352T306 283Q306 225 348 182T459 139Q524 139 590 174T713 282V637Q713 751 656
822T470 894Q417 894 363 883T237 846L185 984Q281 1026 361 1040T509 1055Q706 1055 814 943T923 626V317Q923 215 932 137T955 0H800Q773 16 757 43T728 101L725 139L702 103Q622 25 557 2T418 -22ZM347 1230Q303 1230 270 1262T237 1340Q237 1386 270 1418T347
1450Q393 1450 426 1419T459 1340Q459 1295 426 1263T347 1230ZM737 1230Q692 1230 659 1262T626 1340Q626 1386 659 1418T737 1450Q782 1450 815 1419T848 1340Q848 1295 815 1263T737 1230Z" />
<glyph unicode="&#xe5;" horiz-adv-x="1062" d="M418 -22Q316 -22 242 17T129 121T89 267Q89 363 141 431T313 544T641 610Q636 580 622 545T579 483T499 447Q422 435 380 410T322 352T306 283Q306 225 348 182T459 139Q524 139 590 174T713 282V637Q713 751 656
822T470 894Q417 894 363 883T237 846L185 984Q281 1026 361 1040T509 1055Q706 1055 814 943T923 626V317Q923 215 932 137T955 0H800Q773 16 757 43T728 101L725 139L702 103Q622 25 557 2T418 -22ZM543 1136Q455 1136 398 1186T341 1312Q341 1391 399 1443T546
1496Q636 1496 691 1445T746 1314Q746 1236 688 1186T543 1136ZM544 1220Q588 1220 612 1248T636 1316Q636 1357 612 1384T543 1412Q504 1412 480 1384T455 1312Q455 1278 479 1249T544 1220Z" />
<glyph unicode="&#xe6;" horiz-adv-x="1700" d="M424 -22Q267 -22 175 59T82 267Q82 363 133 431T306 544T634 610Q629 580 615 545T572 483T492 447Q415 435 373 410T315 352T299 283Q299 225 341 182T452 139Q573 139 639 241T706 526V637Q706 751 649 822T463
894Q410 894 356 883T230 846L178 984Q274 1026 354 1040T501 1055Q612 1055 700 996T833 839Q884 934 987 995T1205 1056Q1310 1056 1392 1011T1526 887T1588 707T1564 492H990Q1011 552 1050 593T1156 634H1389Q1398 707 1374 766T1300 862T1187 898Q1111 898
1050 857T953 733T917 529Q917 412 956 324T1066 188T1225 139Q1294 139 1357 154T1507 212L1562 65Q1463 16 1372 -3T1202 -22Q1116 -22 1038 16T901 118T817 257Q786 168 726 106T588 11T424 -22Z" />
<glyph unicode="&#xe7;" horiz-adv-x="856" d="M573 -22Q438 -22 325 38T144 219T76 518Q76 693 145 813T328 994T573 1056Q627 1056 692 1046T817 1013L765 868Q710 882 663 888T573 895Q498 895 437 854T338 728T301 518Q301 391 337 307T435 181T573 139Q617
139 669 152T788 195L843 48Q763 9 693 -6T573 -22ZM476 -416Q442 -416 404 -407T317 -377L347 -285Q385 -299 415 -304T476 -310Q511 -310 543 -297T575 -252Q575 -216 536 -198T426 -172L470 -5L576 5L551 -96Q608 -104 659 -143T711 -246Q711 -306 676 -343T586
-398T476 -416Z" />
<glyph unicode="&#xe8;" horiz-adv-x="1099" d="M602 -22Q485 -22 393 21T236 140T139 315T106 528Q106 691 168 809T343 992T605 1056Q710 1056 792 1011T926 887T988 707T964 492H390Q411 552 450 593T556 634H789Q798 707 774 766T700 862T587 898Q511 898
450 857T353 733T317 529Q317 412 356 324T466 188T625 139Q694 139 757 154T907 212L962 65Q863 16 772 -3T602 -22ZM680 1204Q646 1195 606 1197T527 1216T458 1270L287 1480H504L680 1204Z" />
<glyph unicode="&#xe9;" horiz-adv-x="1099" d="M602 -22Q485 -22 393 21T236 140T139 315T106 528Q106 691 168 809T343 992T605 1056Q710 1056 792 1011T926 887T988 707T964 492H390Q411 552 450 593T556 634H789Q798 707 774 766T700 862T587 898Q511 898
450 857T353 733T317 529Q317 412 356 324T466 188T625 139Q694 139 757 154T907 212L962 65Q863 16 772 -3T602 -22ZM478 1204L654 1480H871L700 1270Q670 1233 631 1216T552 1197T478 1204Z" />
<glyph unicode="&#xea;" horiz-adv-x="1099" d="M602 -22Q485 -22 393 21T236 140T139 315T106 528Q106 691 168 809T343 992T605 1056Q710 1056 792 1011T926 887T988 707T964 492H390Q411 552 450 593T556 634H789Q798 707 774 766T700 862T587 898Q511 898
450 857T353 733T317 529Q317 412 356 324T466 188T625 139Q694 139 757 154T907 212L962 65Q863 16 772 -3T602 -22ZM406 1176L291 1199L507 1486H646L866 1199L746 1177L575 1339L406 1176Z" />
<glyph unicode="&#xeb;" horiz-adv-x="1099" d="M602 -22Q485 -22 393 21T236 140T139 315T106 528Q106 691 168 809T343 992T605 1056Q710 1056 792 1011T926 887T988 707T964 492H390Q411 552 450 593T556 634H789Q798 707 774 766T700 862T587 898Q511 898
450 857T353 733T317 529Q317 412 356 324T466 188T625 139Q694 139 757 154T907 212L962 65Q863 16 772 -3T602 -22ZM383 1230Q339 1230 306 1262T273 1340Q273 1386 306 1418T383 1450Q429 1450 462 1419T495 1340Q495 1295 462 1263T383 1230ZM773 1230Q728
1230 695 1262T662 1340Q662 1386 695 1418T773 1450Q818 1450 851 1419T884 1340Q884 1295 851 1263T773 1230Z" />
<glyph unicode="&#xec;" horiz-adv-x="525" d="M155 0V1034H371V0H155ZM620 1204Q586 1195 546 1197T467 1216T398 1270L227 1480H444L620 1204Z" />
<glyph unicode="&#xed;" horiz-adv-x="525" d="M155 0V1034H371V0H155ZM161 1204L337 1480H554L383 1270Q353 1233 314 1216T235 1197T161 1204Z" />
<glyph unicode="&#xee;" horiz-adv-x="525" d="M155 0V1034H371V0H155ZM345 1176L230 1199L446 1486H585L805 1199L685 1177L514 1339L345 1176Z" />
<glyph unicode="&#xef;" horiz-adv-x="525" d="M155 0V1034H371V0H155ZM323 1230Q279 1230 246 1262T213 1340Q213 1386 246 1418T323 1450Q369 1450 402 1419T435 1340Q435 1295 402 1263T323 1230ZM713 1230Q668 1230 635 1262T602 1340Q602 1386 635 1418T713
1450Q758 1450 791 1419T824 1340Q824 1295 791 1263T713 1230Z" />
<glyph unicode="&#xf0;" horiz-adv-x="1114" d="M563 -22Q424 -22 312 41T133 225T66 518Q66 686 134 806T315 991T563 1056Q615 1056 666 1039T763 989Q706 1068 651 1124T543 1219L298 1102L256 1196L443 1288Q399 1319 353 1344T255 1395L325 1521Q397 1489
469 1449T605 1363L828 1470L874 1374L700 1291Q749 1250 810 1176T928 1001T1022 778T1059 518Q1059 349 991 229T810 43T563 -22ZM563 139Q639 139 700 182T798 310T834 518Q834 641 798 725T701 852T563 895Q486 895 425 852T327 725T291 518Q291 394 326 310T423
183T563 139Z" />
<glyph unicode="&#xf1;" horiz-adv-x="1182" d="M806 0V747Q806 811 778 852T691 893Q668 893 650 888T605 878Q550 868 505 888T421 953Q526 1014 598 1035T729 1056Q806 1056 873 1025T980 924T1021 734V0H806ZM153 0V782Q153 838 146 901T122 1034H290Q338
980 353 927T369 814V0H153ZM409 1236L288 1248Q291 1361 345 1414T471 1469Q512 1469 545 1455T607 1417Q633 1395 653 1377T707 1359Q734 1359 749 1388T769 1468L886 1456Q882 1372 855 1324T790 1255T713 1235Q668 1235 635 1249T575 1287Q549 1309 530 1327T479
1345Q455 1345 435 1321T409 1236Z" />
<glyph unicode="&#xf2;" horiz-adv-x="1156" d="M573 -22Q438 -22 325 40T145 223T77 518Q77 656 121 757T237 925T398 1023T573 1056Q728 1056 839 985T1010 792T1070 518Q1070 389 1030 289T920 119T761 14T573 -22ZM573 139Q665 139 725 190T815 328T845 518Q845
641 809 725T712 852T573 895Q497 895 436 852T338 725T301 518Q301 351 373 245T573 139ZM674 1204Q640 1195 600 1197T521 1216T452 1270L281 1480H498L674 1204Z" />
<glyph unicode="&#xf3;" horiz-adv-x="1156" d="M573 -22Q438 -22 325 40T145 223T77 518Q77 656 121 757T237 925T398 1023T573 1056Q728 1056 839 985T1010 792T1070 518Q1070 389 1030 289T920 119T761 14T573 -22ZM573 139Q665 139 725 190T815 328T845 518Q845
641 809 725T712 852T573 895Q497 895 436 852T338 725T301 518Q301 351 373 245T573 139ZM472 1204L648 1480H865L694 1270Q664 1233 625 1216T546 1197T472 1204Z" />
<glyph unicode="&#xf4;" horiz-adv-x="1156" d="M573 -22Q438 -22 325 40T145 223T77 518Q77 656 121 757T237 925T398 1023T573 1056Q728 1056 839 985T1010 792T1070 518Q1070 389 1030 289T920 119T761 14T573 -22ZM573 139Q665 139 725 190T815 328T845 518Q845
641 809 725T712 852T573 895Q497 895 436 852T338 725T301 518Q301 351 373 245T573 139ZM400 1176L285 1199L501 1486H640L860 1199L740 1177L569 1339L400 1176Z" />
<glyph unicode="&#xf5;" horiz-adv-x="1156" d="M573 -22Q438 -22 325 40T145 223T77 518Q77 656 121 757T237 925T398 1023T573 1056Q728 1056 839 985T1010 792T1070 518Q1070 389 1030 289T920 119T761 14T573 -22ZM573 139Q665 139 725 190T815 328T845 518Q845
641 809 725T712 852T573 895Q497 895 436 852T338 725T301 518Q301 351 373 245T573 139ZM391 1236L270 1248Q273 1361 327 1414T453 1469Q494 1469 527 1455T589 1417Q615 1395 635 1377T689 1359Q716 1359 731 1388T751 1468L868 1456Q864 1372 837 1324T772
1255T695 1235Q650 1235 617 1249T557 1287Q531 1309 512 1327T461 1345Q437 1345 417 1321T391 1236Z" />
<glyph unicode="&#xf6;" horiz-adv-x="1156" d="M573 -22Q438 -22 325 40T145 223T77 518Q77 656 121 757T237 925T398 1023T573 1056Q728 1056 839 985T1010 792T1070 518Q1070 389 1030 289T920 119T761 14T573 -22ZM573 139Q665 139 725 190T815 328T845 518Q845
641 809 725T712 852T573 895Q497 895 436 852T338 725T301 518Q301 351 373 245T573 139ZM377 1230Q333 1230 300 1262T267 1340Q267 1386 300 1418T377 1450Q423 1450 456 1419T489 1340Q489 1295 456 1263T377 1230ZM767 1230Q722 1230 689 1262T656 1340Q656
1386 689 1418T767 1450Q812 1450 845 1419T878 1340Q878 1295 845 1263T767 1230Z" />
<glyph unicode="&#xf7;" horiz-adv-x="1136" d="M94 537V683H1030V537H94ZM560 118Q514 118 484 148T454 224Q454 272 484 303T560 334Q608 334 639 303T670 224Q670 178 639 148T560 118ZM560 883Q515 883 485 913T455 988Q455 1035 485 1066T560 1097Q607 1097
638 1066T669 988Q669 943 638 913T560 883Z" />
<glyph unicode="&#xf8;" horiz-adv-x="1156" d="M573 -22Q438 -22 325 40T145 223T77 518Q77 656 121 757T237 925T398 1023T573 1056Q728 1056 839 985T1010 792T1070 518Q1070 389 1030 289T920 119T761 14T573 -22ZM573 139Q665 139 725 190T815 328T845 518Q845
641 809 725T712 852T573 895Q497 895 436 852T338 725T301 518Q301 351 373 245T573 139ZM489 238Q466 264 451 300T435 376T452 452L874 1156H1033L489 238ZM114 -122L261 130L382 56L279 -122H114Z" />
<glyph unicode="&#xf9;" horiz-adv-x="1188" d="M426 -22Q350 -22 285 9T179 110T139 300V1034H352V287Q352 223 379 182T466 141Q489 141 506 146T551 156Q607 167 652 147T735 81Q631 21 558 0T426 -22ZM866 0Q818 54 803 107T788 220V1034H999V252Q999 197
1006 134T1031 0H866ZM680 1204Q646 1195 606 1197T527 1216T458 1270L287 1480H504L680 1204Z" />
<glyph unicode="&#xfa;" horiz-adv-x="1188" d="M426 -22Q350 -22 285 9T179 110T139 300V1034H352V287Q352 223 379 182T466 141Q489 141 506 146T551 156Q607 167 652 147T735 81Q631 21 558 0T426 -22ZM866 0Q818 54 803 107T788 220V1034H999V252Q999 197
1006 134T1031 0H866ZM478 1204L654 1480H871L700 1270Q670 1233 631 1216T552 1197T478 1204Z" />
<glyph unicode="&#xfb;" horiz-adv-x="1188" d="M426 -22Q350 -22 285 9T179 110T139 300V1034H352V287Q352 223 379 182T466 141Q489 141 506 146T551 156Q607 167 652 147T735 81Q631 21 558 0T426 -22ZM866 0Q818 54 803 107T788 220V1034H999V252Q999 197
1006 134T1031 0H866ZM406 1176L291 1199L507 1486H646L866 1199L746 1177L575 1339L406 1176Z" />
<glyph unicode="&#xfc;" horiz-adv-x="1188" d="M426 -22Q350 -22 285 9T179 110T139 300V1034H352V287Q352 223 379 182T466 141Q489 141 506 146T551 156Q607 167 652 147T735 81Q631 21 558 0T426 -22ZM866 0Q818 54 803 107T788 220V1034H999V252Q999 197
1006 134T1031 0H866ZM383 1230Q339 1230 306 1262T273 1340Q273 1386 306 1418T383 1450Q429 1450 462 1419T495 1340Q495 1295 462 1263T383 1230ZM773 1230Q728 1230 695 1262T662 1340Q662 1386 695 1418T773 1450Q818 1450 851 1419T884 1340Q884 1295 851
1263T773 1230Z" />
<glyph unicode="&#xfd;" horiz-adv-x="1097" d="M245 -493Q205 -491 160 -484T71 -461L123 -316Q156 -325 186 -329T245 -333Q320 -333 366 -281T447 -137T523 74L830 1034H1049L683 22Q640 -90 602 -184T518 -347T407 -454T245 -493ZM405 22L31 1034H256L454
414Q477 343 476 268T456 127T405 22ZM445 1204L621 1480H838L667 1270Q637 1233 598 1216T519 1197T445 1204Z" />
<glyph unicode="&#xfe;" horiz-adv-x="1196" d="M172 -482V1516H375V167Q423 151 473 145T566 138Q702 138 780 247T859 531Q859 644 829 725T740 849T601 888Q550 885 513 915T444 995Q498 1021 557 1034T663 1048Q749 1048 824 1012T958 909T1049 746T1083 531Q1083
371 1019 246T838 49T566 -23Q515 -23 471 -17T375 7V-482H172Z" />
<glyph unicode="&#xff;" horiz-adv-x="1097" d="M245 -493Q205 -491 160 -484T71 -461L123 -316Q156 -325 186 -329T245 -333Q320 -333 366 -281T447 -137T523 74L830 1034H1049L683 22Q640 -90 602 -184T518 -347T407 -454T245 -493ZM405 22L31 1034H256L454
414Q477 343 476 268T456 127T405 22ZM350 1230Q306 1230 273 1262T240 1340Q240 1386 273 1418T350 1450Q396 1450 429 1419T462 1340Q462 1295 429 1263T350 1230ZM740 1230Q695 1230 662 1262T629 1340Q629 1386 662 1418T740 1450Q785 1450 818 1419T851 1340Q851
1295 818 1263T740 1230Z" />
<glyph unicode="&#x2013;" horiz-adv-x="1080" d="M90 477V623H938V477H90Z" />
<glyph unicode="&#x2014;" horiz-adv-x="1698" d="M90 477V623H1568V477H90Z" />
<glyph unicode="&#x2018;" horiz-adv-x="410" d="M298 1454V1046H105V1202Q105 1250 114 1299T145 1388T204 1447T298 1454Z" />
<glyph unicode="&#x2019;" horiz-adv-x="430" d="M133 1046V1454H326V1298Q326 1250 317 1200T286 1111T227 1052T133 1046Z" />
<glyph unicode="&#x201a;" horiz-adv-x="394" d="M112 -212V196H305V40Q305 -8 296 -58T265 -147T206 -206T112 -212Z" />
<glyph unicode="&#x201c;" horiz-adv-x="756" d="M290 1454V1046H97V1202Q97 1250 106 1299T137 1388T196 1447T290 1454ZM654 1454V1046H461V1202Q461 1250 470 1299T501 1388T560 1447T654 1454Z" />
<glyph unicode="&#x201d;" horiz-adv-x="767" d="M97 1046V1454H290V1298Q290 1250 281 1200T250 1111T191 1052T97 1046ZM461 1046V1454H654V1298Q654 1250 645 1200T614 1111T555 1052T461 1046Z" />
<glyph unicode="&#x201e;" horiz-adv-x="741" d="M355 -212V196H548V40Q548 -8 539 -58T508 -147T449 -206T355 -212ZM462 -212V196H655V40Q655 -8 646 -58T615 -147T556 -206T462 -212Z" />
<glyph unicode="&#x2022;" horiz-adv-x="1000" d="M514 472Q445 472 401 516T356 630Q356 699 400 745T514 792Q583 792 629 746T676 630Q676 561 630 517T514 472Z" />
<glyph unicode="&#x2039;" horiz-adv-x="1226" d="M823 97L381 516L823 935L917 843L639 516L917 189L823 97Z" />
<glyph unicode="&#x203a;" horiz-adv-x="1226" d="M484 97L390 189L668 516L390 843L484 935L925 516L484 97Z" />
</font>
</defs>
</svg>
