<?xml version="1.0" standalone="no"?>
<!DOCTYPE svg PUBLIC "-//W3C//DTD SVG 1.1//EN" "http://www.w3.org/Graphics/SVG/1.1/DTD/svg11.dtd">
<svg xmlns="http://www.w3.org/2000/svg">
<defs >
<font id="ExpletusSans" horiz-adv-x="1094" ><font-face
    font-family="Expletus Sans"
    units-per-em="2000"
    panose-1="0 0 0 0 0 0 0 0 0 0"
    ascent="2066"
    descent="-612"
    alphabetic="0" />
<glyph unicode=" " horiz-adv-x="514" />
<glyph unicode="!" horiz-adv-x="702" d="M188 460L272 1454H552L388 460H188ZM226 -28Q156 -28 114 19T80 136Q88 205 142 254T266 304Q335 304 376 255T410 136Q401 67 348 20T226 -28Z" />
<glyph unicode="&quot;" horiz-adv-x="832" d="M188 1002L244 1454H488L432 1002H188ZM596 1002L652 1454H896L840 1002H596Z" />
<glyph unicode="#" horiz-adv-x="1788" d="M290 0L382 290L400 312L370 308H166L188 480H438L572 906L588 928L556 924H360L382 1100H634L728 1404H952L856 1100H1246L1342 1404H1566L1468 1100H1696L1674 926H1414L1274 482H1500L1478 308H1224L1128 0H904L994
282L1012 312L980 308H672Q690 346 720 386T798 454T918 482H1050L1182 896L1200 928L1164 924H802L514 0H290Z" />
<glyph unicode="$" horiz-adv-x="1028" d="M392 -214L416 -22Q341 -14 252 10T60 80L160 268Q262 220 355 201T524 182Q595 182 653 207T749 274T792 366Q801 436 758 485T643 576T490 659T337 753T226 879T198 1058Q212 1167 268 1242T408 1361T594 1418L618
1620H830L806 1418Q863 1412 925 1399T1068 1360L972 1178Q887 1202 816 1213T678 1224Q588 1224 529 1182T460 1074Q452 1008 495 961T611 872T766 787T919 687T1030 553T1056 362Q1043 255 987 177T839 50T630 -16L604 -214H392Z" />
<glyph unicode="%" horiz-adv-x="1628" d="M276 0L1324 1404H1546L498 0H276ZM432 620Q273 620 194 726T138 1028Q161 1220 267 1327T532 1434Q691 1434 772 1327T830 1028Q806 835 699 728T432 620ZM450 778Q507 778 549 841T608 1028Q623 1150 596 1213T512
1276Q458 1276 416 1213T358 1028Q342 904 369 841T450 778ZM1290 -26Q1131 -26 1052 80T996 382Q1020 574 1125 681T1390 788Q1549 788 1630 681T1688 382Q1664 189 1557 82T1290 -26ZM1310 132Q1367 132 1409 195T1466 382Q1481 504 1454 567T1370 630Q1316 630
1274 567T1216 382Q1201 258 1228 195T1310 132Z" />
<glyph unicode="&amp;" horiz-adv-x="1522" d="M666 -22Q531 -22 436 32T295 185T266 418Q283 553 363 655T550 830Q492 928 480 986T474 1100Q489 1222 558 1305T735 1431T972 1474Q1038 1474 1120 1457T1272 1406L1190 1222Q1127 1243 1062 1254T942 1266Q857
1266 799 1225T732 1118Q723 1042 763 975T874 808L1104 492L1118 456L1138 498Q1174 561 1199 623T1244 758H1474Q1431 626 1379 511T1252 294L1470 0H1152L672 648L658 682L636 646Q599 604 574 556T540 444Q527 335 571 261T722 186Q743 186 756 188T788 192Q865
198 909 162T990 78Q914 27 835 3T666 -22Z" />
<glyph unicode="&apos;" horiz-adv-x="382" d="M176 1002L232 1454H476L420 1002H176Z" />
<glyph unicode="(" horiz-adv-x="806" d="M634 -352Q528 -274 468 -187T382 10T361 262T388 592Q411 779 442 921T524 1172T658 1368T866 1534L982 1404Q886 1327 827 1252T732 1087T676 878T634 592Q614 426 606 306T611 95T665 -69T782 -220L634 -352Z" />
<glyph unicode=")" horiz-adv-x="802" d="M84 -352L-30 -220Q64 -144 122 -70T216 95T274 305T316 592Q336 758 344 877T339 1086T286 1251T168 1404L316 1534Q422 1456 482 1369T567 1172T589 921T562 592Q539 405 508 263T425 11T292 -186T84 -352Z" />
<glyph unicode="*" horiz-adv-x="1060" d="M478 692L304 800L552 1048L222 984L248 1200L558 1138L372 1382L574 1492L642 1180L788 1492L962 1382Q884 1305 838 1260T769 1190T735 1155T716 1136L1046 1198L1020 982Q889 1010 827 1023T742 1040T702 1046L890
800L688 692L622 1004L478 692Z" />
<glyph unicode="+" horiz-adv-x="1136" d="M468 124L516 514H156L180 706H540L588 1092H800L752 706H1116L1092 514H728L680 124H468Z" />
<glyph unicode="," horiz-adv-x="508" d="M80 -256L136 196H380L360 40Q352 -29 331 -89T275 -191T192 -252T80 -256Z" />
<glyph unicode="-" horiz-adv-x="750" d="M152 510L176 706H780L756 510H152Z" />
<glyph unicode="." horiz-adv-x="546" d="M246 -30Q176 -30 134 17T100 134Q108 203 162 252T286 302Q355 302 396 253T430 134Q421 65 368 18T246 -30Z" />
<glyph unicode="/" horiz-adv-x="664" d="M-40 -124L638 1454H880L200 -124H-40Z" />
<glyph unicode="0" horiz-adv-x="1420" d="M652 -38Q476 -38 354 50T177 304T150 698Q177 919 270 1085T507 1345T834 1438Q991 1438 1095 1374T1257 1202T1333 963T1334 698Q1317 554 1265 422T1126 186T921 22T652 -38ZM678 166Q824 166 912 310T1030 698Q1060
943 1007 1088T808 1234Q661 1234 573 1089T454 698Q424 455 478 311T678 166Z" />
<glyph unicode="1" horiz-adv-x="638" d="M258 0L394 1112L168 1002L102 1162L578 1402H686L514 0H258Z" />
<glyph unicode="2" horiz-adv-x="1134" d="M88 0L102 118Q145 197 227 288T406 477T593 671T745 858T816 1024Q828 1119 770 1170T614 1222Q568 1222 501 1208T356 1160L306 1344Q411 1391 500 1408T658 1426Q813 1426 920 1380T1079 1249T1116 1044Q1106 966
1061 883T947 715T801 548T645 389T506 248L470 212L516 218H1036L1010 0H88Z" />
<glyph unicode="3" horiz-adv-x="1056" d="M412 -22Q303 -22 206 3T18 70L106 252Q193 212 263 197T394 182Q464 182 531 206T646 277T702 392Q713 482 669 532T538 602T340 622L342 792L416 822Q512 861 581 898T691 978T738 1078Q746 1147 693 1183T560 1220Q503
1220 438 1207T274 1156L230 1342Q352 1390 449 1407T628 1424Q753 1424 849 1385T995 1272T1034 1092Q1022 1004 961 926T790 784L736 764L782 754Q852 725 903 672T980 547T994 388Q979 263 895 171T684 29T412 -22Z" />
<glyph unicode="4" horiz-adv-x="1190" d="M700 0L826 1036L838 1102L802 1046L410 522L372 482L414 484H486Q544 484 580 453T635 374T662 282H80L104 476L802 1402H1138L1024 484H1186L1162 282H1000L966 0H700Z" />
<glyph unicode="5" horiz-adv-x="1074" d="M410 -24Q359 -24 303 -16T184 12T48 72L136 254Q235 214 307 197T434 180Q519 180 584 216T690 310T738 430Q752 543 675 603T466 664Q415 664 348 659T186 636L330 1402H1092L1064 1184H526L468 884L458 856L496 864Q516
866 532 866T560 866Q724 866 834 808T996 649T1032 426Q1015 291 928 190T706 33T410 -24Z" />
<glyph unicode="6" horiz-adv-x="1250" d="M676 -32Q525 -32 423 22T262 172T187 391T186 654Q205 807 273 945T450 1190T699 1358T1002 1420Q1052 1420 1119 1408T1256 1372L1168 1186Q1110 1204 1063 1210T976 1216Q834 1216 730 1140T563 938T480 658Q470 576
472 490T496 332T566 215T694 170Q753 170 806 207T896 308T942 448Q957 568 917 624T816 680Q806 680 789 679T754 674Q707 667 675 687T621 741T586 806Q648 836 700 853T796 877T872 884Q985 884 1074 834T1209 687T1238 448Q1228 361 1183 276T1064 121T892
10T676 -32Z" />
<glyph unicode="7" horiz-adv-x="1006" d="M210 0Q268 228 343 421T520 792T762 1148L796 1178L746 1174H220L248 1402H1124L1100 1208Q1005 1103 919 988T756 733T616 413T500 0H210Z" />
<glyph unicode="8" horiz-adv-x="1324" d="M672 -26Q522 -26 412 18T245 148T204 356Q213 425 259 504T414 682Q461 634 494 572T504 444Q491 416 484 398T474 356Q464 272 526 224T696 176Q809 176 878 229T956 356Q964 422 932 468T841 549T712 615T570 683T443
770T357 890T340 1062Q354 1177 428 1259T614 1384T856 1428Q989 1428 1089 1385T1240 1259T1278 1062Q1269 992 1220 916T1090 756L1046 726L1078 710Q1156 653 1204 569T1236 356Q1221 234 1142 149T941 19T672 -26ZM876 820Q933 879 964 935T1002 1040Q1010
1106 988 1146T925 1205T832 1224Q778 1224 732 1206T656 1152T620 1062Q612 1003 646 962T742 887T876 820Z" />
<glyph unicode="9" horiz-adv-x="1248" d="M458 -20Q409 -20 341 -9T204 28L292 212Q351 196 398 190T484 184Q626 184 730 259T898 462T980 742Q990 824 988 909T963 1066T894 1183T766 1228Q707 1228 654 1191T564 1091T518 952Q503 832 543 776T644 720Q653
720 670 721T706 726Q752 733 785 713T839 659T874 594Q812 564 760 547T664 523T588 516Q474 516 385 566T251 713T222 952Q233 1039 277 1124T395 1279T567 1390T784 1432Q936 1432 1038 1378T1198 1228T1273 1009T1274 746Q1255 592 1187 454T1010 209T761 41T458
-20Z" />
<glyph unicode=":" horiz-adv-x="598" d="M300 -30Q230 -30 188 17T154 134Q162 203 216 252T340 302Q409 302 450 253T484 134Q475 65 422 18T300 -30ZM388 688Q318 688 276 735T242 852Q250 921 304 970T428 1020Q497 1020 538 971T572 852Q563 783 510 736T388 688Z" />
<glyph unicode=";" horiz-adv-x="598" d="M148 -256L204 196H448L428 40Q420 -29 399 -89T343 -191T260 -252T148 -256ZM388 688Q318 688 276 735T242 852Q250 921 304 970T428 1020Q497 1020 538 971T572 852Q563 783 510 736T388 688Z" />
<glyph unicode="&lt;" horiz-adv-x="1226" d="M1108 0L130 462L152 642L1242 1104L1210 844L482 566L428 552L480 540L1140 262L1108 0Z" />
<glyph unicode="=" horiz-adv-x="1212" d="M226 764L250 960H1194L1170 764H226ZM172 322L196 518H1140L1116 322H172Z" />
<glyph unicode="&gt;" horiz-adv-x="1226" d="M110 0L142 262L870 540L922 552L872 566L212 844L244 1104L1222 642L1200 462L110 0Z" />
<glyph unicode="?" horiz-adv-x="1166" d="M420 460Q433 569 477 649T578 792T692 905T789 1008T836 1118Q845 1186 798 1226T664 1266Q607 1266 549 1256T388 1204L340 1392Q457 1442 542 1458T710 1474Q843 1474 941 1436T1089 1325T1126 1148Q1116 1063 1069
993T956 860T825 735T713 606T656 460H420ZM478 -28Q408 -28 366 19T332 136Q340 205 394 254T518 304Q587 304 628 255T662 136Q653 67 600 20T478 -28Z" />
<glyph unicode="@" horiz-adv-x="1838" d="M860 -264Q707 -264 578 -218T358 -76T227 166T212 514Q235 701 316 846T519 1091T785 1244T1082 1296Q1225 1296 1351 1254T1570 1131T1708 930T1734 656Q1718 524 1636 410T1426 216T1148 110Q1127 122 1119 144T1104
192L1106 230L1080 190Q1014 132 957 113T846 94Q725 94 660 155T606 316Q621 435 726 501T1072 590Q1068 572 1053 538T1009 474T940 438Q856 426 829 394T796 324Q792 285 820 261T904 236Q955 236 1007 262T1114 350L1146 608Q1157 700 1113 739T982 778Q940
778 899 772T788 744L752 878Q838 910 902 921T1030 932Q1194 932 1272 849T1330 598L1298 340L1290 298L1320 322Q1419 384 1472 479T1536 656Q1553 800 1498 906T1330 1070T1060 1128Q889 1128 751 1054T522 843T408 514Q385 324 440 188T610 -22T882 -96Q940
-96 993 -92T1107 -76T1254 -38L1294 -192Q1195 -224 1123 -239T988 -259T860 -264Z" />
<glyph unicode="A" horiz-adv-x="1444" d="M60 0L760 1454H1040L1384 0H1088L860 1082L852 1156L826 1078L592 560L562 520L594 524H746Q804 524 839 491T892 410T920 318H486L342 0H60Z" />
<glyph unicode="B" horiz-adv-x="1354" d="M748 -22Q711 -22 681 -20T614 -10T520 12Q541 47 572 86T646 152T742 180Q744 180 746 180T750 180Q819 182 876 209T970 288T1016 412Q1025 491 988 548T877 637T704 668H524L442 0H162L336 1432Q446 1450 523 1460T665
1475T802 1480Q982 1480 1099 1429T1267 1285T1304 1070Q1295 997 1241 924T1106 804L1044 776L1098 762Q1168 736 1219 680T1294 553T1310 410Q1300 333 1256 257T1137 117T965 16T748 -22ZM546 856H726Q795 856 858 883T965 957T1016 1068Q1022 1115 1002 1163T927
1245T778 1278Q724 1278 688 1275T596 1264L546 856Z" />
<glyph unicode="C" horiz-adv-x="1204" d="M866 -24Q619 -24 459 76T228 346T184 728Q204 884 273 1020T456 1260T719 1421T1050 1480Q1134 1480 1219 1464T1394 1412L1300 1228Q1215 1254 1155 1264T1026 1274Q907 1274 813 1228T651 1105T542 930T488 728Q475
625 492 527T558 352T690 228T892 182Q961 182 1030 199T1178 250L1230 68Q1136 22 1043 -1T866 -24Z" />
<glyph unicode="D" horiz-adv-x="1494" d="M752 -24Q697 -24 653 -18T524 10Q544 45 575 85T650 153T748 182Q751 182 753 182T758 182Q871 184 957 232T1105 358T1203 533T1252 730Q1272 887 1232 1010T1081 1203T776 1274Q737 1274 693 1270T602 1258L448 0H166L340
1428Q478 1457 595 1468T800 1480Q1066 1480 1244 1392T1503 1135T1554 730Q1535 572 1465 435T1287 195T1042 34T752 -24Z" />
<glyph unicode="E" horiz-adv-x="1176" d="M166 0L344 1454H1216L1190 1248H604L476 206H1094L1070 0H166ZM608 662Q627 706 658 753T732 832T834 864H1076L1050 662H608Z" />
<glyph unicode="F" horiz-adv-x="1168" d="M166 0L344 1454H1216L1190 1248H604L452 0H166ZM608 662Q627 706 658 753T732 832T834 864H1076L1050 662H608Z" />
<glyph unicode="G" horiz-adv-x="1448" d="M872 -24Q687 -24 547 34T317 194T190 433T172 726Q192 884 264 1020T453 1260T725 1422T1062 1480Q1146 1480 1256 1460T1474 1392L1376 1200Q1270 1244 1189 1259T1038 1274Q919 1274 822 1230T652 1109T535 934T476
726Q463 623 483 526T555 351T693 228T898 182Q942 182 985 185T1092 204L1150 674H1406L1332 74Q1255 41 1170 20T1007 -13T872 -24Z" />
<glyph unicode="H" horiz-adv-x="1528" d="M1082 0L1162 660H608Q626 704 657 752T732 833T834 866H1188L1260 1454H1542L1364 0H1082ZM166 0L344 1454H630L452 0H166Z" />
<glyph unicode="I" horiz-adv-x="612" d="M166 0L344 1454H622L444 0H166Z" />
<glyph unicode="J" horiz-adv-x="738" d="M52 -444L-54 -280Q28 -218 92 -165T205 -54T283 78T326 256L474 1454H758L610 256Q593 117 551 18T439 -156T274 -299T52 -444Z" />
<glyph unicode="K" horiz-adv-x="1418" d="M1058 0L808 644L800 692L770 648L624 486Q612 575 632 668T696 845T794 994L1180 1454H1494L974 872L1386 0H1058ZM166 0L344 1454H630L452 0H166Z" />
<glyph unicode="L" horiz-adv-x="1062" d="M164 0L342 1454H630L476 208H1000L976 0H164Z" />
<glyph unicode="M" horiz-adv-x="1964" d="M148 0L466 1454H828L1008 332L1012 260L1038 332L1492 1454H1856L1814 0H1552L1608 1096L1614 1192L1578 1096L1130 20H836L648 1098L636 1192L618 1098L410 0H148Z" />
<glyph unicode="N" horiz-adv-x="1556" d="M188 0L366 1454H642L1136 476L1154 396L1160 476L1280 1454H1532L1354 0H1102L584 1018L560 1090L556 1022L432 0H188Z" />
<glyph unicode="O" horiz-adv-x="1578" d="M806 -28Q575 -28 426 71T212 342T174 728Q194 885 259 1022T431 1263T678 1425T992 1484Q1188 1484 1317 1417T1518 1239T1613 995T1620 728Q1602 581 1538 446T1369 203T1122 34T806 -28ZM830 178Q940 178 1044 242T1222
430T1318 728Q1337 885 1303 1009T1183 1206T966 1278Q828 1278 725 1202T559 1001T478 728Q465 625 480 527T538 350T654 225T830 178Z" />
<glyph unicode="P" horiz-adv-x="1286" d="M166 0L342 1436Q452 1454 528 1464T667 1478T802 1482Q964 1482 1087 1427T1273 1270T1318 1026Q1302 893 1224 797T1033 645T800 578Q755 574 705 577T600 596Q620 634 648 674T712 744T794 778Q850 783 900 817T983
906T1024 1026Q1033 1095 1006 1151T920 1242T778 1276Q724 1276 694 1273T608 1264L454 0H166Z" />
<glyph unicode="Q" horiz-adv-x="1562" d="M784 -28Q569 -28 423 69T212 336T174 728Q194 892 262 1030T437 1269T685 1427T992 1484Q1217 1484 1366 1387T1581 1119T1620 728Q1604 592 1538 462T1376 228L1486 100L1314 -52L882 452L1054 606L1194 442L1214 400L1232
452Q1267 515 1289 588T1318 728Q1336 876 1304 1001T1188 1202T966 1278Q828 1278 725 1202T559 1001T478 728Q465 625 479 527T535 350T644 225T808 178Q822 178 848 180T892 182Q958 182 1009 143T1088 68Q1010 20 932 -4T784 -28Z" />
<glyph unicode="R" horiz-adv-x="1368" d="M166 0L342 1436Q452 1454 528 1464T667 1478T802 1482Q959 1482 1082 1430T1271 1277T1320 1036Q1305 918 1240 829T1080 686L1020 664L1062 642Q1116 590 1141 520T1180 365T1208 189T1256 0H962Q936 77 924 163T900
332T864 485T788 598Q760 596 730 596T667 601T602 616Q622 654 650 695T715 766T798 800Q853 805 902 836T984 919T1026 1036Q1035 1105 1005 1159T916 1245T778 1276Q724 1276 694 1273T608 1264L454 0H166Z" />
<glyph unicode="S" horiz-adv-x="1154" d="M548 -26Q463 -26 352 -3T112 84L210 270Q312 219 405 200T574 180Q681 180 757 236T842 370Q850 432 819 479T733 565T609 642T474 721T353 815T271 937T254 1100Q270 1231 340 1315T516 1439T740 1480Q832 1480 918
1468T1124 1414L1028 1232Q943 1258 872 1269T734 1280Q644 1280 585 1236T518 1124Q510 1056 552 1006T667 912T821 822T973 716T1082 575T1108 376Q1092 247 1017 158T821 21T548 -26Z" />
<glyph unicode="T" horiz-adv-x="1068" d="M390 0L542 1248H162L188 1454H1232L1206 1248H826L674 0H390Z" />
<glyph unicode="U" horiz-adv-x="1454" d="M744 -28Q565 -28 443 39T265 237T234 556L344 1454H626L512 526Q491 363 565 271T768 178Q896 178 993 270T1112 526L1226 1454H1506L1396 556Q1374 379 1288 248T1062 44T744 -28Z" />
<glyph unicode="V" horiz-adv-x="1334" d="M526 0L194 1454H498L704 350L708 274L732 348L1210 1454H1504L820 0H526Z" />
<glyph unicode="W" horiz-adv-x="2118" d="M474 0L240 1454H518L656 386L658 276L694 386L1084 1434H1398L1524 388L1530 276L1560 384L1962 1454H2234L1646 0H1364L1210 1070L1202 1152L1176 1072L762 0H474Z" />
<glyph unicode="X" horiz-adv-x="1322" d="M950 0L258 1454H574L760 976L774 914L796 976L1102 1454H1416L894 736L1260 0H950ZM58 0L532 650Q553 616 576 555T600 423T560 290L364 0H58Z" />
<glyph unicode="Y" horiz-adv-x="1398" d="M552 0L630 644L228 1454H540L910 678L828 0H552ZM980 754Q958 788 936 848T912 979T952 1114L1182 1454H1490L980 754Z" />
<glyph unicode="Z" horiz-adv-x="1224" d="M94 0L108 118L954 1224L990 1258L940 1252H308L334 1454H1346L1332 1336L484 230L448 200L494 206H1210L1186 0H94Z" />
<glyph unicode="[" horiz-adv-x="894" d="M194 -398L432 1542H1038L1012 1334H670L484 -190H826L800 -398H194Z" />
<glyph unicode="\" horiz-adv-x="664" d="M444 -124L152 1454H394L686 -124H444Z" />
<glyph unicode="]" horiz-adv-x="894" d="M30 -398L56 -190H398L584 1334H242L268 1542H874L636 -398H30Z" />
<glyph unicode="^" horiz-adv-x="1256" d="M158 420L708 1454H910L1204 420H950L778 1086L772 1148L750 1086L416 420H158Z" />
<glyph unicode="_" horiz-adv-x="994" d="M30 -190L54 0H940L916 -190H30Z" />
<glyph unicode="`" horiz-adv-x="392" d="M636 1204Q601 1195 547 1197T440 1221T354 1290L220 1480H498L636 1204Z" />
<glyph unicode="a" horiz-adv-x="1226" d="M498 -18Q403 -23 333 19T218 136T156 301T150 480Q169 639 252 770T471 980T786 1058Q842 1058 898 1054T1025 1036T1192 998L1100 252Q1093 197 1092 134T1100 0H886Q862 14 839 75T824 210L900 836Q861 845 827 848T772
852Q636 852 552 749T448 480Q440 416 445 348T480 235T578 194Q637 199 669 160T732 64Q672 31 611 8T498 -18Z" />
<glyph unicode="b" horiz-adv-x="1220" d="M582 -30Q473 -30 372 -5T156 84L332 1516L608 1502L448 196Q493 184 529 180T606 176Q723 176 804 282T906 554Q913 618 907 688T871 805T774 846Q707 839 676 885T618 992Q678 1019 738 1034T850 1052Q945 1057 1016
1015T1132 898T1196 734T1204 554Q1183 391 1100 259T884 48T582 -30Z" />
<glyph unicode="c" horiz-adv-x="860" d="M588 -26Q449 -26 334 30T157 206T118 518Q141 699 232 819T453 1000T722 1060Q776 1060 838 1050T958 1016L866 830Q820 842 775 848T696 854Q588 854 511 764T414 518Q401 413 422 338T492 221T614 180Q656 180 704
191T820 228L866 44Q784 8 713 -9T588 -26Z" />
<glyph unicode="d" horiz-adv-x="1238" d="M518 -26Q373 -26 279 45T147 241T128 524Q141 630 188 725T306 893T461 1009T632 1052Q683 1052 732 1046T856 1016Q820 947 778 904T686 856Q603 851 549 808T465 691T424 524Q412 431 427 353T485 228T594 180Q651
180 710 214T842 320L990 1516L1266 1502L1114 262Q1107 207 1106 144T1114 10L898 0Q874 14 860 40T838 94L834 140L794 96Q709 26 643 0T518 -26Z" />
<glyph unicode="e" horiz-adv-x="1128" d="M614 -26Q477 -26 383 22T235 152T161 333T154 534Q175 699 260 817T472 997T744 1060Q855 1060 940 1017T1072 894T1119 707T1058 470H498Q528 539 575 586T674 634H852Q868 695 856 748T805 833T706 866Q651 866 593
833T491 729T432 544Q418 429 443 348T527 223T670 180Q739 180 809 197T970 254L1018 68Q904 17 806 -4T614 -26Z" />
<glyph unicode="f" horiz-adv-x="874" d="M210 0L312 836H146L166 994L336 1034L342 1090Q359 1221 424 1319T595 1471T834 1526Q884 1526 951 1514T1094 1466L1010 1288Q953 1305 914 1312T840 1320Q775 1320 726 1292T646 1211T606 1090L474 0H210ZM644 836Q662
880 692 926T766 1003T868 1034H956L932 836H644Z" />
<glyph unicode="g" horiz-adv-x="1182" d="M466 -500Q388 -500 290 -484T80 -416L172 -230Q268 -270 339 -285T474 -300Q548 -300 614 -269T726 -176T782 -22L888 836Q851 845 817 848T762 852Q626 852 542 749T438 480Q430 416 435 348T469 235T566 194Q626 199
658 160T720 64Q662 31 601 8T488 -18Q392 -23 322 19T207 136T146 301T140 480Q159 639 242 770T460 980T774 1058Q831 1058 887 1054T1014 1036T1180 998L1058 0Q1035 -183 950 -292T739 -451T466 -500Z" />
<glyph unicode="h" horiz-adv-x="1216" d="M146 0L332 1516L608 1502L424 0H146ZM792 0L882 734Q888 784 871 816T808 848Q790 848 777 844T738 838Q693 835 665 876T614 972Q719 1028 793 1044T922 1060Q991 1060 1050 1025T1141 919T1160 738L1070 0H792Z" />
<glyph unicode="i" horiz-adv-x="560" d="M140 0L266 1034H546L420 0H140ZM422 1170Q353 1170 312 1217T278 1334Q287 1405 341 1453T464 1502Q533 1502 574 1454T606 1334Q599 1265 545 1218T422 1170Z" />
<glyph unicode="j" horiz-adv-x="590" d="M-12 -498L-112 -352Q-4 -267 54 -203T138 -71T176 96L292 1034H570L454 96Q439 -30 393 -125T250 -308T-12 -498ZM448 1170Q379 1170 338 1217T304 1334Q313 1405 367 1453T490 1502Q561 1502 602 1454T634 1334Q627
1265 573 1218T448 1170Z" />
<glyph unicode="k" horiz-adv-x="1248" d="M904 0L724 466L716 514L684 474L562 360Q556 498 610 613T748 816L954 1034L1260 1020L896 676L1212 0H904ZM146 0L332 1516L608 1502L424 0H146Z" />
<glyph unicode="l" horiz-adv-x="564" d="M150 0L336 1516L612 1502L428 0H150Z" />
<glyph unicode="m" horiz-adv-x="1860" d="M1426 0L1516 734Q1522 784 1504 816T1430 848Q1412 848 1390 843T1342 836Q1294 833 1261 876T1206 974Q1322 1019 1401 1039T1550 1060Q1619 1060 1679 1025T1773 919T1794 738L1704 0H1426ZM150 0L244 772Q250 828
251 891T244 1024L478 1034Q520 980 528 927T528 814L430 0H150ZM788 0L878 734Q884 784 870 816T804 848Q786 848 767 844T724 838Q676 835 645 878T592 976Q706 1020 782 1040T928 1060Q997 1060 1054 1025T1141 919T1158 738L1068 0H788Z" />
<glyph unicode="n" horiz-adv-x="1156" d="M752 0L842 734Q848 784 832 816T764 848Q745 848 726 843T678 836Q630 833 603 876T552 968Q657 1021 735 1040T882 1060Q951 1060 1010 1025T1101 919T1120 738L1030 0H752ZM106 0L200 772Q206 828 206 891T198 1024L432
1034Q474 980 483 927T484 814L386 0H106Z" />
<glyph unicode="o" horiz-adv-x="1220" d="M600 -26Q459 -26 345 37T170 222T130 518Q147 659 210 761T363 930T550 1028T734 1060Q893 1060 1005 991T1169 800T1202 518Q1186 391 1128 290T985 119T799 11T600 -26ZM624 178Q702 178 761 224T856 347T904 518Q916
611 899 688T834 810T708 856Q630 856 571 811T475 688T426 518Q408 368 461 273T624 178Z" />
<glyph unicode="p" horiz-adv-x="1242" d="M88 -468L240 772Q246 828 247 891T240 1024L456 1034Q480 1019 494 991T518 932V892L554 932Q643 1006 709 1033T836 1060Q980 1060 1073 989T1206 793T1226 510Q1213 404 1165 309T1046 141T891 25T720 -18Q669 -18
621 -11T498 18Q533 87 574 131T664 178Q748 183 802 226T887 343T930 510Q941 603 925 681T868 807T760 854Q702 854 642 820T510 714L364 -482L88 -468Z" />
<glyph unicode="q" horiz-adv-x="1210" d="M740 -468L900 836Q861 845 827 848T772 852Q636 852 552 749T448 480Q440 416 445 348T480 235T578 194Q637 199 669 160T732 64Q672 31 611 8T498 -18Q403 -23 333 19T218 136T156 301T150 480Q169 639 252 770T471
980T786 1058Q842 1058 898 1054T1025 1036T1192 998L1010 -482L740 -468Z" />
<glyph unicode="r" horiz-adv-x="782" d="M132 0L226 772Q232 828 232 891T224 1024L438 1034Q453 1021 467 979T482 886L480 838L506 886Q556 966 626 1010T760 1054Q792 1054 823 1048T888 1030L828 804Q789 816 763 820T712 824Q644 824 590 780T500 658T452
482L394 0H132Z" />
<glyph unicode="s" horiz-adv-x="872" d="M468 -20Q390 -20 292 -6T66 64L154 250Q243 214 314 200T448 186Q522 186 560 217T602 286Q608 331 577 361T493 416T383 468T273 531T194 621T176 754Q184 818 228 887T358 1004T582 1052Q650 1052 719 1042T882 1000L796
820Q721 841 674 847T576 854Q519 854 483 831T442 766Q437 724 468 694T551 638T661 584T770 518T849 428T868 296Q856 199 796 128T649 19T468 -20Z" />
<glyph unicode="t" horiz-adv-x="910" d="M596 -26Q406 -26 319 83T256 396L310 836H144L164 994L334 1034L364 1280L638 1366L520 396Q507 294 543 237T650 180Q679 180 716 186T806 210L842 28Q764 3 705 -11T596 -26ZM842 836Q784 836 748 867T693 944T666
1034H956L932 836H842Z" />
<glyph unicode="u" horiz-adv-x="1226" d="M406 -26Q337 -26 278 9T186 115T168 296L258 1034H536L446 300Q440 251 456 219T524 186Q544 186 563 191T610 198Q657 201 684 158T736 66Q630 14 553 -6T406 -26ZM854 0Q814 54 805 107T802 220L902 1034H1182L1088
262Q1081 207 1081 144T1090 10L854 0Z" />
<glyph unicode="v" d="M400 0L138 1034H432L574 302L580 242L602 302L922 1034L1204 1020L698 0H400Z" />
<glyph unicode="w" horiz-adv-x="1744" d="M1068 0L828 1034H1124L1242 302L1248 242L1270 302L1566 1034L1848 1020L1366 0H1068ZM404 0L166 1034H460L578 302L584 242L606 302L802 694Q827 636 841 547T847 359T790 174L696 0H404Z" />
<glyph unicode="x" horiz-adv-x="1028" d="M694 0Q633 125 567 250T432 500L148 1034H466L586 744L594 702L614 744L808 1034L1100 1020L706 512L1006 0H694ZM4 0L366 440Q388 408 408 359T430 251T396 136L306 0H4Z" />
<glyph unicode="y" horiz-adv-x="1200" d="M192 -496Q152 -494 107 -487T14 -458L100 -278Q135 -287 162 -289T218 -292Q288 -292 337 -250T431 -127T530 74L944 1034L1222 1020L740 22Q674 -107 618 -204T503 -366T370 -463T192 -496ZM404 26L156 1034H456L538
562Q554 475 537 372T482 176T404 26Z" />
<glyph unicode="z" horiz-adv-x="948" d="M60 0L74 118L616 814L652 848L608 842H216L240 1034H992L978 916L438 224L404 190L450 196H894L870 0H60Z" />
<glyph unicode="{" horiz-adv-x="806" d="M634 -352Q518 -267 456 -168T373 63T364 374Q367 445 317 486T192 540L208 684Q288 698 350 739T428 850Q460 1018 512 1141T649 1358T866 1534L982 1404Q888 1329 830 1256T735 1092T674 878Q659 796 611 733T494 628L444
606L486 586Q546 544 579 482T608 336Q600 203 612 107T665 -67T782 -220L634 -352Z" />
<glyph unicode="|" horiz-adv-x="634" d="M158 -586L428 1622H680L410 -586H158Z" />
<glyph unicode="}" horiz-adv-x="856" d="M240 -352L124 -220Q218 -145 277 -68T373 106T434 336Q451 419 499 480T614 584L668 606L618 628Q560 670 529 733T500 878Q507 1002 494 1092T439 1255T324 1404L472 1534Q584 1452 645 1358T728 1141T742 850Q739 780
792 739T918 684L902 540Q824 527 763 486T686 374Q653 194 601 63T463 -167T240 -352Z" />
<glyph unicode="~" horiz-adv-x="1228" d="M416 456L182 472Q198 574 253 645T383 753T534 792Q615 792 671 763T770 704Q802 682 830 665T888 648Q929 648 958 682T1002 770L1230 754Q1210 640 1153 570T1025 467T894 434Q800 434 747 464T652 526Q625 547 600
562T542 578Q509 578 471 552T416 456Z" />
<glyph unicode="&#xa0;" horiz-adv-x="514" />
<glyph unicode="&#xa1;" horiz-adv-x="702" d="M42 -420L202 574H402L322 -420H42ZM318 730Q248 730 207 779T174 898Q182 967 236 1014T360 1062Q429 1062 470 1015T504 898Q495 829 441 780T318 730Z" />
<glyph unicode="&#xa2;" horiz-adv-x="854" d="M454 -28L478 178Q370 201 287 265T163 439T142 710Q161 861 228 970T395 1145T608 1236L632 1432H828L806 1248Q850 1244 895 1235T982 1208L890 1022Q844 1034 799 1040T720 1046Q648 1046 589 1006T491 890T438
710Q425 605 445 530T515 413T636 372Q678 372 727 383T844 420L890 236Q830 209 776 194T674 170L650 -28H454Z" />
<glyph unicode="&#xa3;" horiz-adv-x="1026" d="M68 0L86 152Q200 206 279 290T372 484Q377 514 379 543T382 610H184L208 804H374Q373 851 374 906T382 1024Q399 1159 470 1248T654 1380T904 1424Q975 1424 1051 1408T1214 1350L1122 1160Q1050 1192 985 1204T878
1216Q781 1216 721 1167T648 1022Q633 901 637 796T640 592T606 394Q591 351 573 322T528 260L488 220L532 224H992L966 0H68ZM878 610Q818 610 785 640T737 716T712 804H1034L1010 610H878Z" />
<glyph unicode="&#xa4;" horiz-adv-x="1026" d="M174 198L80 310L252 452Q231 487 217 545T212 682Q223 757 250 815T308 908L170 1050L292 1162L422 1020Q464 1049 521 1068T644 1088Q715 1088 770 1068T856 1018L1028 1160L1114 1054L938 908Q958 874 968 814T970
682Q961 610 936 549T882 452L1022 306L910 200L772 342Q735 314 675 293T544 272Q478 272 426 292T338 340L174 198ZM560 420Q617 420 668 456T755 552T798 680Q807 749 787 808T724 903T624 940Q570 940 519 908T432 817T386 680Q377 602 398 544T463 453T560
420Z" />
<glyph unicode="&#xa5;" horiz-adv-x="1320" d="M510 0L540 256H252L268 390H556L570 504H282L300 638H588V644L186 1454H498L868 678L864 638H1150L1132 504H846L832 390H1118L1102 256H816L786 0H510ZM938 754Q916 788 894 848T870 979T910 1114L1140 1454H1448L938
754Z" />
<glyph unicode="&#xa6;" horiz-adv-x="508" d="M64 -586L170 282H422L316 -586H64ZM230 774L334 1622H586L482 774H230Z" />
<glyph unicode="&#xa7;" horiz-adv-x="1000" d="M490 -102Q445 -102 373 -95T220 -70T70 -18L162 150Q246 116 330 98T488 80Q574 80 637 104T708 186Q715 240 676 276T571 340T433 396T297 463T197 560T172 704Q178 761 223 815T332 908L376 926L340 946Q291
987 264 1041T246 1170Q256 1246 315 1307T467 1404T676 1440Q744 1440 824 1429T1002 1388L910 1220Q837 1241 783 1249T678 1258Q593 1258 543 1236T486 1172Q480 1118 519 1082T623 1018T761 960T897 892T997 795T1022 650Q1015 587 976 536T876 448L828 428L864
406Q908 366 932 313T948 188Q937 101 872 36T706 -65T490 -102ZM688 512Q738 547 763 584T792 660Q797 702 758 732T654 788T518 844Q464 813 437 784T404 714Q398 666 439 633T547 572T688 512Z" />
<glyph unicode="&#xa8;" horiz-adv-x="1056" d="M488 1214Q437 1214 404 1251T378 1340Q384 1393 426 1429T520 1466Q573 1466 605 1430T632 1340Q625 1288 583 1251T488 1214ZM878 1214Q827 1214 794 1251T768 1340Q774 1393 816 1429T910 1466Q963 1466 995
1430T1022 1340Q1015 1288 973 1251T878 1214Z" />
<glyph unicode="&#xa9;" horiz-adv-x="1440" d="M718 42Q519 42 379 128T172 366T130 714Q147 848 211 968T377 1180T608 1326T882 1380Q1079 1380 1218 1294T1422 1058T1464 714Q1448 578 1384 457T1219 243T990 96T718 42ZM796 352Q699 352 626 394T517 516T494
714Q509 830 565 910T705 1032T884 1074Q964 1074 1048 1046L988 918Q954 930 926 935T868 940Q793 940 738 875T670 714Q658 617 697 551T812 484Q841 484 875 490T958 518L986 398Q928 371 878 362T796 352ZM738 198Q871 198 987 260T1182 438T1280 714Q1299
870 1249 985T1098 1163T864 1226Q728 1226 610 1163T413 983T314 708Q295 551 346 437T499 260T738 198Z" />
<glyph unicode="&#xaa;" horiz-adv-x="1054" d="M374 590Q277 590 216 642T166 788Q178 887 272 945T586 1028Q581 1012 568 984T531 929T470 896Q410 886 383 860T350 798Q347 764 367 740T426 716Q473 716 519 736T608 802L638 1054Q649 1137 607 1171T492 1206Q455
1206 412 1200T324 1176L298 1294Q369 1324 428 1333T534 1342Q692 1342 762 1264T816 1044L790 844Q780 760 780 701T784 604H644Q629 619 621 636T606 676V700L588 676Q546 636 491 613T374 590Z" />
<glyph unicode="&#xab;" horiz-adv-x="1226" d="M572 90L158 516L676 944L774 836L482 516L696 196L572 90ZM1120 90L706 516L1224 944L1322 836L1030 516L1244 196L1120 90Z" />
<glyph unicode="&#xac;" horiz-adv-x="1182" d="M916 312L964 714H172L196 910H1202L1130 312H916Z" />
<glyph unicode="&#xad;" horiz-adv-x="750" d="M152 510L176 706H780L756 510H152Z" />
<glyph unicode="&#xae;" horiz-adv-x="1440" d="M718 42Q519 42 379 128T172 366T130 714Q147 848 211 968T377 1180T608 1326T882 1380Q1079 1380 1218 1294T1422 1058T1464 714Q1448 578 1384 457T1219 243T990 96T718 42ZM738 198Q871 198 987 260T1182 438T1280
714Q1299 870 1249 985T1098 1163T864 1226Q728 1226 610 1163T413 983T314 708Q295 551 346 437T499 260T738 198ZM528 378L608 1042Q668 1056 727 1064T838 1072Q966 1072 1039 1016T1100 862Q1094 808 1065 764T984 694L940 686L974 666Q1008 636 1019 591T1037
492T1064 378H892Q873 432 871 487T857 587T798 650Q786 650 774 650T750 650Q764 689 788 724T858 770Q894 779 910 803T930 862Q936 901 909 922T822 944Q804 944 796 943T760 938L692 378H528Z" />
<glyph unicode="&#xaf;" horiz-adv-x="1000" d="M368 1206L388 1374H992L972 1206H368Z" />
<glyph unicode="&#xb0;" horiz-adv-x="674" d="M466 946Q385 946 318 982T215 1086T190 1246Q201 1333 253 1401T381 1507T538 1546Q619 1546 686 1510T789 1406T814 1246Q803 1159 751 1092T623 985T466 946ZM484 1092Q523 1092 558 1109T616 1161T646 1246Q655
1321 618 1361T522 1402Q483 1402 449 1384T390 1331T360 1246Q351 1171 388 1132T484 1092Z" />
<glyph unicode="&#xb1;" horiz-adv-x="1136" d="M488 284L524 574H164L188 766H548L582 1052H794L760 766H1124L1100 574H736L700 284H488ZM94 0L118 196H1054L1030 0H94Z" />
<glyph unicode="&#xb2;" horiz-adv-x="804" d="M214 620L224 710Q288 802 359 876T493 1013T598 1131T648 1242Q653 1286 622 1310T532 1334Q498 1334 464 1326T396 1304L354 1422Q411 1451 472 1461T582 1472Q660 1472 718 1447T806 1374T828 1256Q819 1184 780
1123T687 1007T575 897T470 784L448 764L476 768H762L744 620H214Z" />
<glyph unicode="&#xb3;" horiz-adv-x="762" d="M388 602Q327 602 272 621T190 658L248 780Q283 765 323 754T404 742Q472 742 516 778T568 866Q576 929 532 963T386 998V1110L452 1136Q509 1159 545 1187T588 1262Q591 1286 569 1308T502 1330Q468 1330 431 1323T350
1302L316 1420Q376 1449 429 1459T532 1470Q642 1470 712 1424T770 1276Q763 1213 714 1163T592 1080Q658 1064 708 1007T746 860Q736 780 686 722T558 633T388 602Z" />
<glyph unicode="&#xb4;" horiz-adv-x="644" d="M252 1204L458 1480H736L556 1290Q511 1242 453 1221T340 1198T252 1204Z" />
<glyph unicode="&#xb5;" horiz-adv-x="1106" d="M60 -422L238 1034H494L418 420Q409 341 425 287T478 204T568 176Q630 176 681 205T765 284T806 398L884 1034H1142L1056 328Q1046 244 1065 211T1148 180L1150 10Q1116 -3 1072 -9T1004 -16Q953 -16 898 13T820
106L814 142L792 104Q741 43 678 12T526 -20Q493 -20 453 -8T384 28L360 62L356 14L304 -422H60Z" />
<glyph unicode="&#xb6;" horiz-adv-x="1218" d="M642 -60L724 608Q723 608 722 609T720 610Q601 620 508 675T367 824T334 1040Q349 1156 418 1256T606 1418T886 1480Q996 1480 1082 1472T1278 1440L1094 -60H948L1116 1316Q1073 1324 1034 1327T958 1332L788 -60H642Z" />
<glyph unicode="&#xb7;" horiz-adv-x="612" d="M358 444Q288 444 246 491T212 608Q220 677 274 726T398 776Q467 776 508 727T542 608Q533 539 480 492T358 444Z" />
<glyph unicode="&#xb8;" horiz-adv-x="1000" d="M414 -426Q380 -426 342 -417T258 -386L308 -276Q343 -289 371 -294T430 -300Q465 -300 489 -287T516 -252Q519 -222 483 -206T376 -182L444 -6L582 6L548 -86Q607 -99 653 -139T690 -246Q683 -306 640 -346T536
-406T414 -426Z" />
<glyph unicode="&#xb9;" horiz-adv-x="638" d="M408 618L484 1228L366 1174L310 1302L614 1454H710L606 618H408Z" />
<glyph unicode="&#xba;" horiz-adv-x="860" d="M500 588Q337 588 252 686T188 966Q201 1070 252 1155T390 1291T592 1342Q710 1342 783 1294T887 1160T904 966Q892 866 843 780T708 641T500 588ZM516 728Q574 728 616 759T685 843T720 966Q728 1036 715 1089T666
1173T574 1204Q520 1204 478 1174T409 1089T374 966Q362 870 393 799T516 728Z" />
<glyph unicode="&#xbb;" horiz-adv-x="1226" d="M204 90L108 196L398 516L186 836L308 944L722 516L204 90ZM750 90L654 196L944 516L732 836L854 944L1268 516L750 90Z" />
<glyph unicode="&#xbc;" horiz-adv-x="1396" d="M132 0L1182 1454H1398L348 0H132ZM288 618L364 1228L246 1174L190 1302L494 1454H590L486 618H288ZM1068 0L1142 608L896 302H936Q984 302 1006 256T1038 164H696L710 286L1152 846H1338L1272 302H1368L1352 164H1256L1236
0H1068Z" />
<glyph unicode="&#xbd;" horiz-adv-x="1526" d="M132 0L1182 1454H1398L348 0H132ZM288 618L364 1228L246 1174L190 1302L494 1454H590L486 618H288ZM844 0L854 90Q918 182 989 256T1123 393T1228 511T1278 622Q1283 666 1252 690T1162 714Q1128 714 1094 706T1024
684L984 802Q1041 831 1102 841T1212 852Q1290 852 1348 827T1436 754T1458 636Q1449 564 1411 504T1318 389T1206 281T1102 168L1078 144L1114 148H1392L1374 0H844Z" />
<glyph unicode="&#xbe;" horiz-adv-x="1432" d="M204 0L1254 1454H1470L420 0H204ZM328 602Q267 602 212 621T130 658L188 780Q223 765 263 754T344 742Q412 742 456 778T508 866Q516 929 472 963T326 998V1110L392 1136Q449 1159 485 1187T528 1262Q531 1286
509 1308T442 1330Q408 1330 371 1323T290 1302L256 1420Q316 1449 369 1459T472 1470Q582 1470 652 1424T710 1276Q703 1213 654 1163T532 1080Q598 1064 648 1007T686 860Q676 780 626 722T498 633T328 602ZM1140 0L1214 608L968 302H1008Q1056 302 1078 256T1110
164H768L782 286L1224 846H1410L1344 302H1440L1424 164H1328L1308 0H1140Z" />
<glyph unicode="&#xbf;" horiz-adv-x="1166" d="M574 -442Q441 -442 343 -404T196 -293T158 -116Q169 -31 216 39T329 172T460 297T572 426T630 572H866Q852 463 808 383T706 240T592 127T495 24T448 -86Q441 -153 488 -193T620 -234Q677 -234 736 -223T896 -172L944
-360Q827 -409 742 -425T574 -442ZM766 728Q697 728 656 777T624 896Q632 965 685 1012T808 1060Q879 1060 920 1013T954 896Q945 827 891 778T766 728Z" />
<glyph unicode="&#xc0;" horiz-adv-x="1444" d="M60 0L760 1454H1040L1384 0H1088L860 1082L852 1156L826 1078L592 560L562 520L594 524H746Q804 524 839 491T892 410T920 318H486L342 0H60ZM1052 1530Q1017 1521 962 1524T853 1548T772 1616L670 1780H936L1052 1530Z" />
<glyph unicode="&#xc1;" horiz-adv-x="1444" d="M60 0L760 1454H1040L1384 0H1088L860 1082L852 1156L826 1078L592 560L562 520L594 524H746Q804 524 839 491T892 410T920 318H486L342 0H60ZM780 1530L984 1780H1250L1086 1616Q1040 1571 981 1550T868 1525T780 1530Z" />
<glyph unicode="&#xc2;" horiz-adv-x="1444" d="M60 0L760 1454H1040L1384 0H1088L860 1082L852 1156L826 1078L592 560L562 520L594 524H746Q804 524 839 491T892 410T920 318H486L342 0H60ZM762 1512L608 1548L846 1780H1052L1238 1548L1070 1512L928 1624L762 1512Z" />
<glyph unicode="&#xc3;" horiz-adv-x="1444" d="M60 0L760 1454H1040L1384 0H1088L860 1082L852 1156L826 1078L592 560L562 520L594 524H746Q804 524 839 491T892 410T920 318H486L342 0H60ZM742 1554L594 1566Q611 1679 680 1740T822 1802Q873 1802 908 1781T970
1736Q990 1720 1007 1708T1044 1696Q1070 1696 1089 1721T1118 1786L1262 1774Q1248 1690 1211 1638T1128 1562T1044 1538Q986 1538 952 1559T894 1604Q875 1624 860 1634T824 1644Q803 1644 779 1625T742 1554Z" />
<glyph unicode="&#xc4;" horiz-adv-x="1444" d="M60 0L760 1454H1040L1384 0H1088L860 1082L852 1156L826 1078L592 560L562 520L594 524H746Q804 524 839 491T892 410T920 318H486L342 0H60ZM716 1554Q665 1554 632 1591T606 1680Q612 1733 654 1769T748 1806Q801
1806 833 1770T860 1680Q853 1628 811 1591T716 1554ZM1106 1554Q1055 1554 1022 1591T996 1680Q1002 1733 1044 1769T1138 1806Q1191 1806 1223 1770T1250 1680Q1243 1628 1201 1591T1106 1554Z" />
<glyph unicode="&#xc5;" horiz-adv-x="1444" d="M60 0L760 1454H1040L1384 0H1088L860 1082L852 1156L826 1078L592 560L562 520L594 524H746Q804 524 839 491T892 410T920 318H486L342 0H60ZM894 1408Q800 1408 744 1461T698 1594Q709 1678 779 1734T944 1790Q1040
1790 1093 1737T1136 1596Q1126 1514 1055 1461T894 1408ZM908 1520Q944 1520 966 1542T992 1598Q997 1633 981 1655T928 1678Q895 1678 874 1655T848 1596Q844 1568 859 1544T908 1520Z" />
<glyph unicode="&#xc6;" horiz-adv-x="1950" d="M0 0L922 1454H1866L1840 1248H1244L1272 206H1854L1830 0H1012L980 1104L984 1178L948 1108L616 560L580 520L622 524H756Q814 524 849 491T902 410T930 318H474L282 0H0ZM1332 662Q1353 711 1386 757T1468 834T1586
864H1814L1788 662H1332Z" />
<glyph unicode="&#xc7;" horiz-adv-x="1204" d="M866 -24Q619 -24 459 76T228 346T184 728Q204 884 273 1020T456 1260T719 1421T1050 1480Q1134 1480 1219 1464T1394 1412L1300 1228Q1215 1254 1155 1264T1026 1274Q907 1274 813 1228T651 1105T542 930T488 728Q475
625 492 527T558 352T690 228T892 182Q961 182 1030 199T1178 250L1230 68Q1136 22 1043 -1T866 -24ZM650 -426Q616 -426 578 -417T494 -386L544 -276Q579 -289 607 -294T666 -300Q701 -300 725 -287T752 -252Q755 -222 719 -206T612 -182L680 -6L818 6L784 -86Q843
-99 889 -139T926 -246Q919 -306 876 -346T772 -406T650 -426Z" />
<glyph unicode="&#xc8;" horiz-adv-x="1176" d="M166 0L344 1454H1216L1190 1248H604L476 206H1094L1070 0H166ZM608 662Q627 706 658 753T732 832T834 864H1076L1050 662H608ZM932 1530Q897 1521 842 1524T733 1548T652 1616L550 1780H816L932 1530Z" />
<glyph unicode="&#xc9;" horiz-adv-x="1176" d="M166 0L344 1454H1216L1190 1248H604L476 206H1094L1070 0H166ZM608 662Q627 706 658 753T732 832T834 864H1076L1050 662H608ZM660 1530L864 1780H1130L966 1616Q920 1571 861 1550T748 1525T660 1530Z" />
<glyph unicode="&#xca;" horiz-adv-x="1176" d="M166 0L344 1454H1216L1190 1248H604L476 206H1094L1070 0H166ZM608 662Q627 706 658 753T732 832T834 864H1076L1050 662H608ZM642 1512L488 1548L726 1780H932L1118 1548L950 1512L808 1624L642 1512Z" />
<glyph unicode="&#xcb;" horiz-adv-x="1176" d="M166 0L344 1454H1216L1190 1248H604L476 206H1094L1070 0H166ZM608 662Q627 706 658 753T732 832T834 864H1076L1050 662H608ZM596 1554Q545 1554 512 1591T486 1680Q492 1733 534 1769T628 1806Q681 1806 713
1770T740 1680Q733 1628 691 1591T596 1554ZM986 1554Q935 1554 902 1591T876 1680Q882 1733 924 1769T1018 1806Q1071 1806 1103 1770T1130 1680Q1123 1628 1081 1591T986 1554Z" />
<glyph unicode="&#xcc;" horiz-adv-x="612" d="M166 0L344 1454H622L444 0H166ZM636 1530Q601 1521 546 1524T437 1548T356 1616L254 1780H520L636 1530Z" />
<glyph unicode="&#xcd;" horiz-adv-x="612" d="M166 0L344 1454H622L444 0H166ZM364 1530L568 1780H834L670 1616Q624 1571 565 1550T452 1525T364 1530Z" />
<glyph unicode="&#xce;" horiz-adv-x="612" d="M166 0L344 1454H622L444 0H166ZM602 1512L448 1548L686 1780H892L1078 1548L910 1512L768 1624L602 1512Z" />
<glyph unicode="&#xcf;" horiz-adv-x="612" d="M166 0L344 1454H622L444 0H166ZM300 1554Q249 1554 216 1591T190 1680Q196 1733 238 1769T332 1806Q385 1806 417 1770T444 1680Q437 1628 395 1591T300 1554ZM690 1554Q639 1554 606 1591T580 1680Q586 1733 628
1769T722 1806Q775 1806 807 1770T834 1680Q827 1628 785 1591T690 1554Z" />
<glyph unicode="&#xd0;" horiz-adv-x="1494" d="M752 -24Q697 -24 653 -18T524 10Q544 45 575 85T650 153T748 182Q751 182 753 182T758 182Q871 184 957 232T1105 358T1203 533T1252 730Q1272 887 1232 1010T1081 1203T776 1274Q737 1274 693 1270T602 1258L448
0H166L340 1428Q478 1457 595 1468T800 1480Q1066 1480 1244 1392T1503 1135T1554 730Q1535 572 1465 435T1287 195T1042 34T752 -24ZM1208 802L1186 620H340L362 802H1208Z" />
<glyph unicode="&#xd1;" horiz-adv-x="1556" d="M188 0L366 1454H642L1136 476L1154 396L1160 476L1280 1454H1532L1354 0H1102L584 1018L560 1090L556 1022L432 0H188ZM804 1554L656 1566Q673 1679 742 1740T884 1802Q935 1802 970 1781T1032 1736Q1052 1720
1069 1708T1106 1696Q1132 1696 1151 1721T1180 1786L1324 1774Q1310 1690 1273 1638T1190 1562T1106 1538Q1048 1538 1014 1559T956 1604Q937 1624 922 1634T886 1644Q865 1644 841 1625T804 1554Z" />
<glyph unicode="&#xd2;" horiz-adv-x="1578" d="M806 -28Q575 -28 426 71T212 342T174 728Q194 885 259 1022T431 1263T678 1425T992 1484Q1188 1484 1317 1417T1518 1239T1613 995T1620 728Q1602 581 1538 446T1369 203T1122 34T806 -28ZM830 178Q940 178 1044
242T1222 430T1318 728Q1337 885 1303 1009T1183 1206T966 1278Q828 1278 725 1202T559 1001T478 728Q465 625 480 527T538 350T654 225T830 178ZM1140 1530Q1105 1521 1050 1524T941 1548T860 1616L758 1780H1024L1140 1530Z" />
<glyph unicode="&#xd3;" horiz-adv-x="1578" d="M806 -28Q575 -28 426 71T212 342T174 728Q194 885 259 1022T431 1263T678 1425T992 1484Q1188 1484 1317 1417T1518 1239T1613 995T1620 728Q1602 581 1538 446T1369 203T1122 34T806 -28ZM830 178Q940 178 1044
242T1222 430T1318 728Q1337 885 1303 1009T1183 1206T966 1278Q828 1278 725 1202T559 1001T478 728Q465 625 480 527T538 350T654 225T830 178ZM868 1530L1072 1780H1338L1174 1616Q1128 1571 1069 1550T956 1525T868 1530Z" />
<glyph unicode="&#xd4;" horiz-adv-x="1578" d="M806 -28Q575 -28 426 71T212 342T174 728Q194 885 259 1022T431 1263T678 1425T992 1484Q1188 1484 1317 1417T1518 1239T1613 995T1620 728Q1602 581 1538 446T1369 203T1122 34T806 -28ZM830 178Q940 178 1044
242T1222 430T1318 728Q1337 885 1303 1009T1183 1206T966 1278Q828 1278 725 1202T559 1001T478 728Q465 625 480 527T538 350T654 225T830 178ZM850 1512L696 1548L934 1780H1140L1326 1548L1158 1512L1016 1624L850 1512Z" />
<glyph unicode="&#xd5;" horiz-adv-x="1578" d="M806 -28Q575 -28 426 71T212 342T174 728Q194 885 259 1022T431 1263T678 1425T992 1484Q1188 1484 1317 1417T1518 1239T1613 995T1620 728Q1602 581 1538 446T1369 203T1122 34T806 -28ZM830 178Q940 178 1044
242T1222 430T1318 728Q1337 885 1303 1009T1183 1206T966 1278Q828 1278 725 1202T559 1001T478 728Q465 625 480 527T538 350T654 225T830 178ZM830 1554L682 1566Q699 1679 768 1740T910 1802Q961 1802 996 1781T1058 1736Q1078 1720 1095 1708T1132 1696Q1158
1696 1177 1721T1206 1786L1350 1774Q1336 1690 1299 1638T1216 1562T1132 1538Q1074 1538 1040 1559T982 1604Q963 1624 948 1634T912 1644Q891 1644 867 1625T830 1554Z" />
<glyph unicode="&#xd6;" horiz-adv-x="1578" d="M806 -28Q575 -28 426 71T212 342T174 728Q194 885 259 1022T431 1263T678 1425T992 1484Q1188 1484 1317 1417T1518 1239T1613 995T1620 728Q1602 581 1538 446T1369 203T1122 34T806 -28ZM830 178Q940 178 1044
242T1222 430T1318 728Q1337 885 1303 1009T1183 1206T966 1278Q828 1278 725 1202T559 1001T478 728Q465 625 480 527T538 350T654 225T830 178ZM804 1554Q753 1554 720 1591T694 1680Q700 1733 742 1769T836 1806Q889 1806 921 1770T948 1680Q941 1628 899 1591T804
1554ZM1194 1554Q1143 1554 1110 1591T1084 1680Q1090 1733 1132 1769T1226 1806Q1279 1806 1311 1770T1338 1680Q1331 1628 1289 1591T1194 1554Z" />
<glyph unicode="&#xd7;" horiz-adv-x="1136" d="M242 128L112 278L484 612L192 942L364 1092L654 762L1024 1092L1154 942L786 612L1078 278L908 128L618 460L242 128Z" />
<glyph unicode="&#xd8;" horiz-adv-x="1578" d="M806 -28Q575 -28 426 71T212 342T174 728Q194 885 259 1022T431 1263T678 1425T992 1484Q1188 1484 1317 1417T1518 1239T1613 995T1620 728Q1602 581 1538 446T1369 203T1122 34T806 -28ZM830 178Q940 178 1044
242T1222 430T1318 728Q1337 885 1303 1009T1183 1206T966 1278Q828 1278 725 1202T559 1001T478 728Q465 625 480 527T538 350T654 225T830 178ZM694 286Q669 326 649 373T628 473T666 586L1376 1576H1614L694 286ZM182 -122L374 148L538 46L420 -122H182Z" />
<glyph unicode="&#xd9;" horiz-adv-x="1454" d="M744 -28Q565 -28 443 39T265 237T234 556L344 1454H626L512 526Q491 363 565 271T768 178Q896 178 993 270T1112 526L1226 1454H1506L1396 556Q1374 379 1288 248T1062 44T744 -28ZM1078 1530Q1043 1521 988 1524T879
1548T798 1616L696 1780H962L1078 1530Z" />
<glyph unicode="&#xda;" horiz-adv-x="1454" d="M744 -28Q565 -28 443 39T265 237T234 556L344 1454H626L512 526Q491 363 565 271T768 178Q896 178 993 270T1112 526L1226 1454H1506L1396 556Q1374 379 1288 248T1062 44T744 -28ZM806 1530L1010 1780H1276L1112
1616Q1066 1571 1007 1550T894 1525T806 1530Z" />
<glyph unicode="&#xdb;" horiz-adv-x="1454" d="M744 -28Q565 -28 443 39T265 237T234 556L344 1454H626L512 526Q491 363 565 271T768 178Q896 178 993 270T1112 526L1226 1454H1506L1396 556Q1374 379 1288 248T1062 44T744 -28ZM788 1512L634 1548L872 1780H1078L1264
1548L1096 1512L954 1624L788 1512Z" />
<glyph unicode="&#xdc;" horiz-adv-x="1454" d="M744 -28Q565 -28 443 39T265 237T234 556L344 1454H626L512 526Q491 363 565 271T768 178Q896 178 993 270T1112 526L1226 1454H1506L1396 556Q1374 379 1288 248T1062 44T744 -28ZM742 1554Q691 1554 658 1591T632
1680Q638 1733 680 1769T774 1806Q827 1806 859 1770T886 1680Q879 1628 837 1591T742 1554ZM1132 1554Q1081 1554 1048 1591T1022 1680Q1028 1733 1070 1769T1164 1806Q1217 1806 1249 1770T1276 1680Q1269 1628 1227 1591T1132 1554Z" />
<glyph unicode="&#xdd;" horiz-adv-x="1398" d="M552 0L630 644L228 1454H540L910 678L828 0H552ZM980 754Q958 788 936 848T912 979T952 1114L1182 1454H1490L980 754ZM738 1530L942 1780H1208L1044 1616Q998 1571 939 1550T826 1525T738 1530Z" />
<glyph unicode="&#xde;" horiz-adv-x="1218" d="M142 0L320 1454H592L558 1188Q602 1191 642 1192T728 1194Q890 1194 1012 1139T1197 980T1242 728Q1225 590 1147 492T955 337T722 270Q677 266 627 269T522 288Q542 326 570 366T634 436T716 470Q772 475 822
510T906 601T948 728Q957 802 930 861T844 954T702 988Q648 988 618 985T532 976L414 0H142Z" />
<glyph unicode="&#xdf;" horiz-adv-x="1134" d="M784 -24Q724 -24 659 -11T504 50L596 230Q655 203 701 194T778 184Q832 184 871 213T916 288Q923 339 893 377T815 451T721 533T647 643T632 802Q643 889 716 970T898 1092Q906 1115 909 1134T916 1176Q924 1241
883 1283T764 1326Q706 1326 658 1301T578 1227T538 1110L402 0L134 -2L268 1088Q287 1237 361 1334T543 1478T774 1526Q898 1526 983 1483T1107 1360T1134 1176Q1127 1124 1101 1068T1030 952Q960 925 921 889T876 802Q869 750 899 712T977 639T1071 558T1145
447T1160 282Q1148 184 1091 116T951 12T784 -24Z" />
<glyph unicode="&#xe0;" horiz-adv-x="1226" d="M498 -18Q403 -23 333 19T218 136T156 301T150 480Q169 639 252 770T471 980T786 1058Q842 1058 898 1054T1025 1036T1192 998L1100 252Q1093 197 1092 134T1100 0H886Q862 14 839 75T824 210L900 836Q861 845 827
848T772 852Q636 852 552 749T448 480Q440 416 445 348T480 235T578 194Q637 199 669 160T732 64Q672 31 611 8T498 -18ZM918 1204Q883 1195 829 1197T722 1221T636 1290L502 1480H780L918 1204Z" />
<glyph unicode="&#xe1;" horiz-adv-x="1226" d="M498 -18Q403 -23 333 19T218 136T156 301T150 480Q169 639 252 770T471 980T786 1058Q842 1058 898 1054T1025 1036T1192 998L1100 252Q1093 197 1092 134T1100 0H886Q862 14 839 75T824 210L900 836Q861 845 827
848T772 852Q636 852 552 749T448 480Q440 416 445 348T480 235T578 194Q637 199 669 160T732 64Q672 31 611 8T498 -18ZM664 1204L870 1480H1148L968 1290Q923 1242 865 1221T752 1198T664 1204Z" />
<glyph unicode="&#xe2;" horiz-adv-x="1226" d="M498 -18Q403 -23 333 19T218 136T156 301T150 480Q169 639 252 770T471 980T786 1058Q842 1058 898 1054T1025 1036T1192 998L1100 252Q1093 197 1092 134T1100 0H886Q862 14 839 75T824 210L900 836Q861 845 827
848T772 852Q636 852 552 749T448 480Q440 416 445 348T480 235T578 194Q637 199 669 160T732 64Q672 31 611 8T498 -18ZM646 1170L492 1206L736 1486H942L1122 1206L954 1170L816 1316L646 1170Z" />
<glyph unicode="&#xe3;" horiz-adv-x="1226" d="M498 -18Q403 -23 333 19T218 136T156 301T150 480Q169 639 252 770T471 980T786 1058Q842 1058 898 1054T1025 1036T1192 998L1100 252Q1093 197 1092 134T1100 0H886Q862 14 839 75T824 210L900 836Q861 845 827
848T772 852Q636 852 552 749T448 480Q440 416 445 348T480 235T578 194Q637 199 669 160T732 64Q672 31 611 8T498 -18ZM622 1236L474 1248Q491 1361 560 1422T702 1484Q753 1484 788 1463T850 1418Q870 1402 887 1390T924 1378Q950 1378 969 1403T998 1468L1142
1456Q1128 1372 1091 1320T1008 1244T924 1220Q866 1220 832 1241T774 1286Q755 1306 740 1316T704 1326Q683 1326 659 1307T622 1236Z" />
<glyph unicode="&#xe4;" horiz-adv-x="1226" d="M498 -18Q403 -23 333 19T218 136T156 301T150 480Q169 639 252 770T471 980T786 1058Q842 1058 898 1054T1025 1036T1192 998L1100 252Q1093 197 1092 134T1100 0H886Q862 14 839 75T824 210L900 836Q861 845 827
848T772 852Q636 852 552 749T448 480Q440 416 445 348T480 235T578 194Q637 199 669 160T732 64Q672 31 611 8T498 -18ZM596 1214Q545 1214 512 1251T486 1340Q492 1393 534 1429T628 1466Q681 1466 713 1430T740 1340Q733 1288 691 1251T596 1214ZM986 1214Q935
1214 902 1251T876 1340Q882 1393 924 1429T1018 1466Q1071 1466 1103 1430T1130 1340Q1123 1288 1081 1251T986 1214Z" />
<glyph unicode="&#xe5;" horiz-adv-x="1226" d="M498 -18Q403 -23 333 19T218 136T156 301T150 480Q169 639 252 770T471 980T786 1058Q842 1058 898 1054T1025 1036T1192 998L1100 252Q1093 197 1092 134T1100 0H886Q862 14 839 75T824 210L900 836Q861 845 827
848T772 852Q636 852 552 749T448 480Q440 416 445 348T480 235T578 194Q637 199 669 160T732 64Q672 31 611 8T498 -18ZM780 1120Q686 1120 630 1173T584 1306Q595 1390 665 1446T830 1502Q926 1502 979 1449T1022 1308Q1012 1226 941 1173T780 1120ZM794 1232Q830
1232 852 1254T878 1310Q883 1345 867 1367T814 1390Q781 1390 760 1367T734 1308Q730 1280 745 1256T794 1232Z" />
<glyph unicode="&#xe6;" horiz-adv-x="1700" d="M410 -26Q250 -26 160 54T86 276Q97 359 155 433T339 558T678 626Q665 579 644 540T593 474T520 440Q469 432 435 412T381 364T358 302Q352 250 385 215T470 180Q575 180 647 278T738 530L750 622Q762 726 713 788T558
850Q509 850 451 840T318 804L272 980Q365 1021 461 1038T628 1056Q723 1056 808 1002T936 840Q1005 941 1115 1000T1328 1060Q1439 1060 1524 1017T1656 894T1703 707T1642 470H1082Q1112 539 1159 586T1258 634H1436Q1452 695 1440 748T1389 833T1290 866Q1235
866 1177 833T1075 729T1016 544Q1002 429 1027 348T1111 223T1254 180Q1323 180 1393 197T1554 254L1602 68Q1488 17 1390 -4T1198 -26Q1104 -26 1029 14T905 116T842 242Q789 147 714 88T558 2T410 -26Z" />
<glyph unicode="&#xe7;" horiz-adv-x="860" d="M588 -26Q449 -26 334 30T157 206T118 518Q141 699 232 819T453 1000T722 1060Q776 1060 838 1050T958 1016L866 830Q820 842 775 848T696 854Q588 854 511 764T414 518Q401 413 422 338T492 221T614 180Q656 180
704 191T820 228L866 44Q784 8 713 -9T588 -26ZM422 -426Q388 -426 350 -417T266 -386L316 -276Q351 -289 379 -294T438 -300Q473 -300 497 -287T524 -252Q527 -222 491 -206T384 -182L452 -6L590 6L556 -86Q615 -99 661 -139T698 -246Q691 -306 648 -346T544 -406T422
-426Z" />
<glyph unicode="&#xe8;" horiz-adv-x="1128" d="M614 -26Q477 -26 383 22T235 152T161 333T154 534Q175 699 260 817T472 997T744 1060Q855 1060 940 1017T1072 894T1119 707T1058 470H498Q528 539 575 586T674 634H852Q868 695 856 748T805 833T706 866Q651 866
593 833T491 729T432 544Q418 429 443 348T527 223T670 180Q739 180 809 197T970 254L1018 68Q904 17 806 -4T614 -26ZM866 1204Q831 1195 777 1197T670 1221T584 1290L450 1480H728L866 1204Z" />
<glyph unicode="&#xe9;" horiz-adv-x="1128" d="M614 -26Q477 -26 383 22T235 152T161 333T154 534Q175 699 260 817T472 997T744 1060Q855 1060 940 1017T1072 894T1119 707T1058 470H498Q528 539 575 586T674 634H852Q868 695 856 748T805 833T706 866Q651 866
593 833T491 729T432 544Q418 429 443 348T527 223T670 180Q739 180 809 197T970 254L1018 68Q904 17 806 -4T614 -26ZM612 1204L818 1480H1096L916 1290Q871 1242 813 1221T700 1198T612 1204Z" />
<glyph unicode="&#xea;" horiz-adv-x="1128" d="M614 -26Q477 -26 383 22T235 152T161 333T154 534Q175 699 260 817T472 997T744 1060Q855 1060 940 1017T1072 894T1119 707T1058 470H498Q528 539 575 586T674 634H852Q868 695 856 748T805 833T706 866Q651 866
593 833T491 729T432 544Q418 429 443 348T527 223T670 180Q739 180 809 197T970 254L1018 68Q904 17 806 -4T614 -26ZM594 1170L440 1206L684 1486H890L1070 1206L902 1170L764 1316L594 1170Z" />
<glyph unicode="&#xeb;" horiz-adv-x="1128" d="M614 -26Q477 -26 383 22T235 152T161 333T154 534Q175 699 260 817T472 997T744 1060Q855 1060 940 1017T1072 894T1119 707T1058 470H498Q528 539 575 586T674 634H852Q868 695 856 748T805 833T706 866Q651 866
593 833T491 729T432 544Q418 429 443 348T527 223T670 180Q739 180 809 197T970 254L1018 68Q904 17 806 -4T614 -26ZM544 1214Q493 1214 460 1251T434 1340Q440 1393 482 1429T576 1466Q629 1466 661 1430T688 1340Q681 1288 639 1251T544 1214ZM934 1214Q883
1214 850 1251T824 1340Q830 1393 872 1429T966 1466Q1019 1466 1051 1430T1078 1340Q1071 1288 1029 1251T934 1214Z" />
<glyph unicode="&#xec;" horiz-adv-x="560" d="M140 0L266 1034H546L420 0H140ZM810 1204Q775 1195 721 1197T614 1221T528 1290L394 1480H672L810 1204Z" />
<glyph unicode="&#xed;" horiz-adv-x="560" d="M140 0L266 1034H546L420 0H140ZM300 1204L506 1480H784L604 1290Q559 1242 501 1221T388 1198T300 1204Z" />
<glyph unicode="&#xee;" horiz-adv-x="560" d="M140 0L266 1034H546L420 0H140ZM538 1170L384 1206L628 1486H834L1014 1206L846 1170L708 1316L538 1170Z" />
<glyph unicode="&#xef;" horiz-adv-x="560" d="M140 0L266 1034H546L420 0H140ZM488 1214Q437 1214 404 1251T378 1340Q384 1393 426 1429T520 1466Q573 1466 605 1430T632 1340Q625 1288 583 1251T488 1214ZM878 1214Q827 1214 794 1251T768 1340Q774 1393 816
1429T910 1466Q963 1466 995 1430T1022 1340Q1015 1288 973 1251T878 1214Z" />
<glyph unicode="&#xf0;" horiz-adv-x="1114" d="M560 -26Q410 -26 297 40T127 229T90 518Q109 671 196 794T413 988T694 1060Q729 1060 767 1053T838 1030Q807 1077 767 1120T680 1200L438 1092L398 1208L564 1284Q525 1308 486 1330T408 1372L512 1524Q581 1494
646 1458T770 1376L1002 1482L1046 1364L878 1288Q953 1217 1012 1133T1110 951T1163 746T1162 518Q1143 364 1056 241T839 46T560 -26ZM584 178Q662 178 721 224T816 347T864 518Q876 611 859 688T794 810T668 856Q590 856 531 811T435 688T386 518Q375 424 393
347T458 224T584 178Z" />
<glyph unicode="&#xf1;" horiz-adv-x="1156" d="M752 0L842 734Q848 784 832 816T764 848Q745 848 726 843T678 836Q630 833 603 876T552 968Q657 1021 735 1040T882 1060Q951 1060 1010 1025T1101 919T1120 738L1030 0H752ZM106 0L200 772Q206 828 206 891T198
1024L432 1034Q474 980 483 927T484 814L386 0H106ZM544 1236L396 1248Q413 1361 482 1422T624 1484Q675 1484 710 1463T772 1418Q792 1402 809 1390T846 1378Q872 1378 891 1403T920 1468L1064 1456Q1050 1372 1013 1320T930 1244T846 1220Q788 1220 754 1241T696
1286Q677 1306 662 1316T626 1326Q605 1326 581 1307T544 1236Z" />
<glyph unicode="&#xf2;" horiz-adv-x="1220" d="M600 -26Q459 -26 345 37T170 222T130 518Q147 659 210 761T363 930T550 1028T734 1060Q893 1060 1005 991T1169 800T1202 518Q1186 391 1128 290T985 119T799 11T600 -26ZM624 178Q702 178 761 224T856 347T904
518Q916 611 899 688T834 810T708 856Q630 856 571 811T475 688T426 518Q408 368 461 273T624 178ZM878 1204Q843 1195 789 1197T682 1221T596 1290L462 1480H740L878 1204Z" />
<glyph unicode="&#xf3;" horiz-adv-x="1220" d="M600 -26Q459 -26 345 37T170 222T130 518Q147 659 210 761T363 930T550 1028T734 1060Q893 1060 1005 991T1169 800T1202 518Q1186 391 1128 290T985 119T799 11T600 -26ZM624 178Q702 178 761 224T856 347T904
518Q916 611 899 688T834 810T708 856Q630 856 571 811T475 688T426 518Q408 368 461 273T624 178ZM624 1204L830 1480H1108L928 1290Q883 1242 825 1221T712 1198T624 1204Z" />
<glyph unicode="&#xf4;" horiz-adv-x="1220" d="M600 -26Q459 -26 345 37T170 222T130 518Q147 659 210 761T363 930T550 1028T734 1060Q893 1060 1005 991T1169 800T1202 518Q1186 391 1128 290T985 119T799 11T600 -26ZM624 178Q702 178 761 224T856 347T904
518Q916 611 899 688T834 810T708 856Q630 856 571 811T475 688T426 518Q408 368 461 273T624 178ZM606 1170L452 1206L696 1486H902L1082 1206L914 1170L776 1316L606 1170Z" />
<glyph unicode="&#xf5;" horiz-adv-x="1220" d="M600 -26Q459 -26 345 37T170 222T130 518Q147 659 210 761T363 930T550 1028T734 1060Q893 1060 1005 991T1169 800T1202 518Q1186 391 1128 290T985 119T799 11T600 -26ZM624 178Q702 178 761 224T856 347T904
518Q916 611 899 688T834 810T708 856Q630 856 571 811T475 688T426 518Q408 368 461 273T624 178ZM582 1236L434 1248Q451 1361 520 1422T662 1484Q713 1484 748 1463T810 1418Q830 1402 847 1390T884 1378Q910 1378 929 1403T958 1468L1102 1456Q1088 1372 1051
1320T968 1244T884 1220Q826 1220 792 1241T734 1286Q715 1306 700 1316T664 1326Q643 1326 619 1307T582 1236Z" />
<glyph unicode="&#xf6;" horiz-adv-x="1220" d="M600 -26Q459 -26 345 37T170 222T130 518Q147 659 210 761T363 930T550 1028T734 1060Q893 1060 1005 991T1169 800T1202 518Q1186 391 1128 290T985 119T799 11T600 -26ZM624 178Q702 178 761 224T856 347T904
518Q916 611 899 688T834 810T708 856Q630 856 571 811T475 688T426 518Q408 368 461 273T624 178ZM556 1214Q505 1214 472 1251T446 1340Q452 1393 494 1429T588 1466Q641 1466 673 1430T700 1340Q693 1288 651 1251T556 1214ZM946 1214Q895 1214 862 1251T836
1340Q842 1393 884 1429T978 1466Q1031 1466 1063 1430T1090 1340Q1083 1288 1041 1251T946 1214Z" />
<glyph unicode="&#xf7;" horiz-adv-x="1136" d="M156 514L180 706H1116L1092 514H156ZM572 102Q518 102 488 136T464 224Q472 280 510 315T602 350Q658 350 689 315T712 224Q706 170 667 136T572 102ZM666 868Q614 868 584 902T560 988Q568 1042 606 1077T696
1112Q750 1112 781 1077T804 988Q798 936 759 902T666 868Z" />
<glyph unicode="&#xf8;" horiz-adv-x="1220" d="M600 -26Q459 -26 345 37T170 222T130 518Q147 659 210 761T363 930T550 1028T734 1060Q893 1060 1005 991T1169 800T1202 518Q1186 391 1128 290T985 119T799 11T600 -26ZM624 178Q702 178 761 224T856 347T904
518Q916 611 899 688T834 810T708 856Q630 856 571 811T475 688T426 518Q408 368 461 273T624 178ZM584 266Q554 305 536 367T560 500L1034 1156H1222L584 266ZM108 -122L282 122L418 42L302 -122H108Z" />
<glyph unicode="&#xf9;" horiz-adv-x="1226" d="M406 -26Q337 -26 278 9T186 115T168 296L258 1034H536L446 300Q440 251 456 219T524 186Q544 186 563 191T610 198Q657 201 684 158T736 66Q630 14 553 -6T406 -26ZM854 0Q814 54 805 107T802 220L902 1034H1182L1088
262Q1081 207 1081 144T1090 10L854 0ZM878 1204Q843 1195 789 1197T682 1221T596 1290L462 1480H740L878 1204Z" />
<glyph unicode="&#xfa;" horiz-adv-x="1226" d="M406 -26Q337 -26 278 9T186 115T168 296L258 1034H536L446 300Q440 251 456 219T524 186Q544 186 563 191T610 198Q657 201 684 158T736 66Q630 14 553 -6T406 -26ZM854 0Q814 54 805 107T802 220L902 1034H1182L1088
262Q1081 207 1081 144T1090 10L854 0ZM624 1204L830 1480H1108L928 1290Q883 1242 825 1221T712 1198T624 1204Z" />
<glyph unicode="&#xfb;" horiz-adv-x="1226" d="M406 -26Q337 -26 278 9T186 115T168 296L258 1034H536L446 300Q440 251 456 219T524 186Q544 186 563 191T610 198Q657 201 684 158T736 66Q630 14 553 -6T406 -26ZM854 0Q814 54 805 107T802 220L902 1034H1182L1088
262Q1081 207 1081 144T1090 10L854 0ZM606 1170L452 1206L696 1486H902L1082 1206L914 1170L776 1316L606 1170Z" />
<glyph unicode="&#xfc;" horiz-adv-x="1226" d="M406 -26Q337 -26 278 9T186 115T168 296L258 1034H536L446 300Q440 251 456 219T524 186Q544 186 563 191T610 198Q657 201 684 158T736 66Q630 14 553 -6T406 -26ZM854 0Q814 54 805 107T802 220L902 1034H1182L1088
262Q1081 207 1081 144T1090 10L854 0ZM556 1214Q505 1214 472 1251T446 1340Q452 1393 494 1429T588 1466Q641 1466 673 1430T700 1340Q693 1288 651 1251T556 1214ZM946 1214Q895 1214 862 1251T836 1340Q842 1393 884 1429T978 1466Q1031 1466 1063 1430T1090
1340Q1083 1288 1041 1251T946 1214Z" />
<glyph unicode="&#xfd;" horiz-adv-x="1200" d="M192 -496Q152 -494 107 -487T14 -458L100 -278Q135 -287 162 -289T218 -292Q288 -292 337 -250T431 -127T530 74L944 1034L1222 1020L740 22Q674 -107 618 -204T503 -366T370 -463T192 -496ZM404 26L156 1034H456L538
562Q554 475 537 372T482 176T404 26ZM594 1204L800 1480H1078L898 1290Q853 1242 795 1221T682 1198T594 1204Z" />
<glyph unicode="&#xfe;" horiz-adv-x="1196" d="M86 -482L332 1516H596L434 196Q479 184 515 180T592 176Q709 176 790 282T892 554Q899 618 891 688T850 805T750 850Q683 847 655 895T604 1004Q664 1028 725 1040T838 1052Q933 1052 1004 1009T1120 893T1183
733T1190 554Q1169 391 1086 259T870 48T568 -30Q526 -30 486 -27T408 -16L350 -482H86Z" />
<glyph unicode="&#xff;" horiz-adv-x="1200" d="M192 -496Q152 -494 107 -487T14 -458L100 -278Q135 -287 162 -289T218 -292Q288 -292 337 -250T431 -127T530 74L944 1034L1222 1020L740 22Q674 -107 618 -204T503 -366T370 -463T192 -496ZM404 26L156 1034H456L538
562Q554 475 537 372T482 176T404 26ZM526 1214Q475 1214 442 1251T416 1340Q422 1393 464 1429T558 1466Q611 1466 643 1430T670 1340Q663 1288 621 1251T526 1214ZM916 1214Q865 1214 832 1251T806 1340Q812 1393 854 1429T948 1466Q1001 1466 1033 1430T1060
1340Q1053 1288 1011 1251T916 1214Z" />
<glyph unicode="&#x2013;" horiz-adv-x="1080" d="M144 452L168 648H1016L992 452H144Z" />
<glyph unicode="&#x2014;" horiz-adv-x="1698" d="M144 452L168 648H1646L1622 452H144Z" />
<glyph unicode="&#x2018;" horiz-adv-x="410" d="M476 1454L420 1002H176L196 1158Q204 1227 225 1287T281 1389T364 1450T476 1454Z" />
<glyph unicode="&#x2019;" horiz-adv-x="382" d="M176 1002L232 1454H476L456 1298Q448 1229 427 1169T371 1067T288 1006T176 1002Z" />
<glyph unicode="&#x201a;" horiz-adv-x="394" d="M80 -256L136 196H380L360 40Q352 -29 331 -89T275 -191T192 -252T80 -256Z" />
<glyph unicode="&#x201c;" horiz-adv-x="792" d="M488 1454L432 1002H188L208 1158Q216 1227 237 1287T293 1389T376 1450T488 1454ZM896 1454L840 1002H596L616 1158Q624 1227 645 1287T701 1389T784 1450T896 1454Z" />
<glyph unicode="&#x201d;" horiz-adv-x="832" d="M188 1002L244 1454H488L468 1298Q460 1229 439 1169T383 1067T300 1006T188 1002ZM596 1002L652 1454H896L876 1298Q868 1229 847 1169T791 1067T708 1006T596 1002Z" />
<glyph unicode="&#x201e;" horiz-adv-x="788" d="M290 -256L346 196H590L570 40Q562 -29 541 -89T485 -191T402 -252T290 -256ZM442 -256L498 196H742L722 40Q714 -29 693 -89T637 -191T554 -252T442 -256Z" />
<glyph unicode="&#x2022;" horiz-adv-x="1000" d="M568 444Q487 444 441 496T404 630Q415 711 474 765T614 820Q695 820 743 766T780 630Q771 549 710 497T568 444Z" />
<glyph unicode="&#x2039;" horiz-adv-x="1226" d="M824 90L410 516L928 944L1026 836L734 516L948 196L824 90Z" />
<glyph unicode="&#x203a;" horiz-adv-x="1226" d="M498 90L402 196L692 516L480 836L602 944L1016 516L498 90Z" />
</font>
</defs>
</svg>
