<?xml version="1.0" standalone="no"?>
<!DOCTYPE svg PUBLIC "-//W3C//DTD SVG 1.1//EN" "http://www.w3.org/Graphics/SVG/1.1/DTD/svg11.dtd">
<svg xmlns="http://www.w3.org/2000/svg">
<defs >
<font id="ExpletusSans" horiz-adv-x="1094" ><font-face
    font-family="Expletus Sans"
    units-per-em="2000"
    panose-1="0 0 0 0 0 0 0 0 0 0"
    ascent="2066"
    descent="-612"
    alphabetic="0" />
<glyph unicode=" " horiz-adv-x="514" />
<glyph unicode="!" horiz-adv-x="702" d="M208 370L318 1454H506L344 370H208ZM226 -30Q175 -30 146 3T122 88Q128 141 165 175T254 210Q307 210 337 176T362 88Q356 37 318 4T226 -30Z" />
<glyph unicode="&quot;" horiz-adv-x="742" d="M238 1062L286 1454H450L402 1062H238ZM586 1062L634 1454H798L750 1062H586Z" />
<glyph unicode="#" horiz-adv-x="1788" d="M326 0L420 304L428 330H400H204L220 460H468L610 916L620 948H578H398L414 1078H662L764 1404H916L814 1078H1276L1378 1404H1530L1428 1078H1646L1630 948H1388L1234 460H1452L1436 330H1194L1092 0H940L1034 304L1042
330H1016H652Q669 368 694 397T754 443T836 460H1082L1224 916L1234 948H1200H774L478 0H326Z" />
<glyph unicode="$" horiz-adv-x="1028" d="M426 -214L450 -22Q369 -17 277 4T98 72L166 202Q253 160 332 142T484 124Q570 124 637 156T746 242T794 356Q805 439 766 496T660 597T517 683T374 777T270 904T246 1088Q257 1174 309 1246T443 1365T628 1422L652 1620H796L772
1418Q828 1412 885 1399T1014 1362L942 1232Q858 1258 796 1267T676 1276Q576 1276 511 1220T436 1088Q427 1012 467 958T575 859T720 771T863 671T966 539T990 352Q980 272 931 196T796 64T596 -12L570 -214H426Z" />
<glyph unicode="%" horiz-adv-x="1628" d="M316 0L1364 1404H1504L456 0H316ZM454 618Q312 618 236 724T182 1026Q206 1220 310 1327T556 1434Q696 1434 772 1327T824 1026Q802 833 698 726T454 618ZM470 738Q541 738 588 808T654 1026Q672 1172 642 1243T540
1314Q470 1314 420 1243T352 1026Q334 879 367 809T470 738ZM1264 -26Q1123 -26 1047 80T994 382Q1018 574 1120 681T1364 788Q1505 788 1582 681T1636 382Q1612 189 1509 82T1264 -26ZM1278 92Q1350 92 1399 163T1466 382Q1484 526 1453 598T1350 670Q1281 670
1232 598T1164 382Q1146 235 1177 164T1278 92Z" />
<glyph unicode="&amp;" horiz-adv-x="1522" d="M666 -22Q531 -22 445 42T321 206T296 418Q313 555 398 657T590 832Q547 909 528 982T518 1124Q530 1223 585 1302T733 1428T948 1474Q1014 1474 1089 1458T1226 1406L1162 1280Q1113 1306 1047 1318T926 1330Q833
1330 766 1277T690 1142Q678 1051 718 979T828 808L1104 434L1122 410L1138 434Q1191 514 1226 590T1286 758H1430Q1387 626 1334 510T1206 292L1424 0H1188L676 700L664 716L644 700Q586 651 545 589T494 444Q476 300 533 211T714 122Q735 122 757 126T810 140Q876
161 930 152T1026 102Q948 45 862 12T666 -22Z" />
<glyph unicode="&apos;" horiz-adv-x="382" d="M238 1062L286 1454H450L402 1062H238Z" />
<glyph unicode="(" horiz-adv-x="806" d="M684 -352Q578 -274 517 -187T430 10T408 262T434 592Q457 779 488 921T572 1172T708 1368T916 1534L982 1434Q872 1355 805 1275T699 1100T639 882T596 592Q576 426 568 302T574 83T636 -93T774 -252L684 -352Z" />
<glyph unicode=")" horiz-adv-x="802" d="M38 -352L-26 -252Q84 -173 150 -93T255 82T315 302T358 592Q378 758 386 881T380 1100T318 1275T180 1434L270 1534Q376 1456 437 1369T523 1172T546 921T520 592Q497 405 465 263T381 11T246 -186T38 -352Z" />
<glyph unicode="*" horiz-adv-x="1060" d="M454 708L332 784L552 1048L226 1016L244 1168L564 1138L402 1398L544 1474L646 1180L818 1474L940 1398Q867 1316 823 1265T756 1186T725 1148T716 1136L1042 1168L1024 1016Q879 1031 813 1037T727 1045T704 1046L862
784L720 708L624 1004L454 708Z" />
<glyph unicode="+" horiz-adv-x="1136" d="M502 124L554 546H160L176 674H570L622 1092H768L716 674H1112L1096 546H700L648 124H502Z" />
<glyph unicode="," horiz-adv-x="394" d="M86 -196L136 196H310L290 40Q285 0 272 -46T235 -130T175 -189T86 -196Z" />
<glyph unicode="-" horiz-adv-x="750" d="M156 546L172 674H776L760 546H156Z" />
<glyph unicode="." horiz-adv-x="612" d="M300 -30Q249 -30 220 3T196 88Q202 141 239 175T328 210Q381 210 411 176T436 88Q430 37 392 4T300 -30Z" />
<glyph unicode="/" horiz-adv-x="664" d="M4 -124L684 1454H842L162 -124H4Z" />
<glyph unicode="0" horiz-adv-x="1322" d="M654 -32Q491 -32 381 56T222 308T200 698Q228 920 314 1085T533 1341T830 1432Q954 1432 1047 1381T1200 1233T1281 1001T1282 698Q1260 517 1201 380T1057 152T868 14T654 -32ZM670 112Q831 112 942 267T1086 698Q1121
974 1049 1131T816 1288Q654 1288 543 1131T396 698Q363 422 435 267T670 112Z" />
<glyph unicode="1" horiz-adv-x="638" d="M288 0L432 1174L188 1052L134 1178L578 1402H652L480 0H288Z" />
<glyph unicode="2" horiz-adv-x="1028" d="M114 0L122 76Q217 206 318 317T514 525T686 710T812 878T872 1038Q886 1151 817 1213T642 1276Q587 1276 520 1262T366 1204L334 1338Q432 1388 516 1404T682 1420Q802 1420 895 1378T1036 1256T1070 1060Q1058 964
1004 871T869 689T700 514T529 346T388 186L354 152L398 160H982L964 0H114Z" />
<glyph unicode="3" horiz-adv-x="1056" d="M398 -22Q284 -22 199 9T68 72L130 202Q168 177 244 151T414 124Q515 124 587 171T700 287T750 418Q762 518 719 574T592 653T394 676L390 784L498 826Q561 852 624 882T732 958T786 1076Q797 1168 744 1223T598 1278Q541
1278 470 1264T312 1206L278 1340Q376 1390 465 1407T636 1424Q751 1424 833 1383T956 1271T986 1108Q974 1012 910 929T744 794L692 778L736 768Q797 745 849 697T929 577T946 414Q932 299 856 200T661 39T398 -22Z" />
<glyph unicode="4" horiz-adv-x="1190" d="M744 0L878 1092L888 1146L852 1096L346 474L320 452L352 456H536Q589 456 625 429T682 368T712 312H130L144 434L916 1402H1090L972 454H1132L1116 312H956L918 0H744Z" />
<glyph unicode="5" horiz-adv-x="1070" d="M430 -22Q379 -22 317 -10T196 24T98 76L160 206Q234 160 311 142T446 124Q562 124 633 171T740 287T784 418Q802 562 719 629T492 696Q441 696 367 685T232 656L376 1402H1042L1022 1244H492L416 866L408 826L450 832Q474
835 499 836T552 838Q717 838 815 777T953 618T980 414Q966 299 897 200T709 39T430 -22Z" />
<glyph unicode="6" horiz-adv-x="1308" d="M674 -28Q523 -28 429 31T288 189T229 408T234 652Q251 789 311 924T470 1169T702 1346T998 1412Q1048 1412 1099 1401T1202 1366L1142 1234Q1102 1254 1060 1261T980 1268Q839 1268 723 1190T529 973T430 656Q420 574
422 481T449 304T531 169T688 116Q766 116 830 156T935 268T988 432Q1005 569 950 639T804 710Q789 710 774 708T732 700Q681 688 639 697T565 724T518 760Q591 796 642 816T734 845T822 854Q942 854 1029 806T1159 663T1184 432Q1174 346 1132 264T1021 116T865
11T674 -28Z" />
<glyph unicode="7" horiz-adv-x="1002" d="M260 0Q318 228 402 436T601 838T862 1214L880 1236H854H226L248 1402H1102L1082 1250Q988 1145 897 1026T725 761T574 428T454 0H260Z" />
<glyph unicode="8" horiz-adv-x="1228" d="M620 -28Q492 -28 393 17T241 147T204 356Q213 424 254 503T414 694Q441 646 448 589T420 478Q404 451 394 427T380 380Q365 256 440 186T638 116Q767 116 855 183T956 356Q965 431 934 481T844 566T714 631T572 695T444
776T358 892T340 1062Q354 1176 424 1257T596 1381T804 1424Q917 1424 1007 1381T1144 1257T1178 1062Q1168 971 1112 892T978 736L956 714L984 696Q1061 645 1107 565T1136 356Q1121 233 1046 148T859 17T620 -28ZM826 780Q897 842 943 902T998 1038Q1008 1119
979 1172T898 1252T786 1278Q726 1278 668 1253T569 1179T520 1062Q510 984 553 936T670 852T826 780Z" />
<glyph unicode="9" horiz-adv-x="1308" d="M454 -20Q405 -20 353 -8T250 30L312 162Q354 143 395 135T472 126Q615 126 732 204T927 421T1026 740Q1036 821 1034 914T1007 1089T926 1223T770 1276Q690 1276 626 1236T520 1124T468 962Q452 827 505 756T650 684Q664
684 681 686T722 692Q775 706 817 698T889 670T934 632Q862 596 812 577T720 550T634 542Q514 542 426 590T296 731T270 962Q281 1049 323 1131T433 1278T590 1381T782 1420Q932 1420 1025 1361T1167 1204T1226 986T1222 744Q1206 606 1145 471T985 224T751 47T454
-20Z" />
<glyph unicode=":" horiz-adv-x="598" d="M300 -30Q249 -30 220 3T196 88Q202 141 239 175T328 210Q381 210 411 176T436 88Q430 37 392 4T300 -30ZM394 732Q343 732 314 765T290 850Q296 903 333 937T422 972Q475 972 505 938T530 850Q524 799 486 766T394 732Z" />
<glyph unicode=";" horiz-adv-x="598" d="M194 -196L244 196H418L398 40Q393 0 380 -46T343 -130T283 -189T194 -196ZM394 732Q343 732 314 765T290 850Q296 903 333 937T422 972Q475 972 505 938T530 850Q524 799 486 766T394 732Z" />
<glyph unicode="&lt;" horiz-adv-x="1226" d="M1108 0L134 502L146 602L1242 1104L1222 944L362 566L308 552L360 540L1126 162L1108 0Z" />
<glyph unicode="=" horiz-adv-x="1212" d="M230 794L248 930H1192L1174 794H230ZM176 352L192 488H1136L1120 352H176Z" />
<glyph unicode="&gt;" horiz-adv-x="1226" d="M74 0L92 162L954 540L1006 552L956 566L188 944L208 1104L1180 602L1168 502L74 0Z" />
<glyph unicode="?" horiz-adv-x="1166" d="M454 370Q470 500 515 592T619 753T735 880T834 1001T886 1144Q895 1224 842 1277T696 1330Q639 1330 572 1316T420 1258L386 1392Q484 1442 568 1458T734 1474Q849 1474 931 1434T1055 1326T1086 1174Q1073 1074 1025
997T910 852T778 715T662 563T598 370H454ZM476 -30Q425 -30 395 3T370 88Q376 141 414 175T504 210Q557 210 587 176T612 88Q606 37 568 4T476 -30Z" />
<glyph unicode="@" horiz-adv-x="1838" d="M864 -244Q711 -244 585 -201T371 -66T245 169T232 514Q255 701 333 843T528 1081T787 1227T1080 1276Q1235 1276 1359 1233T1568 1106T1691 902T1710 626Q1692 483 1620 377T1431 205T1168 112Q1147 124 1139 142T1124
186V224L1100 184Q1034 126 979 110T870 94Q743 94 679 155T626 316Q641 438 747 496T1080 578Q1076 560 1062 532T1020 479T952 450Q862 438 821 405T774 324Q768 275 805 244T906 212Q957 212 1016 235T1130 320L1166 612Q1178 704 1141 760T996 816Q954 816
903 807T796 776L768 878Q848 910 911 921T1038 932Q1187 932 1258 845T1310 602L1272 280L1266 232L1298 256Q1426 333 1486 422T1562 626Q1583 795 1529 914T1355 1095T1064 1158Q893 1158 748 1087T506 873T382 514Q356 299 417 157T599 -55T878 -126Q936 -126
991 -122T1110 -104T1260 -64L1288 -174Q1189 -203 1119 -218T990 -238T864 -244Z" />
<glyph unicode="A" horiz-adv-x="1374" d="M70 0L772 1454H958L1304 0H1100L836 1172L830 1230L808 1172L506 530L478 488L504 492H774Q822 492 852 472T899 419T926 348H422L260 0H70Z" />
<glyph unicode="B" horiz-adv-x="1286" d="M720 -24Q682 -24 641 -21T551 -10T444 12Q469 47 499 76T567 121T648 128Q672 125 691 124T738 122Q808 122 872 159T979 260T1032 402Q1044 502 1000 566T871 661T678 692H448L364 0H174L350 1436Q427 1451 496 1460T634
1475T774 1480Q944 1480 1050 1429T1201 1290T1234 1094Q1225 1022 1177 937T1048 804L986 776L1040 762Q1111 726 1158 675T1225 557T1236 410Q1226 333 1186 256T1077 116T919 14T720 -24ZM464 830H694Q794 830 867 865T984 960T1036 1094Q1044 1162 1016 1216T922
1301T756 1332Q702 1332 641 1329T526 1320L464 830Z" />
<glyph unicode="C" horiz-adv-x="1304" d="M864 -24Q659 -24 507 66T279 325T232 724Q252 892 324 1030T506 1270T755 1425T1048 1480Q1132 1480 1219 1464T1394 1412L1326 1282Q1244 1311 1172 1322T1030 1334Q927 1334 829 1296T648 1182T511 992T436 724Q420
588 448 477T539 286T690 163T882 120Q951 120 1028 138T1194 198L1230 68Q1131 19 1040 -2T864 -24Z" />
<glyph unicode="D" horiz-adv-x="1426" d="M724 -24Q657 -24 595 -18T448 10Q471 45 501 72T569 114T650 124Q682 121 699 121T740 120Q836 120 924 168T1086 300T1207 494T1270 730Q1294 923 1245 1058T1074 1263T754 1334Q694 1334 636 1330T530 1320L368 0H178L352
1432Q450 1455 567 1467T772 1480Q1026 1480 1192 1390T1431 1132T1474 730Q1455 567 1386 429T1213 190T984 32T724 -24Z" />
<glyph unicode="E" horiz-adv-x="1154" d="M178 0L356 1454H1184L1166 1310H528L384 144H1052L1036 0H178ZM528 692Q547 730 573 762T634 813T718 832H1040L1022 692H528Z" />
<glyph unicode="F" horiz-adv-x="1146" d="M178 0L356 1454H1184L1166 1310H528L368 0H178ZM528 692Q547 730 573 762T634 813T718 832H1040L1022 692H528Z" />
<glyph unicode="G" horiz-adv-x="1290" d="M816 -24Q662 -24 533 27T312 175T178 411T158 726Q179 895 255 1033T446 1272T704 1426T1000 1480Q1086 1480 1186 1461T1386 1392L1318 1262Q1218 1309 1135 1321T982 1334Q879 1334 777 1297T587 1184T441 994T362
726Q343 573 375 459T475 270T637 158T834 120Q878 120 935 126T1062 154L1126 674H1310L1236 74Q1159 36 1084 15T941 -15T816 -24Z" />
<glyph unicode="H" horiz-adv-x="1460" d="M1096 0L1180 692H528Q547 730 573 762T634 813T716 832H1198L1274 1454H1464L1286 0H1096ZM178 0L356 1454H546L368 0H178Z" />
<glyph unicode="I" horiz-adv-x="540" d="M178 0L356 1454H540L362 0H178Z" />
<glyph unicode="J" horiz-adv-x="688" d="M18 -416L-48 -314Q34 -252 102 -199T223 -85T311 57T360 256L508 1454H700L552 256Q536 125 494 29T383 -141T223 -280T18 -416Z" />
<glyph unicode="K" horiz-adv-x="1322" d="M1052 0L748 694L738 730L716 694L532 486Q519 526 526 584T560 706T634 824L1178 1454H1394L870 866L1282 0H1052ZM178 0L356 1454H546L368 0H178Z" />
<glyph unicode="L" horiz-adv-x="1040" d="M178 0L356 1454H548L386 146H994L976 0H178Z" />
<glyph unicode="M" horiz-adv-x="1898" d="M138 0L478 1454H724L970 286L976 224L998 286L1532 1454H1778L1760 0H1578L1606 1164L1610 1250L1576 1164L1040 20H862L604 1166L588 1250L572 1166L318 0H138Z" />
<glyph unicode="N" horiz-adv-x="1498" d="M208 0L386 1454H576L1144 326L1158 260L1164 330L1302 1454H1470L1292 0H1122L536 1162L516 1230L512 1162L370 0H208Z" />
<glyph unicode="O" horiz-adv-x="1582" d="M760 -28Q573 -28 431 62T219 322T178 728Q202 919 280 1061T469 1297T704 1437T946 1484Q1109 1484 1227 1425T1417 1261T1517 1020T1526 728Q1505 555 1435 416T1258 177T1024 25T760 -28ZM778 116Q919 116 1034 197T1225
418T1322 728Q1345 916 1299 1053T1155 1264T928 1338Q799 1338 683 1264T486 1053T382 728Q366 592 387 480T462 287T596 161T778 116Z" />
<glyph unicode="P" horiz-adv-x="1218" d="M178 0L354 1440Q431 1455 497 1464T629 1476T768 1480Q929 1480 1040 1421T1204 1261T1242 1040Q1227 912 1149 820T957 674T722 610Q679 606 629 608T524 626Q543 660 571 687T636 731T714 748Q783 748 854 785T978
889T1040 1040Q1051 1124 1015 1190T910 1295T750 1334Q695 1334 640 1331T530 1322L368 0H178Z" />
<glyph unicode="Q" horiz-adv-x="1576" d="M770 -28Q580 -28 440 65T233 328T194 728Q216 901 287 1040T464 1279T699 1431T962 1484Q1151 1484 1292 1393T1501 1133T1540 728Q1524 592 1468 478T1302 232L1434 78L1314 -26L882 476L1002 582L1176 374L1198 336L1218
384Q1272 465 1299 553T1336 728Q1359 916 1313 1053T1170 1264T944 1338Q816 1338 700 1264T501 1053T396 728Q379 589 401 477T476 284T610 161T788 118Q824 118 850 122T908 134Q962 148 1020 135T1106 86Q1016 26 934 -1T770 -28Z" />
<glyph unicode="R" horiz-adv-x="1296" d="M178 0L354 1436Q431 1451 497 1461T629 1476T768 1482Q929 1482 1040 1424T1205 1267T1244 1052Q1229 931 1151 840T962 696L912 680L950 664Q1018 615 1049 543T1094 384T1123 199T1172 0H972Q943 86 931 183T903 372T853
532T742 632Q730 629 689 630T600 635T526 646Q545 680 574 707T639 751T718 768Q787 770 858 807T980 908T1042 1054Q1052 1133 1016 1197T911 1298T752 1336Q697 1336 650 1334T528 1318L368 0H178Z" />
<glyph unicode="S" horiz-adv-x="1108" d="M530 -24Q445 -24 334 -4T126 66L194 196Q278 156 367 138T526 120Q667 120 754 191T854 366Q863 439 833 492T748 586T626 663T492 740T372 831T290 951T274 1118Q286 1218 347 1300T505 1431T722 1480Q808 1480 893
1466T1078 1420L1008 1290Q926 1316 853 1325T724 1334Q612 1334 545 1270T466 1118Q457 1040 499 984T613 883T766 793T917 691T1026 555T1052 362Q1040 263 974 175T795 32T530 -24Z" />
<glyph unicode="T" horiz-adv-x="1088" d="M444 0L604 1310H180L198 1454H1240L1222 1310H796L636 0H444Z" />
<glyph unicode="U" horiz-adv-x="1388" d="M690 -28Q520 -28 409 42T249 240T220 536L334 1454H522L404 504Q383 327 466 222T708 116Q867 116 975 221T1104 504L1222 1454H1410L1296 536Q1276 367 1193 240T979 43T690 -28Z" />
<glyph unicode="V" horiz-adv-x="1260" d="M536 0L204 1454H410L654 260L660 194L684 258L1222 1454H1420L736 0H536Z" />
<glyph unicode="W" horiz-adv-x="1944" d="M432 0L220 1454H412L562 274L566 176L600 274L1054 1434H1258L1416 272L1424 174L1454 268L1894 1454H2082L1514 0H1290L1130 1132L1124 1216L1098 1136L664 0H432Z" />
<glyph unicode="X" horiz-adv-x="1252" d="M964 0L272 1454H494L722 924L734 874L756 924L1120 1454H1332L822 754L1180 0H964ZM68 0L548 660Q567 629 579 589T589 504T556 420L274 0H68Z" />
<glyph unicode="Y" horiz-adv-x="1320" d="M554 0L628 618L234 1454H450L822 674L740 0H554ZM888 752Q867 783 854 824T846 911T884 1004L1192 1454H1402L888 752Z" />
<glyph unicode="Z" horiz-adv-x="1196" d="M170 0L178 76L1098 1282L1134 1316L1086 1310H418L436 1454H1374L1364 1378L442 168L408 138L452 144H1232L1216 0H170Z" />
<glyph unicode="[" horiz-adv-x="894" d="M240 -398L478 1542H992L974 1398H632L430 -254H774L754 -398H240Z" />
<glyph unicode="\" horiz-adv-x="756" d="M520 -124L228 1454H406L698 -124H520Z" />
<glyph unicode="]" horiz-adv-x="914" d="M58 -398L74 -254H418L620 1398H278L296 1542H808L570 -398H58Z" />
<glyph unicode="^" horiz-adv-x="1256" d="M218 420L758 1454H860L1144 420H990L786 1160L780 1212L762 1160L376 420H218Z" />
<glyph unicode="_" horiz-adv-x="994" d="M38 -126L54 0H940L924 -126H38Z" />
<glyph unicode="`" horiz-adv-x="392" d="M558 1204Q523 1195 488 1197T422 1214T368 1262L220 1480H414L558 1204Z" />
<glyph unicode="a" horiz-adv-x="1130" d="M532 -10Q443 -22 369 12T242 117T168 289T160 512Q180 675 263 797T473 986T756 1054Q812 1054 866 1048T978 1027T1102 990L1024 352Q1009 232 1009 148T1014 10L878 0Q850 18 832 67T822 194L908 888Q863 900 823
905T738 910Q588 910 484 807T356 512Q342 399 361 310T434 174T580 142Q624 148 663 134T736 76Q685 40 631 19T532 -10Z" />
<glyph unicode="b" horiz-adv-x="1164" d="M550 -20Q442 -20 348 5T174 80L352 1516L536 1502L370 156Q417 138 470 131T568 124Q711 124 807 234T926 522Q942 654 916 740T831 866T686 896Q641 892 604 913T538 980Q592 1009 652 1026T758 1044Q840 1049 912
1017T1037 918T1114 752T1122 522Q1102 363 1023 241T822 50T550 -20Z" />
<glyph unicode="c" horiz-adv-x="854" d="M562 -20Q428 -20 327 42T175 224T146 518Q168 691 249 810T448 992T694 1054Q748 1054 812 1045T934 1012L872 882Q817 897 769 903T676 910Q562 910 466 815T344 518Q328 383 356 296T443 167T580 124Q624 124 679 137T808
182L842 50Q755 10 682 -5T562 -20Z" />
<glyph unicode="d" horiz-adv-x="1196" d="M538 -20Q398 -20 309 51T184 246T166 522Q180 642 230 738T355 904T517 1009T694 1046Q739 1046 788 1039T890 1012Q857 963 808 932T688 902Q619 904 551 866T431 743T364 522Q349 406 369 316T443 175T586 124Q655
124 725 159T866 270L1020 1516L1204 1502L1062 352Q1047 232 1047 148T1052 10L916 0Q894 21 882 44T858 108V140L838 106Q768 36 684 8T538 -20Z" />
<glyph unicode="e" horiz-adv-x="1088" d="M592 -20Q482 -20 398 21T260 135T184 308T176 526Q196 688 270 806T461 989T730 1054Q833 1054 906 1009T1019 885T1058 707T1010 500H430Q459 557 501 595T616 634H870Q889 711 870 773T804 873T692 910Q608 910 539
865T424 734T362 524Q347 405 377 315T473 175T630 124Q699 124 763 138T918 196L950 64Q848 15 756 -2T592 -20Z" />
<glyph unicode="f" horiz-adv-x="780" d="M182 0L292 896H120L130 992L308 1034L314 1090Q331 1222 388 1320T538 1472T752 1526Q802 1526 862 1515T988 1474L932 1352Q871 1376 831 1383T758 1390Q702 1390 645 1362T546 1272T492 1110L356 0H182ZM538 896Q556
934 581 965T641 1015T724 1034H844L828 896H538Z" />
<glyph unicode="g" horiz-adv-x="1142" d="M456 -500Q378 -500 288 -484T104 -416L172 -280Q253 -322 324 -339T458 -356Q542 -356 616 -320T741 -210T806 -22L918 888Q873 900 833 905T748 910Q598 910 494 807T366 512Q352 399 371 309T445 172T592 140Q636
146 675 132T748 74Q697 38 643 17T544 -10Q455 -23 380 11T253 116T178 288T170 512Q190 675 273 797T483 986T766 1054Q822 1054 876 1048T988 1027T1112 990L992 0Q973 -149 902 -261T716 -437T456 -500Z" />
<glyph unicode="h" horiz-adv-x="1164" d="M166 0L352 1516L536 1502L352 0H166ZM812 0L904 752Q912 821 891 865T810 910Q786 910 771 905T726 894Q666 881 620 893T538 948Q652 1011 724 1032T852 1054Q929 1054 989 1025T1079 926T1092 732L1004 0H812Z" />
<glyph unicode="i" horiz-adv-x="512" d="M160 0L286 1034H478L352 0H160ZM404 1214Q353 1214 323 1248T298 1334Q306 1387 344 1421T434 1456Q487 1456 516 1422T538 1334Q532 1283 495 1249T404 1214Z" />
<glyph unicode="j" horiz-adv-x="558" d="M-24 -496L-96 -390Q23 -296 85 -226T173 -86T210 78L328 1034H518L400 78Q387 -28 349 -119T224 -300T-24 -496ZM444 1214Q392 1214 363 1248T340 1334Q348 1388 385 1423T474 1458Q528 1458 559 1423T582 1334Q576 1282
537 1248T444 1214Z" />
<glyph unicode="k" horiz-adv-x="1162" d="M902 0L690 498L672 540L636 504L496 366Q481 425 502 508T588 656L960 1034L1166 1020L806 670L1114 0H902ZM166 0L352 1516L536 1502L352 0H166Z" />
<glyph unicode="l" horiz-adv-x="508" d="M170 0L356 1516L536 1502L352 0H170Z" />
<glyph unicode="m" horiz-adv-x="1804" d="M1456 0L1548 752Q1556 821 1531 865T1442 910Q1418 910 1398 905T1348 894Q1288 881 1240 893T1156 948Q1270 1011 1348 1032T1480 1054Q1559 1054 1623 1025T1719 926T1736 732L1648 0H1456ZM170 0L264 772Q270 828
271 891T264 1024L410 1034Q452 980 460 927T460 814L362 0H170ZM814 0L906 752Q914 821 891 865T808 910Q784 910 766 906T722 896Q661 883 615 895T532 950Q646 1013 720 1033T848 1054Q926 1054 987 1025T1079 926T1094 732L1006 0H814Z" />
<glyph unicode="n" horiz-adv-x="1192" d="M826 0L918 752Q926 821 900 865T812 910Q788 910 770 905T724 894Q664 881 616 893T532 948Q646 1011 720 1032T848 1054Q928 1054 992 1025T1089 926T1106 732L1018 0H826ZM170 0L264 772Q270 828 271 891T264 1024L410
1034Q452 980 460 927T460 814L362 0H170Z" />
<glyph unicode="o" horiz-adv-x="1132" d="M558 -20Q424 -20 323 42T171 224T142 518Q159 655 213 756T344 923T512 1021T690 1054Q843 1054 942 983T1083 790T1106 518Q1090 388 1040 288T913 119T746 15T558 -20ZM576 124Q673 124 742 178T853 321T908 518Q925
652 897 739T808 868T672 910Q596 910 527 868T407 739T340 518Q319 344 379 234T576 124Z" />
<glyph unicode="p" horiz-adv-x="1196" d="M120 -468L260 682Q275 802 275 887T270 1024L406 1034Q429 1013 442 990T462 926V894L484 930Q555 999 638 1026T784 1054Q924 1054 1013 983T1138 788T1156 512Q1141 392 1091 296T967 130T806 25T628 -12Q583 -12
533 -5T432 22Q467 72 516 103T634 132Q702 130 770 169T889 292T958 512Q972 628 952 718T878 859T734 910Q667 910 597 875T454 764L302 -482L120 -468Z" />
<glyph unicode="q" horiz-adv-x="1164" d="M754 -468L920 888Q875 900 835 905T750 910Q600 910 496 807T368 512Q354 399 374 309T449 172T596 140Q640 148 679 133T752 74Q701 38 647 17T548 -10Q459 -23 384 11T256 116T180 288T172 512Q192 675 275 797T485
986T768 1054Q824 1054 878 1048T990 1027T1114 990L934 -482L754 -468Z" />
<glyph unicode="r" horiz-adv-x="782" d="M174 0L254 674Q266 766 270 860T266 1024L406 1034Q433 1001 442 962T454 874L450 838L470 874Q518 951 597 999T758 1048Q781 1048 804 1044T854 1032L810 876Q780 884 757 886T716 888Q654 888 591 854T481 746T418
552L352 0H174Z" />
<glyph unicode="s" horiz-adv-x="832" d="M434 -20Q358 -20 274 -7T78 64L144 196Q215 159 290 142T428 124Q518 124 567 166T624 274Q631 329 601 365T519 429T409 485T300 551T222 645T204 784Q211 848 255 909T375 1011T556 1052Q613 1052 680 1041T828 1000L766
870Q706 891 653 900T558 910Q489 910 441 878T384 784Q377 731 407 695T489 631T599 574T708 505T787 409T804 264Q794 188 739 124T603 20T434 -20Z" />
<glyph unicode="t" horiz-adv-x="852" d="M538 -22Q375 -22 301 85T250 382L314 896H130L140 986L330 1034L362 1298L546 1354L424 360Q411 257 447 188T556 118Q595 118 632 125T724 148L752 22Q673 -3 630 -12T538 -22ZM730 896Q683 896 652 914T604 964T578
1034H860L844 896H730Z" />
<glyph unicode="u" horiz-adv-x="1174" d="M428 -20Q349 -20 287 9T194 108T178 302L268 1034H456L364 282Q355 213 379 169T466 124Q490 124 508 129T554 140Q614 154 662 142T748 86Q634 23 558 2T428 -20ZM870 0Q828 54 820 107T818 220L918 1034H1104L1010
262Q1003 207 1003 144T1012 10L870 0Z" />
<glyph unicode="v" horiz-adv-x="1032" d="M420 0L158 1034H358L534 228L544 178L564 228L938 1034L1124 1020L616 0H420Z" />
<glyph unicode="w" horiz-adv-x="1720" d="M1114 0L876 1034H1076L1232 228L1240 178L1260 228L1614 1034L1798 1020L1314 0H1114ZM452 0L212 1034H412L568 228L576 178L596 228L838 716Q864 683 876 628T883 508T846 380L642 0H452Z" />
<glyph unicode="x" horiz-adv-x="998" d="M738 0Q671 131 604 259T466 518L188 1034H398L568 676L574 634L594 676L856 1034L1040 1020L650 526L946 0H738ZM44 0L406 450Q429 418 439 378T440 294T398 208L238 0H44Z" />
<glyph unicode="y" horiz-adv-x="1058" d="M180 -492Q140 -490 97 -483T12 -462L76 -330Q109 -339 139 -343T198 -348Q275 -348 328 -292T428 -141T532 74L960 1034L1148 1020L664 22Q612 -84 564 -176T463 -340T342 -451T180 -492ZM408 20L158 1034H354L490 358Q505
294 498 229T466 108T408 20Z" />
<glyph unicode="z" horiz-adv-x="896" d="M70 0L78 76L698 874L732 908L690 902H246L262 1034H962L952 958L340 164L302 130L350 136H864L848 0H70Z" />
<glyph unicode="{" horiz-adv-x="806" d="M676 -352Q559 -265 496 -162T413 74T404 384Q409 455 357 496T230 550L244 664Q322 678 386 719T462 830Q495 993 548 1121T687 1350T908 1534L976 1434Q868 1357 800 1274T692 1094T628 878Q613 796 565 733T448 628L396
606L444 582Q503 540 535 479T562 336Q554 207 568 105T629 -84T768 -252L676 -352Z" />
<glyph unicode="|" horiz-adv-x="634" d="M158 -586L428 1622H588L318 -586H158Z" />
<glyph unicode="}" horiz-adv-x="806" d="M200 -352L132 -252Q244 -171 312 -85T419 104T482 336Q499 419 547 481T664 586L716 606L668 628Q610 670 578 733T548 878Q554 997 538 1094T475 1274T340 1434L432 1534Q544 1451 605 1350T687 1121T702 830Q699 760
752 719T880 664L866 550Q788 537 727 496T652 384Q620 207 568 74T427 -162T200 -352Z" />
<glyph unicode="~" horiz-adv-x="1228" d="M340 456L182 472Q199 572 246 636T362 732T518 764Q583 764 638 739T736 680Q780 647 826 622T940 596Q988 596 1021 644T1070 768L1230 752Q1209 639 1162 576T1049 487T902 460Q835 459 778 485T678 544Q633 577 590
602T484 628Q436 627 397 584T340 456Z" />
<glyph unicode="&#xa0;" horiz-adv-x="514" />
<glyph unicode="&#xa1;" horiz-adv-x="702" d="M88 -420L244 664H380L276 -420H88ZM330 824Q279 824 250 859T228 946Q234 997 271 1030T360 1064Q413 1064 443 1031T468 946Q461 894 422 859T330 824Z" />
<glyph unicode="&#xa2;" horiz-adv-x="854" d="M480 -28L504 176Q391 193 309 259T189 439T170 708Q189 862 256 973T422 1151T634 1236L658 1432H802L780 1242Q822 1238 869 1229T956 1202L890 1070Q839 1087 792 1093T700 1100Q624 1100 554 1058T434 929T368
708Q351 573 379 486T467 357T604 314Q648 314 703 327T830 372L864 240Q803 210 748 195T648 174L624 -28H480Z" />
<glyph unicode="&#xa3;" horiz-adv-x="1026" d="M112 0L126 122Q240 176 320 270T416 484Q421 523 423 561T424 642H232L248 772H420Q417 820 418 890T426 1024Q442 1151 507 1240T669 1377T876 1424Q947 1424 1018 1408T1168 1350L1102 1216Q1033 1252 967 1266T858
1280Q747 1280 682 1208T602 1022Q587 901 591 796T594 592T560 394Q538 336 502 286T418 192L372 156L426 160H984L966 0H112ZM820 642Q772 642 742 658T693 704T666 772H984L968 642H820Z" />
<glyph unicode="&#xa4;" horiz-adv-x="1026" d="M166 216L96 296L256 438Q232 477 218 541T212 678Q223 756 253 819T320 924L188 1066L276 1148L406 1006Q453 1044 515 1066T644 1088Q715 1088 772 1066T866 1008L1036 1148L1104 1066L930 924Q954 884 967 823T972
690Q962 608 933 545T872 444L1004 296L914 216L786 362Q735 319 668 298T540 276Q479 276 419 297T322 356L166 216ZM556 394Q612 394 670 424T773 520T830 688Q838 757 819 822T753 928T628 970Q554 970 496 930T401 824T354 680Q342 583 372 520T454 425T556
394Z" />
<glyph unicode="&#xa5;" horiz-adv-x="1320" d="M554 0L586 276H254L266 370H598L618 520H286L296 614H628V618L234 1454H450L822 674L814 614H1146L1136 520H804L784 370H1116L1104 276H772L740 0H554ZM888 752Q867 783 854 824T846 911T884 1004L1192 1454H1402L888
752Z" />
<glyph unicode="&#xa6;" horiz-adv-x="508" d="M110 -586L216 282H376L270 -586H110ZM276 774L380 1622H540L436 774H276Z" />
<glyph unicode="&#xa7;" horiz-adv-x="1000" d="M498 -102Q436 -102 371 -97T232 -74T68 -18L142 114Q229 77 320 60T486 42Q608 42 668 84T736 194Q743 249 705 285T601 349T463 405T326 471T226 565T200 704Q206 760 249 816T372 914L426 934L386 952Q331 990
299 1042T276 1170Q284 1235 335 1297T474 1399T676 1440Q744 1440 824 1429T1002 1388L932 1258Q857 1279 795 1288T682 1298Q585 1298 525 1266T456 1172Q450 1118 489 1082T593 1018T731 960T867 892T967 795T992 650Q985 583 939 529T826 438L778 420L818 402Q869
365 897 312T916 184Q905 99 845 35T694 -66T498 -102ZM670 484Q744 523 781 568T824 660Q831 714 791 750T683 814T544 872Q469 844 423 801T370 706Q363 649 407 612T522 546T670 484Z" />
<glyph unicode="&#xa8;" horiz-adv-x="814" d="M330 1236Q288 1236 261 1266T240 1340Q245 1384 279 1414T356 1444Q400 1444 427 1414T450 1340Q444 1297 409 1267T330 1236ZM720 1236Q677 1236 650 1266T628 1340Q633 1384 668 1414T746 1444Q788 1444 815 1414T838
1340Q832 1297 797 1267T720 1236Z" />
<glyph unicode="&#xa9;" horiz-adv-x="1440" d="M720 62Q526 62 391 149T192 385T150 714Q167 848 228 965T386 1170T609 1309T880 1360Q1072 1360 1206 1273T1403 1039T1444 714Q1428 578 1367 460T1210 253T989 113T720 62ZM796 352Q707 352 639 394T536 516T516
714Q531 830 585 910T718 1032T884 1074Q964 1074 1048 1046L1002 950Q968 962 935 966T872 970Q797 970 732 907T650 714Q635 582 683 518T808 454Q837 454 876 462T964 492L986 398Q928 371 878 362T796 352ZM734 178Q882 176 1003 243T1203 432T1300 714Q1319
870 1271 990T1118 1178T866 1246Q715 1245 593 1177T392 988T294 708Q275 551 324 432T478 246T734 178Z" />
<glyph unicode="&#xaa;" horiz-adv-x="1054" d="M400 590Q291 590 234 647T186 788Q200 895 293 950T606 1030Q601 1014 589 990T553 944T492 918Q398 903 367 870T330 798Q326 755 351 726T430 696Q477 696 528 720T626 798L658 1054Q669 1137 635 1186T504 1236Q467
1236 429 1228T338 1202L318 1294Q389 1324 443 1333T544 1342Q678 1342 745 1264T796 1044L770 844Q760 760 760 701T764 604H664Q645 616 636 635T620 676L622 700L604 676Q544 622 497 606T400 590Z" />
<glyph unicode="&#xab;" horiz-adv-x="1226" d="M588 100L206 516L690 932L766 846L438 516L686 186L588 100ZM1088 100L706 516L1190 932L1266 846L938 516L1186 186L1088 100Z" />
<glyph unicode="&#xac;" horiz-adv-x="1138" d="M950 312L1002 748H176L192 876H1164L1096 312H950Z" />
<glyph unicode="&#xad;" horiz-adv-x="750" d="M156 546L172 674H776L760 546H156Z" />
<glyph unicode="&#xae;" horiz-adv-x="1440" d="M720 62Q526 62 391 149T192 385T150 714Q167 848 228 965T386 1170T609 1309T880 1360Q1072 1360 1206 1273T1403 1039T1444 714Q1428 578 1367 460T1210 253T989 113T720 62ZM734 178Q882 176 1003 243T1203 432T1300
714Q1319 870 1271 990T1118 1178T866 1246Q715 1245 593 1177T392 988T294 708Q275 551 324 432T478 246T734 178ZM548 378L630 1046Q689 1060 737 1066T838 1072Q952 1072 1022 1016T1080 862Q1073 805 1037 764T948 696L934 690L948 680Q985 650 997 603T1016
497T1044 378H912Q893 432 888 492T867 600T806 668Q781 667 780 667T752 666Q767 690 789 719T856 754Q891 760 918 791T950 862Q956 907 921 940T826 974Q808 974 790 973T744 968L672 378H548Z" />
<glyph unicode="&#xaf;" horiz-adv-x="1000" d="M380 1226L396 1354H980L964 1226H380Z" />
<glyph unicode="&#xb0;" horiz-adv-x="674" d="M468 966Q390 966 328 1002T233 1102T210 1246Q219 1321 265 1385T382 1487T536 1526Q604 1526 667 1494T768 1400T794 1246Q783 1156 731 1094T607 999T468 966ZM480 1066Q539 1066 580 1096T643 1168T670 1246Q681
1329 635 1377T524 1426Q468 1426 428 1399T364 1330T336 1246Q327 1179 361 1123T480 1066Z" />
<glyph unicode="&#xb1;" horiz-adv-x="1136" d="M516 244L562 606H168L184 734H578L622 1092H768L724 734H1120L1104 606H708L662 244H516ZM94 0L108 126H1044L1030 0H94Z" />
<glyph unicode="&#xb2;" horiz-adv-x="804" d="M222 620L230 692Q301 789 375 865T512 1004T618 1125T668 1242Q676 1310 638 1337T536 1364Q502 1364 466 1356T386 1330L354 1422Q411 1452 462 1462T562 1472Q634 1472 693 1447T784 1374T808 1256Q799 1184 754
1119T648 992T525 872T420 754L400 734L426 738H758L744 620H222Z" />
<glyph unicode="&#xb3;" horiz-adv-x="762" d="M388 602Q319 602 268 621T190 658L238 752Q271 737 307 725T400 712Q483 712 532 760T588 866Q597 941 542 974T384 1008V1096L450 1122Q507 1145 554 1177T608 1262Q614 1306 587 1333T506 1360Q472 1360 432 1352T350
1326L316 1420Q375 1450 429 1460T532 1470Q642 1470 701 1417T750 1280Q743 1217 694 1163T572 1076Q638 1060 688 1007T728 864Q719 795 673 736T554 639T388 602Z" />
<glyph unicode="&#xb4;" horiz-adv-x="644" d="M286 1204L498 1480H692L490 1262Q459 1230 425 1215T355 1197T286 1204Z" />
<glyph unicode="&#xb5;" horiz-adv-x="1106" d="M96 -422L274 1034H458L382 420Q373 341 388 275T445 170T562 130Q624 130 685 167T789 265T842 398L920 1034H1106L1014 282Q1004 198 1023 165T1106 134L1108 6Q1074 -6 1048 -11T998 -16Q937 -16 893 15T838
122L836 170L806 122Q763 70 694 25T526 -20Q469 -20 424 -2T352 50L326 94L322 30L268 -422H96Z" />
<glyph unicode="&#xb6;" horiz-adv-x="1218" d="M642 -60L724 608Q723 608 722 609T720 610Q601 620 508 675T367 824T334 1040Q349 1156 418 1256T606 1418T886 1480Q996 1480 1082 1472T1278 1440L1094 -60H948L1116 1316Q1073 1324 1034 1327T958 1332L788 -60H642Z" />
<glyph unicode="&#xb7;" horiz-adv-x="612" d="M364 490Q313 490 284 523T260 608Q266 661 303 695T392 730Q445 730 475 696T500 608Q494 557 456 524T364 490Z" />
<glyph unicode="&#xb8;" horiz-adv-x="1000" d="M416 -412Q382 -412 346 -404T264 -374L302 -288Q338 -303 368 -308T428 -314Q463 -314 500 -301T542 -252Q547 -214 510 -195T402 -168L466 -4L562 4L522 -100Q579 -106 625 -145T664 -246Q657 -306 618 -342T525
-395T416 -412Z" />
<glyph unicode="&#xb9;" horiz-adv-x="638" d="M438 618L522 1290L390 1226L348 1320L614 1454H680L576 618H438Z" />
<glyph unicode="&#xba;" horiz-adv-x="860" d="M500 588Q349 588 268 691T208 966Q221 1070 272 1155T405 1291T592 1342Q682 1342 754 1301T862 1176T884 966Q870 850 816 765T680 634T500 588ZM512 698Q576 698 624 735T701 834T740 966Q748 1030 738 1091T689
1193T578 1234Q513 1234 466 1196T391 1097T354 966Q338 833 384 766T512 698Z" />
<glyph unicode="&#xbb;" horiz-adv-x="1226" d="M240 100L162 186L490 516L242 846L342 932L722 516L240 100ZM740 100L662 186L990 516L742 846L842 932L1222 516L740 100Z" />
<glyph unicode="&#xbc;" horiz-adv-x="1396" d="M178 0L1228 1454H1352L302 0H178ZM318 618L402 1290L270 1226L228 1320L494 1454H560L456 618H318ZM1088 0L1168 660L864 288H920Q980 288 1010 249T1050 178H716L730 290L1172 846H1318L1250 286H1346L1332 178H1236L1216
0H1088Z" />
<glyph unicode="&#xbd;" horiz-adv-x="1526" d="M178 0L1228 1454H1352L302 0H178ZM318 618L402 1290L270 1226L228 1320L494 1454H560L456 618H318ZM852 0L860 72Q931 169 1005 245T1142 384T1248 505T1298 622Q1306 690 1268 717T1166 744Q1132 744 1095 736T1016
710L984 802Q1041 832 1092 842T1192 852Q1264 852 1323 827T1414 754T1438 636Q1429 564 1384 499T1278 372T1155 252T1050 134L1028 114L1056 118H1388L1374 0H852Z" />
<glyph unicode="&#xbe;" horiz-adv-x="1432" d="M254 0L1304 1454H1428L378 0H254ZM326 602Q257 602 206 621T128 658L176 752Q209 737 245 725T338 712Q421 712 470 760T526 866Q535 941 480 974T322 1008V1096L388 1122Q445 1145 492 1177T546 1262Q552 1306
525 1333T444 1360Q410 1360 370 1352T288 1326L254 1420Q313 1450 367 1460T470 1470Q580 1470 639 1417T688 1280Q681 1217 632 1163T510 1076Q576 1060 626 1007T666 864Q657 795 611 736T492 639T326 602ZM1164 0L1244 660L940 288H996Q1056 288 1086 249T1126
178H792L806 290L1248 846H1394L1326 286H1422L1408 178H1312L1292 0H1164Z" />
<glyph unicode="&#xbf;" horiz-adv-x="1166" d="M548 -440Q433 -440 351 -400T229 -292T198 -140Q210 -40 258 37T373 182T505 319T621 471T684 664H828Q812 534 767 442T664 281T548 154T450 33T398 -110Q388 -189 440 -242T586 -296Q643 -296 711 -282T864 -224L898
-358Q799 -407 715 -423T548 -440ZM778 824Q726 824 696 859T672 946Q678 997 717 1030T808 1064Q859 1064 889 1031T914 946Q907 894 868 859T778 824Z" />
<glyph unicode="&#xc0;" horiz-adv-x="1374" d="M70 0L772 1454H958L1304 0H1100L836 1172L830 1230L808 1172L506 530L478 488L504 492H774Q822 492 852 472T899 419T926 348H422L260 0H70ZM982 1532Q947 1524 912 1525T846 1541T798 1584L676 1780H864L982 1532Z" />
<glyph unicode="&#xc1;" horiz-adv-x="1374" d="M70 0L772 1454H958L1304 0H1100L836 1172L830 1230L808 1172L506 530L478 488L504 492H774Q822 492 852 472T899 419T926 348H422L260 0H70ZM776 1532L984 1780H1178L978 1584Q947 1555 913 1541T844 1526T776 1532Z" />
<glyph unicode="&#xc2;" horiz-adv-x="1374" d="M70 0L772 1454H958L1304 0H1100L836 1172L830 1230L808 1172L506 530L478 488L504 492H774Q822 492 852 472T899 419T926 348H422L260 0H70ZM704 1522L608 1540L856 1780H970L1162 1540L1056 1524L894 1642L704 1522Z" />
<glyph unicode="&#xc3;" horiz-adv-x="1374" d="M70 0L772 1454H958L1304 0H1100L836 1172L830 1230L808 1172L506 530L478 488L504 492H774Q822 492 852 472T899 419T926 348H422L260 0H70ZM700 1554L592 1566Q609 1679 666 1730T796 1782Q832 1782 863 1770T918
1734Q942 1710 961 1690T1020 1670Q1047 1670 1065 1700T1096 1786L1200 1774Q1186 1690 1155 1643T1084 1577T1006 1558Q967 1558 935 1569T880 1604Q855 1628 838 1649T786 1670Q761 1670 738 1644T700 1554Z" />
<glyph unicode="&#xc4;" horiz-adv-x="1374" d="M70 0L772 1454H958L1304 0H1100L836 1172L830 1230L808 1172L506 530L478 488L504 492H774Q822 492 852 472T899 419T926 348H422L260 0H70ZM684 1576Q642 1576 615 1606T594 1680Q599 1724 633 1754T710 1784Q754
1784 781 1754T804 1680Q798 1637 763 1607T684 1576ZM1074 1576Q1031 1576 1004 1606T982 1680Q987 1724 1022 1754T1100 1784Q1142 1784 1169 1754T1192 1680Q1186 1637 1151 1607T1074 1576Z" />
<glyph unicode="&#xc5;" horiz-adv-x="1374" d="M70 0L772 1454H958L1304 0H1100L836 1172L830 1230L808 1172L506 530L478 488L504 492H774Q822 492 852 472T899 419T926 348H422L260 0H70ZM864 1430Q777 1430 728 1479T688 1602Q699 1680 760 1731T908 1782Q997
1782 1044 1732T1080 1604Q1071 1528 1010 1479T864 1430ZM872 1504Q919 1504 949 1533T984 1606Q990 1650 968 1679T898 1708Q856 1708 825 1679T788 1602Q784 1565 806 1535T872 1504Z" />
<glyph unicode="&#xc6;" horiz-adv-x="1950" d="M42 0L958 1454H1866L1848 1310H1200L1236 144H1844L1828 0H1066L1024 1210L1030 1290L990 1210L566 530L532 488L570 492H826Q874 492 904 472T951 419T978 348H456L240 0H42ZM1288 692Q1305 730 1329 762T1387
813T1470 832H1810L1792 692H1288Z" />
<glyph unicode="&#xc7;" horiz-adv-x="1304" d="M864 -24Q659 -24 507 66T279 325T232 724Q252 892 324 1030T506 1270T755 1425T1048 1480Q1132 1480 1219 1464T1394 1412L1326 1282Q1244 1311 1172 1322T1030 1334Q927 1334 829 1296T648 1182T511 992T436 724Q420
588 448 477T539 286T690 163T882 120Q951 120 1028 138T1194 198L1230 68Q1131 19 1040 -2T864 -24ZM652 -412Q618 -412 582 -404T500 -374L538 -288Q574 -303 604 -308T664 -314Q699 -314 736 -301T778 -252Q783 -214 746 -195T638 -168L702 -4L798 4L758 -100Q815
-106 861 -145T900 -246Q893 -306 854 -342T761 -395T652 -412Z" />
<glyph unicode="&#xc8;" horiz-adv-x="1154" d="M178 0L356 1454H1184L1166 1310H528L384 144H1052L1036 0H178ZM528 692Q547 730 573 762T634 813T718 832H1040L1022 692H528ZM894 1532Q859 1524 824 1525T758 1541T710 1584L588 1780H776L894 1532Z" />
<glyph unicode="&#xc9;" horiz-adv-x="1154" d="M178 0L356 1454H1184L1166 1310H528L384 144H1052L1036 0H178ZM528 692Q547 730 573 762T634 813T718 832H1040L1022 692H528ZM688 1532L896 1780H1090L890 1584Q859 1555 825 1541T756 1526T688 1532Z" />
<glyph unicode="&#xca;" horiz-adv-x="1154" d="M178 0L356 1454H1184L1166 1310H528L384 144H1052L1036 0H178ZM528 692Q547 730 573 762T634 813T718 832H1040L1022 692H528ZM616 1522L520 1540L768 1780H882L1074 1540L968 1524L806 1642L616 1522Z" />
<glyph unicode="&#xcb;" horiz-adv-x="1154" d="M178 0L356 1454H1184L1166 1310H528L384 144H1052L1036 0H178ZM528 692Q547 730 573 762T634 813T718 832H1040L1022 692H528ZM596 1576Q554 1576 527 1606T506 1680Q511 1724 545 1754T622 1784Q666 1784 693
1754T716 1680Q710 1637 675 1607T596 1576ZM986 1576Q943 1576 916 1606T894 1680Q899 1724 934 1754T1012 1784Q1054 1784 1081 1754T1104 1680Q1098 1637 1063 1607T986 1576Z" />
<glyph unicode="&#xcc;" horiz-adv-x="540" d="M178 0L356 1454H540L362 0H178ZM564 1532Q529 1524 494 1525T428 1541T380 1584L258 1780H446L564 1532Z" />
<glyph unicode="&#xcd;" horiz-adv-x="540" d="M178 0L356 1454H540L362 0H178ZM358 1532L566 1780H760L560 1584Q529 1555 495 1541T426 1526T358 1532Z" />
<glyph unicode="&#xce;" horiz-adv-x="540" d="M178 0L356 1454H540L362 0H178ZM542 1522L446 1540L694 1780H808L1000 1540L894 1524L732 1642L542 1522Z" />
<glyph unicode="&#xcf;" horiz-adv-x="540" d="M178 0L356 1454H540L362 0H178ZM266 1576Q224 1576 197 1606T176 1680Q181 1724 215 1754T292 1784Q336 1784 363 1754T386 1680Q380 1637 345 1607T266 1576ZM656 1576Q613 1576 586 1606T564 1680Q569 1724 604
1754T682 1784Q724 1784 751 1754T774 1680Q768 1637 733 1607T656 1576Z" />
<glyph unicode="&#xd0;" horiz-adv-x="1426" d="M724 -24Q657 -24 595 -18T448 10Q471 45 501 72T569 114T650 124Q682 121 699 121T740 120Q836 120 924 168T1086 300T1207 494T1270 730Q1294 923 1245 1058T1074 1263T754 1334Q694 1334 636 1330T530 1320L368
0H178L352 1432Q450 1455 567 1467T772 1480Q1026 1480 1192 1390T1431 1132T1474 730Q1455 567 1386 429T1213 190T984 32T724 -24ZM1172 776L1156 646H348L364 776H1172Z" />
<glyph unicode="&#xd1;" horiz-adv-x="1498" d="M208 0L386 1454H576L1144 326L1158 260L1164 330L1302 1454H1470L1292 0H1122L536 1162L516 1230L512 1162L370 0H208ZM774 1554L666 1566Q683 1679 740 1730T870 1782Q906 1782 937 1770T992 1734Q1016 1710 1035
1690T1094 1670Q1121 1670 1139 1700T1170 1786L1274 1774Q1260 1690 1229 1643T1158 1577T1080 1558Q1041 1558 1009 1569T954 1604Q929 1628 912 1649T860 1670Q835 1670 812 1644T774 1554Z" />
<glyph unicode="&#xd2;" horiz-adv-x="1582" d="M760 -28Q573 -28 431 62T219 322T178 728Q202 919 280 1061T469 1297T704 1437T946 1484Q1109 1484 1227 1425T1417 1261T1517 1020T1526 728Q1505 555 1435 416T1258 177T1024 25T760 -28ZM778 116Q919 116 1034
197T1225 418T1322 728Q1345 916 1299 1053T1155 1264T928 1338Q799 1338 683 1264T486 1053T382 728Q366 592 387 480T462 287T596 161T778 116ZM1058 1532Q1023 1524 988 1525T922 1541T874 1584L752 1780H940L1058 1532Z" />
<glyph unicode="&#xd3;" horiz-adv-x="1582" d="M760 -28Q573 -28 431 62T219 322T178 728Q202 919 280 1061T469 1297T704 1437T946 1484Q1109 1484 1227 1425T1417 1261T1517 1020T1526 728Q1505 555 1435 416T1258 177T1024 25T760 -28ZM778 116Q919 116 1034
197T1225 418T1322 728Q1345 916 1299 1053T1155 1264T928 1338Q799 1338 683 1264T486 1053T382 728Q366 592 387 480T462 287T596 161T778 116ZM852 1532L1060 1780H1254L1054 1584Q1023 1555 989 1541T920 1526T852 1532Z" />
<glyph unicode="&#xd4;" horiz-adv-x="1582" d="M760 -28Q573 -28 431 62T219 322T178 728Q202 919 280 1061T469 1297T704 1437T946 1484Q1109 1484 1227 1425T1417 1261T1517 1020T1526 728Q1505 555 1435 416T1258 177T1024 25T760 -28ZM778 116Q919 116 1034
197T1225 418T1322 728Q1345 916 1299 1053T1155 1264T928 1338Q799 1338 683 1264T486 1053T382 728Q366 592 387 480T462 287T596 161T778 116ZM780 1522L684 1540L932 1780H1046L1238 1540L1132 1524L970 1642L780 1522Z" />
<glyph unicode="&#xd5;" horiz-adv-x="1582" d="M760 -28Q573 -28 431 62T219 322T178 728Q202 919 280 1061T469 1297T704 1437T946 1484Q1109 1484 1227 1425T1417 1261T1517 1020T1526 728Q1505 555 1435 416T1258 177T1024 25T760 -28ZM778 116Q919 116 1034
197T1225 418T1322 728Q1345 916 1299 1053T1155 1264T928 1338Q799 1338 683 1264T486 1053T382 728Q366 592 387 480T462 287T596 161T778 116ZM776 1554L668 1566Q685 1679 742 1730T872 1782Q908 1782 939 1770T994 1734Q1018 1710 1037 1690T1096 1670Q1123
1670 1141 1700T1172 1786L1276 1774Q1262 1690 1231 1643T1160 1577T1082 1558Q1043 1558 1011 1569T956 1604Q931 1628 914 1649T862 1670Q837 1670 814 1644T776 1554Z" />
<glyph unicode="&#xd6;" horiz-adv-x="1582" d="M760 -28Q573 -28 431 62T219 322T178 728Q202 919 280 1061T469 1297T704 1437T946 1484Q1109 1484 1227 1425T1417 1261T1517 1020T1526 728Q1505 555 1435 416T1258 177T1024 25T760 -28ZM778 116Q919 116 1034
197T1225 418T1322 728Q1345 916 1299 1053T1155 1264T928 1338Q799 1338 683 1264T486 1053T382 728Q366 592 387 480T462 287T596 161T778 116ZM760 1576Q718 1576 691 1606T670 1680Q675 1724 709 1754T786 1784Q830 1784 857 1754T880 1680Q874 1637 839 1607T760
1576ZM1150 1576Q1107 1576 1080 1606T1058 1680Q1063 1724 1098 1754T1176 1784Q1218 1784 1245 1754T1268 1680Q1262 1637 1227 1607T1150 1576Z" />
<glyph unicode="&#xd7;" horiz-adv-x="1136" d="M216 158L138 248L544 612L226 972L330 1062L648 702L1050 1062L1128 972L726 612L1044 248L942 158L624 520L216 158Z" />
<glyph unicode="&#xd8;" horiz-adv-x="1582" d="M760 -28Q573 -28 431 62T219 322T178 728Q202 919 280 1061T469 1297T704 1437T946 1484Q1109 1484 1227 1425T1417 1261T1517 1020T1526 728Q1505 555 1435 416T1258 177T1024 25T760 -28ZM778 116Q919 116 1034
197T1225 418T1322 728Q1345 916 1299 1053T1155 1264T928 1338Q799 1338 683 1264T486 1053T382 728Q366 592 387 480T462 287T596 161T778 116ZM592 264Q572 290 561 325T552 400T582 478L1370 1576H1528L592 264ZM176 -122L368 148L470 72L334 -122H176Z" />
<glyph unicode="&#xd9;" horiz-adv-x="1388" d="M690 -28Q520 -28 409 42T249 240T220 536L334 1454H522L404 504Q383 327 466 222T708 116Q867 116 975 221T1104 504L1222 1454H1410L1296 536Q1276 367 1193 240T979 43T690 -28ZM988 1532Q953 1524 918 1525T852
1541T804 1584L682 1780H870L988 1532Z" />
<glyph unicode="&#xda;" horiz-adv-x="1388" d="M690 -28Q520 -28 409 42T249 240T220 536L334 1454H522L404 504Q383 327 466 222T708 116Q867 116 975 221T1104 504L1222 1454H1410L1296 536Q1276 367 1193 240T979 43T690 -28ZM782 1532L990 1780H1184L984
1584Q953 1555 919 1541T850 1526T782 1532Z" />
<glyph unicode="&#xdb;" horiz-adv-x="1388" d="M690 -28Q520 -28 409 42T249 240T220 536L334 1454H522L404 504Q383 327 466 222T708 116Q867 116 975 221T1104 504L1222 1454H1410L1296 536Q1276 367 1193 240T979 43T690 -28ZM710 1522L614 1540L862 1780H976L1168
1540L1062 1524L900 1642L710 1522Z" />
<glyph unicode="&#xdc;" horiz-adv-x="1388" d="M690 -28Q520 -28 409 42T249 240T220 536L334 1454H522L404 504Q383 327 466 222T708 116Q867 116 975 221T1104 504L1222 1454H1410L1296 536Q1276 367 1193 240T979 43T690 -28ZM690 1576Q648 1576 621 1606T600
1680Q605 1724 639 1754T716 1784Q760 1784 787 1754T810 1680Q804 1637 769 1607T690 1576ZM1080 1576Q1037 1576 1010 1606T988 1680Q993 1724 1028 1754T1106 1784Q1148 1784 1175 1754T1198 1680Q1192 1637 1157 1607T1080 1576Z" />
<glyph unicode="&#xdd;" horiz-adv-x="1320" d="M554 0L628 618L234 1454H450L822 674L740 0H554ZM888 752Q867 783 854 824T846 911T884 1004L1192 1454H1402L888 752ZM726 1532L934 1780H1128L928 1584Q897 1555 863 1541T794 1526T726 1532Z" />
<glyph unicode="&#xde;" horiz-adv-x="1218" d="M184 0L362 1454H546L508 1154Q562 1160 616 1163T730 1166Q891 1166 1002 1107T1166 947T1204 726Q1188 598 1110 506T919 360T684 296Q639 292 589 294T486 312Q505 346 533 373T598 417T676 434Q745 434 816
471T940 575T1002 726Q1012 810 976 876T871 981T712 1020Q657 1020 602 1017T490 1008L368 0H184Z" />
<glyph unicode="&#xdf;" horiz-adv-x="1134" d="M784 -24Q724 -24 659 -11T504 50L566 174Q629 144 685 132T784 120Q844 120 891 162T946 272Q954 337 925 382T848 465T755 546T681 650T664 802Q675 889 741 963T922 1082Q931 1105 937 1128T946 1176Q957 1271
902 1330T768 1390Q712 1390 653 1362T549 1272T492 1110L356 0H182L314 1090Q331 1222 390 1320T545 1472T762 1526Q886 1526 966 1478T1080 1349T1104 1176Q1097 1124 1075 1076T1008 968Q935 935 894 898T844 802Q836 738 866 694T943 611T1036 528T1109 420T1126
262Q1116 185 1067 120T943 16T784 -24Z" />
<glyph unicode="&#xe0;" horiz-adv-x="1130" d="M532 -10Q443 -22 369 12T242 117T168 289T160 512Q180 675 263 797T473 986T756 1054Q812 1054 866 1048T978 1027T1102 990L1024 352Q1009 232 1009 148T1014 10L878 0Q850 18 832 67T822 194L908 888Q863 900
823 905T738 910Q588 910 484 807T356 512Q342 399 361 310T434 174T580 142Q624 148 663 134T736 76Q685 40 631 19T532 -10ZM840 1204Q805 1195 770 1197T704 1214T650 1262L502 1480H696L840 1204Z" />
<glyph unicode="&#xe1;" horiz-adv-x="1130" d="M532 -10Q443 -22 369 12T242 117T168 289T160 512Q180 675 263 797T473 986T756 1054Q812 1054 866 1048T978 1027T1102 990L1024 352Q1009 232 1009 148T1014 10L878 0Q850 18 832 67T822 194L908 888Q863 900
823 905T738 910Q588 910 484 807T356 512Q342 399 361 310T434 174T580 142Q624 148 663 134T736 76Q685 40 631 19T532 -10ZM654 1204L866 1480H1060L858 1262Q827 1230 793 1215T723 1197T654 1204Z" />
<glyph unicode="&#xe2;" horiz-adv-x="1130" d="M532 -10Q443 -22 369 12T242 117T168 289T160 512Q180 675 263 797T473 986T756 1054Q812 1054 866 1048T978 1027T1102 990L1024 352Q1009 232 1009 148T1014 10L878 0Q850 18 832 67T822 194L908 888Q863 900
823 905T738 910Q588 910 484 807T356 512Q342 399 361 310T434 174T580 142Q624 148 663 134T736 76Q685 40 631 19T532 -10ZM582 1178L486 1196L740 1486H854L1040 1196L934 1180L778 1348L582 1178Z" />
<glyph unicode="&#xe3;" horiz-adv-x="1130" d="M532 -10Q443 -22 369 12T242 117T168 289T160 512Q180 675 263 797T473 986T756 1054Q812 1054 866 1048T978 1027T1102 990L1024 352Q1009 232 1009 148T1014 10L878 0Q850 18 832 67T822 194L908 888Q863 900
823 905T738 910Q588 910 484 807T356 512Q342 399 361 310T434 174T580 142Q624 148 663 134T736 76Q685 40 631 19T532 -10ZM564 1236L456 1248Q473 1361 530 1412T660 1464Q696 1464 727 1452T782 1416Q806 1392 825 1372T884 1352Q911 1352 929 1382T960 1468L1064
1456Q1050 1372 1019 1325T948 1259T870 1240Q831 1240 799 1251T744 1286Q719 1310 702 1331T650 1352Q625 1352 602 1326T564 1236Z" />
<glyph unicode="&#xe4;" horiz-adv-x="1130" d="M532 -10Q443 -22 369 12T242 117T168 289T160 512Q180 675 263 797T473 986T756 1054Q812 1054 866 1048T978 1027T1102 990L1024 352Q1009 232 1009 148T1014 10L878 0Q850 18 832 67T822 194L908 888Q863 900
823 905T738 910Q588 910 484 807T356 512Q342 399 361 310T434 174T580 142Q624 148 663 134T736 76Q685 40 631 19T532 -10ZM554 1236Q512 1236 485 1266T464 1340Q469 1384 503 1414T580 1444Q624 1444 651 1414T674 1340Q668 1297 633 1267T554 1236ZM944 1236Q901
1236 874 1266T852 1340Q857 1384 892 1414T970 1444Q1012 1444 1039 1414T1062 1340Q1056 1297 1021 1267T944 1236Z" />
<glyph unicode="&#xe5;" horiz-adv-x="1130" d="M532 -10Q443 -22 369 12T242 117T168 289T160 512Q180 675 263 797T473 986T756 1054Q812 1054 866 1048T978 1027T1102 990L1024 352Q1009 232 1009 148T1014 10L878 0Q850 18 832 67T822 194L908 888Q863 900
823 905T738 910Q588 910 484 807T356 512Q342 399 361 310T434 174T580 142Q624 148 663 134T736 76Q685 40 631 19T532 -10ZM740 1142Q653 1142 604 1191T564 1314Q575 1392 636 1443T784 1494Q873 1494 920 1444T956 1316Q947 1240 886 1191T740 1142ZM748 1216Q795
1216 825 1245T860 1318Q866 1362 844 1391T774 1420Q732 1420 701 1391T664 1314Q660 1277 682 1247T748 1216Z" />
<glyph unicode="&#xe6;" horiz-adv-x="1700" d="M424 -20Q268 -20 189 61T124 264Q136 365 197 431T385 539T720 604Q713 580 695 547T644 486T556 450Q466 436 417 409T348 348T322 276Q315 215 353 170T468 124Q594 124 676 228T782 524L796 642Q811 761 762
835T576 910Q522 910 469 899T338 862L308 986Q410 1028 487 1041T630 1054Q746 1054 826 994T934 838Q996 931 1106 992T1336 1054Q1439 1054 1512 1009T1625 885T1664 707T1616 500H1036Q1065 557 1107 595T1222 634H1476Q1495 711 1476 773T1410 873T1298 910Q1214
910 1145 865T1029 734T968 524Q953 405 983 315T1079 175T1236 124Q1305 124 1369 138T1524 196L1556 64Q1454 15 1362 -2T1198 -20Q1115 -20 1042 17T918 119T850 262Q812 176 748 113T600 15T424 -20Z" />
<glyph unicode="&#xe7;" horiz-adv-x="854" d="M562 -20Q428 -20 327 42T175 224T146 518Q168 691 249 810T448 992T694 1054Q748 1054 812 1045T934 1012L872 882Q817 897 769 903T676 910Q562 910 466 815T344 518Q328 383 356 296T443 167T580 124Q624 124
679 137T808 182L842 50Q755 10 682 -5T562 -20ZM414 -412Q380 -412 344 -404T262 -374L300 -288Q336 -303 366 -308T426 -314Q461 -314 498 -301T540 -252Q545 -214 508 -195T400 -168L464 -4L560 4L520 -100Q577 -106 623 -145T662 -246Q655 -306 616 -342T523
-395T414 -412Z" />
<glyph unicode="&#xe8;" horiz-adv-x="1088" d="M592 -20Q482 -20 398 21T260 135T184 308T176 526Q196 688 270 806T461 989T730 1054Q833 1054 906 1009T1019 885T1058 707T1010 500H430Q459 557 501 595T616 634H870Q889 711 870 773T804 873T692 910Q608 910
539 865T424 734T362 524Q347 405 377 315T473 175T630 124Q699 124 763 138T918 196L950 64Q848 15 756 -2T592 -20ZM812 1204Q777 1195 742 1197T676 1214T622 1262L474 1480H668L812 1204Z" />
<glyph unicode="&#xe9;" horiz-adv-x="1088" d="M592 -20Q482 -20 398 21T260 135T184 308T176 526Q196 688 270 806T461 989T730 1054Q833 1054 906 1009T1019 885T1058 707T1010 500H430Q459 557 501 595T616 634H870Q889 711 870 773T804 873T692 910Q608 910
539 865T424 734T362 524Q347 405 377 315T473 175T630 124Q699 124 763 138T918 196L950 64Q848 15 756 -2T592 -20ZM626 1204L838 1480H1032L830 1262Q799 1230 765 1215T695 1197T626 1204Z" />
<glyph unicode="&#xea;" horiz-adv-x="1088" d="M592 -20Q482 -20 398 21T260 135T184 308T176 526Q196 688 270 806T461 989T730 1054Q833 1054 906 1009T1019 885T1058 707T1010 500H430Q459 557 501 595T616 634H870Q889 711 870 773T804 873T692 910Q608 910
539 865T424 734T362 524Q347 405 377 315T473 175T630 124Q699 124 763 138T918 196L950 64Q848 15 756 -2T592 -20ZM554 1178L458 1196L712 1486H826L1012 1196L906 1180L750 1348L554 1178Z" />
<glyph unicode="&#xeb;" horiz-adv-x="1088" d="M592 -20Q482 -20 398 21T260 135T184 308T176 526Q196 688 270 806T461 989T730 1054Q833 1054 906 1009T1019 885T1058 707T1010 500H430Q459 557 501 595T616 634H870Q889 711 870 773T804 873T692 910Q608 910
539 865T424 734T362 524Q347 405 377 315T473 175T630 124Q699 124 763 138T918 196L950 64Q848 15 756 -2T592 -20ZM526 1236Q484 1236 457 1266T436 1340Q441 1384 475 1414T552 1444Q596 1444 623 1414T646 1340Q640 1297 605 1267T526 1236ZM916 1236Q873
1236 846 1266T824 1340Q829 1384 864 1414T942 1444Q984 1444 1011 1414T1034 1340Q1028 1297 993 1267T916 1236Z" />
<glyph unicode="&#xec;" horiz-adv-x="512" d="M160 0L286 1034H478L352 0H160ZM752 1204Q717 1195 682 1197T616 1214T562 1262L414 1480H608L752 1204Z" />
<glyph unicode="&#xed;" horiz-adv-x="512" d="M160 0L286 1034H478L352 0H160ZM310 1204L522 1480H716L514 1262Q483 1230 449 1215T379 1197T310 1204Z" />
<glyph unicode="&#xee;" horiz-adv-x="512" d="M160 0L286 1034H478L352 0H160ZM494 1178L398 1196L652 1486H766L952 1196L846 1180L690 1348L494 1178Z" />
<glyph unicode="&#xef;" horiz-adv-x="512" d="M160 0L286 1034H478L352 0H160ZM466 1236Q424 1236 397 1266T376 1340Q381 1384 415 1414T492 1444Q536 1444 563 1414T586 1340Q580 1297 545 1267T466 1236ZM856 1236Q813 1236 786 1266T764 1340Q769 1384 804
1414T882 1444Q924 1444 951 1414T974 1340Q968 1297 933 1267T856 1236Z" />
<glyph unicode="&#xf0;" horiz-adv-x="1114" d="M558 -20Q424 -20 323 42T171 224T142 518Q164 691 245 810T443 992T686 1054Q752 1054 799 1033T898 962Q856 1042 815 1102T696 1226L430 1106L404 1192L614 1290Q572 1323 528 1350T432 1404L510 1520Q578 1487
646 1446T772 1358L1010 1466L1040 1378L850 1292Q882 1262 932 1192T1028 1019T1099 790T1106 518Q1085 344 1004 224T805 42T558 -20ZM576 124Q652 124 722 166T842 296T908 518Q925 652 897 739T808 868T672 910Q596 910 527 868T407 739T340 518Q324 383 352
296T439 167T576 124Z" />
<glyph unicode="&#xf1;" horiz-adv-x="1192" d="M826 0L918 752Q926 821 900 865T812 910Q788 910 770 905T724 894Q664 881 616 893T532 948Q646 1011 720 1032T848 1054Q928 1054 992 1025T1089 926T1106 732L1018 0H826ZM170 0L264 772Q270 828 271 891T264
1024L410 1034Q452 980 460 927T460 814L362 0H170ZM564 1236L456 1248Q473 1361 530 1412T660 1464Q696 1464 727 1452T782 1416Q806 1392 825 1372T884 1352Q911 1352 929 1382T960 1468L1064 1456Q1050 1372 1019 1325T948 1259T870 1240Q831 1240 799 1251T744
1286Q719 1310 702 1331T650 1352Q625 1352 602 1326T564 1236Z" />
<glyph unicode="&#xf2;" horiz-adv-x="1132" d="M558 -20Q424 -20 323 42T171 224T142 518Q159 655 213 756T344 923T512 1021T690 1054Q843 1054 942 983T1083 790T1106 518Q1090 388 1040 288T913 119T746 15T558 -20ZM576 124Q673 124 742 178T853 321T908
518Q925 652 897 739T808 868T672 910Q596 910 527 868T407 739T340 518Q319 344 379 234T576 124ZM802 1204Q767 1195 732 1197T666 1214T612 1262L464 1480H658L802 1204Z" />
<glyph unicode="&#xf3;" horiz-adv-x="1132" d="M558 -20Q424 -20 323 42T171 224T142 518Q159 655 213 756T344 923T512 1021T690 1054Q843 1054 942 983T1083 790T1106 518Q1090 388 1040 288T913 119T746 15T558 -20ZM576 124Q673 124 742 178T853 321T908
518Q925 652 897 739T808 868T672 910Q596 910 527 868T407 739T340 518Q319 344 379 234T576 124ZM616 1204L828 1480H1022L820 1262Q789 1230 755 1215T685 1197T616 1204Z" />
<glyph unicode="&#xf4;" horiz-adv-x="1132" d="M558 -20Q424 -20 323 42T171 224T142 518Q159 655 213 756T344 923T512 1021T690 1054Q843 1054 942 983T1083 790T1106 518Q1090 388 1040 288T913 119T746 15T558 -20ZM576 124Q673 124 742 178T853 321T908
518Q925 652 897 739T808 868T672 910Q596 910 527 868T407 739T340 518Q319 344 379 234T576 124ZM544 1178L448 1196L702 1486H816L1002 1196L896 1180L740 1348L544 1178Z" />
<glyph unicode="&#xf5;" horiz-adv-x="1132" d="M558 -20Q424 -20 323 42T171 224T142 518Q159 655 213 756T344 923T512 1021T690 1054Q843 1054 942 983T1083 790T1106 518Q1090 388 1040 288T913 119T746 15T558 -20ZM576 124Q673 124 742 178T853 321T908
518Q925 652 897 739T808 868T672 910Q596 910 527 868T407 739T340 518Q319 344 379 234T576 124ZM526 1236L418 1248Q435 1361 492 1412T622 1464Q658 1464 689 1452T744 1416Q768 1392 787 1372T846 1352Q873 1352 891 1382T922 1468L1026 1456Q1012 1372 981
1325T910 1259T832 1240Q793 1240 761 1251T706 1286Q681 1310 664 1331T612 1352Q587 1352 564 1326T526 1236Z" />
<glyph unicode="&#xf6;" horiz-adv-x="1132" d="M558 -20Q424 -20 323 42T171 224T142 518Q159 655 213 756T344 923T512 1021T690 1054Q843 1054 942 983T1083 790T1106 518Q1090 388 1040 288T913 119T746 15T558 -20ZM576 124Q673 124 742 178T853 321T908
518Q925 652 897 739T808 868T672 910Q596 910 527 868T407 739T340 518Q319 344 379 234T576 124ZM516 1236Q474 1236 447 1266T426 1340Q431 1384 465 1414T542 1444Q586 1444 613 1414T636 1340Q630 1297 595 1267T516 1236ZM906 1236Q863 1236 836 1266T814
1340Q819 1384 854 1414T932 1444Q974 1444 1001 1414T1024 1340Q1018 1297 983 1267T906 1236Z" />
<glyph unicode="&#xf7;" horiz-adv-x="1136" d="M160 546L176 674H1112L1096 546H160ZM574 124Q531 124 507 152T486 224Q492 269 524 298T600 328Q645 328 670 299T690 224Q686 181 653 153T574 124ZM668 888Q625 888 601 916T580 988Q586 1033 618 1062T694
1092Q739 1092 764 1063T784 988Q780 945 747 917T668 888Z" />
<glyph unicode="&#xf8;" horiz-adv-x="1132" d="M558 -20Q424 -20 323 42T171 224T142 518Q159 655 213 756T344 923T512 1021T690 1054Q843 1054 942 983T1083 790T1106 518Q1090 388 1040 288T913 119T746 15T558 -20ZM576 124Q673 124 742 178T853 321T908
518Q925 652 897 739T808 868T672 910Q596 910 527 868T407 739T340 518Q319 344 379 234T576 124ZM492 228Q462 267 460 326T488 434L1008 1156H1156L492 228ZM90 -122L268 130L372 58L244 -122H90Z" />
<glyph unicode="&#xf9;" horiz-adv-x="1174" d="M428 -20Q349 -20 287 9T194 108T178 302L268 1034H456L364 282Q355 213 379 169T466 124Q490 124 508 129T554 140Q614 154 662 142T748 86Q634 23 558 2T428 -20ZM870 0Q828 54 820 107T818 220L918 1034H1104L1010
262Q1003 207 1003 144T1012 10L870 0ZM810 1204Q775 1195 740 1197T674 1214T620 1262L472 1480H666L810 1204Z" />
<glyph unicode="&#xfa;" horiz-adv-x="1174" d="M428 -20Q349 -20 287 9T194 108T178 302L268 1034H456L364 282Q355 213 379 169T466 124Q490 124 508 129T554 140Q614 154 662 142T748 86Q634 23 558 2T428 -20ZM870 0Q828 54 820 107T818 220L918 1034H1104L1010
262Q1003 207 1003 144T1012 10L870 0ZM624 1204L836 1480H1030L828 1262Q797 1230 763 1215T693 1197T624 1204Z" />
<glyph unicode="&#xfb;" horiz-adv-x="1174" d="M428 -20Q349 -20 287 9T194 108T178 302L268 1034H456L364 282Q355 213 379 169T466 124Q490 124 508 129T554 140Q614 154 662 142T748 86Q634 23 558 2T428 -20ZM870 0Q828 54 820 107T818 220L918 1034H1104L1010
262Q1003 207 1003 144T1012 10L870 0ZM552 1178L456 1196L710 1486H824L1010 1196L904 1180L748 1348L552 1178Z" />
<glyph unicode="&#xfc;" horiz-adv-x="1174" d="M428 -20Q349 -20 287 9T194 108T178 302L268 1034H456L364 282Q355 213 379 169T466 124Q490 124 508 129T554 140Q614 154 662 142T748 86Q634 23 558 2T428 -20ZM870 0Q828 54 820 107T818 220L918 1034H1104L1010
262Q1003 207 1003 144T1012 10L870 0ZM524 1236Q482 1236 455 1266T434 1340Q439 1384 473 1414T550 1444Q594 1444 621 1414T644 1340Q638 1297 603 1267T524 1236ZM914 1236Q871 1236 844 1266T822 1340Q827 1384 862 1414T940 1444Q982 1444 1009 1414T1032
1340Q1026 1297 991 1267T914 1236Z" />
<glyph unicode="&#xfd;" horiz-adv-x="1058" d="M180 -492Q140 -490 97 -483T12 -462L76 -330Q109 -339 139 -343T198 -348Q275 -348 328 -292T428 -141T532 74L960 1034L1148 1020L664 22Q612 -84 564 -176T463 -340T342 -451T180 -492ZM408 20L158 1034H354L490
358Q505 294 498 229T466 108T408 20ZM590 1204L802 1480H996L794 1262Q763 1230 729 1215T659 1197T590 1204Z" />
<glyph unicode="&#xfe;" horiz-adv-x="1196" d="M122 -482L368 1516H548L380 156Q427 138 480 131T578 124Q721 124 817 234T936 522Q952 654 926 740T840 866T694 902Q649 899 613 922T550 992Q606 1018 667 1032T774 1046Q856 1046 927 1013T1050 915T1125 751T1132
522Q1112 363 1033 241T832 50T560 -20Q506 -20 462 -13T362 16L302 -482H122Z" />
<glyph unicode="&#xff;" horiz-adv-x="1058" d="M180 -492Q140 -490 97 -483T12 -462L76 -330Q109 -339 139 -343T198 -348Q275 -348 328 -292T428 -141T532 74L960 1034L1148 1020L664 22Q612 -84 564 -176T463 -340T342 -451T180 -492ZM408 20L158 1034H354L490
358Q505 294 498 229T466 108T408 20ZM490 1236Q448 1236 421 1266T400 1340Q405 1384 439 1414T516 1444Q560 1444 587 1414T610 1340Q604 1297 569 1267T490 1236ZM880 1236Q837 1236 810 1266T788 1340Q793 1384 828 1414T906 1444Q948 1444 975 1414T998 1340Q992
1297 957 1267T880 1236Z" />
<glyph unicode="&#x2013;" horiz-adv-x="1080" d="M148 486L164 614H1012L996 486H148Z" />
<glyph unicode="&#x2014;" horiz-adv-x="1698" d="M148 486L164 614H1642L1626 486H148Z" />
<glyph unicode="&#x2018;" horiz-adv-x="410" d="M478 1454L428 1062H254L274 1218Q279 1258 292 1304T329 1388T389 1447T478 1454Z" />
<glyph unicode="&#x2019;" horiz-adv-x="448" d="M290 1062L340 1454H514L494 1298Q489 1258 476 1212T439 1128T379 1069T290 1062Z" />
<glyph unicode="&#x201a;" horiz-adv-x="394" d="M86 -196L136 196H310L290 40Q285 0 272 -46T235 -130T175 -189T86 -196Z" />
<glyph unicode="&#x201c;" horiz-adv-x="742" d="M462 1454L412 1062H238L258 1218Q263 1258 276 1304T313 1388T373 1447T462 1454ZM810 1454L760 1062H586L606 1218Q611 1258 624 1304T661 1388T721 1447T810 1454Z" />
<glyph unicode="&#x201d;" horiz-adv-x="742" d="M236 1062L286 1454H460L440 1298Q435 1258 422 1212T385 1128T325 1069T236 1062ZM584 1062L634 1454H808L788 1298Q783 1258 770 1212T733 1128T673 1069T584 1062Z" />
<glyph unicode="&#x201e;" horiz-adv-x="724" d="M86 -196L136 196H310L290 40Q285 0 272 -46T235 -130T175 -189T86 -196ZM432 -196L482 196H656L636 40Q631 0 618 -46T581 -130T521 -189T432 -196Z" />
<glyph unicode="&#x2022;" horiz-adv-x="1000" d="M572 482Q508 482 472 524T442 630Q450 695 498 738T610 782Q675 782 712 739T742 630Q735 566 686 524T572 482Z" />
<glyph unicode="&#x2039;" horiz-adv-x="1226" d="M838 100L456 516L940 932L1016 846L688 516L936 186L838 100Z" />
<glyph unicode="&#x203a;" horiz-adv-x="1226" d="M494 100L416 186L744 516L496 846L596 932L976 516L494 100Z" />
</font>
</defs>
</svg>
