<?xml version="1.0" standalone="no"?>
<!DOCTYPE svg PUBLIC "-//W3C//DTD SVG 1.1//EN" "http://www.w3.org/Graphics/SVG/1.1/DTD/svg11.dtd">
<svg xmlns="http://www.w3.org/2000/svg">
<defs >
<font id="Graduate" horiz-adv-x="602" ><font-face
    font-family="Graduate"
    units-per-em="1000"
    panose-1="2 0 5 3 0 0 0 2 0 4"
    ascent="953"
    descent="-186"
    alphabetic="0" />
<glyph unicode=" " glyph-name="space" horiz-adv-x="350" />
<glyph unicode="!" glyph-name="exclam" horiz-adv-x="260" d="M80 120H180V0H80V120ZM80 750H180V470L150 220H110L80 470V750Z" />
<glyph unicode="&quot;" glyph-name="quotedbl" horiz-adv-x="400" d="M70 800H170V700L140 550H100L70 700V800ZM230 800H330V700L300 550H260L230 700V800Z" />
<glyph unicode="#" glyph-name="numbersign" horiz-adv-x="650" d="M324 0L378 200H175L121 0H44L98 200H-1L18 269H117L175 482H76L95 551H194L249 750H326L271 551H474L529 750H606L551 551H651L632 482H532L474 269H574L555 200H455L401 0H324ZM252 482L194
269H397L455 482H252Z" />
<glyph unicode="$" glyph-name="dollar" horiz-adv-x="650" d="M370 664V423H469L570 317V110L466 0H370V-100H300V0H164L82 86L143 147L204 86H300V337H202L100 444V640L204 750H300V850H370V750H486L568 664L507 603L447 664H370ZM370 337V86H427L478 139V288L430
337H370ZM300 423V664H244L192 611V473L241 423H300Z" />
<glyph unicode="%" glyph-name="percent" horiz-adv-x="940" d="M634 0L569 69V383L634 452H806L870 383V69L806 0H634ZM664 68H776L803 95V357L776 384H664L637 357V95L664 68ZM135 298L70 367V681L135 750H307L371 681V367L307 298H135ZM165 366H277L304 393V655L277
682H165L138 655V393L165 366ZM279 -35L584 784H661L356 -35H279Z" />
<glyph unicode="&amp;" glyph-name="ampersand" horiz-adv-x="674" d="M617 415V335H560L472 186L547 80H654V0H492L421 101L362 0H154L50 110V353L100 415H202L148 492V640L252 750H449L553 640V544H473V599L410 664H290L234 605V527L422 258L513 415H617ZM136
335V145L194 86H322L372 172L258 335H136Z" />
<glyph unicode="&apos;" glyph-name="quotesingle" horiz-adv-x="240" d="M70 800H170V700L140 550H100L70 700V800Z" />
<glyph unicode="(" glyph-name="parenleft" horiz-adv-x="352" d="M322 850V764H252L180 611V139L251 -14H322V-100H192L88 110V640L192 850H322Z" />
<glyph unicode=")" glyph-name="parenright" horiz-adv-x="352" d="M30 -100V-14H101L172 139V611L100 764H30V850H160L264 640V110L160 -100H30Z" />
<glyph unicode="*" glyph-name="asterisk" horiz-adv-x="467" d="M194 800H274V710L258 643L318 679L403 706L427 630L343 603L274 596L326 551L379 478L314 432L262 503L234 567L207 504L154 431L90 478L142 550L194 596L126 602L40 630L65 706L150 678L209 643L194
710V800Z" />
<glyph unicode="+" glyph-name="plus" horiz-adv-x="650" d="M285 165V335H115V415H285V585H365V415H535V335H365V165H285Z" />
<glyph unicode="," glyph-name="comma" horiz-adv-x="200" d="M50 120H150V30L90 -130H50V120Z" />
<glyph unicode="-" glyph-name="hyphen" horiz-adv-x="509" d="M100 415H409V335H100V415Z" />
<glyph unicode="." glyph-name="period" horiz-adv-x="200" d="M50 120H150V0H50V120Z" />
<glyph unicode="/" glyph-name="slash" horiz-adv-x="392" d="M5 -80L310 830H387L82 -80H5Z" />
<glyph unicode="0" glyph-name="zero" horiz-adv-x="650" d="M184 0L80 110V640L184 750H466L570 640V110L466 0H184ZM223 86H426L483 144V606L427 664H224L167 606V144L223 86ZM275 435H375V315H275V435Z" />
<glyph unicode="1" glyph-name="one" horiz-adv-x="650" d="M401 750V80H551V0H159V80H309V653L146 572L107 650L309 750H401Z" />
<glyph unicode="2" glyph-name="two" horiz-adv-x="650" d="M545 0H85V80L438 473V611L386 664H233L173 602V514H90V640L194 750H426L530 640V444L197 80H465V196H545V0Z" />
<glyph unicode="3" glyph-name="three" horiz-adv-x="650" d="M232 333V413H390L438 462V611L386 664H233L173 602V514H90V640L194 750H426L530 640V433L479 380L549 307V110L445 0H193L89 110V236H172V148L233 86H406L457 139V278L403 333H232Z" />
<glyph unicode="4" glyph-name="four" horiz-adv-x="650" d="M310 80H390V187H40V267L332 750H482V267H545V187H482V80H552V0H310V80ZM390 267V679L141 267H390Z" />
<glyph unicode="5" glyph-name="five" horiz-adv-x="650" d="M459 554V670H199V453H458L559 347V110L455 0H203L99 110V236H182V148L243 86H416L467 139V318L413 373H119V750H539V554H459Z" />
<glyph unicode="6" glyph-name="six" horiz-adv-x="650" d="M100 110V640L204 750H436L540 640V514H457V602L397 664H244L187 606V433H459L560 327V110L456 0H204L100 110ZM187 353V144L244 86H417L468 139V298L414 353H187Z" />
<glyph unicode="7" glyph-name="seven" horiz-adv-x="650" d="M159 80H234L461 670H170V554H90V750H556V670L329 80H411V0H159V80Z" />
<glyph unicode="8" glyph-name="eight" horiz-adv-x="650" d="M90 110V317L155 386L100 444V640L204 750H447L551 640V444L495 385L560 317V110L456 0H194L90 110ZM420 337H230L182 288V139L234 86H417L468 139V288L420 337ZM192 473L241 423H410L459 473V611L407
664H244L192 611V473Z" />
<glyph unicode="9" glyph-name="nine" horiz-adv-x="650" d="M100 236H183V148L243 86H406L463 144V317H201L100 423V640L204 750H446L550 640V110L446 0H204L100 110V236ZM463 397V606L406 664H243L192 611V452L246 397H463Z" />
<glyph unicode=":" glyph-name="colon" horiz-adv-x="200" d="M50 120H150V0H50V120ZM50 520H150V400H50V520Z" />
<glyph unicode=";" glyph-name="semicolon" horiz-adv-x="200" d="M50 120H150V30L90 -130H50V120ZM50 520H150V400H50V520Z" />
<glyph unicode="&lt;" glyph-name="less" horiz-adv-x="650" d="M115 415L535 615V535L199 375L535 215V135L115 335V415Z" />
<glyph unicode="=" glyph-name="equal" horiz-adv-x="650" d="M115 535H535V455H115V535ZM115 295H535V215H115V295Z" />
<glyph unicode="&gt;" glyph-name="greater" horiz-adv-x="650" d="M115 215L451 375L115 535V615L535 415V335L115 135V215Z" />
<glyph unicode="?" glyph-name="question" horiz-adv-x="519" d="M143 514H60V640L164 750H355L459 640V444L248 214L188 274L367 473V611L315 664H203L143 602V514ZM189 120H289V0H189V120Z" />
<glyph unicode="@" glyph-name="at" horiz-adv-x="950" d="M769 -20V-100H204L100 10V640L204 750H746L850 640V304L746 194H682L728 50H636L590 194H390L345 50H253L427 600H554L657 274H711L770 335V608L711 670H239L180 609V41L239 -20H769ZM490 510L416 274H565L490
510Z" />
<glyph unicode="A" glyph-name="A" horiz-adv-x="657" d="M195 750H462V670H416L592 80H642V0H430V80H500L454 234H203L157 80H227V0H15V80H65L241 670H195V750ZM328 655L227 314H430L328 655Z" />
<glyph unicode="B" glyph-name="B" horiz-adv-x="684" d="M80 750H480L584 640V460L530 403L604 326V110L500 0H80V80H150V670H80V750ZM242 356V86H460L518 145V291L455 356H242ZM242 664V436H440L498 495V605L441 664H242Z" />
<glyph unicode="C" glyph-name="C" horiz-adv-x="600" d="M460 236H540V110L436 0H184L80 110V640L184 750H436L540 640V514H460V599L397 664H224L172 611V139L223 86H396L460 151V236Z" />
<glyph unicode="D" glyph-name="D" horiz-adv-x="690" d="M80 750H506L610 640V110L506 0H80V80H150V670H80V750ZM242 86H466L518 139V611L467 664H242V86Z" />
<glyph unicode="E" glyph-name="E" horiz-adv-x="636" d="M80 750H556V554H476V670H242V415H476V335H242V80H476V196H556V0H80V80H150V670H80V750Z" />
<glyph unicode="F" glyph-name="F" horiz-adv-x="596" d="M80 750H556V554H476V670H242V415H476V335H242V80H322V0H80V80H150V670H80V750Z" />
<glyph unicode="G" glyph-name="G" horiz-adv-x="620" d="M470 305H332V385H550V110L446 0H184L80 110V640L184 750H446L550 640V514H470V599L407 664H224L172 611V139L223 86H406L470 151V305Z" />
<glyph unicode="H" glyph-name="H" horiz-adv-x="792" d="M80 750H312V670H242V415H550V670H480V750H712V670H642V80H712V0H480V80H550V335H242V80H312V0H80V80H150V670H80V750Z" />
<glyph unicode="I" glyph-name="I" horiz-adv-x="392" d="M70 80H150V670H70V750H322V670H242V80H322V0H70V80Z" />
<glyph unicode="J" glyph-name="J" horiz-adv-x="540" d="M328 670H258V750H480V670H420V110L316 0H124L20 110V286H100V151L163 86H276L328 139V670Z" />
<glyph unicode="K" glyph-name="K" horiz-adv-x="669" d="M649 0H437V80H495L333 335H242V80H312V0H80V80H150V670H80V750H312V670H242V415H326L486 670H427V750H639V670H589L407 381L598 80H649V0Z" />
<glyph unicode="L" glyph-name="L" horiz-adv-x="556" d="M80 750H322V670H242V80H460V196H536V0H80V80H150V670H80V750Z" />
<glyph unicode="M" glyph-name="M" horiz-adv-x="946" d="M80 750H284L473 194L662 750H866V670H796V80H866V0H634V80H704V617L517 80H429L242 617V80H312V0H80V80H150V670H80V750Z" />
<glyph unicode="N" glyph-name="N" horiz-adv-x="812" d="M242 80H312V0H80V80H150V670H80V750H288L580 113V670H510V750H742V670H672V0H534L242 636V80Z" />
<glyph unicode="O" glyph-name="O" horiz-adv-x="650" d="M184 0L80 110V640L184 750H466L570 640V110L466 0H184ZM223 86H426L478 139V611L427 664H224L172 611V139L223 86Z" />
<glyph unicode="P" glyph-name="P" horiz-adv-x="624" d="M80 750H480L584 640V410L480 300H242V80H322V0H80V80H150V670H80V750ZM242 664V386H440L498 445V605L441 664H242Z" />
<glyph unicode="Q" glyph-name="Q" horiz-adv-x="650" d="M362 0V-100H287V0H184L80 110V640L184 750H466L570 640V110L466 0H362ZM287 86V236H362V86H426L478 139V611L427 664H224L172 611V139L223 86H287Z" />
<glyph unicode="R" glyph-name="R" horiz-adv-x="699" d="M80 750H480L584 640V420L480 310L587 80H639V0H451V80H490L383 310H242V80H302V0H80V80H150V670H80V750ZM242 664V396H440L498 455V605L441 664H242Z" />
<glyph unicode="S" glyph-name="S" horiz-adv-x="600" d="M520 514H437V602L377 664H224L172 611V473L221 423H429L530 317V110L426 0H174L70 110V236H153V148L214 86H387L438 139V288L390 337H182L80 444V640L184 750H416L520 640V514Z" />
<glyph unicode="T" glyph-name="T" horiz-adv-x="580" d="M436 0H144V80H244V670H96V554H20V750H560V554H484V670H336V80H436V0Z" />
<glyph unicode="U" glyph-name="U" horiz-adv-x="740" d="M448 750H670V670H610V110L506 0H234L130 110V670H70V750H292V670H222V139L273 86H466L518 139V670H448V750Z" />
<glyph unicode="V" glyph-name="V" horiz-adv-x="687" d="M20 670V750H232V670H163L343 91L524 670H455V750H667V670H616L407 0H280L71 670H20Z" />
<glyph unicode="W" glyph-name="W" horiz-adv-x="1026" d="M20 670V750H232V670H158L303 110L448 670H405V750H621V670H577L722 110L867 670H794V750H1006V670H959L786 0H663L513 579L363 0H240L66 670H20Z" />
<glyph unicode="X" glyph-name="X" horiz-adv-x="649" d="M242 0H30V80H80L271 386L91 670H40V750H252V670H194L326 462L456 670H397V750H609V670H559L378 380L568 80H619V0H407V80H465L323 304L183 80H242V0Z" />
<glyph unicode="Y" glyph-name="Y" horiz-adv-x="607" d="M440 0H168V80H258V234L70 670H20V750H232V670H158L303 333L448 670H375V750H587V670H536L350 237V80H440V0Z" />
<glyph unicode="Z" glyph-name="Z" horiz-adv-x="596" d="M155 670V554H75V750H541V670L158 80H461V196H541V0H55V80L438 670H155Z" />
<glyph unicode="[" glyph-name="bracketleft" horiz-adv-x="352" d="M120 -100V850H322V790L212 770V-20L322 -40V-100H120Z" />
<glyph unicode="\" glyph-name="backslash" horiz-adv-x="392" d="M82 830L387 -80H310L5 830H82Z" />
<glyph unicode="]" glyph-name="bracketright" horiz-adv-x="352" d="M30 850H232V-100H30V-40L140 -20V770L30 790V850Z" />
<glyph unicode="^" glyph-name="asciicircum" horiz-adv-x="650" d="M365 750L505 499H425L325 678L225 499H145L285 750H365Z" />
<glyph unicode="_" glyph-name="underscore" horiz-adv-x="621" d="M50 0H571V-80H50V0Z" />
<glyph unicode="`" glyph-name="grave" horiz-adv-x="423" d="M130 743L159 826L353 749L340 711H208L130 743Z" />
<glyph unicode="a" glyph-name="a" horiz-adv-x="657" d="M430 0V80H496L453 204H203L160 80H227V0H15V80H68L237 570H195V650H462V570H419L588 80H642V0H430ZM328 567L230 284H426L328 567Z" />
<glyph unicode="b" glyph-name="b" horiz-adv-x="684" d="M80 650H480L584 540V400L530 343L604 266V110L500 0H80V80H150V570H80V650ZM242 296V86H460L518 145V231L455 296H242ZM242 564V376H440L498 435V505L441 564H242Z" />
<glyph unicode="c" glyph-name="c" horiz-adv-x="600" d="M460 236H540V110L436 0H184L80 110V540L184 650H436L540 540V414H460V499L397 564H224L172 511V139L223 86H396L460 151V236Z" />
<glyph unicode="d" glyph-name="d" horiz-adv-x="690" d="M80 650H506L610 540V110L506 0H80V80H150V570H80V650ZM242 86H466L518 139V511L467 564H242V86Z" />
<glyph unicode="e" glyph-name="e" horiz-adv-x="636" d="M80 650H556V454H476V570H242V365H476V285H242V80H476V196H556V0H80V80H150V570H80V650Z" />
<glyph unicode="f" glyph-name="f" horiz-adv-x="596" d="M80 650H556V454H476V570H242V365H476V285H242V80H322V0H80V80H150V570H80V650Z" />
<glyph unicode="g" glyph-name="g" horiz-adv-x="620" d="M470 255H332V335H550V110L446 0H184L80 110V540L184 650H446L550 540V414H470V499L407 564H224L172 511V139L223 86H406L470 151V255Z" />
<glyph unicode="h" glyph-name="h" horiz-adv-x="792" d="M80 650H312V570H242V365H550V570H480V650H712V570H642V80H712V0H480V80H550V285H242V80H312V0H80V80H150V570H80V650Z" />
<glyph unicode="i" glyph-name="i" horiz-adv-x="392" d="M70 80H150V570H70V650H322V570H242V80H322V0H70V80Z" />
<glyph unicode="j" glyph-name="j" horiz-adv-x="540" d="M328 570H258V650H480V570H420V110L316 0H124L20 110V286H100V151L163 86H276L328 139V570Z" />
<glyph unicode="k" glyph-name="k" horiz-adv-x="669" d="M649 0H437V80H488L341 285H242V80H312V0H80V80H150V570H80V650H312V570H242V365H330L478 570H427V650H639V570H581L410 332L591 80H649V0Z" />
<glyph unicode="l" glyph-name="l" horiz-adv-x="556" d="M80 650H322V570H242V80H460V196H536V0H80V80H150V570H80V650Z" />
<glyph unicode="m" glyph-name="m" horiz-adv-x="946" d="M242 80H312V0H80V80H150V570H80V650H284L473 177L662 650H866V570H796V80H866V0H634V80H704V537L517 80H429L242 537V80Z" />
<glyph unicode="n" glyph-name="n" horiz-adv-x="812" d="M242 80H312V0H80V80H150V570H80V650H288L580 98V570H510V650H742V570H672V0H534L242 551V80Z" />
<glyph unicode="o" glyph-name="o" horiz-adv-x="650" d="M184 0L80 110V540L184 650H466L570 540V110L466 0H184ZM223 86H426L478 139V511L427 564H224L172 511V139L223 86Z" />
<glyph unicode="p" glyph-name="p" horiz-adv-x="624" d="M80 650H480L584 540V330L480 220H242V80H322V0H80V80H150V570H80V650ZM242 564V306H440L498 365V505L441 564H242Z" />
<glyph unicode="q" glyph-name="q" horiz-adv-x="650" d="M362 0V-100H287V0H184L80 110V540L184 650H466L570 540V110L466 0H362ZM287 86V206H362V86H426L478 139V511L427 564H224L172 511V139L223 86H287Z" />
<glyph unicode="r" glyph-name="r" horiz-adv-x="699" d="M80 650H480L584 540V340L483 234L576 80H629V0H451V80H479L389 230H242V80H302V0H80V80H150V570H80V650ZM242 564V316H440L498 375V505L441 564H242Z" />
<glyph unicode="s" glyph-name="s" horiz-adv-x="600" d="M520 414H437V502L377 564H224L172 511V413L221 363H429L530 257V110L426 0H174L70 110V236H153V148L214 86H387L438 139V228L390 277H182L80 384V540L184 650H416L520 540V414Z" />
<glyph unicode="t" glyph-name="t" horiz-adv-x="580" d="M436 0H144V80H244V570H106V454H30V650H550V454H474V570H336V80H436V0Z" />
<glyph unicode="u" glyph-name="u" horiz-adv-x="740" d="M448 650H670V570H610V110L506 0H234L130 110V570H70V650H292V570H222V139L273 86H466L518 139V570H448V650Z" />
<glyph unicode="v" glyph-name="v" horiz-adv-x="687" d="M20 570V650H232V570H167L343 79L520 570H455V650H667V570H612L407 0H280L75 570H20Z" />
<glyph unicode="w" glyph-name="w" horiz-adv-x="1026" d="M20 570V650H232V570H162L303 95L445 570H405V650H621V570H581L722 95L864 570H794V650H1006V570H956L786 0H663L513 503L363 0H240L70 570H20Z" />
<glyph unicode="x" glyph-name="x" horiz-adv-x="649" d="M242 0H30V80H88L272 333L98 570H40V650H252V570H201L330 393L458 570H407V650H619V570H561L382 323L560 80H619V0H407V80H457L323 263L191 80H242V0Z" />
<glyph unicode="y" glyph-name="y" horiz-adv-x="607" d="M440 0H168V80H258V204L84 570H20V650H232V570H172L303 293L435 570H375V650H587V570H523L350 206V80H440V0Z" />
<glyph unicode="z" glyph-name="z" horiz-adv-x="596" d="M155 570V454H75V650H541V570L159 80H461V196H541V0H55V80L438 570H155Z" />
<glyph unicode="{" glyph-name="braceleft" horiz-adv-x="352" d="M314 -14V-100H209L105 10L127 289L65 342V408L127 461L105 740L209 850H314V764H249L197 711L219 442L146 375L219 308L197 39L249 -14H314Z" />
<glyph unicode="|" glyph-name="bar" horiz-adv-x="317" d="M120 -80V830H197V-80H120Z" />
<glyph unicode="}" glyph-name="braceright" horiz-adv-x="352" d="M38 764V850H143L247 740L225 461L287 408V342L225 289L247 10L143 -100H38V-14H103L155 39L133 308L206 375L133 442L155 711L103 764H38Z" />
<glyph unicode="~" glyph-name="asciitilde" horiz-adv-x="650" d="M389 281L241 367L196 355L160 292L85 335L141 433L261 461L409 375L454 387L490 450L565 407L509 309L389 281Z" />
<glyph unicode="&#xa1;" glyph-name="exclamdown" horiz-adv-x="260" d="M180 530H80V650H180V530ZM180 -100H80V180L110 430H150L180 180V-100Z" />
<glyph unicode="&#xa2;" glyph-name="cent" horiz-adv-x="650" d="M313 1V100H204L100 210V540L204 650H313V751H383V650H496L581 560L520 499L457 564H383V186H456L520 251L581 190L496 100H383V1H313ZM313 186V564H244L192 511V239L243 186H313Z" />
<glyph unicode="&#xa3;" glyph-name="sterling" horiz-adv-x="650" d="M97 404H159V640L263 750H475L557 664L496 603L436 664H303L251 611V404H466V334H251V188L203 80H485V196H565V0H79V80H109L159 192V334H97V404Z" />
<glyph unicode="&#xa5;" glyph-name="yen" horiz-adv-x="650" d="M462 0H190V80H280V224H72V294H255L210 404H72V474H181L101 670H42V750H254V670H189L325 338L462 670H397V750H609V670H550L469 474H579V404H440L395 294H579V224H372V80H462V0Z" />
<glyph unicode="&#xa6;" glyph-name="brokenbar" horiz-adv-x="317" d="M120 520V830H197V520H120ZM120 -80V230H197V-80H120Z" />
<glyph unicode="&#xa7;" glyph-name="section" horiz-adv-x="600" d="M70 136H153V48L214 -14H387L438 39V128L390 177H202L100 284V390L134 427L80 484V640L184 750H416L520 640V514H437V602L377 664H224L172 611V513L221 463H409L510 357V260L471 218L530 157V10L426
-100H174L70 10V136ZM370 377H207L192 361V313L241 263H392L418 289V328L370 377Z" />
<glyph unicode="&#xa8;" glyph-name="dieresis" horiz-adv-x="397" d="M63 711V812H155V711H63ZM242 711V812H334V711H242Z" />
<glyph unicode="&#xa9;" glyph-name="copyright" horiz-adv-x="700" d="M188 261L100 353V708L188 801H512L600 708V353L512 261H188ZM150 374L209 311H491L550 374V688L489 751H210L150 688V374ZM436 488H500V423L435 354H281L216 423V639L281 708H435L500 639V573H436V607L404
640H310L286 616V446L310 422H404L436 454V488Z" />
<glyph unicode="&#xaa;" glyph-name="ordfeminine" horiz-adv-x="401" d="M251 406V470H286L266 524H135L116 470H150V406H10V470H43L135 736H115V800H286V736H266L357 470H391V406H251ZM201 714L156 587H245Q215 672 201 714Z" />
<glyph unicode="&#xab;" glyph-name="guillemotleft" horiz-adv-x="469" d="M122 375L234 221L165 168L35 342V408L165 582L234 529L122 375ZM322 375L434 221L365 168L235 342V408L365 582L434 529L322 375Z" />
<glyph unicode="&#xac;" glyph-name="logicalnot" horiz-adv-x="650" d="M115 415H535V186H463V335H115V415Z" />
<glyph unicode="&#xae;" glyph-name="registered" horiz-adv-x="700" d="M188 261L100 353V708L188 801H512L600 708V353L512 261H188ZM150 374L209 311H491L550 374V688L489 751H210L150 688V374ZM221 708H425L489 639V536L444 487L492 418V354H413V408L372 467H291V354H221V708ZM291
640V535H395L423 563V612L396 640H291Z" />
<glyph unicode="&#xaf;" glyph-name="overscore" horiz-adv-x="343" d="M50 711V800H293V711H50Z" />
<glyph unicode="&#xb0;" glyph-name="degree" horiz-adv-x="401" d="M115 500L50 569V732L115 801H287L351 732V569L287 500H115ZM145 568H257L284 595V706L257 733H145L118 706V595L145 568Z" />
<glyph unicode="&#xb1;" glyph-name="plusminus" horiz-adv-x="650" d="M285 165V335H115V415H285V585H365V415H535V335H365V165H285ZM115 80H535V0H115V80Z" />
<glyph unicode="&#xb2;" glyph-name="twosuperior" horiz-adv-x="390" d="M43 330V388L248 617V690L224 714H141L112 684V627H47V713L111 782H254L319 713V592L138 394H264V461H328V330H43Z" />
<glyph unicode="&#xb3;" glyph-name="threesuperior" horiz-adv-x="390" d="M259 497L233 523H129V587H226L248 609V690L224 714H141L112 684V627H47V713L111 782H254L319 713V586L293 559L330 520V399L265 330H111L46 399V484H111V427L141 398H236L259 422V497Z" />
<glyph unicode="&#xb4;" glyph-name="acute" horiz-adv-x="423" d="M324 826L353 743L275 711H143L130 749L324 826Z" />
<glyph unicode="&#xb5;" glyph-name="mu" horiz-adv-x="740" d="M130 -180V650H222V86H466L518 139V650H610V110L506 0H222V-180H130Z" />
<glyph unicode="&#xb6;" glyph-name="paragraph" horiz-adv-x="614" d="M544 750V670H474V33L533 -24L472 -85L382 0V300H144L40 410V640L144 750H544ZM183 664V386H382V664H183Z" />
<glyph unicode="&#xb7;" glyph-name="middot" horiz-adv-x="200" d="M50 435H150V315H50V435Z" />
<glyph unicode="&#xb8;" glyph-name="cedilla" horiz-adv-x="200" d="M60 0H160L90 -150H40L60 0Z" />
<glyph unicode="&#xb9;" glyph-name="onesuperior" horiz-adv-x="390" d="M86 394H173V703L84 658L54 719L181 782H245V394H332V330H86V394Z" />
<glyph unicode="&#xba;" glyph-name="ordmasculine" horiz-adv-x="391" d="M110 406L45 475V731L110 800H282L346 731V475L282 406H110ZM140 474H252L276 498V708L252 732H140L115 708V498L140 474Z" />
<glyph unicode="&#xbb;" glyph-name="guillemotright" horiz-adv-x="469" d="M235 221L347 375L235 529L304 582L434 408V342L304 168L235 221ZM35 221L147 375L35 529L104 582L234 408V342L104 168L35 221Z" />
<glyph unicode="&#xbc;" glyph-name="onequarter" horiz-adv-x="900" d="M723 0V108H521V165L692 452H794V172H830V108H794V0H723ZM723 172V370L605 172H723ZM85 362H172V671L83 626L53 687L180 750H244V362H331V298H85V362ZM259 -35L564 784H641L336 -35H259Z" />
<glyph unicode="&#xbd;" glyph-name="onehalf" horiz-adv-x="900" d="M546 0V58L751 287V360L727 384H644L615 354V297H550V383L614 452H757L822 383V262L641 64H767V131H831V0H546ZM85 362H172V671L83 626L53 687L180 750H244V362H331V298H85V362ZM259 -35L564
784H641L336 -35H259Z" />
<glyph unicode="&#xbe;" glyph-name="threequarters" horiz-adv-x="900" d="M723 0V108H521V165L692 452H794V172H830V108H794V0H723ZM723 172V370L605 172H723ZM268 465L242 491H138V555H235L257 577V658L233 682H150L121 652V595H56V681L120 750H263L328 681V554L302
527L339 488V367L274 298H120L55 367V452H120V395L150 366H245L268 390V465ZM279 -35L584 784H661L356 -35H279Z" />
<glyph unicode="&#xbf;" glyph-name="questiondown" horiz-adv-x="519" d="M376 136H459V10L355 -100H164L60 10V206L271 436L331 376L152 177V39L204 -14H316L376 48V136ZM330 530H230V650H330V530Z" />
<glyph unicode="&#xc0;" glyph-name="Agrave" horiz-adv-x="657" d="M195 750H462V670H416L592 80H642V0H430V80H500L454 234H203L157 80H227V0H15V80H65L241 670H195V750ZM328 655L227 314H430L328 655ZM217 843L246 926L440 849L427 811H295L217 843Z" />
<glyph unicode="&#xc1;" glyph-name="Aacute" horiz-adv-x="657" d="M430 0V80H500L454 234H203L157 80H227V0H15V80H65L241 670H195V750H462V670H416L592 80H642V0H430ZM328 655L227 314H430L328 655ZM411 926L440 843L362 811H230L217 849L411 926Z" />
<glyph unicode="&#xc2;" glyph-name="Acircumflex" horiz-adv-x="657" d="M430 0V80H500L454 234H203L157 80H227V0H15V80H65L241 670H195V750H462V670H416L592 80H642V0H430ZM328 655L227 314H430L328 655ZM279 916H378L467 839L454 811H372L328 860L285 811H203L190
839L279 916Z" />
<glyph unicode="&#xc3;" glyph-name="Atilde" horiz-adv-x="657" d="M430 0V80H500L454 234H203L157 80H227V0H15V80H65L241 670H195V750H462V670H416L592 80H642V0H430ZM328 655L227 314H430L328 655ZM399 811H373L316 839L284 811H212L199 839L277 916H303L360
888L392 916H464L477 888L399 811Z" />
<glyph unicode="&#xc4;" glyph-name="Adieresis" horiz-adv-x="657" d="M430 0V80H500L454 234H203L157 80H227V0H15V80H65L241 670H195V750H462V670H416L592 80H642V0H430ZM328 655L227 314H430L328 655ZM372 811V912H464V811H372ZM193 811V912H285V811H193Z" />
<glyph unicode="&#xc5;" glyph-name="Aring" horiz-adv-x="657" d="M462 750V670H416L592 80H642V0H430V80H500L454 234H203L157 80H227V0H15V80H65L241 670H195V750H462ZM328 655L227 314H430L328 655ZM285 801L250 838V916L285 953H372L407 916V838L372 801H285ZM294
842H363V912H294V842Z" />
<glyph unicode="&#xc6;" glyph-name="AE" horiz-adv-x="947" d="M391 80H461V335H233L157 80H227V0H15V80H65L241 670H195V750H867V554H787V670H553V415H787V335H553V80H787V196H867V0H391V80ZM461 415V670H333L257 415H461Z" />
<glyph unicode="&#xc7;" glyph-name="Ccedilla" horiz-adv-x="600" d="M540 514H460V599L397 664H224L172 611V139L223 86H396L460 151V236H540V110L436 0H360L290 -150H240L260 0H184L80 110V640L184 750H436L540 640V514Z" />
<glyph unicode="&#xc8;" glyph-name="Egrave" horiz-adv-x="636" d="M80 750H556V554H476V670H242V415H476V335H242V80H476V196H556V0H80V80H150V670H80V750ZM201 843L230 926L424 849L411 811H279L201 843Z" />
<glyph unicode="&#xc9;" glyph-name="Eacute" horiz-adv-x="636" d="M80 750H556V554H476V670H242V415H476V335H242V80H476V196H556V0H80V80H150V670H80V750ZM395 926L424 843L346 811H214L201 849L395 926Z" />
<glyph unicode="&#xca;" glyph-name="Ecircumflex" horiz-adv-x="636" d="M80 750H556V554H476V670H242V415H476V335H242V80H476V196H556V0H80V80H150V670H80V750ZM263 916H362L451 839L438 811H356L312 860L269 811H187L174 839L263 916Z" />
<glyph unicode="&#xcb;" glyph-name="Edieresis" horiz-adv-x="636" d="M80 750H556V554H476V670H242V415H476V335H242V80H476V196H556V0H80V80H150V670H80V750ZM177 811V912H269V811H177ZM356 811V912H448V811H356Z" />
<glyph unicode="&#xcc;" glyph-name="Igrave" horiz-adv-x="392" d="M70 750H322V670H242V80H322V0H70V80H150V670H70V750ZM85 843L114 926L308 849L295 811H163L85 843Z" />
<glyph unicode="&#xcd;" glyph-name="Iacute" horiz-adv-x="392" d="M70 750H322V670H242V80H322V0H70V80H150V670H70V750ZM279 926L308 843L230 811H98L85 849L279 926Z" />
<glyph unicode="&#xce;" glyph-name="Icircumflex" horiz-adv-x="392" d="M70 750H322V670H242V80H322V0H70V80H150V670H70V750ZM147 916H246L335 839L322 811H240L196 860L153 811H71L58 839L147 916Z" />
<glyph unicode="&#xcf;" glyph-name="Idieresis" horiz-adv-x="392" d="M70 750H322V670H242V80H322V0H70V80H150V670H70V750ZM240 811V912H332V811H240ZM61 811V912H153V811H61Z" />
<glyph unicode="&#xd0;" glyph-name="Eth" horiz-adv-x="690" d="M80 750H506L610 640V110L506 0H80V80H150V335H87V415H150V670H80V750ZM242 86H466L518 139V611L467 664H242V415H396V335H242V86Z" />
<glyph unicode="&#xd1;" glyph-name="Ntilde" horiz-adv-x="812" d="M80 750H288L580 113V670H510V750H742V670H672V0H534L242 636V80H312V0H80V80H150V670H80V750ZM477 811H451L394 839L362 811H290L277 839L355 916H381L438 888L470 916H542L555 888L477 811Z" />
<glyph unicode="&#xd2;" glyph-name="Ograve" horiz-adv-x="650" d="M184 0L80 110V640L184 750H466L570 640V110L466 0H184ZM223 86H426L478 139V611L427 664H224L172 611V139L223 86ZM213 843L242 926L436 849L423 811H291L213 843Z" />
<glyph unicode="&#xd3;" glyph-name="Oacute" horiz-adv-x="650" d="M184 0L80 110V640L184 750H466L570 640V110L466 0H184ZM223 86H426L478 139V611L427 664H224L172 611V139L223 86ZM407 926L436 843L358 811H226L213 849L407 926Z" />
<glyph unicode="&#xd4;" glyph-name="Ocircumflex" horiz-adv-x="650" d="M184 0L80 110V640L184 750H466L570 640V110L466 0H184ZM223 86H426L478 139V611L427 664H224L172 611V139L223 86ZM275 916H374L463 839L450 811H368L324 860L281 811H199L186 839L275 916Z" />
<glyph unicode="&#xd5;" glyph-name="Otilde" horiz-adv-x="650" d="M184 0L80 110V640L184 750H466L570 640V110L466 0H184ZM223 86H426L478 139V611L427 664H224L172 611V139L223 86ZM396 811H370L313 839L281 811H209L196 839L274 916H300L357 888L389 916H461L474
888L396 811Z" />
<glyph unicode="&#xd6;" glyph-name="Odieresis" horiz-adv-x="650" d="M184 0L80 110V640L184 750H466L570 640V110L466 0H184ZM223 86H426L478 139V611L427 664H224L172 611V139L223 86ZM189 811V912H281V811H189ZM368 811V912H460V811H368Z" />
<glyph unicode="&#xd7;" glyph-name="multiply" horiz-adv-x="650" d="M475 169L325 319L175 169L119 225L269 375L119 525L175 581L325 431L475 581L531 525L381 375L531 225L475 169Z" />
<glyph unicode="&#xd8;" glyph-name="Oslash" horiz-adv-x="650" d="M134 -80L167 18L80 110V640L184 750H412L439 830H516L483 732L570 640V110L466 0H238L211 -80H134ZM172 611V139L198 111L383 664H224L172 611ZM478 611L452 638L267 86H426L478 139V611Z" />
<glyph unicode="&#xd9;" glyph-name="Ugrave" horiz-adv-x="740" d="M448 750H670V670H610V110L506 0H234L130 110V670H70V750H292V670H222V139L273 86H466L518 139V670H448V750ZM258 843L287 926L481 849L468 811H336L258 843Z" />
<glyph unicode="&#xda;" glyph-name="Uacute" horiz-adv-x="740" d="M448 750H670V670H610V110L506 0H234L130 110V670H70V750H292V670H222V139L273 86H466L518 139V670H448V750ZM452 926L481 843L403 811H271L258 849L452 926Z" />
<glyph unicode="&#xdb;" glyph-name="Ucircumflex" horiz-adv-x="740" d="M448 750H670V670H610V110L506 0H234L130 110V670H70V750H292V670H222V139L273 86H466L518 139V670H448V750ZM320 916H419L508 839L495 811H413L369 860L326 811H244L231 839L320 916Z" />
<glyph unicode="&#xdc;" glyph-name="Udieresis" horiz-adv-x="740" d="M448 750H670V670H610V110L506 0H234L130 110V670H70V750H292V670H222V139L273 86H466L518 139V670H448V750ZM413 811V912H505V811H413ZM234 811V912H326V811H234Z" />
<glyph unicode="&#xdd;" glyph-name="Yacute" horiz-adv-x="607" d="M440 0H168V80H258V234L70 670H20V750H232V670H158L303 333L448 670H375V750H587V670H536L350 237V80H440V0ZM386 926L415 843L337 811H205L192 849L386 926Z" />
<glyph unicode="&#xde;" glyph-name="Thorn" horiz-adv-x="624" d="M80 750H242V604H480L584 494V264L480 154H242V0H80V80H150V670H80V750ZM242 518V240H440L498 299V459L441 518H242Z" />
<glyph unicode="&#xdf;" glyph-name="germandbls" horiz-adv-x="714" d="M548 323H304V403H369L480 515V605L423 664H274L222 611V0H60V80H130V640L234 750H462L566 640V480L492 403H584L634 353V110L530 0H352L255 103L314 165L392 86H490L548 145V323Z" />
<glyph unicode="&#xe0;" glyph-name="agrave" horiz-adv-x="657" d="M430 0V80H496L453 204H203L160 80H227V0H15V80H68L237 570H195V650H462V570H419L588 80H642V0H430ZM328 567L230 284H426L328 567ZM217 743L246 826L440 749L427 711H295L217 743Z" />
<glyph unicode="&#xe1;" glyph-name="aacute" horiz-adv-x="657" d="M195 650H462V570H419L588 80H642V0H430V80H496L453 204H203L160 80H227V0H15V80H68L237 570H195V650ZM328 567L230 284H426L328 567ZM441 826L470 743L392 711H260L247 749L441 826Z" />
<glyph unicode="&#xe2;" glyph-name="acircumflex" horiz-adv-x="657" d="M462 650V570H419L588 80H642V0H430V80H496L453 204H203L160 80H227V0H15V80H68L237 570H195V650H462ZM328 567L230 284H426L328 567ZM279 816H378L467 739L454 711H372L328 760L285 711H203L190
739L279 816Z" />
<glyph unicode="&#xe3;" glyph-name="atilde" horiz-adv-x="657" d="M195 650H462V570H419L588 80H642V0H430V80H496L453 204H203L160 80H227V0H15V80H68L237 570H195V650ZM328 567L230 284H426L328 567ZM399 711H373L316 739L284 711H212L199 739L277 816H303L360
788L392 816H464L477 788L399 711Z" />
<glyph unicode="&#xe4;" glyph-name="adieresis" horiz-adv-x="657" d="M462 650V570H419L588 80H642V0H430V80H496L453 204H203L160 80H227V0H15V80H68L237 570H195V650H462ZM328 567L230 284H426L328 567ZM372 711V812H464V711H372ZM193 711V812H285V711H193Z" />
<glyph unicode="&#xe5;" glyph-name="aring" horiz-adv-x="657" d="M430 0V80H496L453 204H203L160 80H227V0H15V80H68L237 570H195V650H462V570H419L588 80H642V0H430ZM328 567L230 284H426L328 567ZM285 701L250 738V816L285 853H372L407 816V738L372 701H285ZM294
742H363V812H294V742Z" />
<glyph unicode="&#xe6;" glyph-name="ae" horiz-adv-x="947" d="M391 80H461V285H231L160 80H227V0H15V80H68L237 570H195V650H867V454H787V570H553V365H787V285H553V80H787V196H867V0H391V80ZM461 365V570H329L258 365H461Z" />
<glyph unicode="&#xe7;" glyph-name="ccedilla" horiz-adv-x="600" d="M540 414H460V499L397 564H224L172 511V139L223 86H396L460 151V236H540V110L436 0H360L290 -150H240L260 0H184L80 110V540L184 650H436L540 540V414Z" />
<glyph unicode="&#xe8;" glyph-name="egrave" horiz-adv-x="636" d="M80 650H556V454H476V570H242V365H476V285H242V80H476V196H556V0H80V80H150V570H80V650ZM201 743L230 826L424 749L411 711H279L201 743Z" />
<glyph unicode="&#xe9;" glyph-name="eacute" horiz-adv-x="636" d="M80 650H556V454H476V570H242V365H476V285H242V80H476V196H556V0H80V80H150V570H80V650ZM425 826L454 743L376 711H244L231 749L425 826Z" />
<glyph unicode="&#xea;" glyph-name="ecircumflex" horiz-adv-x="636" d="M80 650H556V454H476V570H242V365H476V285H242V80H476V196H556V0H80V80H150V570H80V650ZM263 816H362L451 739L438 711H356L312 760L269 711H187L174 739L263 816Z" />
<glyph unicode="&#xeb;" glyph-name="edieresis" horiz-adv-x="636" d="M80 650H556V454H476V570H242V365H476V285H242V80H476V196H556V0H80V80H150V570H80V650ZM177 711V812H269V711H177ZM356 711V812H448V711H356Z" />
<glyph unicode="&#xec;" glyph-name="igrave" horiz-adv-x="392" d="M70 650H322V570H242V80H322V0H70V80H150V570H70V650ZM85 743L114 826L308 749L295 711H163L85 743Z" />
<glyph unicode="&#xed;" glyph-name="iacute" horiz-adv-x="392" d="M70 650H322V570H242V80H322V0H70V80H150V570H70V650ZM279 826L308 743L230 711H98L85 749L279 826Z" />
<glyph unicode="&#xee;" glyph-name="icircumflex" horiz-adv-x="392" d="M70 650H322V570H242V80H322V0H70V80H150V570H70V650ZM147 816H246L335 739L322 711H240L196 760L153 711H71L58 739L147 816Z" />
<glyph unicode="&#xef;" glyph-name="idieresis" horiz-adv-x="392" d="M70 650H322V570H242V80H322V0H70V80H150V570H70V650ZM240 711V812H332V711H240ZM61 711V812H153V711H61Z" />
<glyph unicode="&#xf0;" glyph-name="eth" horiz-adv-x="690" d="M80 650H506L610 540V110L506 0H80V80H150V285H87V365H150V570H80V650ZM242 86H466L518 139V511L467 564H242V365H396V285H242V86Z" />
<glyph unicode="&#xf1;" glyph-name="ntilde" horiz-adv-x="812" d="M80 650H288L580 98V570H510V650H742V570H672V0H534L242 551V80H312V0H80V80H150V570H80V650ZM477 711H451L394 739L362 711H290L277 739L355 816H381L438 788L470 816H542L555 788L477 711Z" />
<glyph unicode="&#xf2;" glyph-name="ograve" horiz-adv-x="650" d="M184 0L80 110V540L184 650H466L570 540V110L466 0H184ZM223 86H426L478 139V511L427 564H224L172 511V139L223 86ZM213 743L242 826L436 749L423 711H291L213 743Z" />
<glyph unicode="&#xf3;" glyph-name="oacute" horiz-adv-x="650" d="M184 0L80 110V540L184 650H466L570 540V110L466 0H184ZM223 86H426L478 139V511L427 564H224L172 511V139L223 86ZM437 826L466 743L388 711H256L243 749L437 826Z" />
<glyph unicode="&#xf4;" glyph-name="ocircumflex" horiz-adv-x="650" d="M184 0L80 110V540L184 650H466L570 540V110L466 0H184ZM223 86H426L478 139V511L427 564H224L172 511V139L223 86ZM275 816H374L463 739L450 711H368L324 760L281 711H199L186 739L275 816Z" />
<glyph unicode="&#xf5;" glyph-name="otilde" horiz-adv-x="650" d="M184 0L80 110V540L184 650H466L570 540V110L466 0H184ZM223 86H426L478 139V511L427 564H224L172 511V139L223 86ZM396 711H370L313 739L281 711H209L196 739L274 816H300L357 788L389 816H461L474
788L396 711Z" />
<glyph unicode="&#xf6;" glyph-name="odieresis" horiz-adv-x="650" d="M184 0L80 110V540L184 650H466L570 540V110L466 0H184ZM223 86H426L478 139V511L427 564H224L172 511V139L223 86ZM189 711V812H281V711H189ZM368 711V812H460V711H368Z" />
<glyph unicode="&#xf7;" glyph-name="divide" horiz-adv-x="650" d="M115 415H535V335H115V415ZM275 635H375V515H275V635ZM275 235H375V115H275V235Z" />
<glyph unicode="&#xf8;" glyph-name="oslash" horiz-adv-x="650" d="M134 -130L179 5L80 110V540L184 650H395L439 780H516L471 645L570 540V110L466 0H254L211 -130H134ZM172 511V139L211 98L366 564H224L172 511ZM478 511L439 551L283 86H426L478 139V511Z" />
<glyph unicode="&#xf9;" glyph-name="ugrave" horiz-adv-x="740" d="M448 650H670V570H610V110L506 0H234L130 110V570H70V650H292V570H222V139L273 86H466L518 139V570H448V650ZM258 743L287 826L481 749L468 711H336L258 743Z" />
<glyph unicode="&#xfa;" glyph-name="uacute" horiz-adv-x="740" d="M448 650H670V570H610V110L506 0H234L130 110V570H70V650H292V570H222V139L273 86H466L518 139V570H448V650ZM482 826L511 743L433 711H301L288 749L482 826Z" />
<glyph unicode="&#xfb;" glyph-name="ucircumflex" horiz-adv-x="740" d="M448 650H670V570H610V110L506 0H234L130 110V570H70V650H292V570H222V139L273 86H466L518 139V570H448V650ZM320 816H419L508 739L495 711H413L369 760L326 711H244L231 739L320 816Z" />
<glyph unicode="&#xfc;" glyph-name="udieresis" horiz-adv-x="740" d="M448 650H670V570H610V110L506 0H234L130 110V570H70V650H292V570H222V139L273 86H466L518 139V570H448V650ZM413 711V812H505V711H413ZM234 711V812H326V711H234Z" />
<glyph unicode="&#xfd;" glyph-name="yacute" horiz-adv-x="607" d="M440 0H168V80H258V204L84 570H20V650H232V570H172L303 293L435 570H375V650H587V570H523L350 206V80H440V0ZM406 826L435 743L357 711H225L212 749L406 826Z" />
<glyph unicode="&#xfe;" glyph-name="thorn" horiz-adv-x="624" d="M80 650H242V534H480L584 424V234L480 124H242V0H80V80H150V570H80V650ZM242 448V210H440L498 269V389L441 448H242Z" />
<glyph unicode="&#xff;" glyph-name="ydieresis" horiz-adv-x="607" d="M440 0H168V80H258V204L84 570H20V650H232V570H172L303 293L435 570H375V650H587V570H523L350 206V80H440V0ZM168 711V812H260V711H168ZM347 711V812H439V711H347Z" />
<glyph unicode="&#x2013;" glyph-name="endash" horiz-adv-x="601" d="M100 415H501V335H100V415Z" />
<glyph unicode="&#x2014;" glyph-name="emdash" horiz-adv-x="721" d="M100 415H621V335H100V415Z" />
<glyph unicode="&#x2018;" glyph-name="quoteleft" horiz-adv-x="240" d="M170 550H70V640L130 800H170V550Z" />
<glyph unicode="&#x2019;" glyph-name="quoteright" horiz-adv-x="240" d="M70 800H170V710L110 550H70V800Z" />
<glyph unicode="&#x201a;" glyph-name="quotesinglbase" horiz-adv-x="200" d="M50 120H150V30L90 -130H50V120Z" />
<glyph unicode="&#x201c;" glyph-name="quotedblleft" horiz-adv-x="400" d="M170 550H70V640L130 800H170V550ZM330 550H230V640L290 800H330V550Z" />
<glyph unicode="&#x201d;" glyph-name="quotedblright" horiz-adv-x="400" d="M230 800H330V710L270 550H230V800ZM70 800H170V710L110 550H70V800Z" />
<glyph unicode="&#x201e;" glyph-name="quotedblbase" horiz-adv-x="360" d="M210 120H310V30L250 -130H210V120ZM50 120H150V30L90 -130H50V120Z" />
<glyph unicode="&#x2022;" glyph-name="bullet" horiz-adv-x="300" d="M70 471H230V279H70V471Z" />
<glyph unicode="&#x2039;" glyph-name="guilsinglleft" horiz-adv-x="269" d="M122 375L234 221L165 168L35 342V408L165 582L234 529L122 375Z" />
<glyph unicode="&#x203a;" glyph-name="guilsinglright" horiz-adv-x="269" d="M35 221L147 375L35 529L104 582L234 408V342L104 168L35 221Z" />
</font>
</defs>
</svg>
