<?xml version="1.0" standalone="no"?>
<!DOCTYPE svg PUBLIC "-//W3C//DTD SVG 1.1//EN" "http://www.w3.org/Graphics/SVG/1.1/DTD/svg11.dtd">
<svg xmlns="http://www.w3.org/2000/svg">
<defs >
<font id="IbarraRealNova" horiz-adv-x="579" ><font-face
    font-family="Ibarra Real Nova SemiBold"
    units-per-em="1000"
    panose-1="0 0 0 0 0 0 0 0 0 0"
    ascent="950"
    descent="-300"
    alphabetic="0" />
<glyph unicode=" " horiz-adv-x="277" />
<glyph unicode="!" horiz-adv-x="235" d="M94 223L52 658H181L139 223H94ZM118 -9Q90 -9 70 11T49 60Q49 90 69 110T118 131Q147 131 167 111T188 60Q188 32 168 12T118 -9Z" />
<glyph unicode="&quot;" horiz-adv-x="462" d="M296 422L253 710H394L351 422H296ZM111 422L68 710H209L166 422H111Z" />
<glyph unicode="#" horiz-adv-x="486" d="M245 -26L349 674H411L304 -26H245ZM24 172L32 230H428L420 172H24ZM73 -26L178 674H238L131 -26H73ZM57 402L66 460H462L453 402H57Z" />
<glyph unicode="$" horiz-adv-x="577" d="M270 -89V766H306V-89H270ZM296 -10Q211 -10 151 11T55 51Q63 95 63 142T50 236H83Q89 174 115 125T188 48T298 20Q333 20 365 33T417 74T438 141Q438 179 423 203T368 249T256 295Q166 326 118 368T70 490Q70 541 94
585T168 657T291 684Q327 684 351 676T394 659Q409 652 421 646T448 640L477 646L480 644Q479 632 478 619T477 594Q477 567 480 541T488 496T494 469H469Q452 525 427 566T366 630T284 654Q248 654 220 638T176 596T160 537Q160 501 173 478T222 437T329 394Q402
370 444 342T505 279T524 193Q524 133 495 88T415 16T296 -10Z" />
<glyph unicode="%" horiz-adv-x="654" d="M169 343Q121 343 90 366T44 429T29 515Q29 562 44 599T90 660T169 683Q217 683 248 660T294 600T309 515Q309 469 294 430T248 367T169 343ZM168 367Q193 367 204 387T219 441T223 515Q223 554 220 586T205 638T168 657Q146
657 134 638T119 587T115 515Q115 475 118 442T134 388T168 367ZM484 -10Q437 -10 406 13T360 76T345 162Q345 209 360 246T406 307T484 330Q533 330 564 307T610 247T625 162Q625 116 610 77T564 14T484 -10ZM484 14Q509 14 520 34T535 88T539 162Q539 201 536
233T521 285T484 304Q462 304 450 285T435 234T431 162Q431 122 434 89T450 35T484 14ZM517 677H574L139 0H80L517 677Z" />
<glyph unicode="&amp;" horiz-adv-x="757" d="M321 -13Q242 -13 177 14T72 96T33 233Q33 276 53 317T114 388T216 425V428Q161 450 134 477T107 553Q107 594 131 623T196 666T287 681Q332 681 372 668T438 628T464 562Q464 535 449 521T413 507Q392 507 376 519T359
553Q359 568 363 576T372 591Q376 596 378 601T381 614Q381 628 362 638T311 649Q267 649 244 621T221 543Q221 498 244 466T318 414L350 402L341 381L295 387Q257 379 226 355T176 292T157 204Q157 143 179 102T238 40T319 19Q377 19 422 45T494 130T520 280V297Q520
329 510 339T462 357L413 367V387H753V367L698 356Q661 349 651 339T640 297V276Q640 208 619 155T557 64T457 7T321 -13Z" />
<glyph unicode="&apos;" horiz-adv-x="277" d="M111 422L68 710H209L166 422H111Z" />
<glyph unicode="(" horiz-adv-x="300" d="M233 -242Q166 -169 125 -85T64 87T45 257Q45 339 64 426T124 598T233 756L259 738Q199 629 166 509T133 257Q133 128 165 8T259 -224L233 -242Z" />
<glyph unicode=")" horiz-adv-x="300" d="M67 -242L41 -224Q102 -113 134 7T167 257Q167 388 134 508T41 738L67 756Q134 683 175 599T236 427T255 257Q255 175 236 88T176 -84T67 -242Z" />
<glyph unicode="*" horiz-adv-x="434" d="M338 392Q325 400 314 412T290 438Q276 454 260 469T220 499L207 507Q184 520 162 526T118 537Q101 541 85 544T55 556Q37 566 38 584T44 610Q49 619 63 629T96 628Q109 621 120 609T144 582Q159 566 175 550T215 521L228
514Q252 500 273 494T316 483Q335 479 351 476T380 464Q397 454 397 436T391 410Q386 401 371 392T338 392ZM96 392Q79 382 64 391T44 410Q39 418 38 436T54 464Q68 472 84 475T118 483Q139 488 161 494T207 514L219 521Q243 535 259 550T290 582Q303 596 314 608T338
628Q355 638 370 629T391 610Q396 601 397 584T380 556Q366 548 350 545T316 537Q295 533 274 527T228 507L215 500Q192 486 176 470T144 438Q132 425 121 413T96 392ZM218 309Q208 309 192 317T175 346Q175 361 180 377T191 411Q198 431 203 453T209 503V517Q209
544 204 566T191 609Q185 627 180 642T175 674Q175 694 191 702T217 710Q227 710 243 702T259 674Q259 658 254 643T243 609Q237 588 232 566T226 517V503Q226 476 231 454T243 411Q249 393 254 377T259 346Q259 326 243 318T218 309Z" />
<glyph unicode="+" horiz-adv-x="554" d="M252 135V309H75V358H252V531H301V358H479V309H301V135H252Z" />
<glyph unicode="," horiz-adv-x="277" d="M48 -158V-132Q91 -125 118 -96T145 -26Q145 4 122 25T59 52V80Q83 94 97 110T126 154Q173 138 201 106T229 24Q229 -21 207 -61T144 -128T48 -158Z" />
<glyph unicode="-" horiz-adv-x="277" d="M15 324H262V246H15V324Z" />
<glyph unicode="." horiz-adv-x="277" d="M138 -9Q107 -9 85 13T63 66Q63 98 85 120T138 142Q169 142 191 120T213 66Q213 36 191 14T138 -9Z" />
<glyph unicode="/" horiz-adv-x="447" d="M23 -7L377 710H424L69 -7H23Z" />
<glyph unicode="0" horiz-adv-x="596" d="M298 -8Q234 -8 187 19T110 95T66 207T51 342Q51 438 77 515T157 637T298 683Q384 683 438 638T519 515T545 342Q545 270 531 207T486 96T409 20T298 -8ZM298 22Q338 22 362 47T398 117T415 219T419 342Q419 406 415 462T398
561T361 627T298 652Q259 652 235 628T198 561T181 463T177 342Q177 277 181 220T197 118T234 48T298 22Z" />
<glyph unicode="1" horiz-adv-x="401" d="M34 0V20L82 30Q112 36 125 42T143 62T147 99V597Q147 611 141 617T117 622L40 619V644L265 682V99Q265 75 269 62T286 43T330 30L378 20V0H34Z" />
<glyph unicode="2" horiz-adv-x="502" d="M31 0V16L179 194Q218 240 244 280T286 356T309 429T316 503Q316 572 289 610T202 648Q179 648 161 642T131 625T120 599Q120 587 128 575Q133 568 137 560T141 538Q141 515 126 502T86 488Q65 488 50 503T34 543Q34 582
59 613T129 664T227 683Q291 683 339 661T413 599T440 506Q440 442 411 390T336 287T238 182L163 103H364Q391 103 403 116T425 161L433 184H454L420 0H31Z" />
<glyph unicode="3" horiz-adv-x="506" d="M199 -9Q152 -9 112 6T48 51T24 120Q24 149 40 164T79 179Q105 179 119 165T133 132Q133 116 128 107T115 90Q110 85 106 80T102 68Q102 50 128 38T190 25Q223 25 256 41T312 96T334 201Q334 242 318 276T271 330T194
352Q180 348 167 343T140 334L128 354L157 369Q188 384 217 409T265 468T284 543Q284 592 263 621T193 650Q160 650 142 639T123 612Q123 604 125 599T132 588Q137 581 140 573T144 551Q144 530 128 518T90 505Q70 505 55 519T40 561Q40 593 62 620T125 665T216
683Q270 683 311 668T376 624T400 553Q400 503 369 467T280 408V406Q336 401 376 374T438 306T460 219Q460 153 429 101T338 20T199 -9Z" />
<glyph unicode="4" horiz-adv-x="564" d="M191 0V20L242 31Q280 39 290 50T300 93V545L319 537L78 223L73 246H447Q466 246 476 253T493 279L508 321H529L496 166H19V202L391 686H413V93Q413 62 423 51T471 31L522 20V0H191Z" />
<glyph unicode="5" horiz-adv-x="487" d="M188 -10Q141 -10 100 5T35 50T10 120Q10 150 27 164T64 179Q90 179 104 164T119 131Q119 113 113 104T100 87Q95 83 92 79T88 68Q88 48 114 38T173 27Q217 27 251 46T303 103T322 197Q322 249 298 283T233 334T140 351Q128
351 117 351T92 348L83 353L119 677H352Q368 677 378 685T396 709L403 729H426L398 581H148L131 434Q144 436 157 436T183 437Q257 437 315 412T408 337T443 217Q443 155 414 104T328 21T188 -10Z" />
<glyph unicode="6" horiz-adv-x="519" d="M268 -9Q219 -9 178 7T106 56T58 140T41 263Q41 357 69 434T148 567T270 653T424 683L425 666Q347 654 297 617T218 522T177 397T165 254Q165 174 179 123T217 47T269 23Q320 23 344 70T368 210Q368 259 359 296T328 354T273
374Q234 374 210 352T173 293T160 210L139 299Q144 331 164 358T218 401T295 418Q360 418 403 388T468 311T490 211Q490 139 459 90T377 16T268 -9Z" />
<glyph unicode="7" horiz-adv-x="500" d="M107 0L397 571H101Q88 571 77 564T59 540L42 499H22L56 674H461V590L236 0H107Z" />
<glyph unicode="8" horiz-adv-x="554" d="M271 -12Q213 -12 163 8T81 66T50 158Q50 206 75 247T141 317T227 358L253 339Q205 312 187 268T168 180Q168 105 202 64T288 23Q341 23 366 58T392 147Q392 188 371 216T316 267T247 310Q205 334 166 361T101 425T76
513Q76 558 99 596T171 658T293 682Q344 682 387 664T456 613T482 533Q482 492 460 459T402 402T325 366L303 382Q342 410 359 452T377 535Q377 590 350 618T277 646Q254 646 232 636T194 605T179 548Q179 514 200 488T253 440T321 397Q365 372 407 343T476 275T503
181Q503 124 473 81T391 13T271 -12Z" />
<glyph unicode="9" horiz-adv-x="519" d="M251 684Q299 684 340 668T412 619T460 535T478 412Q478 318 450 241T370 108T249 22T95 -8L93 9Q171 22 222 59T301 153T341 278T353 421Q353 501 339 552T302 628T250 652Q199 652 175 605T151 465Q151 416 160 379T191
322T246 301Q284 301 309 323T346 382T358 465L379 376Q375 344 354 317T300 274T224 257Q159 257 116 287T51 364T29 464Q29 537 60 585T142 659T251 684Z" />
<glyph unicode=":" horiz-adv-x="277" d="M138 246Q107 246 85 268T63 321Q63 353 85 375T138 397Q169 397 191 375T213 321Q213 291 191 269T138 246ZM138 305Q107 305 85 327T63 380Q63 412 85 434T138 456Q169 456 191 434T213 380Q213 350 191 328T138 305Z" />
<glyph unicode=";" horiz-adv-x="277" d="M136 305Q105 305 83 327T61 380Q61 412 83 434T136 456Q167 456 189 434T211 380Q211 350 189 328T136 305ZM48 -158V-132Q91 -125 118 -96T145 -26Q145 4 122 25T59 52V80Q83 94 97 110T126 154Q173 138 201 106T229
24Q229 -21 207 -61T144 -128T48 -158Z" />
<glyph unicode="&lt;" horiz-adv-x="554" d="M483 186V130L78 321L79 347L483 536V481L159 334L483 186Z" />
<glyph unicode="=" horiz-adv-x="554" d="M75 423V472H479V423H75ZM75 450V499H479V450H75Z" />
<glyph unicode="&gt;" horiz-adv-x="554" d="M71 186L395 334L71 481V536L475 347L476 321L71 130V186Z" />
<glyph unicode="?" horiz-adv-x="375" d="M87 195Q87 262 98 299T136 354T212 380Q246 386 262 392T283 410T289 439Q289 465 276 476T235 492L62 516V673H81L87 645Q91 629 101 621T127 611L224 594Q285 584 310 549T336 442Q336 370 311 327T211 272Q173 267
154 258T129 233T123 195H87ZM107 -9Q80 -9 60 11T39 59Q39 88 59 108T107 128Q136 128 156 108T176 59Q176 32 156 12T107 -9Z" />
<glyph unicode="@" horiz-adv-x="993" d="M504 -211Q413 -211 330 -184T182 -102T80 35T42 228Q42 322 78 404T179 548T330 646T516 681Q626 681 708 650T846 565T928 444T956 307Q956 229 933 172T871 78T788 22T697 4Q663 4 633 16T586 51T568 109L587 110L591
74Q570 57 546 40T496 11T446 -1Q413 -1 386 18T343 69T327 136Q327 154 330 161T341 171L526 243Q545 251 552 260T559 286V318Q559 364 537 389T479 415Q453 415 435 404T417 371Q417 367 420 362T426 350Q431 343 434 334T438 314Q438 293 423 279T386 265Q364
265 349 281T333 320Q333 356 358 383T422 426T503 441Q549 441 583 425T636 377T655 303V140Q655 85 669 67T723 48Q762 48 793 78T842 165T860 306Q860 368 839 428T775 536T667 612T513 641Q434 641 366 613T247 530T167 400T138 229Q138 125 168 51T249 -69T368
-138T511 -160Q593 -160 676 -135T832 -60L857 -92Q783 -149 691 -180T504 -211ZM486 55Q504 55 519 62T547 79Q560 88 560 108V215Q560 217 558 218T553 218L431 169Q425 167 423 161T421 139Q421 120 430 101T455 68T486 55Z" />
<glyph unicode="A" horiz-adv-x="767" d="M5 0V20L59 31Q85 37 99 48T122 79L325 567L298 635Q326 636 345 647T373 673T382 698H394L649 80Q659 55 673 46T715 30L762 20V0H420V20L472 31Q498 36 509 43T520 63Q520 69 518 76T512 93L332 545H355L159 77Q157
73 156 69T155 61Q155 50 163 44T187 34L265 20V0H5ZM220 227L218 260H506V227H220Z" />
<glyph unicode="B" horiz-adv-x="707" d="M34 0V20L89 31Q126 39 136 49T147 90V583Q147 615 137 625T89 642L34 653V673H387Q456 673 507 654T586 599T614 517Q614 454 570 421T455 376V374Q504 369 549 349T622 291T651 201Q651 129 613 85T510 21T367 0H34ZM332
29H357Q403 29 438 50T493 109T514 198Q514 245 497 280T444 335T355 355H267V89Q267 56 280 43T332 29ZM267 385H362Q420 385 453 424T486 515Q486 575 449 609T345 644H267V385Z" />
<glyph unicode="C" horiz-adv-x="737" d="M421 -11Q337 -11 268 15T148 89T70 198T42 332Q42 409 71 473T151 584T271 656T417 682Q473 682 507 674T565 656Q584 648 601 642T639 636Q650 636 658 637T676 641L680 638Q671 603 675 559T692 458H668Q647 509 612
553T529 624T416 651Q350 651 295 612T206 501T173 333Q173 242 204 171T290 60T419 19Q456 19 493 31T564 67T626 128T674 216H700Q688 168 680 120T671 27H663Q639 27 613 22T560 10Q530 3 496 -4T421 -11Z" />
<glyph unicode="D" horiz-adv-x="793" d="M34 0V20L89 31Q126 39 136 49T147 90V583Q147 615 137 625T89 642L34 653V673H372Q456 673 526 647T646 574T723 467T751 339Q751 263 723 201T645 94T525 25T374 0H34ZM361 29Q437 29 495 66T586 172T619 339Q619 434
587 502T496 607T354 645H267V86Q267 58 289 44T361 29Z" />
<glyph unicode="E" horiz-adv-x="676" d="M34 0V20L89 31Q126 39 136 49T147 90V583Q147 615 137 625T89 642L34 653V673H605Q602 659 601 646T600 618Q600 584 605 554T615 496H594Q579 538 556 571T498 624T417 644H267V371H408Q459 371 478 390T505 448L514
494H534V217H514L505 264Q498 302 479 321T409 340H267V107Q267 80 271 63T291 38T340 30H421Q459 30 490 42T545 76T585 124L621 180H642Q631 135 624 89T617 0H34Z" />
<glyph unicode="F" horiz-adv-x="646" d="M34 0V20L89 31Q126 39 136 49T147 90V583Q147 615 137 625T89 642L34 653V673H605Q602 659 601 646T599 618Q599 584 605 554T615 496H594Q584 523 568 549T531 596T483 630T421 644H267V351H398Q431 351 452 357T487
381T505 428L513 474H534V197H513L505 243Q499 274 486 290T451 313T399 320H267V90Q267 59 277 49T325 31L386 20V0H34Z" />
<glyph unicode="G" horiz-adv-x="800" d="M411 -11Q337 -11 271 13T153 82T72 192T42 336Q42 412 71 475T151 585T269 657T410 682Q461 682 495 676T554 660T599 643T642 636Q653 636 662 638T678 641L681 639Q679 630 677 618T675 594Q675 566 679 538T687 491T693
468H664Q645 520 609 561T524 627T414 652Q359 652 315 627T240 558T191 457T173 337Q173 277 187 220T230 118T306 46T420 19Q453 19 494 30T568 71V216Q568 248 558 258T510 275L455 286V306H789V286L748 278Q711 271 701 261T690 218V28L686 26Q676 28 667 29T643
31Q626 31 604 26T557 12Q527 4 491 -3T411 -11Z" />
<glyph unicode="H" horiz-adv-x="860" d="M480 0V20L535 31Q572 39 582 49T593 90V583Q593 615 583 625T535 642L480 653V673H826V653L771 642Q734 635 724 625T713 583V90Q713 59 723 49T771 31L826 20V0H480ZM34 0V20L89 31Q126 39 136 49T147 90V583Q147 615
137 625T89 642L34 653V673H380V653L325 642Q288 635 278 625T267 583V90Q267 59 277 49T325 31L380 20V0H34ZM246 341L245 372H629L630 341H246Z" />
<glyph unicode="I" horiz-adv-x="414" d="M34 0V20L89 31Q126 39 136 49T147 90V583Q147 615 137 625T89 642L34 653V673H380V653L325 642Q288 635 278 625T267 583V90Q267 59 277 49T325 31L380 20V0H34Z" />
<glyph unicode="J" horiz-adv-x="432" d="M85 -193Q51 -193 24 -177T-19 -136T-35 -88Q-35 -51 -14 -33T33 -14Q68 -14 83 -33T99 -78Q99 -100 83 -118T44 -137Q37 -137 37 -141Q37 -147 51 -154T85 -161Q124 -161 150 -135T177 -40V583Q177 615 167 625T120 642L64
653V673H410V653L355 642Q319 635 308 625T297 583V-54H290Q276 -54 266 -68T244 -102Q230 -126 210 -147T161 -180T85 -193Z" />
<glyph unicode="K" horiz-adv-x="781" d="M34 0V20L89 31Q126 39 136 49T147 90V583Q147 615 137 625T89 642L34 653V673H380V653L325 642Q288 635 278 625T267 583V313L567 593Q586 610 584 622T551 640L487 653V673H753V653L717 644Q695 640 678 633T642 612T598
575L411 402L690 60Q708 40 725 32T769 21V0H665Q623 0 595 11T541 51L320 315L267 265V90Q267 59 277 49T325 31L380 20V0H34Z" />
<glyph unicode="L" horiz-adv-x="702" d="M34 0V20L89 31Q126 39 136 49T147 90V583Q147 615 137 625T89 642L34 653V673H380V653L325 642Q288 635 278 625T267 583V91Q267 60 282 45T340 30H472Q511 30 542 42T597 75T636 124L674 190H695Q684 145 676 94T667 0H34Z" />
<glyph unicode="M" horiz-adv-x="980" d="M454 -7L209 554L182 91Q181 63 194 52T240 34L309 20V0H32V20L91 33Q113 38 125 44T142 61T149 91L176 580Q178 612 167 623T118 643L70 653V673L288 672L504 186L703 673H930V653L875 642Q839 635 828 624T817 580L835
90Q836 69 840 58T856 42T893 31L948 20V0H610V20L668 32Q697 39 706 47T713 81L696 560L466 -7H454Z" />
<glyph unicode="N" horiz-adv-x="841" d="M691 -17L185 550V93Q185 66 197 53T243 34L311 20V0H34V20L94 33Q126 39 139 51T152 92V580Q152 602 148 613T131 631T88 643L38 653V673H234L672 188V580Q672 608 659 620T614 639L545 653V673H822V653L763 640Q730
634 718 622T705 581V-17H691Z" />
<glyph unicode="O" horiz-adv-x="799" d="M399 -11Q321 -11 256 15T143 88T69 196T42 328Q42 405 68 469T143 581T256 656T398 683Q477 683 542 657T656 583T730 474T757 341Q757 266 731 202T656 90T543 16T399 -11ZM398 20Q467 20 517 60T596 173T625 340Q625
430 597 500T518 610T399 650Q332 650 282 610T203 498T174 328Q174 262 190 206T236 108T307 43T398 20Z" />
<glyph unicode="P" horiz-adv-x="663" d="M34 0V20L89 31Q127 39 137 49T147 90V577Q147 602 143 614T125 631T83 643L34 653V673H348Q436 673 499 648T597 579T632 475Q632 427 612 392T558 333T485 296T406 282T335 288V295Q381 298 420 315T483 371T507 473Q507
565 458 604T323 644H267V90Q267 59 278 49T325 31L386 20V0H34Z" />
<glyph unicode="Q" horiz-adv-x="801" d="M521 19Q532 1 559 -18T624 -55T705 -87T794 -109T880 -117L887 -136Q851 -143 815 -146T734 -150Q665 -150 600 -136T474 -90T353 -3L521 19ZM399 -11Q321 -11 256 15T143 88T69 196T42 328Q42 405 68 469T143 582T256
656T399 683Q477 683 542 657T656 583T730 474T757 341Q757 266 731 202T656 90T543 16T399 -11ZM399 20Q467 20 517 60T596 173T625 340Q625 430 597 500T518 610T399 650Q332 650 282 610T203 498T174 328Q174 262 190 206T236 108T307 43T399 20Z" />
<glyph unicode="R" horiz-adv-x="785" d="M712 -14Q666 -14 629 3T559 55T491 136Q464 175 438 212T378 273T295 297H267V90Q267 59 277 49T325 31L380 20V0H34V20L89 31Q126 39 136 49T147 90V583Q147 615 137 625T89 642L34 653V673H314Q458 673 538 624T618
488Q618 442 591 406T519 347T421 318V316Q467 314 501 292T563 234T618 159Q644 122 670 90T723 37T780 17V-5Q746 -14 712 -14ZM267 328H314Q366 328 406 345T470 397T493 481Q493 561 443 602T301 644H267V328Z" />
<glyph unicode="S" horiz-adv-x="577" d="M296 -10Q211 -10 151 11T55 51Q63 95 63 142T50 236H83Q89 174 115 125T188 48T298 20Q333 20 365 33T417 74T438 141Q438 179 423 203T368 249T256 295Q166 326 118 368T70 490Q70 541 94 585T168 657T291 684Q327 684
351 676T394 659Q409 652 421 646T448 640L477 646L480 644Q479 632 478 619T477 594Q477 567 480 541T488 496T494 469H469Q452 525 427 566T366 630T284 654Q248 654 220 638T176 596T160 537Q160 501 173 478T222 437T329 394Q402 370 444 342T505 279T524 193Q524
133 495 88T415 16T296 -10Z" />
<glyph unicode="T" horiz-adv-x="700" d="M177 0V20L232 31Q269 39 279 49T290 90V644H208Q163 644 129 622T71 564T37 484H12Q18 516 22 548T27 612T23 673H676Q672 644 672 612T677 548T688 484H663Q652 528 629 564T572 622T492 644H410V90Q410 59 420 49T468
31L523 20V0H177Z" />
<glyph unicode="U" horiz-adv-x="776" d="M383 -11Q333 -11 288 5T208 52T152 126T132 221V583Q132 615 122 625T74 642L19 653V673H365V653L310 642Q273 635 263 625T252 583V225Q252 142 298 96T429 49Q482 49 521 71T581 132T603 224V580Q603 608 591 620T545
639L477 653V673H754V653L695 640Q662 634 650 622T637 581V109Q619 109 606 96T574 65Q558 48 535 31T476 1T383 -11Z" />
<glyph unicode="V" horiz-adv-x="772" d="M372 -15L111 599Q102 620 90 629T55 642L5 653V673H347V653L298 643Q273 638 258 631T243 609Q243 603 245 595T251 578L439 121H418L604 581Q607 589 609 595T611 606Q611 620 600 627T563 639L500 653V673H767V653L712
641Q689 636 674 627T648 592L404 -15H372Z" />
<glyph unicode="W" horiz-adv-x="1137" d="M345 -13L115 594Q106 615 95 626T57 642L7 653V673H352V653L295 641Q261 635 253 623T255 583L402 160L553 584Q563 611 556 622T521 640L454 653V673H756V653L692 640Q674 637 665 631T655 615T660 585L808 157L968
591Q976 613 968 622T920 639L857 653V673H1130V653L1071 641Q1044 637 1029 625T1005 588L782 -13H750L562 498L376 -13H345Z" />
<glyph unicode="X" horiz-adv-x="792" d="M10 0V20L65 31Q91 35 112 46T151 75L341 311L137 596Q123 616 108 627T64 644L23 652V673H387V653L314 638Q289 633 282 623T290 590L430 394L579 588Q593 605 590 619T564 637L492 653V673H771V653L716 642Q691 638
670 627T631 597L453 366L654 93Q677 61 696 48T742 29L782 21V0H415V20L468 31Q489 35 502 42T518 61T506 93L364 285L202 83Q188 66 192 54T217 36L289 20V0H10Z" />
<glyph unicode="Y" horiz-adv-x="733" d="M335 272L106 610Q96 624 84 632T55 643L11 652V673H353V653L301 643Q271 638 260 625T267 583L414 365H397L550 592Q561 608 558 619T530 636L454 653V673H722V653L669 642Q646 638 629 629T600 596L388 283L335 272ZM190
0V20L245 31Q283 39 293 49T303 90V344L423 353V90Q423 59 433 49T481 31L536 20V0H190Z" />
<glyph unicode="Z" horiz-adv-x="667" d="M27 0V15L470 644H288Q232 644 194 626T130 572T82 478H61Q69 511 73 547T77 618Q77 632 76 645T72 673H623V656L185 30H393Q449 30 495 52T576 112T627 197H648Q636 146 629 98T622 0H27Z" />
<glyph unicode="[" horiz-adv-x="274" d="M48 -214V744H247V702H129V-172H247V-214H48Z" />
<glyph unicode="\" horiz-adv-x="447" d="M424 -7H377L23 710H69L424 -7Z" />
<glyph unicode="]" horiz-adv-x="274" d="M226 -214H27V-172H145V702H27V744H226V-214Z" />
<glyph unicode="^" horiz-adv-x="552" d="M34 303L244 667H308L518 303H442L255 615H297L110 303H34Z" />
<glyph unicode="_" horiz-adv-x="554" d="M0 -93V-46H554V-93H0Z" />
<glyph unicode="`" horiz-adv-x="550" d="M606 538L458 658Q449 666 443 675T438 697Q438 713 449 724T479 735Q501 734 515 712L625 554L606 538Z" />
<glyph unicode="a" horiz-adv-x="477" d="M175 -7Q140 -7 111 13T65 65T48 134Q48 151 51 158T63 169L263 243Q283 250 290 259T297 286V316Q297 360 276 388T211 416Q182 416 164 404T146 373Q146 366 149 360T158 348Q165 339 169 329T174 308Q174 286 159 273T119
260Q94 260 80 274T66 315Q66 351 91 380T155 427T235 445Q282 445 317 429T373 382T394 307V93Q394 73 398 59T421 45Q439 45 465 54V33Q446 21 416 8T362 -6Q341 -6 328 3T309 31T303 76V90L323 71Q302 53 277 35T226 5T175 -7ZM220 48Q236 48 251 55T284 74Q297
84 297 106V215Q297 218 295 219T290 219L156 170Q150 168 148 161T145 138Q145 116 156 96T184 62T220 48Z" />
<glyph unicode="b" horiz-adv-x="552" d="M102 -12L85 -9V607Q85 628 79 635T60 646L22 656V670Q71 678 109 686T186 711L195 704Q188 688 185 665T182 612V387L266 433Q273 436 283 440T304 444Q378 444 425 413T496 333T519 226Q519 169 495 115T420 26T292
-9Q251 -9 212 7T147 47Q134 35 124 20T102 -12ZM292 23Q335 23 362 47T402 109T415 191Q415 240 400 283T355 353T277 381Q232 381 207 355T182 293V154Q182 118 197 88T238 41T292 23Z" />
<glyph unicode="c" horiz-adv-x="450" d="M244 -8Q182 -8 135 21T60 100T33 211Q33 281 63 333T145 415T256 445Q333 445 376 412T419 327Q419 296 403 282T365 268Q342 268 326 281T310 318Q310 333 318 348Q320 353 322 358T325 371Q325 391 305 403T254 415Q223
415 197 395T154 335T138 235Q138 149 181 104T286 59Q348 59 409 110L424 97Q385 42 339 17T244 -8Z" />
<glyph unicode="d" horiz-adv-x="561" d="M248 -8Q175 -8 127 22T56 103T33 209Q33 253 46 294T86 370T154 424T252 444Q287 444 318 436T370 416V607Q370 628 364 635T344 646L303 656V670Q351 678 391 686T470 711L480 704Q472 688 470 665T467 612V87Q467 55
485 43T545 31V7Q506 6 471 2T396 -8L387 -3L379 51H375L286 3Q279 -1 269 -4T248 -8ZM275 53Q319 53 344 80T370 143V281Q370 318 355 347T314 395T260 413Q218 413 191 389T151 327T138 245Q138 194 152 151T197 80T275 53Z" />
<glyph unicode="e" horiz-adv-x="454" d="M245 -8Q183 -8 136 21T61 101T33 213Q33 281 62 333T141 415T254 445Q305 445 342 421T401 357T422 265Q422 256 417 250T402 243H92V274L304 282Q320 282 320 302Q320 352 301 383T246 415Q197 415 168 366T138 235Q138
178 158 139T213 79T287 59Q347 59 408 110L423 97Q385 42 339 17T245 -8Z" />
<glyph unicode="f" horiz-adv-x="342" d="M32 0V16L68 28Q83 33 89 41T95 65V405H29V436H95V493Q95 568 119 616T187 687T293 711Q346 711 380 690T414 633Q414 608 400 594T364 579Q340 579 325 592T310 628Q310 635 312 640T316 649Q318 653 320 656T322 665Q322
675 312 679T287 684Q252 684 231 662T201 596T192 487V436H315L305 405H192V60Q192 48 199 40T222 28L269 16V0H32Z" />
<glyph unicode="g" horiz-adv-x="513" d="M238 -260Q175 -260 127 -246T52 -206T24 -144Q24 -113 47 -87T110 -44T202 -25L225 -31Q167 -40 142 -65T117 -120Q117 -156 155 -185T268 -214Q344 -214 391 -187T438 -117Q438 -75 399 -52T298 -29Q271 -29 243 -31T186
-33Q126 -33 87 -11T47 53Q47 55 48 57T53 63Q81 83 102 103T140 147V151Q100 173 79 209T58 286Q58 355 106 399T232 444Q257 444 279 439T323 427Q342 422 359 418T393 414Q420 414 420 431Q420 439 417 446T408 463Q404 470 400 477T396 495Q396 515 408 524T437
534Q459 534 471 517T484 476Q484 423 463 401T412 378Q390 378 368 389V383Q388 359 396 336T404 280Q404 239 384 205T327 151T238 130Q187 129 161 116T135 86Q135 71 149 64T190 56Q214 56 247 57T309 59Q362 59 406 46T476 2T502 -77Q502 -131 468 -172T375
-237T238 -260ZM235 163Q269 163 288 194T307 284Q307 344 288 378T232 412Q199 412 180 382T161 294Q161 233 180 198T235 163Z" />
<glyph unicode="h" horiz-adv-x="556" d="M321 0V16L357 28Q372 32 378 41T384 65V280Q384 325 360 349T290 374Q245 374 219 345T192 274L172 376H191Q218 389 250 406T311 439Q316 441 321 442T332 444Q403 444 442 409T481 305V60Q481 46 489 39T508 28L544
16V0H321ZM32 0V16L68 28Q82 32 88 41T95 65V607Q95 628 89 635T70 646L32 656V670Q81 678 119 686T196 711L206 704Q198 688 195 665T192 612V60Q192 46 199 39T218 28L254 16V0H32Z" />
<glyph unicode="i" horiz-adv-x="272" d="M32 0V16L68 28Q95 37 95 65V346Q95 366 89 373T69 385L32 394V409Q81 417 118 425T195 449L205 442Q197 427 195 404T192 350V60Q192 47 200 39T217 28L253 16V0H32ZM142 552Q114 552 95 571T75 619Q75 647 94 666T142
686Q170 686 189 667T209 619Q209 591 190 572T142 552Z" />
<glyph unicode="j" horiz-adv-x="264" d="M11 -260Q-26 -260 -45 -244T-64 -202Q-64 -177 -48 -162T-9 -146Q16 -146 31 -160T46 -198Q46 -202 45 -205T44 -213Q44 -221 51 -221Q60 -221 68 -212T83 -180T89 -119V346Q89 366 83 373T63 385L27 394V409Q76 417
113 425T190 449L199 442Q192 427 189 404T186 350V-108Q181 -108 176 -111T168 -121Q141 -185 105 -222T11 -260ZM137 552Q109 552 90 571T70 619Q70 647 89 666T137 686Q165 686 184 667T204 619Q204 591 185 572T137 552Z" />
<glyph unicode="k" horiz-adv-x="556" d="M33 0V16L69 28Q83 32 89 41T95 65V607Q95 628 89 635T70 646L32 656V670Q81 678 119 686T196 711L206 704Q198 688 195 665T192 612V60Q192 46 200 39T219 28L255 16V0H33ZM307 0V16L335 22Q350 27 354 36T350 60L237
231L310 292L466 59Q476 44 487 36T516 23L542 17V0H307ZM183 143L176 183L376 385Q384 392 382 400T368 410L322 419V436H513V419L467 409Q454 405 447 402T432 390L183 143Z" />
<glyph unicode="l" horiz-adv-x="276" d="M32 0V16L68 28Q82 32 88 41T95 65V607Q95 628 89 635T70 646L32 656V670Q81 678 119 686T196 711L206 704Q198 688 195 665T192 612V60Q192 46 199 39T218 28L254 16V0H32Z" />
<glyph unicode="m" horiz-adv-x="813" d="M579 0V16L615 28Q629 32 635 41T641 65V279Q641 325 619 349T555 374Q514 374 490 346T465 275L445 376H464Q490 389 523 406T581 439Q590 444 598 444Q664 444 701 409T738 305V60Q738 46 746 39T765 28L801 16V0H579ZM32
0V16L68 28Q82 32 88 41T95 65V345Q95 366 89 373T69 384L32 394V409Q65 414 90 419T139 431T189 449L198 442Q192 430 189 410T185 368V358L192 339V60Q192 46 199 39T218 28L254 16V0H32ZM305 0V16L341 28Q356 32 362 41T368 65V279Q368 325 346 349T282 374Q241
374 217 346T192 275L172 376H190Q216 389 249 406T308 439Q317 444 324 444Q391 444 428 409T465 305V60Q465 46 473 39T492 28L528 16V0H305Z" />
<glyph unicode="n" horiz-adv-x="555" d="M321 0V16L357 28Q371 32 377 41T384 65V280Q384 325 360 349T290 374Q244 374 218 345T192 274L172 376H190Q218 389 250 406T310 439Q321 445 332 445Q403 445 442 409T481 305V60Q481 46 488 39T507 28L543 16V0H321ZM32
0V16L68 28Q82 32 88 41T95 65V345Q95 366 89 373T69 384L32 394V409Q65 414 90 419T139 431T189 449L198 442Q192 430 189 410T185 368V358L192 339V60Q192 46 199 39T218 28L254 16V0H32Z" />
<glyph unicode="o" horiz-adv-x="504" d="M252 -8Q187 -8 137 21T60 101T33 214Q33 282 60 334T137 415T252 444Q318 444 367 415T443 336T471 222Q471 155 444 103T367 22T252 -8ZM253 21Q306 21 335 68T364 211Q364 310 335 362T251 415Q198 415 169 368T140
225Q140 127 169 74T253 21Z" />
<glyph unicode="p" horiz-adv-x="551" d="M22 -250V-234L58 -222Q73 -217 79 -209T85 -185V346Q85 366 79 373T59 385L22 394V409Q55 415 80 420T129 432T179 449L188 442Q183 432 180 417T175 384H177L264 433Q272 437 282 440T302 444Q376 444 423 413T494 333T518
226Q518 184 505 142T465 66T397 12T299 -9Q264 -9 233 -1T182 20V-190Q182 -202 189 -209T211 -222L253 -234V-250H22ZM292 23Q334 23 361 47T400 109T413 191Q413 240 399 283T355 353T276 381Q232 381 207 355T181 293V154Q181 118 196 88T237 41T292 23Z" />
<glyph unicode="q" horiz-adv-x="552" d="M299 -250V-234L340 -222Q357 -217 363 -210T370 -190V48L286 3Q279 -1 269 -4T248 -8Q175 -8 127 22T56 103T33 209Q33 268 57 321T132 409T260 444Q301 444 341 428T406 388Q418 401 429 416T451 449L467 447V-185Q467
-201 473 -209T494 -222L530 -234V-250H299ZM275 55Q321 55 345 81T370 143V281Q370 318 355 347T314 395T260 413Q218 413 191 389T151 327T138 245Q138 196 152 153T197 82T275 55Z" />
<glyph unicode="r" horiz-adv-x="399" d="M32 0V16L68 28Q83 33 89 41T95 65V345Q95 366 89 373T69 384L32 394V409Q65 414 90 419T139 431T189 449L198 442Q192 430 189 410T185 368V358L192 339V60Q192 48 199 41T221 28L263 16V0H32ZM192 268L174 362L292 433Q304
440 313 442T331 445Q353 445 371 428T389 382Q389 360 372 342T327 324Q310 324 298 332T277 348Q271 356 264 362T248 369Q240 369 227 361T203 332T192 268Z" />
<glyph unicode="s" horiz-adv-x="392" d="M195 -8Q148 -8 107 6T45 33Q47 62 47 96T40 161H74Q80 121 96 89T140 39T204 20Q233 20 253 38T274 87Q274 112 265 128T233 158T165 188Q108 211 81 241T53 323Q53 355 72 382T126 427T207 445Q238 445 258 439T300
423H324Q322 387 323 361T331 302H304Q291 358 265 387T198 417Q168 417 150 400T132 357Q132 333 141 318T172 291T234 265Q293 244 323 214T354 127Q354 93 337 62T284 12T195 -8Z" />
<glyph unicode="t" horiz-adv-x="346" d="M181 -8Q88 -8 88 109V405H22V429Q87 440 119 475T160 575H185V436H308L298 405H185V117Q185 79 197 65T230 51Q245 51 264 58T303 76L316 54Q278 24 243 8T181 -8Z" />
<glyph unicode="u" horiz-adv-x="555" d="M217 -8Q151 -8 113 26T74 131V363Q74 383 68 390T48 402L12 414V429Q46 430 72 432T123 439T175 449L184 442Q178 430 175 410T171 368V159Q171 113 194 89T261 64Q303 64 327 92T352 162L372 60H354Q326 48 293 31T233
-3Q224 -8 217 -8ZM379 -8L370 -3L360 69L352 98V363Q352 383 346 390T327 402L290 414V429Q324 430 350 432T401 439T453 449L463 442Q456 430 453 410T449 368V87Q449 55 468 43T527 31V7Q489 6 454 2T379 -8Z" />
<glyph unicode="v" horiz-adv-x="502" d="M242 -10L66 390Q62 400 56 404T36 412L5 419V436H238V419L203 411Q188 408 180 400T178 376L294 103H274L388 384Q392 394 389 400T370 410L324 419V436H497V419L459 409Q446 405 440 401T429 386L264 -10H242Z" />
<glyph unicode="w" horiz-adv-x="740" d="M235 -9L69 390Q65 400 59 404T39 412L8 419V436H241V419L201 409Q186 406 181 399T181 376L277 138L367 382Q371 394 368 400T350 410L304 420V436H496V420L449 409Q436 406 433 399T435 379L532 137L622 381Q627 393
624 400T607 409L559 419V436H732V419L695 409Q682 405 676 401T665 386L511 -9H491L369 283L256 -9H235Z" />
<glyph unicode="x" horiz-adv-x="503" d="M7 0V16L47 26Q62 30 72 37T93 58L214 222V186L83 390Q77 399 69 404T48 412L17 419V436H258V419L224 409Q208 405 203 398T203 381L295 235L254 226L356 379Q365 391 364 400T349 411L307 420V436H481V420L444 410Q428
406 419 400T399 380L282 214L288 251L426 49Q432 40 442 33T465 23L496 16V0H252V16L281 24Q303 30 308 38T306 58L203 213H247L137 58Q127 45 127 36T143 24L184 16V0H7Z" />
<glyph unicode="y" horiz-adv-x="497" d="M79 -260Q50 -260 33 -242T15 -201Q15 -175 31 -158T71 -140Q85 -140 94 -145T111 -156Q117 -162 122 -164T132 -167Q148 -167 159 -141L226 17L67 390Q62 400 56 404T36 412L5 419V436H238V419L203 411Q188 408 181 400T178
376L291 101H265L383 384Q388 394 385 400T365 410L320 419V436H492V419L455 409Q442 405 436 401T425 386L194 -157Q179 -192 162 -214T124 -248T79 -260Z" />
<glyph unicode="z" horiz-adv-x="417" d="M16 0V6L268 408H190Q158 408 135 398T97 371T73 333T61 291H36Q43 314 46 339T50 387Q50 401 49 412T46 436H395V430L142 28H244Q282 28 309 44T353 87T379 147H401Q392 109 389 77T386 8V0H16Z" />
<glyph unicode="{" horiz-adv-x="351" d="M325 -216Q285 -216 243 -211T164 -190T106 -145T84 -64Q84 -30 92 9T107 89T115 163Q115 196 105 214T75 240T26 247V281Q55 281 75 288T105 313T115 365Q115 399 108 439T92 519T84 592Q84 642 106 672T164 718T242
738T325 744V711Q278 710 244 700T192 663T174 590Q174 561 176 534T183 480Q185 457 187 435T190 390Q190 351 179 325T148 284T99 264V263Q128 260 148 245T179 204T190 138Q190 112 187 87T181 36Q178 12 176 -12T174 -62Q174 -109 192 -135T244 -171T325 -183V-216Z"
/>
<glyph unicode="|" horiz-adv-x="287" d="M117 712H171V-270H116L117 712Z" />
<glyph unicode="}" horiz-adv-x="351" d="M26 -216V-183Q74 -181 107 -171T159 -135T177 -62Q177 -36 175 -12T170 36Q167 62 164 87T161 138Q161 178 172 204T203 245T252 263V264Q224 269 204 283T172 324T161 390Q161 413 163 435T168 480Q172 506 174 533T177
590Q177 637 159 663T108 699T26 711V744Q66 744 108 739T187 718T245 673T267 592Q267 559 260 519T244 439T236 365Q236 332 246 314T276 288T325 281V247Q297 247 277 240T246 215T236 163Q236 129 244 89T259 10T267 -64Q267 -114 245 -144T187 -190T109 -210T26
-216Z" />
<glyph unicode="~" horiz-adv-x="554" d="M103 282L65 291Q76 340 104 361T168 382Q197 382 227 374T284 355Q311 346 337 338T385 330Q410 330 425 341T450 380L488 372Q478 323 449 303T385 282Q357 282 327 289T269 307Q242 317 217 325T169 333Q144 333 128
322T103 282Z" />
<glyph unicode="&#xa0;" horiz-adv-x="277" />
<glyph unicode="&#xa1;" horiz-adv-x="235" d="M94 265H139L181 -170H52L94 265ZM118 497Q147 497 167 477T188 428Q188 398 168 378T118 357Q90 357 70 378T49 428Q49 456 69 476T118 497Z" />
<glyph unicode="&#xa2;" horiz-adv-x="450" d="M82 -92L53 -80L341 549L370 537L82 -92ZM244 -8Q182 -8 135 21T60 100T33 211Q33 281 63 333T145 415T256 445Q333 445 376 412T419 327Q419 296 403 282T365 268Q342 268 326 281T310 318Q310 333 318 348Q320
353 322 358T325 371Q325 391 305 403T254 415Q223 415 197 395T154 335T138 235Q138 149 181 104T286 59Q348 59 409 110L424 97Q385 42 339 17T244 -8Z" />
<glyph unicode="&#xa3;" horiz-adv-x="632" d="M43 -99Q30 -99 24 -91T17 -69Q17 -46 31 -16T72 44T136 93T217 113Q256 113 286 101T343 67T397 16Q426 -15 448 -35T491 -55Q514 -55 526 -40T538 -1Q538 12 532 23T519 46Q512 57 506 68T500 92Q500 111 511 125T545
139Q571 139 584 119T597 63Q597 30 584 -5T542 -64T469 -89Q411 -89 369 -63T291 0Q264 30 236 49T178 69Q157 69 141 57T114 28T96 -4T87 -27L81 -28Q105 23 119 62T142 134T156 199Q164 242 173 290T200 406Q220 478 246 530T307 615T382 665T474 682Q514 682
546 670T596 636T614 586Q614 559 598 544T561 529Q539 529 524 542T508 577Q508 586 510 593T515 606Q518 612 520 617T523 629Q523 642 508 647T477 653Q444 653 418 632T369 560T326 425Q309 351 284 276T228 134T165 15T102 -68T43 -99ZM39 247V281H424V247H39Z"
/>
<glyph unicode="&#xa4;" horiz-adv-x="578" d="M289 163Q230 163 187 188T121 256T98 350Q98 401 121 444T187 512T289 537Q349 537 391 512T457 444T480 350Q480 299 457 256T392 188T289 163ZM85 107L46 145L158 257L192 214L85 107ZM156 443L46 553L84 592L194
483L156 443ZM289 209Q342 209 375 246T409 350Q409 416 376 453T289 491Q237 491 203 454T168 350Q168 284 202 247T289 209ZM493 107L384 215L420 258L532 146L493 107ZM424 447L383 482L493 592L532 554L424 447Z" />
<glyph unicode="&#xa5;" horiz-adv-x="733" d="M138 323V357H576V323H138ZM138 191V224H576V191H138ZM335 272L106 610Q96 624 84 632T55 643L11 652V673H353V653L301 643Q271 638 260 625T267 583L414 365H397L550 592Q561 608 558 619T530 636L454 653V673H722V653L669
642Q646 638 629 629T600 596L388 283L335 272ZM190 0V20L245 31Q283 39 293 49T303 90V344L423 353V90Q423 59 433 49T481 31L536 20V0H190Z" />
<glyph unicode="&#xa6;" horiz-adv-x="290" d="M116 292V685H174V292H116ZM174 -226H116V162H174V-226Z" />
<glyph unicode="&#xa7;" horiz-adv-x="452" d="M240 86L248 118Q279 118 300 139T321 195Q321 235 304 266T260 323T203 374Q172 400 143 427T95 488T76 565Q76 603 96 634T152 685T236 705Q316 705 354 675T393 606Q393 579 377 566T339 552Q314 552 299 566T284
598Q284 606 285 612T289 625Q291 630 292 636T293 646Q293 660 278 668T238 676Q220 676 203 667T174 641T162 598Q162 559 180 530T225 476T284 425Q313 400 341 374T386 315T403 240Q403 202 386 167T332 109T240 86ZM212 -219Q130 -219 89 -183T48 -101Q48
-76 63 -62T101 -47Q124 -47 137 -62T150 -94Q150 -101 149 -107T145 -120Q143 -125 142 -130T140 -141Q140 -162 162 -175T214 -188Q249 -188 273 -165T298 -101Q298 -63 281 -33T236 22T177 73Q146 101 116 129T67 193T48 275Q48 310 67 339T122 386T204 404L201
376Q171 376 150 354T128 303Q128 265 145 235T192 178T253 124Q285 98 313 70T360 8T378 -69Q378 -106 360 -140T305 -197T212 -219Z" />
<glyph unicode="&#xa8;" horiz-adv-x="554" d="M170 561Q146 561 128 579T109 622Q109 648 127 666T170 684Q196 684 214 666T232 622Q232 597 214 579T170 561ZM383 561Q358 561 340 579T322 622Q322 648 340 666T383 684Q409 684 427 666T445 622Q445 597 427
579T383 561Z" />
<glyph unicode="&#xa9;" horiz-adv-x="755" d="M378 3Q268 3 192 48T75 167T35 332Q35 399 58 461T127 572T235 651T378 680Q456 680 519 655T627 584T696 479T720 353Q720 286 697 223T630 111T522 32T378 3ZM390 153Q329 153 283 178T211 246T185 344Q185 401
212 445T285 514T388 540Q417 540 435 535T467 524Q477 520 486 517T508 514Q514 514 519 515T529 517L531 515Q526 496 528 471T538 414H515Q498 458 468 485T387 512Q337 512 304 467T270 344Q270 268 301 226T389 184Q435 184 467 206T518 280H542Q536 252 531
225T526 173H522Q508 173 494 170T464 164Q447 160 429 157T390 153ZM380 46Q461 46 526 85T629 193T667 348Q667 410 645 463T584 555T492 616T377 638Q315 638 263 613T171 545T111 448T89 336Q89 247 127 182T231 82T380 46Z" />
<glyph unicode="&#xaa;" horiz-adv-x="371" d="M126 372Q99 372 77 387T42 428T29 481Q29 494 31 500T40 508L191 563Q208 569 213 576T219 597V618Q219 651 203 671T153 691Q131 691 117 682T103 661Q103 655 106 651T112 642Q117 636 121 629T125 612Q125 596
112 586T80 575Q62 575 50 586T38 617Q38 644 58 666T109 701T172 715Q227 715 262 687T297 606V452Q297 437 300 427T318 417Q325 417 333 419T351 423V403Q336 394 313 384T271 373Q247 373 236 389T224 436V446L240 431Q216 410 186 391T126 372ZM162 416Q174
416 185 421T208 436Q219 443 219 460V539Q219 546 213 543L115 506Q111 504 109 499T107 482Q107 457 124 437T162 416Z" />
<glyph unicode="&#xab;" horiz-adv-x="375" d="M161 56L19 200V206L162 350L184 335L111 204L183 71L161 56ZM323 56L181 200V206L324 350L346 335L273 204L345 71L323 56Z" />
<glyph unicode="&#xac;" horiz-adv-x="554" d="M435 216V384H48V434H483V217L435 216Z" />
<glyph unicode="&#xad;" horiz-adv-x="277" d="M15 324H262V246H15V324Z" />
<glyph unicode="&#xae;" horiz-adv-x="523" d="M261 199Q184 199 129 231T46 317T17 434Q17 482 33 526T82 606T160 662T261 683Q337 683 391 651T476 566T506 449Q506 385 477 328T393 235T261 199ZM264 236Q320 236 365 263T436 338T463 447Q463 503 436 548T364
620T261 647Q197 647 153 617T86 540T63 442Q63 390 86 343T153 266T264 236ZM380 328Q357 328 338 342T301 382Q286 402 272 418T231 434H225V370Q225 361 229 358T247 350L261 345V333H137V345L151 350Q164 354 167 356T171 370V537Q171 548 168 551T151 559L137
563V575H237Q291 575 320 558T350 508Q350 484 329 468T276 448V445Q304 444 321 428T353 390Q367 369 379 354T408 339V331Q402 329 395 329T380 328ZM225 455H237Q260 455 277 467T295 506Q295 533 278 546T233 559H225V455Z" />
<glyph unicode="&#xaf;" horiz-adv-x="554" d="M116 594V642H438V594H116Z" />
<glyph unicode="&#xb0;" horiz-adv-x="363" d="M181 387Q141 387 108 407T54 461T34 535Q34 575 54 608T107 662T181 682Q222 682 255 662T309 609T329 535Q329 495 309 461T256 407T181 387ZM180 449Q216 449 242 474T268 536Q268 573 242 599T180 625Q144 625
118 599T91 536Q91 500 117 475T180 449Z" />
<glyph unicode="&#xb1;" horiz-adv-x="554" d="M252 221V364H75V414H252V556H301V414H479V364H301V221H252ZM75 124V173H479V124H75Z" />
<glyph unicode="&#xb2;" horiz-adv-x="312" d="M29 349V357L114 444Q150 481 167 517T184 592Q184 626 169 645T128 664Q108 664 96 658T83 642Q83 634 88 627T93 610Q93 598 84 590T61 582Q48 582 39 592T30 615Q30 644 60 665T141 686Q178 686 206 676T249 645T265
598Q265 566 250 539T209 487T152 435L79 373L95 416H215Q230 416 237 422T250 444L255 458H273L253 349H29Z" />
<glyph unicode="&#xb3;" horiz-adv-x="313" d="M128 344Q85 344 54 361T23 410Q23 427 32 438T55 449Q72 449 80 440T88 420Q88 405 79 400T70 387Q70 378 86 373T123 367Q155 367 175 386T196 448Q196 479 182 498T128 519Q119 517 110 514T93 509L84 526L102
533Q132 545 153 566T175 617Q175 639 163 651T124 664Q105 664 94 658T82 644Q82 635 89 630T96 612Q96 601 86 593T62 585Q50 585 42 596T33 623Q33 648 62 667T138 686Q187 686 218 669T249 620Q249 596 231 578T177 549V547Q227 544 253 517T280 457Q280 424
262 399T211 359T128 344Z" />
<glyph unicode="&#xb4;" horiz-adv-x="554" d="M199 542L181 558L295 713Q310 734 332 734Q350 734 361 723T372 695Q372 683 366 674T351 657L199 542Z" />
<glyph unicode="&#xb5;" horiz-adv-x="555" d="M73 -260L74 363Q74 383 68 390T48 402L12 414V429Q46 430 72 432T123 439T175 449L184 442Q178 430 175 410T171 368V158Q171 113 194 89T261 64Q304 64 328 93T352 164L372 60H354Q326 49 293 31T233 -3Q224 -8
217 -8Q185 -8 160 2L174 -242L73 -260ZM379 -8L370 -3L360 69L352 98V363Q352 383 346 390T327 402L290 414V429Q324 430 350 432T401 439T453 449L463 442Q456 430 453 410T449 368V87Q449 55 468 43T527 31V7Q489 6 454 2T379 -8Z" />
<glyph unicode="&#xb6;" horiz-adv-x="646" d="M268 -229Q201 -229 151 -200T74 -123T47 -21Q47 44 88 86T198 128Q239 128 260 106T282 59Q282 37 269 17T225 -4Q202 -4 185 11T167 57V61Q167 69 162 72T151 76Q138 76 125 66T101 35T91 -21Q91 -71 114 -110T177
-170T271 -192Q328 -192 367 -166T426 -87T447 42V216H320Q248 216 191 244T102 324T69 447Q69 516 99 566T190 645T338 673H607V654L552 643Q516 636 505 626T494 584V46Q494 -39 469 -101T393 -196T268 -229Z" />
<glyph unicode="&#xb7;" horiz-adv-x="277" d="M138 277Q107 277 85 299T63 352Q63 384 85 406T138 428Q169 428 191 406T213 352Q213 322 191 300T138 277Z" />
<glyph unicode="&#xb8;" horiz-adv-x="554" d="M169 -247V-217Q203 -215 231 -207T276 -185T293 -150Q293 -126 269 -114T196 -100L223 0H260L249 -38Q312 -41 349 -62T386 -121Q386 -154 367 -177T316 -214T246 -237T169 -247Z" />
<glyph unicode="&#xb9;" horiz-adv-x="257" d="M29 350V367L57 372Q74 375 81 378T91 388T94 407V640Q94 653 76 653L32 651V671L168 690V407Q168 395 170 388T180 378T205 372L233 367V350H29Z" />
<glyph unicode="&#xba;" horiz-adv-x="385" d="M192 371Q141 371 101 393T39 454T17 540Q17 591 39 630T101 692T192 715Q244 715 283 693T345 632T368 546Q368 496 346 457T284 394T192 371ZM192 403Q237 403 260 439T284 542Q284 608 260 645T192 683Q148 683
124 647T100 544Q100 478 124 441T192 403Z" />
<glyph unicode="&#xbb;" horiz-adv-x="375" d="M51 56L29 71L102 203L29 335L51 350L194 206V200L51 56ZM213 56L191 71L264 204L191 335L213 350L355 206V200L213 56Z" />
<glyph unicode="&#xbc;" horiz-adv-x="584" d="M422 0V258L443 265L318 108L313 118H505Q515 118 519 122T528 135L537 154H548L531 60H269V86L471 338H491V0H422ZM29 350V367L57 372Q74 375 81 378T91 388T94 407V640Q94 653 76 653L32 651V671L168 690V407Q168
395 170 388T180 378T205 372L233 367V350H29ZM497 677H555L119 0H61L497 677Z" />
<glyph unicode="&#xbd;" horiz-adv-x="642" d="M29 350V367L57 372Q74 375 81 378T91 388T94 407V640Q94 653 76 653L32 651V671L168 690V407Q168 395 170 388T180 378T205 372L233 367V350H29ZM497 677H555L119 0H61L497 677ZM359 0V8L444 95Q480 132 497 168T514
243Q514 277 499 296T458 315Q438 315 426 309T413 293Q413 285 418 278T423 261Q423 249 414 241T391 233Q378 233 369 243T360 266Q360 295 390 316T471 337Q508 337 536 327T579 296T595 249Q595 217 580 190T539 138T482 86L409 24L425 67H545Q560 67 567 73T580
95L585 109H603L583 0H359Z" />
<glyph unicode="&#xbe;" horiz-adv-x="602" d="M426 0V258L447 265L322 108L317 118H509Q519 118 523 122T532 135L541 154H552L535 60H273V86L475 338H495V0H426ZM511 677H569L133 0H75L511 677ZM128 344Q85 344 54 361T23 410Q23 427 32 438T55 449Q72 449 80
440T88 420Q88 405 79 400T70 387Q70 378 86 373T123 367Q155 367 175 386T196 448Q196 479 182 498T128 519Q119 517 110 514T93 509L84 526L102 533Q132 545 153 566T175 617Q175 639 163 651T124 664Q105 664 94 658T82 644Q82 635 89 630T96 612Q96 601 86
593T62 585Q50 585 42 596T33 623Q33 648 62 667T138 686Q187 686 218 669T249 620Q249 596 231 578T177 549V547Q227 544 253 517T280 457Q280 424 262 399T211 359T128 344Z" />
<glyph unicode="&#xbf;" horiz-adv-x="375" d="M288 294Q288 228 278 191T240 136T163 110Q130 105 114 98T92 81T87 51Q87 25 99 14T141 -2L313 -26V-183H294L288 -155Q284 -138 274 -131T249 -121L152 -105Q91 -94 65 -59T39 48Q39 120 65 163T165 217Q203 223
221 232T246 257T252 294H288ZM268 499Q297 499 316 479T336 431Q336 402 317 382T268 361Q240 361 220 381T200 431Q200 459 220 479T268 499Z" />
<glyph unicode="&#xc0;" horiz-adv-x="767" d="M5 0V20L59 31Q85 37 99 48T122 79L325 567L298 635Q326 636 345 647T373 673T382 698H394L649 80Q659 55 673 46T715 30L762 20V0H420V20L472 31Q498 36 509 43T520 63Q520 69 518 76T512 93L332 545H355L159 77Q157
73 156 69T155 61Q155 50 163 44T187 34L265 20V0H5ZM220 227L218 260H506V227H220ZM467 735L284 788Q272 790 264 797T250 816Q245 830 251 845T273 866Q295 874 315 860L478 757L467 735Z" />
<glyph unicode="&#xc1;" horiz-adv-x="767" d="M5 0V20L59 31Q85 37 99 48T122 79L325 567L298 635Q326 636 345 647T373 673T382 698H394L649 80Q659 55 673 46T715 30L762 20V0H420V20L472 31Q498 36 509 43T520 63Q520 69 518 76T512 93L332 545H355L159 77Q157
73 156 69T155 61Q155 50 163 44T187 34L265 20V0H5ZM220 227L218 260H506V227H220ZM303 735L292 757L455 860Q476 874 497 866Q514 860 520 845T520 816Q516 804 507 797T486 788L303 735Z" />
<glyph unicode="&#xc2;" horiz-adv-x="767" d="M5 0V20L59 31Q85 37 99 48T122 79L325 567L298 635Q326 636 345 647T373 673T382 698H394L649 80Q659 55 673 46T715 30L762 20V0H420V20L472 31Q498 36 509 43T520 63Q520 69 518 76T512 93L332 545H355L159 77Q157
73 156 69T155 61Q155 50 163 44T187 34L265 20V0H5ZM220 227L218 260H506V227H220ZM360 870H390L523 734L510 716L375 785L240 716L227 734L360 870Z" />
<glyph unicode="&#xc3;" horiz-adv-x="767" d="M5 0V20L59 31Q85 37 99 48T122 79L325 567L298 635Q326 636 345 647T373 673T382 698H394L649 80Q659 55 673 46T715 30L762 20V0H420V20L472 31Q498 36 509 43T520 63Q520 69 518 76T512 93L332 545H355L159 77Q157
73 156 69T155 61Q155 50 163 44T187 34L265 20V0H5ZM220 227L218 260H506V227H220ZM69 718V732H80Q116 732 134 735T161 747T176 771Q189 802 215 829T282 873T376 890Q429 890 469 873T536 829T575 772Q582 757 590 748T617 736T671 732H682V718H557Q556 745
534 769T471 810T376 826Q321 826 281 810T218 770T194 718H69Z" />
<glyph unicode="&#xc4;" horiz-adv-x="767" d="M5 0V20L59 31Q85 37 99 48T122 79L325 567L298 635Q326 636 345 647T373 673T382 698H394L649 80Q659 55 673 46T715 30L762 20V0H420V20L472 31Q498 36 509 43T520 63Q520 69 518 76T512 93L332 545H355L159 77Q157
73 156 69T155 61Q155 50 163 44T187 34L265 20V0H5ZM220 227L218 260H506V227H220ZM268 738Q244 738 226 756T207 799Q207 825 225 843T268 861Q294 861 312 843T330 799Q330 774 312 756T268 738ZM481 738Q456 738 438 756T420 799Q420 825 438 843T481 861Q507
861 525 843T543 799Q543 774 525 756T481 738Z" />
<glyph unicode="&#xc5;" horiz-adv-x="767" d="M5 0V20L59 31Q85 37 99 48T122 79L325 567L298 635Q326 636 345 647T373 673T382 698H394L649 80Q659 55 673 46T715 30L762 20V0H420V20L472 31Q498 36 509 43T520 63Q520 69 518 76T512 93L332 545H355L159 77Q157
73 156 69T155 61Q155 50 163 44T187 34L265 20V0H5ZM220 227L218 260H506V227H220ZM473 782Q473 743 445 714T375 685Q335 685 306 714T277 782Q277 823 306 851T375 880Q415 880 444 852T473 782ZM434 783Q434 807 418 824T376 842Q352 842 334 825T316 783Q316
758 334 741T376 723Q401 723 417 740T434 783Z" />
<glyph unicode="&#xc6;" horiz-adv-x="1002" d="M5 0V20L53 31Q79 36 95 47T123 75L486 584L488 532L168 78Q156 62 161 51T190 34L265 20V0H5ZM266 229L279 261H506V229H266ZM360 0V20L415 31Q452 39 462 49T473 90V583Q473 615 463 625T415 642L360 653V673H931Q928
659 927 646T926 618Q926 584 931 554T941 496H920Q904 538 881 571T824 624T742 644H593V371H733Q784 371 804 390T831 448L839 494H860V217H839L830 264Q823 302 804 321T735 340H593V107Q593 80 597 63T616 38T666 30H747Q785 30 815 42T870 76T911 124L947
180H968Q956 135 950 89T942 0H360Z" />
<glyph unicode="&#xc7;" horiz-adv-x="737" d="M421 -11Q337 -11 268 15T148 89T70 198T42 332Q42 409 71 473T151 584T271 656T417 682Q473 682 507 674T565 656Q584 648 601 642T639 636Q650 636 658 637T676 641L680 638Q671 603 675 559T692 458H668Q647 509
612 553T529 624T416 651Q350 651 295 612T206 501T173 333Q173 242 204 171T290 60T419 19Q456 19 493 31T564 67T626 128T674 216H700Q688 168 680 120T671 27H663Q639 27 613 22T560 10Q530 3 496 -4T421 -11ZM324 -244V-214Q358 -212 386 -204T431 -182T448
-147Q448 -123 424 -111T351 -97L378 3H415L404 -35Q467 -38 504 -59T541 -118Q541 -151 522 -174T471 -211T401 -234T324 -244Z" />
<glyph unicode="&#xc8;" horiz-adv-x="676" d="M34 0V20L89 31Q126 39 136 49T147 90V583Q147 615 137 625T89 642L34 653V673H605Q602 659 601 646T600 618Q600 584 605 554T615 496H594Q579 538 556 571T498 624T417 644H267V371H408Q459 371 478 390T505 448L514
494H534V217H514L505 264Q498 302 479 321T409 340H267V107Q267 80 271 63T291 38T340 30H421Q459 30 490 42T545 76T585 124L621 180H642Q631 135 624 89T617 0H34ZM446 735L263 788Q251 790 243 797T229 816Q224 830 230 845T252 866Q274 874 294 860L457 757L446
735Z" />
<glyph unicode="&#xc9;" horiz-adv-x="676" d="M34 0V20L89 31Q126 39 136 49T147 90V583Q147 615 137 625T89 642L34 653V673H605Q602 659 601 646T600 618Q600 584 605 554T615 496H594Q579 538 556 571T498 624T417 644H267V371H408Q459 371 478 390T505 448L514
494H534V217H514L505 264Q498 302 479 321T409 340H267V107Q267 80 271 63T291 38T340 30H421Q459 30 490 42T545 76T585 124L621 180H642Q631 135 624 89T617 0H34ZM281 735L270 757L433 860Q454 874 475 866Q492 860 498 845T498 816Q494 804 485 797T464 788L281
735Z" />
<glyph unicode="&#xca;" horiz-adv-x="676" d="M34 0V20L89 31Q126 39 136 49T147 90V583Q147 615 137 625T89 642L34 653V673H605Q602 659 601 646T600 618Q600 584 605 554T615 496H594Q579 538 556 571T498 624T417 644H267V371H408Q459 371 478 390T505 448L514
494H534V217H514L505 264Q498 302 479 321T409 340H267V107Q267 80 271 63T291 38T340 30H421Q459 30 490 42T545 76T585 124L621 180H642Q631 135 624 89T617 0H34ZM339 870H369L502 734L489 716L354 785L219 716L206 734L339 870Z" />
<glyph unicode="&#xcb;" horiz-adv-x="676" d="M34 0V20L89 31Q126 39 136 49T147 90V583Q147 615 137 625T89 642L34 653V673H605Q602 659 601 646T600 618Q600 584 605 554T615 496H594Q579 538 556 571T498 624T417 644H267V371H408Q459 371 478 390T505 448L514
494H534V217H514L505 264Q498 302 479 321T409 340H267V107Q267 80 271 63T291 38T340 30H421Q459 30 490 42T545 76T585 124L621 180H642Q631 135 624 89T617 0H34ZM247 738Q223 738 205 756T186 799Q186 825 204 843T247 861Q273 861 291 843T309 799Q309 774
291 756T247 738ZM460 738Q435 738 417 756T399 799Q399 825 417 843T460 861Q486 861 504 843T522 799Q522 774 504 756T460 738Z" />
<glyph unicode="&#xcc;" horiz-adv-x="414" d="M34 0V20L89 31Q126 39 136 49T147 90V583Q147 615 137 625T89 642L34 653V673H380V653L325 642Q288 635 278 625T267 583V90Q267 59 277 49T325 31L380 20V0H34ZM555 735L372 788Q360 790 352 797T338 816Q333 830
339 845T361 866Q383 874 403 860L566 757L555 735Z" />
<glyph unicode="&#xcd;" horiz-adv-x="414" d="M34 0V20L89 31Q126 39 136 49T147 90V583Q147 615 137 625T89 642L34 653V673H380V653L325 642Q288 635 278 625T267 583V90Q267 59 277 49T325 31L380 20V0H34ZM390 735L379 757L542 860Q563 874 584 866Q601 860
607 845T607 816Q603 804 594 797T573 788L390 735Z" />
<glyph unicode="&#xce;" horiz-adv-x="414" d="M34 0V20L89 31Q126 39 136 49T147 90V583Q147 615 137 625T89 642L34 653V673H380V653L325 642Q288 635 278 625T267 583V90Q267 59 277 49T325 31L380 20V0H34ZM448 870H478L611 734L598 716L463 785L328 716L315
734L448 870Z" />
<glyph unicode="&#xcf;" horiz-adv-x="414" d="M34 0V20L89 31Q126 39 136 49T147 90V583Q147 615 137 625T89 642L34 653V673H380V653L325 642Q288 635 278 625T267 583V90Q267 59 277 49T325 31L380 20V0H34ZM100 738Q76 738 58 756T39 799Q39 825 57 843T100
861Q126 861 144 843T162 799Q162 774 144 756T100 738ZM313 738Q288 738 270 756T252 799Q252 825 270 843T313 861Q339 861 357 843T375 799Q375 774 357 756T313 738Z" />
<glyph unicode="&#xd0;" horiz-adv-x="793" d="M34 322V369H386V322H34ZM34 0V20L89 31Q126 39 136 49T147 90V583Q147 615 137 625T89 642L34 653V673H372Q456 673 526 647T646 574T723 467T751 339Q751 263 723 201T645 94T525 25T374 0H34ZM361 29Q437 29 495
66T586 172T619 339Q619 434 587 502T496 607T354 645H267V86Q267 58 289 44T361 29Z" />
<glyph unicode="&#xd1;" horiz-adv-x="841" d="M691 -17L185 550V93Q185 66 197 53T243 34L311 20V0H34V20L94 33Q126 39 139 51T152 92V580Q152 602 148 613T131 631T88 643L38 653V673H234L672 188V580Q672 608 659 620T614 639L545 653V673H822V653L763 640Q730
634 718 622T705 581V-17H691ZM121 718V732H132Q168 732 186 735T213 747T228 771Q241 802 267 829T334 873T428 890Q481 890 521 873T588 829T627 772Q634 757 642 748T669 736T723 732H734V718H609Q608 745 586 769T523 810T428 826Q373 826 333 810T270 770T246
718H121Z" />
<glyph unicode="&#xd2;" horiz-adv-x="799" d="M399 -11Q321 -11 256 15T143 88T69 196T42 328Q42 405 68 469T143 581T256 656T398 683Q477 683 542 657T656 583T730 474T757 341Q757 266 731 202T656 90T543 16T399 -11ZM398 20Q467 20 517 60T596 173T625 340Q625
430 597 500T518 610T399 650Q332 650 282 610T203 498T174 328Q174 262 190 206T236 108T307 43T398 20ZM491 735L308 788Q296 790 288 797T274 816Q269 830 275 845T297 866Q319 874 339 860L502 757L491 735Z" />
<glyph unicode="&#xd3;" horiz-adv-x="799" d="M399 -11Q321 -11 256 15T143 88T69 196T42 328Q42 405 68 469T143 581T256 656T398 683Q477 683 542 657T656 583T730 474T757 341Q757 266 731 202T656 90T543 16T399 -11ZM398 20Q467 20 517 60T596 173T625 340Q625
430 597 500T518 610T399 650Q332 650 282 610T203 498T174 328Q174 262 190 206T236 108T307 43T398 20ZM326 735L315 757L478 860Q499 874 520 866Q537 860 543 845T543 816Q539 804 530 797T509 788L326 735Z" />
<glyph unicode="&#xd4;" horiz-adv-x="799" d="M399 -11Q321 -11 256 15T143 88T69 196T42 328Q42 405 68 469T143 581T256 656T398 683Q477 683 542 657T656 583T730 474T757 341Q757 266 731 202T656 90T543 16T399 -11ZM398 20Q467 20 517 60T596 173T625 340Q625
430 597 500T518 610T399 650Q332 650 282 610T203 498T174 328Q174 262 190 206T236 108T307 43T398 20ZM384 870H414L547 734L534 716L399 785L264 716L251 734L384 870Z" />
<glyph unicode="&#xd5;" horiz-adv-x="799" d="M399 -11Q321 -11 256 15T143 88T69 196T42 328Q42 405 68 469T143 581T256 656T398 683Q477 683 542 657T656 583T730 474T757 341Q757 266 731 202T656 90T543 16T399 -11ZM398 20Q467 20 517 60T596 173T625 340Q625
430 597 500T518 610T399 650Q332 650 282 610T203 498T174 328Q174 262 190 206T236 108T307 43T398 20ZM93 718V732H104Q140 732 158 735T185 747T200 771Q213 802 239 829T306 873T400 890Q453 890 493 873T560 829T599 772Q606 757 614 748T641 736T695 732H706V718H581Q580
745 558 769T495 810T400 826Q345 826 305 810T242 770T218 718H93Z" />
<glyph unicode="&#xd6;" horiz-adv-x="799" d="M399 -11Q321 -11 256 15T143 88T69 196T42 328Q42 405 68 469T143 581T256 656T398 683Q477 683 542 657T656 583T730 474T757 341Q757 266 731 202T656 90T543 16T399 -11ZM398 20Q467 20 517 60T596 173T625 340Q625
430 597 500T518 610T399 650Q332 650 282 610T203 498T174 328Q174 262 190 206T236 108T307 43T398 20ZM292 738Q268 738 250 756T231 799Q231 825 249 843T292 861Q318 861 336 843T354 799Q354 774 336 756T292 738ZM505 738Q480 738 462 756T444 799Q444 825
462 843T505 861Q531 861 549 843T567 799Q567 774 549 756T505 738Z" />
<glyph unicode="&#xd7;" horiz-adv-x="554" d="M143 164L108 199L242 333L109 465L145 500L276 368L411 502L446 467L312 333L444 200L409 165L276 298L143 164Z" />
<glyph unicode="&#xd8;" horiz-adv-x="799" d="M76 -14L42 21L724 683L757 648L76 -14ZM399 -11Q321 -11 256 15T143 88T69 196T42 328Q42 405 68 469T143 581T256 656T398 683Q477 683 542 657T656 583T730 474T757 341Q757 266 731 202T656 90T543 16T399 -11ZM398
20Q467 20 517 60T596 173T625 340Q625 430 597 500T518 610T399 650Q332 650 282 610T203 498T174 328Q174 262 190 206T236 108T307 43T398 20Z" />
<glyph unicode="&#xd9;" horiz-adv-x="776" d="M383 -11Q333 -11 288 5T208 52T152 126T132 221V583Q132 615 122 625T74 642L19 653V673H365V653L310 642Q273 635 263 625T252 583V225Q252 142 298 96T429 49Q482 49 521 71T581 132T603 224V580Q603 608 591
620T545 639L477 653V673H754V653L695 640Q662 634 650 622T637 581V109Q619 109 606 96T574 65Q558 48 535 31T476 1T383 -11ZM513 735L330 788Q318 790 310 797T296 816Q291 830 297 845T319 866Q341 874 361 860L524 757L513 735Z" />
<glyph unicode="&#xda;" horiz-adv-x="776" d="M383 -11Q333 -11 288 5T208 52T152 126T132 221V583Q132 615 122 625T74 642L19 653V673H365V653L310 642Q273 635 263 625T252 583V225Q252 142 298 96T429 49Q482 49 521 71T581 132T603 224V580Q603 608 591
620T545 639L477 653V673H754V653L695 640Q662 634 650 622T637 581V109Q619 109 606 96T574 65Q558 48 535 31T476 1T383 -11ZM349 735L338 757L501 860Q522 874 543 866Q560 860 566 845T566 816Q562 804 553 797T532 788L349 735Z" />
<glyph unicode="&#xdb;" horiz-adv-x="776" d="M383 -11Q333 -11 288 5T208 52T152 126T132 221V583Q132 615 122 625T74 642L19 653V673H365V653L310 642Q273 635 263 625T252 583V225Q252 142 298 96T429 49Q482 49 521 71T581 132T603 224V580Q603 608 591
620T545 639L477 653V673H754V653L695 640Q662 634 650 622T637 581V109Q619 109 606 96T574 65Q558 48 535 31T476 1T383 -11ZM406 870H436L569 734L556 716L421 785L286 716L273 734L406 870Z" />
<glyph unicode="&#xdc;" horiz-adv-x="776" d="M383 -11Q333 -11 288 5T208 52T152 126T132 221V583Q132 615 122 625T74 642L19 653V673H365V653L310 642Q273 635 263 625T252 583V225Q252 142 298 96T429 49Q482 49 521 71T581 132T603 224V580Q603 608 591
620T545 639L477 653V673H754V653L695 640Q662 634 650 622T637 581V109Q619 109 606 96T574 65Q558 48 535 31T476 1T383 -11ZM314 738Q290 738 272 756T253 799Q253 825 271 843T314 861Q340 861 358 843T376 799Q376 774 358 756T314 738ZM527 738Q502 738 484
756T466 799Q466 825 484 843T527 861Q553 861 571 843T589 799Q589 774 571 756T527 738Z" />
<glyph unicode="&#xdd;" horiz-adv-x="733" d="M335 272L106 610Q96 624 84 632T55 643L11 652V673H353V653L301 643Q271 638 260 625T267 583L414 365H397L550 592Q561 608 558 619T530 636L454 653V673H722V653L669 642Q646 638 629 629T600 596L388 283L335
272ZM190 0V20L245 31Q283 39 293 49T303 90V344L423 353V90Q423 59 433 49T481 31L536 20V0H190ZM327 735L316 757L479 860Q500 874 521 866Q538 860 544 845T544 816Q540 804 531 797T510 788L327 735Z" />
<glyph unicode="&#xde;" horiz-adv-x="652" d="M34 0V20L89 31Q126 39 136 49T147 90V583Q147 615 137 625T89 642L34 653V673H380V653L325 642Q288 635 278 625T267 583V546H348Q436 546 499 521T597 452T631 348Q631 300 611 265T558 206T485 169T406 155T335
161L334 168Q381 171 420 188T482 244T506 346Q506 438 457 477T323 517H267V90Q267 59 277 49T325 31L385 20V0H34Z" />
<glyph unicode="&#xdf;" horiz-adv-x="604" d="M422 -8Q375 -8 335 6T272 33Q274 62 274 96T267 161H301Q307 121 323 89T367 39T431 20Q461 20 481 38T501 87Q501 116 486 135T448 170T397 199Q368 214 342 232T298 278T280 348Q280 383 299 405T341 448Q365
469 384 497T404 572Q404 627 381 655T304 684Q262 684 238 662T203 596T192 487V0H32V16L68 28Q83 33 89 41T95 65V405H29V436H95V493Q95 565 119 613T192 686T314 711Q375 711 416 693T479 645T501 583Q501 553 490 533T461 499T424 473Q399 456 379 436T359
382Q359 355 373 337T411 305T460 278Q489 264 516 246T562 199T581 127Q581 93 564 62T512 12T422 -8Z" />
<glyph unicode="&#xe0;" horiz-adv-x="477" d="M175 -7Q140 -7 111 13T65 65T48 134Q48 151 51 158T63 169L263 243Q283 250 290 259T297 286V316Q297 360 276 388T211 416Q182 416 164 404T146 373Q146 366 149 360T158 348Q165 339 169 329T174 308Q174 286
159 273T119 260Q94 260 80 274T66 315Q66 351 91 380T155 427T235 445Q282 445 317 429T373 382T394 307V93Q394 73 398 59T421 45Q439 45 465 54V33Q446 21 416 8T362 -6Q341 -6 328 3T309 31T303 76V90L323 71Q302 53 277 35T226 5T175 -7ZM220 48Q236 48 251
55T284 74Q297 84 297 106V215Q297 218 295 219T290 219L156 170Q150 168 148 161T145 138Q145 116 156 96T184 62T220 48ZM559 538L411 658Q402 666 396 675T391 697Q391 713 402 724T432 735Q454 734 468 712L578 554L559 538Z" />
<glyph unicode="&#xe1;" horiz-adv-x="477" d="M175 -7Q140 -7 111 13T65 65T48 134Q48 151 51 158T63 169L263 243Q283 250 290 259T297 286V316Q297 360 276 388T211 416Q182 416 164 404T146 373Q146 366 149 360T158 348Q165 339 169 329T174 308Q174 286
159 273T119 260Q94 260 80 274T66 315Q66 351 91 380T155 427T235 445Q282 445 317 429T373 382T394 307V93Q394 73 398 59T421 45Q439 45 465 54V33Q446 21 416 8T362 -6Q341 -6 328 3T309 31T303 76V90L323 71Q302 53 277 35T226 5T175 -7ZM220 48Q236 48 251
55T284 74Q297 84 297 106V215Q297 218 295 219T290 219L156 170Q150 168 148 161T145 138Q145 116 156 96T184 62T220 48ZM433 542L415 558L529 713Q544 734 566 734Q584 734 595 723T606 695Q606 683 600 674T585 657L433 542Z" />
<glyph unicode="&#xe2;" horiz-adv-x="477" d="M175 -7Q140 -7 111 13T65 65T48 134Q48 151 51 158T63 169L263 243Q283 250 290 259T297 286V316Q297 360 276 388T211 416Q182 416 164 404T146 373Q146 366 149 360T158 348Q165 339 169 329T174 308Q174 286
159 273T119 260Q94 260 80 274T66 315Q66 351 91 380T155 427T235 445Q282 445 317 429T373 382T394 307V93Q394 73 398 59T421 45Q439 45 465 54V33Q446 21 416 8T362 -6Q341 -6 328 3T309 31T303 76V90L323 71Q302 53 277 35T226 5T175 -7ZM220 48Q236 48 251
55T284 74Q297 84 297 106V215Q297 218 295 219T290 219L156 170Q150 168 148 161T145 138Q145 116 156 96T184 62T220 48ZM512 714L647 550L631 535L497 624L363 535L347 550L482 714H512Z" />
<glyph unicode="&#xe3;" horiz-adv-x="477" d="M175 -7Q140 -7 111 13T65 65T48 134Q48 151 51 158T63 169L263 243Q283 250 290 259T297 286V316Q297 360 276 388T211 416Q182 416 164 404T146 373Q146 366 149 360T158 348Q165 339 169 329T174 308Q174 286
159 273T119 260Q94 260 80 274T66 315Q66 351 91 380T155 427T235 445Q282 445 317 429T373 382T394 307V93Q394 73 398 59T421 45Q439 45 465 54V33Q446 21 416 8T362 -6Q341 -6 328 3T309 31T303 76V90L323 71Q302 53 277 35T226 5T175 -7ZM220 48Q236 48 251
55T284 74Q297 84 297 106V215Q297 218 295 219T290 219L156 170Q150 168 148 161T145 138Q145 116 156 96T184 62T220 48ZM361 515L343 529L408 626L588 641Q596 642 601 643T613 651L642 677L660 663L595 566L417 552Q408 551 403 550T390 541L361 515Z" />
<glyph unicode="&#xe4;" horiz-adv-x="477" d="M175 -7Q140 -7 111 13T65 65T48 134Q48 151 51 158T63 169L263 243Q283 250 290 259T297 286V316Q297 360 276 388T211 416Q182 416 164 404T146 373Q146 366 149 360T158 348Q165 339 169 329T174 308Q174 286
159 273T119 260Q94 260 80 274T66 315Q66 351 91 380T155 427T235 445Q282 445 317 429T373 382T394 307V93Q394 73 398 59T421 45Q439 45 465 54V33Q446 21 416 8T362 -6Q341 -6 328 3T309 31T303 76V90L323 71Q302 53 277 35T226 5T175 -7ZM220 48Q236 48 251
55T284 74Q297 84 297 106V215Q297 218 295 219T290 219L156 170Q150 168 148 161T145 138Q145 116 156 96T184 62T220 48ZM390 561Q366 561 348 579T329 622Q329 648 347 666T390 684Q416 684 434 666T452 622Q452 597 434 579T390 561ZM603 561Q578 561 560 579T542
622Q542 648 560 666T603 684Q629 684 647 666T665 622Q665 597 647 579T603 561Z" />
<glyph unicode="&#xe5;" horiz-adv-x="477" d="M175 -7Q140 -7 111 13T65 65T48 134Q48 151 51 158T63 169L263 243Q283 250 290 259T297 286V316Q297 360 276 388T211 416Q182 416 164 404T146 373Q146 366 149 360T158 348Q165 339 169 329T174 308Q174 286
159 273T119 260Q94 260 80 274T66 315Q66 351 91 380T155 427T235 445Q282 445 317 429T373 382T394 307V93Q394 73 398 59T421 45Q439 45 465 54V33Q446 21 416 8T362 -6Q341 -6 328 3T309 31T303 76V90L323 71Q302 53 277 35T226 5T175 -7ZM220 48Q236 48 251
55T284 74Q297 84 297 106V215Q297 218 295 219T290 219L156 170Q150 168 148 161T145 138Q145 116 156 96T184 62T220 48ZM497 505Q465 505 438 521T394 564T378 624Q378 658 394 685T437 728T497 744Q530 744 557 728T600 685T616 624Q616 592 600 565T557 521T497
505ZM498 552Q528 552 548 573T569 624Q569 654 548 675T498 697Q468 697 447 676T425 624Q425 595 447 574T498 552Z" />
<glyph unicode="&#xe6;" horiz-adv-x="719" d="M175 -7Q140 -7 111 13T65 65T48 134Q48 151 51 158T63 169L263 243Q283 250 290 259T297 286V316Q297 360 276 388T211 416Q182 416 164 404T146 373Q146 366 149 360T158 348Q165 339 169 329T174 308Q174 286
159 273T119 260Q94 260 80 274T66 315Q66 351 91 380T155 427T235 445Q282 445 317 429T373 382T394 307V100L357 86Q330 65 299 44T236 8T175 -7ZM220 48Q236 48 251 55T284 74Q297 84 297 106V215Q297 218 295 219T290 219L156 170Q150 168 148 161T145 138Q145
116 156 96T184 62T220 48ZM509 -8Q447 -8 400 21T325 101T297 212Q297 281 326 333T405 415T518 445Q569 445 606 421T665 357T686 265Q686 256 682 250T666 243H356V274L568 282Q584 282 584 302Q584 352 565 383T510 415Q461 415 432 366T402 235Q402 178 422
139T477 79T551 59Q612 59 673 110L688 97Q649 42 603 17T509 -8Z" />
<glyph unicode="&#xe7;" horiz-adv-x="450" d="M244 -8Q182 -8 135 21T60 100T33 211Q33 281 63 333T145 415T256 445Q333 445 376 412T419 327Q419 296 403 282T365 268Q342 268 326 281T310 318Q310 333 318 348Q320 353 322 358T325 371Q325 391 305 403T254
415Q223 415 197 395T154 335T138 235Q138 149 181 104T286 59Q348 59 409 110L424 97Q385 42 339 17T244 -8ZM385 -244V-214Q419 -212 447 -204T492 -182T509 -147Q509 -123 485 -111T412 -97L439 3H476L465 -35Q528 -38 565 -59T602 -118Q602 -151 583 -174T532
-211T462 -234T385 -244Z" />
<glyph unicode="&#xe8;" horiz-adv-x="454" d="M245 -8Q183 -8 136 21T61 101T33 213Q33 281 62 333T141 415T254 445Q305 445 342 421T401 357T422 265Q422 256 417 250T402 243H92V274L304 282Q320 282 320 302Q320 352 301 383T246 415Q197 415 168 366T138
235Q138 178 158 139T213 79T287 59Q347 59 408 110L423 97Q385 42 339 17T245 -8ZM577 538L429 658Q420 666 414 675T409 697Q409 713 420 724T450 735Q472 734 486 712L596 554L577 538Z" />
<glyph unicode="&#xe9;" horiz-adv-x="454" d="M245 -8Q183 -8 136 21T61 101T33 213Q33 281 62 333T141 415T254 445Q305 445 342 421T401 357T422 265Q422 256 417 250T402 243H92V274L304 282Q320 282 320 302Q320 352 301 383T246 415Q197 415 168 366T138
235Q138 178 158 139T213 79T287 59Q347 59 408 110L423 97Q385 42 339 17T245 -8ZM451 542L433 558L547 713Q562 734 584 734Q602 734 613 723T624 695Q624 683 618 674T603 657L451 542Z" />
<glyph unicode="&#xea;" horiz-adv-x="454" d="M245 -8Q183 -8 136 21T61 101T33 213Q33 281 62 333T141 415T254 445Q305 445 342 421T401 357T422 265Q422 256 417 250T402 243H92V274L304 282Q320 282 320 302Q320 352 301 383T246 415Q197 415 168 366T138
235Q138 178 158 139T213 79T287 59Q347 59 408 110L423 97Q385 42 339 17T245 -8ZM529 714L664 550L648 535L514 624L380 535L364 550L499 714H529Z" />
<glyph unicode="&#xeb;" horiz-adv-x="454" d="M245 -8Q183 -8 136 21T61 101T33 213Q33 281 62 333T141 415T254 445Q305 445 342 421T401 357T422 265Q422 256 417 250T402 243H92V274L304 282Q320 282 320 302Q320 352 301 383T246 415Q197 415 168 366T138
235Q138 178 158 139T213 79T287 59Q347 59 408 110L423 97Q385 42 339 17T245 -8ZM407 561Q383 561 365 579T346 622Q346 648 364 666T407 684Q433 684 451 666T469 622Q469 597 451 579T407 561ZM620 561Q595 561 577 579T559 622Q559 648 577 666T620 684Q646
684 664 666T682 622Q682 597 664 579T620 561Z" />
<glyph unicode="&#xec;" horiz-adv-x="272" d="M32 0V16L68 28Q95 37 95 65V346Q95 366 89 373T69 385L32 394V409Q81 417 118 425T195 449L205 442Q197 427 195 404T192 350V60Q192 47 200 39T217 28L253 16V0H32ZM204 538L56 658Q47 666 41 675T36 697Q36 713
47 724T77 735Q99 734 113 712L223 554L204 538Z" />
<glyph unicode="&#xed;" horiz-adv-x="272" d="M32 0V16L68 28Q95 37 95 65V346Q95 366 89 373T69 385L32 394V409Q81 417 118 425T195 449L205 442Q197 427 195 404T192 350V60Q192 47 200 39T217 28L253 16V0H32ZM334 542L316 558L430 713Q445 734 467 734Q485
734 496 723T507 695Q507 683 501 674T486 657L334 542Z" />
<glyph unicode="&#xee;" horiz-adv-x="272" d="M32 0V16L68 28Q95 37 95 65V346Q95 366 89 373T69 385L32 394V409Q81 417 118 425T195 449L205 442Q197 427 195 404T192 350V60Q192 47 200 39T217 28L253 16V0H32ZM157 714L292 550L276 535L142 624L8 535L-8
550L127 714H157Z" />
<glyph unicode="&#xef;" horiz-adv-x="272" d="M32 0V16L68 28Q95 37 95 65V346Q95 366 89 373T69 385L32 394V409Q81 417 118 425T195 449L205 442Q197 427 195 404T192 350V60Q192 47 200 39T217 28L253 16V0H32ZM35 561Q11 561 -7 579T-26 622Q-26 648 -8 666T35
684Q61 684 79 666T97 622Q97 597 79 579T35 561ZM248 561Q223 561 205 579T187 622Q187 648 205 666T248 684Q274 684 292 666T310 622Q310 597 292 579T248 561Z" />
<glyph unicode="&#xf0;" horiz-adv-x="535" d="M250 468L235 501L515 625L530 593L250 468ZM202 -11Q158 -11 118 8T54 65T29 163Q29 243 55 298T127 382T232 411Q298 411 337 372T376 270H373Q378 299 380 335T383 403Q383 520 363 585T294 650Q278 650 268 634T250
599Q244 581 233 566T204 550Q184 550 170 561T156 593Q156 630 194 656T297 682Q395 682 438 611T481 412Q481 289 449 194T355 44T202 -11ZM223 15Q257 15 281 37T320 94T343 166T350 232Q350 264 341 297T311 352T250 375Q195 375 165 323T134 160Q134 80 159
48T223 15Z" />
<glyph unicode="&#xf1;" horiz-adv-x="555" d="M321 0V16L357 28Q371 32 377 41T384 65V280Q384 325 360 349T290 374Q244 374 218 345T192 274L172 376H190Q218 389 250 406T310 439Q321 445 332 445Q403 445 442 409T481 305V60Q481 46 488 39T507 28L543 16V0H321ZM32
0V16L68 28Q82 32 88 41T95 65V345Q95 366 89 373T69 384L32 394V409Q65 414 90 419T139 431T189 449L198 442Q192 430 189 410T185 368V358L192 339V60Q192 46 199 39T218 28L254 16V0H32ZM144 515L126 529L191 626L371 641Q379 642 384 643T396 651L425 677L443
663L378 566L200 552Q191 551 186 550T173 541L144 515Z" />
<glyph unicode="&#xf2;" horiz-adv-x="504" d="M252 -8Q187 -8 137 21T60 101T33 214Q33 282 60 334T137 415T252 444Q318 444 367 415T443 336T471 222Q471 155 444 103T367 22T252 -8ZM253 21Q306 21 335 68T364 211Q364 310 335 362T251 415Q198 415 169 368T140
225Q140 127 169 74T253 21ZM570 538L422 658Q413 666 407 675T402 697Q402 713 413 724T443 735Q465 734 479 712L589 554L570 538Z" />
<glyph unicode="&#xf3;" horiz-adv-x="504" d="M252 -8Q187 -8 137 21T60 101T33 214Q33 282 60 334T137 415T252 444Q318 444 367 415T443 336T471 222Q471 155 444 103T367 22T252 -8ZM253 21Q306 21 335 68T364 211Q364 310 335 362T251 415Q198 415 169 368T140
225Q140 127 169 74T253 21ZM444 542L426 558L540 713Q555 734 577 734Q595 734 606 723T617 695Q617 683 611 674T596 657L444 542Z" />
<glyph unicode="&#xf4;" horiz-adv-x="504" d="M252 -8Q187 -8 137 21T60 101T33 214Q33 282 60 334T137 415T252 444Q318 444 367 415T443 336T471 222Q471 155 444 103T367 22T252 -8ZM253 21Q306 21 335 68T364 211Q364 310 335 362T251 415Q198 415 169 368T140
225Q140 127 169 74T253 21ZM523 714L658 550L642 535L508 624L374 535L358 550L493 714H523Z" />
<glyph unicode="&#xf5;" horiz-adv-x="504" d="M252 -8Q187 -8 137 21T60 101T33 214Q33 282 60 334T137 415T252 444Q318 444 367 415T443 336T471 222Q471 155 444 103T367 22T252 -8ZM253 21Q306 21 335 68T364 211Q364 310 335 362T251 415Q198 415 169 368T140
225Q140 127 169 74T253 21ZM372 515L354 529L419 626L599 641Q607 642 612 643T624 651L653 677L671 663L606 566L428 552Q419 551 414 550T401 541L372 515Z" />
<glyph unicode="&#xf6;" horiz-adv-x="504" d="M252 -8Q187 -8 137 21T60 101T33 214Q33 282 60 334T137 415T252 444Q318 444 367 415T443 336T471 222Q471 155 444 103T367 22T252 -8ZM253 21Q306 21 335 68T364 211Q364 310 335 362T251 415Q198 415 169 368T140
225Q140 127 169 74T253 21ZM401 561Q377 561 359 579T340 622Q340 648 358 666T401 684Q427 684 445 666T463 622Q463 597 445 579T401 561ZM614 561Q589 561 571 579T553 622Q553 648 571 666T614 684Q640 684 658 666T676 622Q676 597 658 579T614 561Z" />
<glyph unicode="&#xf7;" horiz-adv-x="554" d="M273 105Q245 105 225 125T204 175Q204 204 224 224T273 245Q302 245 322 225T342 175Q342 146 322 126T273 105ZM273 422Q245 422 225 442T204 492Q204 521 224 541T273 562Q302 562 322 542T342 492Q342 463 322
443T273 422ZM75 309V358H479V309H75Z" />
<glyph unicode="&#xf8;" horiz-adv-x="505" d="M61 -9L33 19L440 446L470 419L61 -9ZM253 -8Q188 -8 139 21T62 101T35 214Q35 282 62 334T138 415T253 444Q319 444 368 415T445 336T472 222Q472 155 445 103T369 22T253 -8ZM254 21Q308 21 336 68T365 211Q365
310 337 362T252 415Q199 415 171 368T142 225Q142 127 170 74T254 21Z" />
<glyph unicode="&#xf9;" horiz-adv-x="555" d="M217 -8Q151 -8 113 26T74 131V363Q74 383 68 390T48 402L12 414V429Q46 430 72 432T123 439T175 449L184 442Q178 430 175 410T171 368V159Q171 113 194 89T261 64Q303 64 327 92T352 162L372 60H354Q326 48 293
31T233 -3Q224 -8 217 -8ZM379 -8L370 -3L360 69L352 98V363Q352 383 346 390T327 402L290 414V429Q324 430 350 432T401 439T453 449L463 442Q456 430 453 410T449 368V87Q449 55 468 43T527 31V7Q489 6 454 2T379 -8ZM573 538L425 658Q416 666 410 675T405 697Q405
713 416 724T446 735Q468 734 482 712L592 554L573 538Z" />
<glyph unicode="&#xfa;" horiz-adv-x="555" d="M217 -8Q151 -8 113 26T74 131V363Q74 383 68 390T48 402L12 414V429Q46 430 72 432T123 439T175 449L184 442Q178 430 175 410T171 368V159Q171 113 194 89T261 64Q303 64 327 92T352 162L372 60H354Q326 48 293
31T233 -3Q224 -8 217 -8ZM379 -8L370 -3L360 69L352 98V363Q352 383 346 390T327 402L290 414V429Q324 430 350 432T401 439T453 449L463 442Q456 430 453 410T449 368V87Q449 55 468 43T527 31V7Q489 6 454 2T379 -8ZM447 542L429 558L543 713Q558 734 580 734Q598
734 609 723T620 695Q620 683 614 674T599 657L447 542Z" />
<glyph unicode="&#xfb;" horiz-adv-x="555" d="M217 -8Q151 -8 113 26T74 131V363Q74 383 68 390T48 402L12 414V429Q46 430 72 432T123 439T175 449L184 442Q178 430 175 410T171 368V159Q171 113 194 89T261 64Q303 64 327 92T352 162L372 60H354Q326 48 293
31T233 -3Q224 -8 217 -8ZM379 -8L370 -3L360 69L352 98V363Q352 383 346 390T327 402L290 414V429Q324 430 350 432T401 439T453 449L463 442Q456 430 453 410T449 368V87Q449 55 468 43T527 31V7Q489 6 454 2T379 -8ZM525 714L660 550L644 535L510 624L376 535L360
550L495 714H525Z" />
<glyph unicode="&#xfc;" horiz-adv-x="555" d="M217 -8Q151 -8 113 26T74 131V363Q74 383 68 390T48 402L12 414V429Q46 430 72 432T123 439T175 449L184 442Q178 430 175 410T171 368V159Q171 113 194 89T261 64Q303 64 327 92T352 162L372 60H354Q326 48 293
31T233 -3Q224 -8 217 -8ZM379 -8L370 -3L360 69L352 98V363Q352 383 346 390T327 402L290 414V429Q324 430 350 432T401 439T453 449L463 442Q456 430 453 410T449 368V87Q449 55 468 43T527 31V7Q489 6 454 2T379 -8ZM403 561Q379 561 361 579T342 622Q342 648
360 666T403 684Q429 684 447 666T465 622Q465 597 447 579T403 561ZM616 561Q591 561 573 579T555 622Q555 648 573 666T616 684Q642 684 660 666T678 622Q678 597 660 579T616 561Z" />
<glyph unicode="&#xfd;" horiz-adv-x="497" d="M79 -260Q50 -260 33 -242T15 -201Q15 -175 31 -158T71 -140Q85 -140 94 -145T111 -156Q117 -162 122 -164T132 -167Q148 -167 159 -141L226 17L67 390Q62 400 56 404T36 412L5 419V436H238V419L203 411Q188 408
181 400T178 376L291 101H265L383 384Q388 394 385 400T365 410L320 419V436H492V419L455 409Q442 405 436 401T425 386L194 -157Q179 -192 162 -214T124 -248T79 -260ZM217 542L199 558L313 713Q328 734 350 734Q368 734 379 723T390 695Q390 683 384 674T369
657L217 542Z" />
<glyph unicode="&#xfe;" horiz-adv-x="562" d="M33 -250V-234L69 -222Q84 -217 89 -209T95 -185V607Q95 628 89 635T70 646L32 656V670Q81 678 119 686T196 711L206 704Q199 688 196 665T193 612L192 388H194L275 433Q283 437 293 440T313 444Q387 444 434 413T505
333T529 226Q529 184 516 142T476 66T408 12T310 -9Q275 -9 244 -1T192 20V-190Q192 -202 199 -209T222 -222L263 -234V-250H33ZM302 23Q345 23 371 47T411 109T424 191Q424 240 410 283T365 353T287 381Q242 381 217 355T192 293V154Q192 118 207 88T248 41T302
23Z" />
<glyph unicode="&#xff;" horiz-adv-x="497" d="M79 -260Q50 -260 33 -242T15 -201Q15 -175 31 -158T71 -140Q85 -140 94 -145T111 -156Q117 -162 122 -164T132 -167Q148 -167 159 -141L226 17L67 390Q62 400 56 404T36 412L5 419V436H238V419L203 411Q188 408
181 400T178 376L291 101H265L383 384Q388 394 385 400T365 410L320 419V436H492V419L455 409Q442 405 436 401T425 386L194 -157Q179 -192 162 -214T124 -248T79 -260ZM173 561Q149 561 131 579T112 622Q112 648 130 666T173 684Q199 684 217 666T235 622Q235
597 217 579T173 561ZM386 561Q361 561 343 579T325 622Q325 648 343 666T386 684Q412 684 430 666T448 622Q448 597 430 579T386 561Z" />
<glyph unicode="&#x2013;" horiz-adv-x="554" d="M0 226V273H554V226H0Z" />
<glyph unicode="&#x2014;" horiz-adv-x="1108" d="M1108 225H0V273H1108V225Z" />
<glyph unicode="&#x2018;" horiz-adv-x="277" d="M229 688V662Q186 655 159 626T132 556Q132 526 155 505T218 478V450Q194 437 180 420T151 376Q104 392 76 424T48 506Q48 552 70 592T133 658T229 688Z" />
<glyph unicode="&#x2019;" horiz-adv-x="277" d="M48 373V399Q91 406 118 435T145 505Q145 535 122 556T59 583V611Q83 625 97 641T126 685Q173 669 201 637T229 555Q229 510 207 470T144 403T48 373Z" />
<glyph unicode="&#x201a;" horiz-adv-x="277" d="M48 -158V-132Q91 -125 118 -96T145 -26Q145 4 122 25T59 52V80Q83 94 97 110T126 154Q173 138 201 106T229 24Q229 -21 207 -61T144 -128T48 -158Z" />
<glyph unicode="&#x201c;" horiz-adv-x="485" d="M229 941V915Q186 908 159 879T132 809Q132 779 155 758T218 731V703Q194 690 180 673T151 629Q104 645 76 677T48 759Q48 805 70 845T133 911T229 941ZM437 685V659Q394 652 367 623T340 553Q340 523 363 502T426
475V447Q402 434 388 417T359 373Q312 389 284 421T256 503Q256 549 278 589T341 655T437 685Z" />
<glyph unicode="&#x201d;" horiz-adv-x="485" d="M256 373V399Q299 406 326 435T353 505Q353 535 330 556T267 583V611Q291 625 305 641T334 685Q381 669 409 637T437 555Q437 510 415 470T352 403T256 373ZM48 373V399Q91 406 118 435T145 505Q145 535 122 556T59
583V611Q83 625 97 641T126 685Q173 669 201 637T229 555Q229 510 207 470T144 403T48 373Z" />
<glyph unicode="&#x201e;" horiz-adv-x="488" d="M259 -158V-132Q302 -125 329 -96T356 -26Q356 4 333 25T270 52V80Q294 94 308 110T337 154Q384 138 412 106T440 24Q440 -21 418 -61T355 -128T259 -158ZM48 -158V-132Q91 -125 118 -96T145 -26Q145 4 122 25T59
52V80Q83 94 97 110T126 154Q173 138 201 106T229 24Q229 -21 207 -61T144 -128T48 -158Z" />
<glyph unicode="&#x2022;" horiz-adv-x="361" d="M180 241Q131 241 97 275T62 359Q62 392 78 419T120 462T180 478Q213 478 240 462T283 419T299 359Q299 326 283 300T240 257T180 241Z" />
<glyph unicode="&#x2039;" horiz-adv-x="213" d="M161 56L19 200V206L162 350L184 335L111 204L183 71L161 56Z" />
<glyph unicode="&#x203a;" horiz-adv-x="213" d="M51 56L29 71L102 204L29 335L51 350L194 206V200L51 56Z" />
</font>
</defs>
</svg>
