<?xml version="1.0" standalone="no"?>
<!DOCTYPE svg PUBLIC "-//W3C//DTD SVG 1.1//EN" "http://www.w3.org/Graphics/SVG/1.1/DTD/svg11.dtd">
<svg xmlns="http://www.w3.org/2000/svg">
<defs >
<font id="IbarraRealNova" horiz-adv-x="578" ><font-face
    font-family="Ibarra Real Nova SemiBold"
    units-per-em="1000"
    panose-1="0 0 0 0 0 0 0 0 0 0"
    ascent="950"
    descent="-300"
    alphabetic="0" />
<glyph unicode=" " horiz-adv-x="209" />
<glyph unicode="!" horiz-adv-x="243" d="M104 222L236 658H364L145 222H104ZM57 -9Q29 -9 9 11T-11 59Q-11 88 9 108T57 129Q86 129 106 109T127 59Q127 32 107 12T57 -9Z" />
<glyph unicode="&quot;" horiz-adv-x="461" d="M375 424L450 710H593L431 424H375ZM191 424L266 710H409L247 424H191Z" />
<glyph unicode="#" horiz-adv-x="530" d="M3 -26L112 172H33L65 229H144L237 402H159L191 459H269L387 674H453L335 459H444L559 674H627L509 459H589L557 402H477L382 229H463L431 172H349L240 -26H176L286 172H177L67 -26H3ZM208 229H316L412 402H302L208 229Z" />
<glyph unicode="$" horiz-adv-x="606" d="M157 -89L491 766H527L194 -89H157ZM250 -9Q167 -9 112 12T12 70Q35 114 50 158T73 255L106 254Q99 231 96 209T92 167Q92 118 114 85T174 36T259 20Q307 20 348 37T416 88T443 172Q443 204 429 225T387 263T317 301Q280
319 247 341T192 395T171 476Q171 525 194 563T256 629T343 670T440 684Q477 684 515 676T585 650Q599 643 613 635T641 627Q653 627 666 630L670 626Q643 589 634 549T619 459H592Q598 522 578 565T519 631T428 654Q385 654 348 637T288 588T265 508Q265 479 282
459T328 423T388 392Q421 377 456 356T517 303T542 220Q542 163 518 120T451 49T357 6T250 -9Z" />
<glyph unicode="%" horiz-adv-x="654" d="M234 345Q181 345 158 370T134 434Q134 456 139 479T154 523Q182 598 225 640T329 683Q380 683 402 658T425 596Q425 574 419 551T405 505Q388 460 364 424T307 366T234 345ZM426 -8Q373 -8 350 17T326 81Q326 103 331
126T345 170Q374 245 417 287T520 330Q571 330 594 305T617 243Q617 221 611 198T597 152Q579 107 555 71T499 13T426 -8ZM420 15Q443 15 462 34T499 87T530 158Q540 186 548 215T556 266Q556 284 549 295T523 307Q501 307 480 287T442 235T411 163Q401 136 393
107T384 55Q384 37 393 26T420 15ZM228 368Q251 368 271 387T308 440T339 511Q349 539 357 568T365 619Q365 637 358 648T331 660Q309 660 289 640T251 588T219 516Q209 489 201 460T193 408Q193 390 201 379T228 368ZM-16 0L693 677H761L53 0H-16Z" />
<glyph unicode="&amp;" horiz-adv-x="876" d="M284 -9Q213 -9 162 12T83 75T56 181Q56 227 69 275T107 370T162 460Q192 501 228 533T304 584T383 604Q411 604 429 590T448 544Q448 512 428 477T377 410T311 355T247 322Q247 322 241 322T227 323T220 324Q264
342 297 375T349 444T369 505Q369 521 360 530T332 540Q302 540 276 520T229 467T194 391T171 306T163 223Q163 163 186 123T249 62T336 41Q402 41 457 67T552 137T616 234T642 340Q643 368 631 385T589 403Q559 403 536 390T498 355T482 308Q482 296 490 288T519
280Q565 280 615 288T709 306Q752 315 788 320T859 326L867 323Q867 323 863 304T853 255T839 197T828 148T823 128L799 126L807 183Q808 189 808 194T810 204Q812 224 808 232T787 241Q758 241 725 236T649 221Q604 210 560 203T487 196Q447 196 432 210T417 250Q419
295 440 330T494 392T563 432T631 446Q680 446 702 422T724 358Q721 307 698 255T633 156T537 72T418 13T284 -9ZM154 264L160 305Q229 322 289 355T397 428T478 506T527 572Q531 581 533 588T537 601Q537 614 532 625T521 646Q517 656 513 664T509 683Q509 708
526 727T568 746Q590 746 604 731T619 688Q619 676 616 661T605 627Q592 594 555 546T458 446T323 346T154 264Z" />
<glyph unicode="&apos;" horiz-adv-x="278" d="M191 424L266 710H409L247 424H191Z" />
<glyph unicode="(" horiz-adv-x="331" d="M76 -237Q51 -190 36 -147T15 -58T9 40Q10 151 48 253T151 446T297 615T464 753L484 733Q396 662 323 576T195 392T111 187T80 -35Q80 -80 85 -127T103 -222L76 -237Z" />
<glyph unicode=")" horiz-adv-x="331" d="M287 751Q312 705 327 662T348 573T354 474Q353 363 315 261T212 68T67 -101T-101 -239L-121 -219Q-33 -148 40 -62T168 122T252 327T283 549Q283 594 278 641T260 736L287 751Z" />
<glyph unicode="*" horiz-adv-x="456" d="M469 353Q462 347 445 344T414 356Q405 368 400 383T387 417Q380 437 371 457T345 500L336 511Q320 532 302 546T265 573Q250 583 237 592T213 613Q201 630 208 646T224 668Q231 674 248 677T279 665Q288 653 294 638T306
605Q314 584 323 563T349 521L358 510Q375 489 392 475T428 449Q444 438 457 429T480 407Q492 391 485 375T469 353ZM272 325Q262 329 251 342T247 375Q252 389 263 401T286 428Q300 445 313 463T336 507L341 520Q352 545 355 567T360 611Q361 630 362 647T369
678Q377 697 394 698T421 696Q431 692 442 679T446 646Q441 632 431 619T407 592Q394 576 381 558T357 514L352 501Q342 475 339 453T334 409Q333 390 331 374T324 343Q317 325 299 323T272 325ZM191 447Q171 444 161 458T148 483Q147 493 153 509T178 529Q194
531 210 529T244 523Q267 519 289 517T338 518L353 520Q380 524 401 532T441 550Q458 558 472 565T502 574Q522 577 532 563T545 538Q547 528 541 512T515 492Q499 490 483 493T448 499Q427 503 405 505T355 504L340 502Q314 498 293 489T252 471Q236 463 221 456T191
447Z" />
<glyph unicode="+" horiz-adv-x="553" d="M301 136V309H124V358H301V530H350V358H527V309H350V136H301Z" />
<glyph unicode="," horiz-adv-x="276" d="M-108 -155L-97 -130Q-64 -125 -29 -106T31 -58T56 6Q56 27 41 43T-4 63L6 93Q26 102 39 110T65 129T93 158Q121 147 137 123T153 67Q153 25 132 -13T73 -81T-11 -130T-108 -155Z" />
<glyph unicode="-" horiz-adv-x="292" d="M51 324H296V246H51V324Z" />
<glyph unicode="." horiz-adv-x="276" d="M76 -9Q46 -9 24 13T2 66Q2 97 24 119T76 141Q108 141 129 119T151 66Q151 35 130 13T76 -9Z" />
<glyph unicode="/" horiz-adv-x="457" d="M-68 -7L579 710H634L-13 -7H-68Z" />
<glyph unicode="0" horiz-adv-x="607" d="M255 -8Q194 -8 155 16T98 85T79 185Q79 228 88 274T111 363Q147 463 195 534T306 644T447 682Q514 682 554 656T611 586T629 489Q629 448 621 406T599 327Q566 231 517 155T404 36T255 -8ZM250 22Q290 22 322 47T380
117T430 217T476 337Q498 402 512 460T527 561Q527 598 510 625T450 652Q400 652 362 611T293 503T234 353Q210 283 194 220T177 110Q177 74 193 48T250 22Z" />
<glyph unicode="1" horiz-adv-x="402" d="M-53 0L-45 20L6 30Q31 35 46 39T71 50T86 69T100 99L302 598Q307 611 304 617T282 623L203 620L213 644L452 682L217 99Q207 75 206 62T215 43T255 30L299 20L291 0H-53Z" />
<glyph unicode="2" horiz-adv-x="528" d="M-49 0L-43 16L205 216Q241 245 277 278T346 346T403 417T442 489T457 560Q457 604 437 625T369 646Q344 646 320 638T280 618T265 592Q265 579 268 571T276 554T280 531Q280 509 261 496T217 482Q199 482 183 492T167
531Q167 567 188 595T244 643T321 672T407 682Q457 682 495 668T554 627T576 559Q576 521 558 484T508 412T439 344T359 280T280 221L123 102H343Q362 102 374 108T399 126T428 159L446 183H466L358 0H-49Z" />
<glyph unicode="3" horiz-adv-x="531" d="M156 -9Q73 -9 31 22T-12 112Q-12 136 2 158T43 180Q74 180 85 165T96 137Q96 119 87 108T69 88T60 69Q60 48 78 37T127 26Q194 26 245 55T325 135T354 251Q354 289 331 320T259 352L198 334L190 354L229 370Q262 383
298 403T367 451T419 512T440 586Q440 616 424 634T368 652Q328 652 305 638T282 607Q282 592 290 581T299 551Q299 529 280 516T238 503Q219 503 203 515T187 552Q187 583 205 607T256 648T326 673T403 682Q472 682 513 651T555 574Q555 540 538 513T493 464T430
428T362 401L361 399Q418 393 451 355T485 265Q485 198 455 147T377 62T271 9T156 -9Z" />
<glyph unicode="4" horiz-adv-x="564" d="M104 0L112 20L167 30Q194 35 209 41T233 60T251 93L433 544L449 536L80 223L85 246H458Q478 246 491 253T518 279L549 321H570L475 166H-1L13 202L579 684H601L362 93Q349 62 355 50T395 30L442 20L434 0H104Z" />
<glyph unicode="5" horiz-adv-x="511" d="M126 -9Q59 -9 17 21T-26 112Q-26 136 -12 158T29 180Q60 180 71 165T82 137Q82 119 73 108T55 88T45 69Q45 48 65 37T117 25Q164 25 204 43T275 93T323 162T340 239Q340 288 309 317T203 346Q191 346 180 346T153 343L146
348L317 676H549Q565 676 579 684T606 708L621 728H643L556 581H306L225 425Q237 427 249 427T273 428Q343 428 386 407T451 350T472 271Q472 221 448 172T378 82T269 16T126 -9Z" />
<glyph unicode="6" horiz-adv-x="527" d="M186 -9Q107 -9 69 32T31 138Q31 168 39 200T61 265Q99 359 158 436T290 568T445 653T611 683L605 666Q522 654 456 617T338 523T247 398T177 254Q155 201 147 162T138 94Q138 60 154 42T197 24Q238 24 273 50T336 120T379
210T395 297Q395 335 379 355T335 375Q300 375 266 354T205 296T159 217L172 299Q184 333 216 359T290 401T375 417Q444 417 475 380T506 289Q506 231 481 177T412 81T309 15T186 -9Z" />
<glyph unicode="7" horiz-adv-x="499" d="M19 0L540 572H243Q231 572 217 565T189 542L157 501H137L240 674H644L611 591L147 0H19Z" />
<glyph unicode="8" horiz-adv-x="576" d="M213 -12Q163 -12 120 4T50 52T24 132Q24 178 47 215T109 282T194 330T288 360L316 332Q263 313 225 281T165 208T144 124Q144 75 169 52T233 28Q267 28 301 45T359 98T382 184Q382 231 355 264T294 326Q270 347 247 370T209
420T194 482Q194 528 217 565T278 627T365 666T466 680Q510 680 547 667T606 628T628 568Q628 525 608 492T554 433T482 391T404 364L368 393Q406 411 439 436T494 496T515 572Q515 606 496 624T443 642Q413 642 382 627T331 583T311 518Q311 489 323 467T356 425T399
387Q425 366 450 341T492 283T509 206Q509 152 485 112T420 44T325 2T213 -12Z" />
<glyph unicode="9" horiz-adv-x="526" d="M437 683Q516 683 554 642T592 536Q592 507 584 475T562 409Q524 315 465 238T333 106T179 21T13 -9L18 8Q101 21 167 58T285 151T376 276T447 420Q468 473 477 512T486 580Q486 614 470 632T426 650Q386 650 350 624T287
554T245 465T229 377Q229 339 245 319T289 299Q323 299 357 320T419 378T464 457L452 375Q440 342 408 315T334 273T249 257Q180 257 149 294T118 385Q118 444 142 497T211 593T314 659T437 683Z" />
<glyph unicode=":" horiz-adv-x="276" d="M203 305Q173 305 151 327T129 380Q129 411 151 433T203 455Q235 455 256 433T278 380Q278 349 257 327T203 305ZM76 246Q46 246 24 268T2 321Q2 352 24 374T76 396Q108 396 129 374T151 321Q151 290 130 268T76 246Z" />
<glyph unicode=";" horiz-adv-x="276" d="M-108 -155L-97 -130Q-64 -125 -29 -106T31 -58T56 6Q56 27 41 43T-4 63L6 93Q26 102 39 110T65 129T93 158Q121 147 137 123T153 67Q153 25 132 -13T73 -81T-11 -130T-108 -155ZM197 305Q167 305 145 327T123 380Q123
411 145 433T197 455Q229 455 250 433T272 380Q272 349 251 327T197 305Z" />
<glyph unicode="&lt;" horiz-adv-x="553" d="M85 321L86 347L488 535V481L164 334L488 186V131L85 321Z" />
<glyph unicode="=" horiz-adv-x="553" d="M123 423V472H527V423H123ZM123 450V499H527V450H123Z" />
<glyph unicode="&gt;" horiz-adv-x="553" d="M565 321L161 131V186L485 334L161 481V535L564 347L565 321Z" />
<glyph unicode="?" horiz-adv-x="377" d="M81 196Q108 263 133 300T193 355T280 381Q316 387 335 393T363 411T381 441Q387 457 387 468Q387 494 349 499L189 524L249 673H268L262 645Q259 629 266 621T288 611L378 594Q414 588 431 572T449 525Q449 493 429 442Q399
370 356 327T235 272Q195 266 173 257T138 233T116 196H81ZM48 -9Q21 -9 1 11T-19 59Q-19 87 1 107T48 127Q77 127 96 107T116 59Q116 31 97 11T48 -9Z" />
<glyph unicode="@" horiz-adv-x="998" d="M347 -183Q255 -183 181 -153T64 -64T21 84Q21 179 57 263T155 418T292 547Q358 598 432 634T581 690T726 709Q811 709 880 682T990 599T1031 454Q1031 399 1009 341T948 227T858 127T751 56T636 30Q582 30 561 59T559
139L567 161L637 172Q613 113 621 94T672 75Q704 75 740 96T810 155T873 241T918 343T935 450Q935 528 907 576T826 646T703 669Q625 669 542 643T383 566T245 444T147 281T111 83Q111 8 146 -40T241 -111T376 -134Q458 -134 551 -109T734 -38L745 -65Q646 -124
544 -153T347 -183ZM430 101Q455 101 482 120T534 169T581 235T614 305T627 366Q627 389 617 399T585 410Q560 410 529 393T470 346Q434 308 410 259T385 159Q385 101 430 101ZM363 30Q337 30 318 46T298 105Q298 145 320 193T380 289T461 376T548 440T627 465Q650
465 663 456T682 436H684L748 472H759L621 130L564 157H557Q544 134 521 112T471 71T416 42T363 30Z" />
<glyph unicode="A" horiz-adv-x="760" d="M-83 0L-74 20L-15 31Q14 37 33 48T70 79L523 574L525 635Q552 636 575 647T613 673T633 698H645L592 81Q590 56 599 46T634 30L676 20L667 0H347L356 20L413 30Q453 37 466 49T482 93L522 546H539L108 77Q91 59 93 49T116
34L187 20L178 0H-83ZM230 227L251 260H537L522 227H230Z" />
<glyph unicode="B" horiz-adv-x="717" d="M-53 0L-44 20L15 31Q42 36 56 41T80 58T97 90L296 583Q309 615 303 625T262 642L210 653L219 673H531Q641 673 693 646T745 561Q745 508 713 469T627 406T511 373L510 371Q577 364 616 331T656 244Q656 170 613 115T489
30T296 0H-53ZM255 29H281Q335 29 379 47T456 95T507 165T525 250Q525 297 498 326T411 355H322L215 89Q200 55 209 42T255 29ZM334 385H421Q479 385 523 409T593 474T619 564Q619 604 592 624T500 644H439L334 385Z" />
<glyph unicode="C" horiz-adv-x="773" d="M401 -8Q305 -8 236 27T130 124T92 259Q92 345 131 421T237 556T390 649T572 683Q624 683 662 675T726 657Q746 650 763 644T803 638Q814 638 822 639T840 643L843 640Q825 600 821 554T820 459H797Q782 517 753 560T676
628T558 652Q497 652 445 627T350 558T279 462T233 351T217 240Q217 137 269 80T411 23Q447 23 486 34T566 68T643 129T710 217H736Q709 169 691 121T664 28Q662 28 659 28T650 29Q629 29 606 24T557 13Q524 6 484 -1T401 -8Z" />
<glyph unicode="D" horiz-adv-x="797" d="M-53 0L-45 20L14 31Q42 36 56 41T80 58T97 90L296 583Q309 615 303 625T261 642L210 653L219 673H519Q613 673 679 641T781 552T816 422Q816 335 780 259T679 124T524 33T329 0H-53ZM296 29Q392 29 466 60T590 148T667
281T693 448Q693 514 672 557T610 623T506 645H439L214 88Q202 57 221 43T296 29Z" />
<glyph unicode="E" horiz-adv-x="677" d="M-53 0L-45 20L14 31Q42 36 56 41T80 58T97 90L296 583Q309 615 303 625T261 642L210 653L219 673H790Q781 659 774 646T762 618Q749 584 742 554T728 496H707Q708 538 699 571T664 624T590 644H439L329 371H470Q504 371
527 379T567 405T599 448L626 494H646L534 217H514L524 264Q532 302 521 321T459 340H317L222 107Q211 80 209 63T218 38T264 30H345Q384 30 420 42T489 77T548 124L607 180H627Q598 135 573 89T529 0H-53Z" />
<glyph unicode="F" horiz-adv-x="646" d="M-53 0L-45 20L14 31Q42 36 56 41T80 58T97 90L296 583Q309 615 303 625T261 642L210 653L219 673H789Q780 659 774 646T761 618Q748 584 741 554T727 496H706Q707 523 703 549T686 596T651 630T595 644H439L321 351H451Q484
351 509 357T554 380T591 428L618 474H638L526 197H506L515 243Q523 274 516 290T490 313T440 320H308L215 90Q202 59 208 49T250 31L307 20L298 0H-53Z" />
<glyph unicode="G" horiz-adv-x="848" d="M388 -9Q319 -9 265 10T172 65T113 148T93 254Q93 341 129 418T230 555T382 648T569 682Q627 682 666 674T736 654Q756 647 772 643T812 638Q823 638 832 639T848 642L851 640Q838 615 831 583T823 518Q823 505 824 493T827
470H798Q783 532 750 572T670 631T564 651Q494 651 432 618T321 528T245 395T217 235Q217 164 239 117T305 46T409 22Q444 22 482 34T554 70L612 216Q625 248 618 258T577 275L526 286L534 306H872L864 286L811 276Q786 271 772 266T750 249T732 217L655 27L651
24Q641 27 632 28T609 30Q591 30 569 25T523 13Q495 4 461 -2T388 -9Z" />
<glyph unicode="H" horiz-adv-x="859" d="M391 0L399 20L459 31Q486 36 501 41T524 58T541 90L740 583Q753 615 747 625T706 642L655 653L663 673H1009L1001 653L941 642Q914 637 900 632T877 615T859 583L660 90Q647 59 653 49T694 31L745 20L737 0H391ZM-53
0L-45 20L14 31Q42 36 56 41T80 58T97 90L296 583Q309 615 303 625T261 642L210 653L219 673H564L556 653L496 642Q470 637 455 632T432 615T414 583L215 90Q202 59 209 49T250 31L300 20L292 0H-53ZM296 341L306 372H691L680 341H296Z" />
<glyph unicode="I" horiz-adv-x="414" d="M-53 0L-45 20L14 31Q42 36 56 41T80 58T97 90L296 583Q309 615 303 625T261 642L210 653L219 673H564L556 653L496 642Q470 637 455 632T432 615T414 583L215 90Q202 59 209 49T250 31L300 20L292 0H-53Z" />
<glyph unicode="J" horiz-adv-x="440" d="M-45 -193Q-74 -193 -98 -180T-138 -145T-153 -94Q-153 -50 -128 -32T-75 -13Q-51 -13 -35 -25T-18 -67Q-18 -84 -26 -95T-44 -116Q-51 -123 -56 -128T-62 -141Q-62 -148 -54 -152T-29 -157Q-6 -157 24 -131T78 -49L333
583Q346 615 340 625T299 642L248 653L256 673H602L594 653L534 642Q507 637 492 632T469 615T452 583L196 -48H194Q179 -48 165 -63T132 -101Q111 -125 84 -146T25 -180T-45 -193Z" />
<glyph unicode="K" horiz-adv-x="798" d="M641 0Q592 0 563 16T513 61L329 323L332 331L703 593Q714 601 723 609T733 625Q733 635 706 641L648 653L656 673H924L916 653L875 644Q851 640 831 633T786 612T727 574L433 364L643 60Q656 42 668 33T706 21L698 0H641ZM-53
0L-45 20L14 31Q42 36 56 41T80 58T97 90L296 583Q309 616 302 625T261 642L210 653L219 673H564L556 653L496 642Q470 637 455 632T432 615T414 583L215 90Q202 57 209 48T250 31L300 20L292 0H-53Z" />
<glyph unicode="L" horiz-adv-x="703" d="M-53 0L-45 20L14 31Q42 36 56 41T80 58T97 90L296 583Q309 615 303 625T261 642L210 653L219 673H564L556 653L496 642Q470 637 455 632T432 615T414 583L215 91Q204 60 212 45T264 30H396Q435 30 472 42T541 75T599
124L664 190H684Q655 145 627 94T580 0H-53Z" />
<glyph unicode="M" horiz-adv-x="969" d="M354 -7L346 581L130 91Q118 63 126 52T166 34L229 20L220 0H-56L-47 20L17 33Q41 38 55 44T79 60T98 91L310 580Q324 612 318 624T277 643L236 653L244 673H459L465 167L877 673H1104L1096 653L1037 642Q1010 638 995
632T970 614T953 580L771 90Q760 59 766 49T806 31L857 20L848 0H511L520 20L583 32Q604 36 615 41T634 55T648 80L827 561L365 -7H354Z" />
<glyph unicode="N" horiz-adv-x="842" d="M601 -16L328 567L136 93Q125 66 132 53T170 34L232 20L224 0H-53L-44 20L20 32Q44 37 59 43T85 61T102 92L299 580Q308 602 309 613T299 631T260 643L215 653L223 673H401L649 153L819 580Q830 608 823 621T784 639L722
653L730 673H1007L999 653L934 641Q911 636 896 630T871 612T852 581L612 -16H601Z" />
<glyph unicode="O" horiz-adv-x="824" d="M393 -8Q304 -8 237 26T133 121T95 264Q95 351 132 427T234 560T377 650T542 683Q631 683 698 649T802 553T840 411Q840 324 803 248T701 115T557 25T393 -8ZM403 23Q454 23 501 45T587 108T656 202T702 317T718 444Q718
509 696 555T633 627T537 653Q485 653 438 630T351 566T282 472T236 357T220 231Q220 167 242 120T306 48T403 23Z" />
<glyph unicode="P" horiz-adv-x="669" d="M-52 0L-44 20L15 31Q42 36 57 41T80 58T97 90L294 577Q305 603 305 615T293 632T255 643L210 653L219 673H523Q629 673 690 636T751 530Q751 479 722 434T644 354T538 301T423 281Q392 281 366 289L368 296Q416 299 462
318T545 371T605 448T628 545Q628 597 594 620T497 644H440L216 90Q203 59 209 49T250 31L306 20L298 0H-52Z" />
<glyph unicode="Q" horiz-adv-x="824" d="M568 -258Q528 -258 489 -239T413 -190T340 -131Q308 -105 277 -82T213 -44T146 -30Q125 -30 116 -37T105 -56T99 -82Q95 -101 87 -117T50 -134Q31 -134 17 -122T3 -84Q3 -46 42 -22T147 3Q206 3 255 -12T348 -50T431
-97Q481 -128 527 -150T620 -173Q661 -173 682 -156T716 -116L741 -123Q719 -196 676 -227T568 -258ZM393 -8Q304 -8 237 26T133 121T95 264Q95 351 132 427T234 560T377 650T542 683Q631 683 698 649T802 553T840 411Q840 324 803 248T701 115T557 25T393 -8ZM403
23Q454 23 501 45T587 108T656 202T702 317T718 444Q718 509 696 555T633 627T537 653Q485 653 438 630T351 566T282 472T236 357T220 231Q220 167 242 120T306 48T403 23Z" />
<glyph unicode="R" horiz-adv-x="826" d="M664 -15Q624 -15 593 5T536 62T483 144Q461 183 440 217T391 274T325 297H299L216 90Q203 59 209 49T250 31L300 20L293 0H-52L-44 20L16 31Q43 36 57 41T80 58T97 90L296 583Q309 615 303 625T261 642L211 653L219 673H491Q614
673 676 640T739 545Q739 499 713 459T643 389T548 339T446 316L445 313Q483 311 510 289T560 232T602 160Q622 124 641 91T684 37T740 16L731 -5Q713 -11 697 -13T664 -15ZM312 328H360Q410 328 456 343T538 387T595 456T617 544Q617 591 580 617T474 644H439L312
328Z" />
<glyph unicode="S" horiz-adv-x="606" d="M250 -9Q167 -9 112 12T12 70Q35 114 50 158T73 255L106 254Q99 231 96 209T92 167Q92 118 114 85T174 36T259 20Q307 20 348 37T416 88T443 172Q443 204 429 225T387 263T317 301Q280 319 247 341T192 395T171 476Q171
525 194 563T256 629T343 670T440 684Q477 684 515 676T585 650Q599 643 613 635T641 627Q653 627 666 630L670 626Q643 589 634 549T619 459H592Q598 522 578 565T519 631T428 654Q385 654 348 637T288 588T265 508Q265 479 282 459T328 423T388 392Q421 377 456
356T517 303T542 220Q542 163 518 120T451 49T357 6T250 -9Z" />
<glyph unicode="T" horiz-adv-x="700" d="M89 0L97 20L157 31Q184 36 199 41T222 58T239 90L463 644H381Q335 644 292 623T212 565T144 485H120Q139 517 156 549T187 612T208 673H860Q836 629 821 581T795 485H771Q777 528 769 564T736 622T664 644H582L358 90Q345
59 351 49T392 31L443 20L435 0H89Z" />
<glyph unicode="U" horiz-adv-x="777" d="M300 -12Q225 -12 180 22T125 114T144 243L281 583Q294 615 287 625T246 642L195 653L204 673H549L541 653L481 642Q454 637 440 632T417 615T400 583L255 225Q222 144 246 96T358 48Q412 48 460 70T547 132T607 225L751
580Q762 608 755 621T716 639L654 653L662 673H939L931 653L866 641Q842 636 827 630T803 612T784 581L593 109Q576 109 557 96T513 64Q478 39 428 14T300 -12Z" />
<glyph unicode="V" horiz-adv-x="767" d="M280 -15L266 598Q265 619 257 628T226 642L181 653L189 673H518L509 653L457 643Q430 638 412 631T387 609Q386 603 385 594T383 577L389 117H374L748 585Q762 602 763 611Q768 631 728 639L670 653L678 673H946L938
653L879 641Q862 638 848 633T822 619T794 591L308 -15H280Z" />
<glyph unicode="W" horiz-adv-x="1126" d="M253 -12L268 587Q269 613 262 625T228 642L183 653L191 673H514L506 653L443 641Q407 635 394 623T380 583L369 119L349 126L680 584Q701 611 699 622T671 640L610 653L618 673H910L902 653L832 640Q813 637 802 631T784
615T778 585L765 114L743 123L1105 590Q1122 613 1118 622T1078 640L1020 653L1028 673H1303L1295 653L1231 641Q1202 637 1182 624T1142 587L677 -12H647L665 504L283 -12H253Z" />
<glyph unicode="X" horiz-adv-x="794" d="M359 0L367 20L423 30Q471 39 483 53T487 93L407 306L399 316L294 595Q287 616 277 627T239 644L202 652L210 673H543L536 653L458 638Q428 633 417 622T413 590L493 373L498 364L603 94Q615 63 628 49T667 29L703 21L695
0H359ZM-77 0L-70 20L-10 30Q18 35 44 45T94 75L406 337L422 306L154 83Q132 66 131 54T149 36L214 20L207 0H-77ZM483 338L467 367L726 588Q746 605 748 619T731 637L666 653L673 673H956L949 653L889 643Q862 638 835 628T784 596L483 338Z" />
<glyph unicode="Y" horiz-adv-x="721" d="M357 274L264 610Q260 625 252 632T226 643L186 652L195 673H511L503 653L448 643Q410 637 396 623T389 583L449 364H444L689 592Q706 608 707 619T686 636L618 653L626 673H894L886 653L834 643Q810 639 787 629T741
596L405 284L357 274ZM92 0L100 20L160 31Q187 36 201 41T224 58T242 90L344 343L466 352L360 90Q347 59 354 49T395 31L446 20L437 0H92Z" />
<glyph unicode="Z" horiz-adv-x="672" d="M-56 0L-51 12L629 644H477Q417 644 368 624T275 566T193 479H172Q192 511 211 547T244 618Q249 632 253 645T261 673H807L801 659L125 30H318Q373 30 428 52T533 111T619 197H640Q607 145 581 98T534 0H-56Z" />
<glyph unicode="[" horiz-adv-x="264" d="M-141 -214L247 744H445L428 703H310L-44 -173H74L57 -214H-141Z" />
<glyph unicode="\" horiz-adv-x="440" d="M283 -7L220 712H266L330 -7H283Z" />
<glyph unicode="]" horiz-adv-x="264" d="M443 744L55 -214H-143L-126 -173H-8L346 703H228L245 744H443Z" />
<glyph unicode="^" horiz-adv-x="550" d="M69 304L424 666H488L551 304H477L415 615H457L148 304H69Z" />
<glyph unicode="_" horiz-adv-x="553" d="M-116 -94V-48H437V-94H-116Z" />
<glyph unicode="`" horiz-adv-x="570" d="M492 542L387 662Q372 680 372 698Q372 714 384 725T413 735Q424 734 434 728T451 706L514 553L492 542Z" />
<glyph unicode="a" horiz-adv-x="501" d="M61 -8Q29 -8 11 9T-8 67Q-8 105 12 151T67 245T142 335Q191 382 240 413T333 444Q356 444 370 435T394 411H396L459 453H471L329 96Q321 77 323 66T336 54Q346 54 365 72T408 118T453 179L472 167Q411 75 367 34T288
-8Q257 -8 245 14T246 71L266 125H261Q237 90 204 60T133 11T61 -8ZM129 65Q155 65 183 84T239 136T288 205T322 279T335 343Q335 367 324 378T292 389Q266 389 234 372T171 322Q133 282 108 230T82 127Q82 94 94 80T129 65Z" />
<glyph unicode="b" horiz-adv-x="468" d="M131 -8Q92 -8 68 15T44 78Q44 93 48 109T60 146L244 618Q250 633 245 641T221 652L190 658L194 673Q242 681 280 688T356 712L369 705Q357 685 346 662T327 616L210 321H214Q242 357 274 384T342 428T409 444Q437 444
456 428T476 368Q476 327 453 277T393 177T309 85T217 18T131 -8ZM177 48Q202 48 234 66T296 114Q321 139 341 172T374 241T387 311Q387 339 375 354T338 369Q313 369 286 351T231 302T181 235T146 161T133 94Q133 70 144 59T177 48Z" />
<glyph unicode="c" horiz-adv-x="367" d="M104 -8Q66 -8 41 17T15 90Q15 145 36 197T92 294T163 373Q200 406 237 425T304 444Q343 444 362 423T382 373Q382 351 372 338T342 325Q318 325 312 336T304 363Q302 376 298 384T276 393Q250 393 220 375T163 324T119
248T101 152Q101 101 118 84T160 66Q193 66 230 95T304 180L323 169Q297 125 262 85T187 18T104 -8Z" />
<glyph unicode="d" horiz-adv-x="501" d="M61 -8Q29 -8 11 9T-8 67Q-8 105 12 151T67 245T142 335Q191 382 240 413T333 444Q348 444 359 440T378 430L453 618Q460 635 454 642T431 652L399 658L404 673Q452 681 489 688T564 712L577 705Q565 685 555 662T535
616L329 96Q321 77 323 66T336 54Q346 54 365 72T408 118T453 179L472 167Q411 75 367 34T288 -8Q257 -8 245 14T246 71L266 125H261Q237 90 204 60T133 11T61 -8ZM129 65Q155 65 183 84T239 136T288 205T322 279T335 343Q335 367 324 378T292 389Q266 389 234
372T171 322Q133 282 108 230T82 127Q82 94 94 80T129 65Z" />
<glyph unicode="e" horiz-adv-x="366" d="M103 -8Q59 -8 39 21T19 94Q19 151 40 205T97 305T174 386Q207 413 242 428T310 444Q345 444 362 427T380 386Q380 351 351 315T258 251T87 209L90 235Q159 240 204 262T272 313T295 363Q295 393 265 393Q240 393 213
374T161 322T121 244T105 149Q105 110 118 88T164 65Q185 65 209 78T259 118T305 182L324 170Q297 122 259 82T179 17T103 -8Z" />
<glyph unicode="f" horiz-adv-x="322" d="M-83 -247Q-111 -247 -137 -237T-180 -210T-197 -173Q-197 -147 -182 -134T-147 -121Q-127 -121 -112 -134T-97 -187Q-97 -204 -90 -211T-71 -219Q-35 -219 -10 -137L184 501Q219 617 268 664T396 711Q455 711 488 689T522
634Q522 618 511 603T475 587Q447 587 433 600T419 635Q419 640 420 645T421 653Q421 666 410 673T384 680Q343 680 320 642T271 517L73 -138Q61 -138 53 -149T33 -178Q17 -203 -11 -225T-83 -247ZM84 403L97 435H359L345 403H84Z" />
<glyph unicode="g" horiz-adv-x="495" d="M71 -259Q22 -259 -19 -247T-86 -211T-112 -154Q-112 -110 -82 -79T-3 -27T105 9L153 -3Q103 -16 63 -35T-2 -80T-26 -143Q-26 -184 12 -203T103 -222Q164 -222 211 -209T284 -173T310 -120Q310 -102 299 -89T255 -62T156
-38Q94 -26 57 -13T3 17T-14 58Q-14 83 30 104T150 132L197 116Q165 115 137 111T91 99T73 77Q73 67 82 60T121 45T212 27Q315 8 356 -19T398 -91Q398 -138 354 -176T235 -237T71 -259ZM153 1L103 19Q162 35 225 46T353 67L357 48Q308 39 255 27T153 1ZM199 144Q225
144 249 162T291 210T321 275T332 343Q332 379 316 406Q302 416 277 416Q249 416 225 398T183 349T155 285T143 222Q143 190 155 167T199 144ZM202 116Q167 116 136 129T85 169T66 235Q66 268 79 304T118 372T182 424T272 444Q296 444 316 439T355 427Q372 422
388 417T420 412Q435 412 445 419T456 445Q456 453 453 461T449 478Q449 506 463 520T496 534Q517 534 526 522T536 491Q536 468 523 442T483 397T422 379Q411 379 402 381T384 389L382 383Q407 358 407 314Q407 283 394 248T354 183T289 135T202 116Z" />
<glyph unicode="h" horiz-adv-x="542" d="M-2 -10L244 618Q250 635 244 642T221 652L190 658L194 673Q242 681 279 688T355 712L368 705Q356 685 345 662T326 616L156 184H158Q176 212 199 246T252 315T313 379T378 426T444 444Q479 444 490 419T486 358L372 92Q365
73 368 64T381 54Q392 54 411 72T454 118T499 179L517 167Q454 75 408 34T325 -8Q291 -8 279 16T283 81L391 334Q399 353 396 363T378 374Q359 374 323 345T243 263T158 144T88 0L-2 -10Z" />
<glyph unicode="i" horiz-adv-x="323" d="M106 -8Q75 -8 61 14T58 69L167 343Q176 366 173 374T163 382Q153 382 133 363T89 315T48 258L30 269Q92 358 134 401T217 444Q249 444 261 421T259 359L155 96Q146 74 150 64T162 54Q172 54 191 72T234 118T279 179L298
167Q234 75 188 34T106 -8ZM291 556Q266 556 246 576T226 622Q226 650 246 670T291 690Q320 690 339 670T359 622Q359 596 339 576T291 556Z" />
<glyph unicode="j" horiz-adv-x="263" d="M-110 -259Q-154 -259 -183 -241T-212 -196Q-212 -172 -198 -160T-165 -147Q-145 -147 -130 -159T-115 -206Q-115 -220 -109 -226T-91 -233Q-72 -233 -54 -208T-18 -133L157 343Q165 366 162 374T153 382Q142 382 122
363T79 315T38 258L19 269Q82 358 124 401T207 444Q239 444 251 421T249 359L69 -128Q56 -128 44 -142T18 -174Q4 -192 -14 -212T-55 -245T-110 -259ZM273 556Q248 556 228 576T208 622Q208 650 228 670T273 690Q302 690 321 670T341 622Q341 596 321 576T273 556Z"
/>
<glyph unicode="k" horiz-adv-x="525" d="M-3 -11L243 617Q249 634 244 641T221 652L189 657L194 672Q237 680 276 688T354 711L367 705Q355 684 345 661T325 615L167 209V207L87 0L-3 -11ZM332 -7Q300 -7 276 22T229 112Q224 127 217 147T199 183T172 198Q156
198 137 179L120 192Q145 218 167 229T209 241Q246 241 269 211T313 124Q338 52 367 52Q389 52 418 85T484 178L500 168Q455 86 412 40T332 -7ZM181 226L166 239Q187 273 215 309T275 376T342 425T413 444Q443 444 457 431T472 392Q472 368 454 339T405 283T332
238T245 217L225 233Q256 236 285 247T338 276T376 314T390 354Q390 368 383 376T359 385Q323 385 276 341T181 226Z" />
<glyph unicode="l" horiz-adv-x="297" d="M76 -8Q45 -8 31 14T28 69L244 618Q250 635 244 642T221 652L190 658L194 673Q242 681 280 688T357 712L370 705Q358 685 347 662T328 616L123 93Q115 73 119 64T132 54Q147 54 177 86T249 179L268 167Q204 75 158 34T76 -8Z" />
<glyph unicode="m" horiz-adv-x="807" d="M26 -11L168 345Q176 365 174 373T163 381Q153 381 133 362T89 314T48 257L30 269Q91 357 134 400T216 443Q247 443 260 421T257 358L185 184H187Q204 212 227 246T278 315T337 379T400 426T463 444Q498 444 509 419T504
356L429 184H431Q452 219 482 263T549 348T624 417T703 444Q736 444 747 419T745 358L637 92Q630 73 633 64T646 54Q657 54 676 72T719 118T764 179L782 167Q720 75 675 34T594 -8Q561 -8 549 16T552 81L655 334Q663 353 660 363T642 374Q623 374 589 345T512 263T431
144T362 0L271 -11L411 334Q417 350 416 362T397 374Q378 374 344 345T267 263T185 144T117 0L26 -11Z" />
<glyph unicode="n" horiz-adv-x="571" d="M26 -11L168 345Q176 365 174 373T163 381Q153 381 133 362T89 314T48 257L30 269Q91 357 134 400T216 443Q248 443 261 420T257 358L185 184H188Q205 212 229 246T281 315T342 379T407 426T473 444Q508 444 519 419T515
358L401 92Q394 73 397 64T410 54Q421 54 440 72T483 118T528 179L546 167Q483 75 437 34T354 -8Q320 -8 308 16T312 81L420 334Q428 353 425 363T407 374Q388 374 352 345T272 263T187 144T117 0L26 -11Z" />
<glyph unicode="o" horiz-adv-x="457" d="M176 -8Q112 -8 75 29T37 133Q37 189 56 244T110 344T190 417T286 444Q350 444 385 404T421 302Q421 247 403 192T350 92T272 19T176 -8ZM161 19Q187 19 213 42T262 103T304 185T333 272T344 346Q344 415 297 415Q271
415 246 392T197 331T155 250T126 164T115 89Q115 56 127 38T161 19Z" />
<glyph unicode="p" horiz-adv-x="506" d="M-135 -250L-129 -234L-90 -222Q-72 -217 -63 -209T-47 -186L186 390L292 475L223 309H227Q257 348 294 378T368 426T436 444Q465 444 484 426T504 366Q504 323 489 275T446 181T383 96T307 35T226 12Q177 12 145 30T112
88Q112 110 126 120T158 131Q178 131 192 117T206 68Q206 54 211 47T233 39Q260 39 286 57T334 106T374 175T401 252T411 327Q411 381 366 381Q346 381 320 363T269 315T222 249T185 177L38 -190Q28 -214 54 -222L100 -234L93 -250H-135ZM34 232L22 250Q74 279
107 307T163 365T202 424T234 485Q238 493 247 497T270 501Q282 501 290 497T296 485Q283 445 247 398T156 307T34 232Z" />
<glyph unicode="q" horiz-adv-x="451" d="M34 -250L40 -234L86 -222Q104 -217 113 -210T128 -190L243 97H240Q203 53 154 23T61 -8Q29 -8 11 9T-8 67Q-8 106 13 154T69 250T148 340Q196 385 243 414T333 444Q356 444 370 435T394 411H396L459 453H471L215 -186Q204
-214 227 -222L264 -234L257 -250H34ZM129 65Q155 65 183 84T239 136T288 205T322 279T335 343Q335 367 324 378T292 389Q266 389 234 372T171 322Q133 282 108 230T82 127Q82 94 94 80T129 65Z" />
<glyph unicode="r" horiz-adv-x="445" d="M26 -11L168 345Q176 365 174 373T163 381Q153 381 133 362T89 314T48 257L30 269Q91 357 134 400T216 443Q248 443 261 420T257 358L183 184H186Q205 219 230 263T286 348T350 417T422 444Q454 444 470 427T487 385Q487
357 471 341T433 324Q418 324 410 331T398 347Q394 360 388 368T371 377Q348 377 317 346T250 261T181 140T117 0L26 -11Z" />
<glyph unicode="s" horiz-adv-x="369" d="M134 -8Q98 -8 67 4T18 43T-1 109Q-1 141 15 156T50 171Q68 171 82 160T97 128Q97 117 92 109T82 94Q76 86 70 79T64 61Q64 42 83 30T131 18Q163 18 185 37T208 99Q208 126 195 150T162 200Q141 230 122 261T103 331Q103
366 121 391T171 430T240 444Q287 444 322 422T358 357Q358 337 348 324T316 310Q294 310 284 322T274 351Q274 354 274 358T276 366Q277 370 278 374T279 382Q279 399 266 409T232 419Q212 419 194 405T176 357Q176 330 192 304T227 252Q250 223 266 195T283 123Q283
80 262 51T206 7T134 -8Z" />
<glyph unicode="t" horiz-adv-x="316" d="M79 -8Q45 -8 33 15T34 73L163 403H93L106 435H178L210 515L300 524L264 435H346L333 403H251L127 91Q120 72 123 63T137 54Q146 54 164 72T205 118T247 179L265 167Q203 74 160 33T79 -8Z" />
<glyph unicode="u" horiz-adv-x="563" d="M97 -8Q63 -8 52 17T56 78L170 344Q178 363 175 372T161 382Q151 382 131 364T88 318T44 257L25 268Q89 361 135 402T217 443Q251 443 264 419T260 355L150 101Q142 83 145 73T163 62Q182 62 217 91T295 173T378 292T447
436L537 446L396 90Q388 71 390 63T401 54Q411 54 431 73T474 122T516 178L534 167Q472 78 429 35T347 -8Q316 -8 303 15T306 77L379 252H376Q360 224 336 190T284 121T224 57T161 10T97 -8Z" />
<glyph unicode="v" horiz-adv-x="535" d="M220 -7Q177 -7 150 20T122 96Q122 144 134 181T166 250T208 307T250 357L248 360Q241 359 234 358T222 357Q207 357 196 359T170 366Q156 371 143 373T118 375Q97 375 84 368T70 349Q70 339 78 335T96 326Q113 321 122
313T131 289Q131 272 120 261T89 250Q65 250 50 272T35 322Q35 357 51 384T96 428T156 444Q168 444 180 442T202 436Q216 432 231 428T263 424Q277 424 290 426T313 436Q320 442 324 445T337 449Q348 449 348 438Q348 432 342 426T328 412Q301 379 279 351T240
293T215 230T206 153Q206 104 226 84T279 64Q309 64 341 80T401 125T447 195T465 285Q465 314 454 329T432 355Q421 365 412 375T403 405Q403 435 422 447T457 460Q486 460 502 434T518 370Q518 312 501 257T455 155T388 71T307 14T220 -7Z" />
<glyph unicode="w" horiz-adv-x="716" d="M221 -7Q177 -7 150 19T122 94Q122 144 134 182T166 250T207 306T251 357L249 360Q242 359 235 358T223 357Q208 357 197 360T171 367Q157 371 143 373T118 376Q98 376 85 369T71 350Q71 340 79 336T97 327Q113 322 122
314T131 290Q131 272 120 262T89 251Q66 251 51 272T36 322Q36 357 52 384T96 428T157 444Q169 444 180 442T203 436Q216 432 232 428T263 424Q277 424 290 427T313 437Q321 442 325 446T337 450Q348 450 348 439Q348 433 342 427T329 412Q302 380 280 352T241
295T215 231T206 153Q206 104 225 84T275 64Q309 64 342 83T403 134T454 201T488 270T500 326Q500 364 477 364Q461 364 444 347T413 302T390 241T381 173Q381 117 398 91T461 64Q503 64 536 83T594 135T630 206T643 285Q643 315 633 330T610 355Q599 365 590 375T581
405Q581 435 600 447T635 460Q664 460 680 434T696 370Q696 301 674 234T613 113T526 25T427 -8Q382 -8 356 26T330 139Q330 192 344 239T382 322T433 379T485 400Q508 400 520 385T532 345Q532 308 514 262T465 168T394 82T310 18T221 -7Z" />
<glyph unicode="x" horiz-adv-x="565" d="M304 -8Q271 -8 252 16T233 85Q234 161 261 226T330 340T415 416T494 444Q526 444 544 425T563 377Q563 352 553 338T521 324Q499 324 494 336T486 361Q484 374 481 384T463 394Q439 394 413 377T364 328T327 249T312
141Q312 97 325 80T360 62Q390 62 427 92T503 180L522 170Q495 126 459 86T382 19T304 -8ZM71 -9Q39 -9 21 10T2 59Q2 83 12 97T44 111Q66 111 72 100T79 74Q81 62 84 52T102 42Q126 42 152 58T201 107T238 186T253 295Q253 338 240 355T205 373Q176 373 138 343T62
255L43 265Q71 309 107 350T183 417T261 443Q294 443 313 419T332 350Q331 274 304 209T235 95T150 19T71 -9Z" />
<glyph unicode="y" horiz-adv-x="483" d="M-67 -284Q-102 -284 -132 -274T-180 -245T-199 -201Q-199 -173 -184 -160T-149 -146Q-120 -146 -111 -164T-98 -205Q-93 -225 -88 -242T-61 -259Q-15 -259 28 -232T109 -157T174 -51T217 71T233 193Q233 297 205 351T129
405Q94 405 76 383T57 330Q57 313 64 295T88 261L78 249Q54 264 42 288T30 338Q30 378 58 411T142 444Q187 444 219 423T273 366T303 285T313 192Q313 146 305 102T282 22L286 20Q307 41 329 75T370 148T402 226T414 292Q414 323 402 336T375 359Q364 367 355 378T345
406Q345 435 364 447T404 460Q430 460 445 438T461 372Q461 326 444 265T395 135T316 1Q279 -50 234 -100T137 -192T34 -259T-67 -284Z" />
<glyph unicode="z" horiz-adv-x="422" d="M-25 -5Q-33 -5 -39 2T-45 14Q-45 21 -36 27T-8 50L406 442L427 421L-18 0L39 73Q56 90 75 99T114 109Q138 109 160 98T204 73Q226 59 245 48T287 36Q295 36 301 40T307 53Q307 64 302 70T288 84Q280 92 273 102T265 129Q265
148 277 163T315 178Q343 178 355 158T368 115Q368 73 330 34Q310 13 291 5T233 -4Q202 -4 176 3T127 18Q108 25 91 30T54 35Q31 35 15 24T-12 1Q-18 -5 -25 -5ZM113 284Q61 284 61 345Q61 361 70 377T92 407Q110 424 130 434T169 444Q195 444 217 438T258 423Q278
415 295 410T330 405Q344 405 358 410T387 428Q394 435 399 439T410 444Q414 444 421 440T432 429T429 417Q418 409 408 401T388 384L340 365Q320 351 301 342T263 332Q246 332 230 340T194 361Q178 372 162 383T125 394Q115 394 110 390T104 379Q104 371 109 367T124
358Q134 353 143 346T153 326Q153 308 142 296T113 284Z" />
<glyph unicode="{" horiz-adv-x="350" d="M144 -216Q98 -216 55 -210T-17 -181T-46 -117Q-46 -73 -21 -27T34 63Q60 102 80 137T100 202Q100 225 84 236T33 247L46 281Q93 281 120 296T162 340T186 406T202 487Q209 532 218 571T244 642T295 696T385 731T529 744L518
712Q454 712 413 693T348 640T310 567T283 484Q269 432 258 393T232 326T188 283T111 265V263Q135 257 146 245T160 216T163 177Q163 150 143 111T98 31Q77 -8 60 -45T42 -110Q42 -148 72 -165T157 -184L144 -216Z" />
<glyph unicode="|" horiz-adv-x="305" d="M146 697H205V-255H145L146 697Z" />
<glyph unicode="}" horiz-adv-x="350" d="M244 744Q290 744 333 737T405 709T433 645Q433 601 408 555T353 464Q328 426 308 391T288 326Q288 303 304 292T355 281L341 247Q295 247 268 231T225 187T202 122T186 40Q178 -4 170 -43T143 -113T92 -168T3 -203T-141
-216L-131 -184Q-66 -184 -26 -165T39 -112T78 -39T105 44Q119 95 129 134T156 201T200 244T276 263L277 265Q252 272 241 283T228 312T225 351Q225 378 245 417T289 497Q312 536 329 573T346 638Q346 677 315 694T231 712L244 744Z" />
<glyph unicode="~" horiz-adv-x="553" d="M151 283L113 291Q124 340 153 361T217 382Q245 382 275 374T332 355Q359 346 385 338T432 330Q457 330 472 341T498 380L536 372Q526 324 497 303T432 282Q404 282 375 290T316 308Q290 317 264 325T216 333Q191 333
176 323T151 283Z" />
<glyph unicode="&#xa0;" horiz-adv-x="209" />
<glyph unicode="&#xa1;" horiz-adv-x="243" d="M161 266L28 -170H-99L119 266H161ZM207 497Q235 497 255 477T276 429Q276 400 256 380T207 359Q178 359 158 379T138 429Q138 457 158 477T207 497Z" />
<glyph unicode="&#xa2;" horiz-adv-x="367" d="M-23 -87L329 533L352 521L0 -99L-23 -87ZM104 -8Q66 -8 41 17T15 90Q15 145 36 197T92 294T163 373Q200 406 237 425T304 444Q343 444 362 423T382 373Q382 351 372 338T342 325Q318 325 312 336T304 363Q302 376
298 384T276 393Q250 393 220 375T163 324T119 248T101 152Q101 101 118 84T160 66Q193 66 230 95T304 180L323 169Q297 125 262 85T187 18T104 -8Z" />
<glyph unicode="&#xa3;" horiz-adv-x="641" d="M-68 -100Q-78 -100 -86 -94T-95 -70Q-95 -45 -72 -15T-9 43T78 88T174 106Q218 106 246 92T293 56T325 13Q340 -13 353 -31T390 -49Q419 -49 439 -31T460 19Q460 27 459 35T455 53Q454 61 453 68T451 82Q451 111
471 124T514 138Q531 138 541 128T552 101Q552 69 536 36T492 -26T426 -72T348 -90Q306 -90 279 -75T235 -36T206 10Q192 37 179 58T142 79Q118 79 95 66T51 33T18 -3T-1 -27L-8 -28Q36 23 65 62T114 134T153 199Q179 242 205 291T278 408Q342 503 406 563T535
652T667 682Q716 682 745 663T775 612Q775 587 764 569T736 542T698 532Q681 532 669 541T657 566Q657 582 663 590T678 605Q685 611 690 617T695 633Q695 643 682 647T655 651Q621 651 586 628T509 555T414 420Q358 333 292 247T161 88Q129 53 96 20T32 -41T-25
-84T-68 -100ZM51 245L75 282H454L429 245H51Z" />
<glyph unicode="&#xa4;" horiz-adv-x="689" d="M182 105L145 145L236 233Q217 259 207 288T197 349Q197 414 235 466L146 553L183 591L277 502Q299 519 329 527T392 536Q423 536 452 527T501 504L593 591L631 554L542 468Q562 442 571 413T580 352Q580 321 571
291T542 232L632 145L594 105L500 195Q478 181 448 172T386 163Q353 163 326 171T276 196L182 105ZM388 208Q422 208 449 224T493 273T509 350Q509 414 476 452T389 491Q350 491 323 472T281 422T267 350Q267 304 283 273T327 225T388 208Z" />
<glyph unicode="&#xa5;" horiz-adv-x="721" d="M174 323L187 357H624L610 323H174ZM124 200L138 234H575L561 200H124ZM357 274L264 610Q260 625 252 632T226 643L186 652L195 673H511L503 653L448 643Q410 637 396 623T389 583L449 364H444L689 592Q706 608 707
619T686 636L618 653L626 673H894L886 653L834 643Q810 639 787 629T741 596L405 284L357 274ZM92 0L100 20L160 31Q187 36 201 41T224 58T242 90L344 343L466 352L360 90Q347 59 354 49T395 31L446 20L437 0H92Z" />
<glyph unicode="&#xa6;" horiz-adv-x="285" d="M141 294V685H199V294H141ZM199 -222H141V164H199V-222Z" />
<glyph unicode="&#xa7;" horiz-adv-x="488" d="M182 86L202 118Q236 118 264 138T310 190T327 258Q327 295 309 326T267 385Q243 413 224 446T205 525Q205 578 238 618T322 682T429 705Q493 705 522 685T551 634Q551 614 541 596T514 566T474 554Q454 554 444
563T434 585Q434 596 439 606T450 624Q454 630 459 637T464 653Q464 675 418 675Q385 675 358 657T316 608T300 543Q300 508 317 476T358 415Q379 387 399 354T419 282Q419 238 398 202T343 140T266 100T182 86ZM35 -218Q-29 -218 -60 -195T-91 -138Q-91 -117 -81
-96T-52 -60T-9 -46Q8 -46 16 -55T25 -76Q25 -89 18 -99T5 -120Q-1 -128 -6 -135T-11 -153Q-11 -167 6 -175T48 -184Q84 -184 112 -165T158 -114T175 -44Q175 -9 161 20T125 78Q102 109 80 149T57 231Q57 285 89 324T171 385T275 408L278 378Q242 378 212 360T165
311T148 248Q148 212 165 183T205 123Q228 93 247 60T267 -13Q267 -55 248 -92T197 -157T122 -201T35 -218Z" />
<glyph unicode="&#xa8;" horiz-adv-x="553" d="M339 562Q315 562 297 580T279 622Q279 648 297 666T339 684Q365 684 383 666T401 622Q401 598 383 580T339 562ZM538 562Q514 562 496 580T478 622Q478 648 496 666T538 684Q564 684 582 666T600 622Q600 598 582
580T538 562Z" />
<glyph unicode="&#xa9;" horiz-adv-x="804" d="M453 3Q343 3 267 48T150 167T110 332Q110 399 133 461T202 572T310 651T453 680Q531 680 594 655T702 584T771 479T795 353Q795 286 772 223T705 111T597 32T453 3ZM464 153Q403 153 357 178T285 246T259 344Q259
401 286 445T360 514T462 540Q491 540 509 535T542 524Q552 520 561 517T583 514Q589 514 594 515T604 517L606 515Q601 496 603 471T613 414H590Q573 458 544 485T468 512Q412 512 379 467T345 345Q345 268 376 226T463 183Q509 183 541 205T593 279H617Q611 252
606 225T601 173H596Q583 173 569 170T539 164Q521 160 503 157T464 153ZM455 46Q536 46 601 85T704 193T743 348Q743 411 721 463T659 555T567 616T452 638Q390 638 338 614T246 546T185 449T163 336Q163 247 201 182T305 82T455 46Z" />
<glyph unicode="&#xaa;" horiz-adv-x="483" d="M190 370Q164 370 149 383T134 426Q134 455 150 490T195 561T259 629Q300 666 341 688T420 711Q438 711 450 705T470 687H472L525 719H535L418 454Q412 440 413 432T424 423Q432 423 447 435T482 468T519 514L538
502Q487 431 449 401T382 370Q357 370 349 387T352 432L369 473H365Q345 446 315 423T252 385T190 370ZM249 427Q271 427 294 442T340 480T381 532T409 588T420 635Q420 654 412 662T385 670Q363 670 336 657T284 618Q251 587 230 550T209 473Q209 448 220 438T249
427Z" />
<glyph unicode="&#xab;" horiz-adv-x="380" d="M267 56L175 197L179 209L379 347L398 334L260 201L291 72L267 56ZM105 56L13 197L17 209L217 347L236 334L98 201L129 72L105 56Z" />
<glyph unicode="&#xac;" horiz-adv-x="553" d="M490 217V385H104V434H538V217H490Z" />
<glyph unicode="&#xad;" horiz-adv-x="292" d="M51 324H296V246H51V324Z" />
<glyph unicode="&#xae;" horiz-adv-x="553" d="M366 201Q289 201 235 233T152 318T123 435Q123 482 139 526T188 606T265 662T366 683Q441 683 495 651T580 566T610 450Q610 386 581 329T498 237T366 201ZM369 237Q425 237 470 264T541 339T568 447Q568 504 541
549T469 621T366 648Q302 648 258 618T192 541T169 442Q169 391 191 344T258 267T369 237ZM485 329Q462 329 443 343T407 383Q391 403 377 419T336 435H330V371Q330 362 334 359T352 351L366 346V334H242V346L257 351Q269 355 273 357T277 371V538Q277 549 274
552T257 559L242 564V575H342Q396 575 425 558T454 509Q454 484 433 468T381 449V446Q409 445 426 429T458 391Q471 370 484 355T512 340V332Q507 330 500 330T485 329ZM330 456H342Q366 456 383 468T400 506Q400 534 383 546T338 559H330V456Z" />
<glyph unicode="&#xaf;" horiz-adv-x="553" d="M268 594L287 642H608L588 594H268Z" />
<glyph unicode="&#xb0;" horiz-adv-x="385" d="M320 389Q280 389 247 408T194 462T174 536Q174 576 194 609T247 662T320 682Q361 682 394 662T448 609T468 536Q468 496 448 462T395 409T320 389ZM319 449Q356 449 381 475T407 537Q407 573 382 599T319 626Q283
626 257 600T230 537Q230 501 256 475T319 449Z" />
<glyph unicode="&#xb1;" horiz-adv-x="547" d="M271 221V364H94V413H271V555H320V413H498V364H320V221H271ZM94 124V173H498V124H94Z" />
<glyph unicode="&#xb2;" horiz-adv-x="314" d="M84 349L87 357L215 449Q244 470 274 498T325 559T346 630Q346 646 336 655T304 665Q279 665 265 656T251 634Q251 627 253 622T255 608Q255 596 243 589T218 581Q208 581 199 587T189 608Q189 633 208 650T258 677T325
686Q370 686 398 671T426 625Q426 597 409 572T364 522T306 478T249 440L143 372L184 416H296Q312 416 321 422T342 443L354 458H372L308 349H84Z" />
<glyph unicode="&#xb3;" horiz-adv-x="321" d="M193 344Q154 344 129 361T103 411Q103 425 111 438T136 451Q153 451 159 443T165 427Q165 412 156 406T146 391Q146 379 158 373T191 366Q220 366 245 382T287 424T304 480Q304 497 293 507T256 519L217 509L215
526L235 533Q257 540 283 554T328 588T347 633Q347 648 339 656T311 665Q287 665 272 658T256 641Q256 632 258 628T261 611Q261 600 251 593T226 585Q215 585 206 592T196 613Q196 635 215 651T265 677T326 686Q368 686 395 673T422 631Q422 607 404 591T362 566T316
549L315 547Q352 544 370 526T389 480Q389 449 371 424T322 380T258 353T193 344Z" />
<glyph unicode="&#xb4;" horiz-adv-x="553" d="M344 540L331 557L506 708Q517 716 525 720T544 724Q559 724 570 714T581 688Q581 676 574 665T550 645L344 540Z" />
<glyph unicode="&#xb5;" horiz-adv-x="557" d="M-74 -260L167 340Q176 362 173 371T159 380Q149 380 129 361T85 314T44 257L25 268Q85 356 126 399T205 442Q238 442 251 418T249 354L148 101Q141 85 143 73T162 61Q181 61 216 90T294 172T377 291T447 435L529
445L387 89Q380 71 382 63T393 54Q403 54 422 72T465 118T510 179L528 167Q466 75 422 34T342 -8Q313 -8 302 14T304 72Q322 116 340 161T378 251H374Q352 216 321 171T253 84T177 16T98 -9Q100 -8 102 -8T107 -6L27 -242L-74 -260Z" />
<glyph unicode="&#xb6;" horiz-adv-x="643" d="M95 -229Q42 -229 7 -211T-46 -163T-64 -97Q-64 -59 -49 -19T-5 54T62 107T147 127Q185 127 202 110T219 68Q219 40 198 18T144 -4Q120 -4 108 7T95 35Q95 45 97 54T100 66Q100 70 97 72T89 75Q67 75 47 59T11 17T-14
-38T-23 -94Q-23 -142 10 -167T103 -193Q164 -193 215 -162T306 -76T375 49L443 217H326Q267 217 225 239T161 299T139 386Q139 455 168 508T249 598T370 654T519 673H788L781 654L720 643Q694 638 679 633T656 616T639 584L424 53Q392 -27 346 -91T239 -192T95
-229Z" />
<glyph unicode="&#xb7;" horiz-adv-x="276" d="M188 267Q158 267 136 289T114 342Q114 373 136 395T188 417Q220 417 241 395T263 342Q263 311 242 289T188 267Z" />
<glyph unicode="&#xb8;" horiz-adv-x="553" d="M-18 -247L-5 -219Q25 -216 53 -210T104 -193T142 -169T156 -137Q156 -118 135 -108T72 -96L136 0H174L148 -39Q197 -45 221 -61T245 -110Q245 -139 223 -163T163 -206T78 -234T-18 -247Z" />
<glyph unicode="&#xb9;" horiz-adv-x="260" d="M80 350L88 367L117 371Q136 375 145 378T159 387T169 407L263 640Q269 653 251 653L206 651L214 671L357 690L242 407Q235 388 238 382T266 371L292 367L285 350H80Z" />
<glyph unicode="&#xba;" horiz-adv-x="391" d="M278 371Q229 371 198 402T167 483Q167 530 183 571T228 645T290 695T359 714Q405 714 436 684T468 602Q468 562 454 522T413 447T353 392T278 371ZM268 394Q292 394 316 419T362 483T395 562T408 632Q408 659 398
674T367 689Q341 689 316 664T271 601T239 523T227 453Q227 424 238 409T268 394Z" />
<glyph unicode="&#xbb;" horiz-adv-x="380" d="M262 346L354 205L349 193L149 55L130 68L269 201L237 330L262 346ZM101 346L193 205L188 193L-12 55L-31 68L108 201L76 330L101 346Z" />
<glyph unicode="&#xbc;" horiz-adv-x="611" d="M368 0L472 258L497 266L308 108L307 118H499Q509 118 515 121T529 134L544 154H556L501 60H239L249 85L554 338H574L437 0H368ZM80 350L88 367L117 371Q136 375 145 378T159 387T169 407L263 640Q269 653 251 653L206
651L214 671L357 690L242 407Q235 388 238 382T266 371L292 367L285 350H80ZM-23 0L687 677H755L46 0H-23Z" />
<glyph unicode="&#xbd;" horiz-adv-x="668" d="M80 350L88 367L117 371Q136 375 145 378T159 387T169 407L263 640Q269 653 251 653L206 651L214 671L357 690L242 407Q235 388 238 382T266 371L292 367L285 350H80ZM-23 0L687 677H755L46 0H-23ZM295 0L298 8L426
100Q455 121 485 149T536 210T557 281Q557 297 547 306T515 316Q490 316 476 307T462 285Q462 278 464 273T466 259Q466 247 454 240T429 232Q419 232 410 238T400 259Q400 284 419 301T469 328T536 337Q581 337 609 322T637 276Q637 248 620 223T575 173T517 129T460
91L354 23L395 67H507Q523 67 532 73T553 94L565 109H583L519 0H295Z" />
<glyph unicode="&#xbe;" horiz-adv-x="659" d="M412 0L516 258L541 266L352 108L351 118H543Q553 118 559 121T573 134L588 154H600L545 60H283L293 85L598 338H618L481 0H412ZM26 0L736 677H804L95 0H26ZM193 344Q154 344 129 361T103 411Q103 425 111 438T136
451Q153 451 159 443T165 427Q165 412 156 406T146 391Q146 379 158 373T191 366Q220 366 245 382T287 424T304 480Q304 497 293 507T256 519L217 509L215 526L235 533Q257 540 283 554T328 588T347 633Q347 648 339 656T311 665Q287 665 272 658T256 641Q256 632
258 628T261 611Q261 600 251 593T226 585Q215 585 206 592T196 613Q196 635 215 651T265 677T326 686Q368 686 395 673T422 631Q422 607 404 591T362 566T316 549L315 547Q352 544 370 526T389 480Q389 449 371 424T322 380T258 353T193 344Z" />
<glyph unicode="&#xbf;" horiz-adv-x="378" d="M319 294Q292 227 267 190T207 135T119 109Q84 103 65 97T36 79T19 48Q13 33 13 21Q13 -4 50 -10L211 -34L150 -183H132L137 -155Q140 -139 133 -131T112 -121L22 -105Q-14 -98 -32 -82T-50 -36Q-50 -4 -29 47Q0
119 43 162T165 218Q205 224 227 233T261 257T283 294H319ZM351 498Q380 498 399 479T419 431Q419 402 400 382T351 362Q323 362 303 382T283 431Q283 459 303 478T351 498Z" />
<glyph unicode="&#xc0;" horiz-adv-x="760" d="M-83 0L-74 20L-15 31Q14 37 33 48T70 79L523 574L525 635Q552 636 575 647T613 673T633 698H645L592 81Q590 56 599 46T634 30L676 20L667 0H347L356 20L413 30Q453 37 466 49T482 93L522 546H539L108 77Q91 59
93 49T116 34L187 20L178 0H-83ZM230 227L251 260H537L522 227H230ZM713 733L564 787Q542 795 533 811Q525 826 530 840T550 863Q560 868 573 868T598 857L727 753L713 733Z" />
<glyph unicode="&#xc1;" horiz-adv-x="760" d="M-83 0L-74 20L-15 31Q14 37 33 48T70 79L523 574L525 635Q552 636 575 647T613 673T633 698H645L592 81Q590 56 599 46T634 30L676 20L667 0H347L356 20L413 30Q453 37 466 49T482 93L522 546H539L108 77Q91 59
93 49T116 34L187 20L178 0H-83ZM230 227L251 260H537L522 227H230ZM542 735L533 756L742 855Q754 861 763 862T782 862Q797 858 805 845T809 816Q806 805 796 797T768 784L542 735Z" />
<glyph unicode="&#xc2;" horiz-adv-x="760" d="M-83 0L-74 20L-15 31Q14 37 33 48T70 79L523 574L525 635Q552 636 575 647T613 673T633 698H645L592 81Q590 56 599 46T634 30L676 20L667 0H347L356 20L413 30Q453 37 466 49T482 93L522 546H539L108 77Q91 59
93 49T116 34L187 20L178 0H-83ZM230 227L251 260H537L522 227H230ZM493 718L476 736L666 871H701L777 729L750 716L653 790L493 718Z" />
<glyph unicode="&#xc3;" horiz-adv-x="760" d="M-83 0L-74 20L-15 31Q14 37 33 48T70 79L523 574L525 635Q552 636 575 647T613 673T633 698H645L592 81Q590 56 599 46T634 30L676 20L667 0H347L356 20L413 30Q453 37 466 49T482 93L522 546H539L108 77Q91 59
93 49T116 34L187 20L178 0H-83ZM230 227L251 260H537L522 227H230ZM323 718L329 732H339Q375 732 394 736T426 749T450 773Q476 804 512 830T594 873T695 890Q747 890 781 873T832 829T850 772Q850 757 855 748T877 736T930 732H940L934 718H809Q824 745 812 769T764
810T673 826Q618 826 571 811T492 771T447 718H323Z" />
<glyph unicode="&#xc4;" horiz-adv-x="760" d="M-83 0L-74 20L-15 31Q14 37 33 48T70 79L523 574L525 635Q552 636 575 647T613 673T633 698H645L592 81Q590 56 599 46T634 30L676 20L667 0H347L356 20L413 30Q453 37 466 49T482 93L522 546H539L108 77Q91 59
93 49T116 34L187 20L178 0H-83ZM230 227L251 260H537L522 227H230ZM550 738Q526 738 508 756T490 798Q490 824 508 842T550 860Q576 860 594 842T612 798Q612 774 594 756T550 738ZM749 738Q725 738 707 756T689 798Q689 824 707 842T749 860Q775 860 793 842T811
798Q811 774 793 756T749 738Z" />
<glyph unicode="&#xc5;" horiz-adv-x="760" d="M-83 0L-74 20L-15 31Q14 37 33 48T70 79L523 574L525 635Q552 636 575 647T613 673T633 698H645L592 81Q590 56 599 46T634 30L676 20L667 0H347L356 20L413 30Q453 37 466 49T482 93L522 546H539L108 77Q91 59
93 49T116 34L187 20L178 0H-83ZM230 227L251 260H537L522 227H230ZM724 782Q724 743 696 714T627 685Q587 685 559 714T530 782Q530 823 558 851T627 879Q667 879 695 851T724 782ZM686 782Q686 807 670 824T628 841Q604 841 586 824T568 782Q568 758 586 741T628
723Q653 723 669 740T686 782Z" />
<glyph unicode="&#xc6;" horiz-adv-x="1041" d="M-63 0L-54 20L2 31Q32 37 50 49T88 79L667 596L682 566L131 77Q114 62 115 50T140 34L207 20L198 0H-63ZM278 227L298 260H565L550 227H278ZM310 0L319 20L378 31Q405 36 420 41T444 58T461 90L659 583Q672 615
666 625T625 642L574 653L582 673H1154Q1145 659 1138 646T1126 618Q1112 584 1106 554T1092 496H1071Q1072 538 1063 571T1027 624T954 644H803L693 371H834Q868 371 891 379T931 405T963 448L990 494H1010L898 217H878L888 264Q896 302 885 321T823 340H680L586
107Q575 80 572 63T581 38T628 30H709Q747 30 783 42T852 77T912 124L971 180H991Q962 135 937 89T893 0H310Z" />
<glyph unicode="&#xc7;" horiz-adv-x="773" d="M401 -8Q305 -8 236 27T130 124T92 259Q92 345 131 421T237 556T390 649T572 683Q624 683 662 675T726 657Q746 650 763 644T803 638Q814 638 822 639T840 643L843 640Q825 600 821 554T820 459H797Q782 517 753
560T676 628T558 652Q497 652 445 627T350 558T279 462T233 351T217 240Q217 137 269 80T411 23Q447 23 486 34T566 68T643 129T710 217H736Q709 169 691 121T664 28Q662 28 659 28T650 29Q629 29 606 24T557 13Q524 6 484 -1T401 -8ZM210 -247L223 -219Q253 -216
281 -210T332 -193T370 -169T384 -137Q384 -118 363 -108T300 -96L364 0H402L376 -39Q425 -45 449 -61T473 -110Q473 -139 451 -163T391 -206T306 -234T210 -247Z" />
<glyph unicode="&#xc8;" horiz-adv-x="677" d="M-53 0L-45 20L14 31Q42 36 56 41T80 58T97 90L296 583Q309 615 303 625T261 642L210 653L219 673H790Q781 659 774 646T762 618Q749 584 742 554T728 496H707Q708 538 699 571T664 624T590 644H439L329 371H470Q504
371 527 379T567 405T599 448L626 494H646L534 217H514L524 264Q532 302 521 321T459 340H317L222 107Q211 80 209 63T218 38T264 30H345Q384 30 420 42T489 77T548 124L607 180H627Q598 135 573 89T529 0H-53ZM633 733L484 787Q462 795 453 811Q445 826 450 840T470
863Q480 868 493 868T518 857L647 753L633 733Z" />
<glyph unicode="&#xc9;" horiz-adv-x="677" d="M-53 0L-45 20L14 31Q42 36 56 41T80 58T97 90L296 583Q309 615 303 625T261 642L210 653L219 673H790Q781 659 774 646T762 618Q749 584 742 554T728 496H707Q708 538 699 571T664 624T590 644H439L329 371H470Q504
371 527 379T567 405T599 448L626 494H646L534 217H514L524 264Q532 302 521 321T459 340H317L222 107Q211 80 209 63T218 38T264 30H345Q384 30 420 42T489 77T548 124L607 180H627Q598 135 573 89T529 0H-53ZM462 735L453 756L662 855Q674 861 683 862T702 862Q717
858 725 845T729 816Q726 805 716 797T688 784L462 735Z" />
<glyph unicode="&#xca;" horiz-adv-x="677" d="M-53 0L-45 20L14 31Q42 36 56 41T80 58T97 90L296 583Q309 615 303 625T261 642L210 653L219 673H790Q781 659 774 646T762 618Q749 584 742 554T728 496H707Q708 538 699 571T664 624T590 644H439L329 371H470Q504
371 527 379T567 405T599 448L626 494H646L534 217H514L524 264Q532 302 521 321T459 340H317L222 107Q211 80 209 63T218 38T264 30H345Q384 30 420 42T489 77T548 124L607 180H627Q598 135 573 89T529 0H-53ZM413 718L396 736L586 871H621L697 729L670 716L573
790L413 718Z" />
<glyph unicode="&#xcb;" horiz-adv-x="677" d="M-53 0L-45 20L14 31Q42 36 56 41T80 58T97 90L296 583Q309 615 303 625T261 642L210 653L219 673H790Q781 659 774 646T762 618Q749 584 742 554T728 496H707Q708 538 699 571T664 624T590 644H439L329 371H470Q504
371 527 379T567 405T599 448L626 494H646L534 217H514L524 264Q532 302 521 321T459 340H317L222 107Q211 80 209 63T218 38T264 30H345Q384 30 420 42T489 77T548 124L607 180H627Q598 135 573 89T529 0H-53ZM470 738Q446 738 428 756T410 798Q410 824 428 842T470
860Q496 860 514 842T532 798Q532 774 514 756T470 738ZM669 738Q645 738 627 756T609 798Q609 824 627 842T669 860Q695 860 713 842T731 798Q731 774 713 756T669 738Z" />
<glyph unicode="&#xcc;" horiz-adv-x="414" d="M-53 0L-45 20L14 31Q42 36 56 41T80 58T97 90L296 583Q309 615 303 625T261 642L210 653L219 673H564L556 653L496 642Q470 637 455 632T432 615T414 583L215 90Q202 59 209 49T250 31L300 20L292 0H-53ZM748 733L599
787Q577 795 568 811Q560 826 565 840T585 863Q595 868 608 868T633 857L762 753L748 733Z" />
<glyph unicode="&#xcd;" horiz-adv-x="414" d="M-53 0L-45 20L14 31Q42 36 56 41T80 58T97 90L296 583Q309 615 303 625T261 642L210 653L219 673H564L556 653L496 642Q470 637 455 632T432 615T414 583L215 90Q202 59 209 49T250 31L300 20L292 0H-53ZM577 735L568
756L777 855Q789 861 798 862T817 862Q832 858 840 845T844 816Q841 805 831 797T803 784L577 735Z" />
<glyph unicode="&#xce;" horiz-adv-x="414" d="M-53 0L-45 20L14 31Q42 36 56 41T80 58T97 90L296 583Q309 615 303 625T261 642L210 653L219 673H564L556 653L496 642Q470 637 455 632T432 615T414 583L215 90Q202 59 209 49T250 31L300 20L292 0H-53ZM529 718L512
736L702 871H737L813 729L786 716L689 790L529 718Z" />
<glyph unicode="&#xcf;" horiz-adv-x="414" d="M-53 0L-45 20L14 31Q42 36 56 41T80 58T97 90L296 583Q309 615 303 625T261 642L210 653L219 673H564L556 653L496 642Q470 637 455 632T432 615T414 583L215 90Q202 59 209 49T250 31L300 20L292 0H-53ZM329 738Q305
738 287 756T269 798Q269 824 287 842T329 860Q355 860 373 842T391 798Q391 774 373 756T329 738ZM528 738Q504 738 486 756T468 798Q468 824 486 842T528 860Q554 860 572 842T590 798Q590 774 572 756T528 738Z" />
<glyph unicode="&#xd0;" horiz-adv-x="797" d="M78 322L96 369H447L429 322H78ZM-53 0L-45 20L14 31Q42 36 56 41T80 58T97 90L296 583Q309 615 303 625T261 642L210 653L219 673H519Q613 673 679 641T781 552T816 422Q816 335 780 259T679 124T524 33T329 0H-53ZM296
29Q392 29 466 60T590 148T667 281T693 448Q693 514 672 557T610 623T506 645H439L214 88Q202 57 221 43T296 29Z" />
<glyph unicode="&#xd1;" horiz-adv-x="842" d="M601 -16L328 567L136 93Q125 66 132 53T170 34L232 20L224 0H-53L-44 20L20 32Q44 37 59 43T85 61T102 92L299 580Q308 602 309 613T299 631T260 643L215 653L223 673H401L649 153L819 580Q830 608 823 621T784
639L722 653L730 673H1007L999 653L934 641Q911 636 896 630T871 612T852 581L612 -16H601ZM317 718L323 732H333Q369 732 388 736T420 749T444 773Q470 804 506 830T588 873T689 890Q741 890 775 873T826 829T844 772Q844 757 849 748T871 736T924 732H934L928
718H803Q818 745 806 769T758 810T667 826Q612 826 565 811T486 771T441 718H317Z" />
<glyph unicode="&#xd2;" horiz-adv-x="824" d="M393 -8Q304 -8 237 26T133 121T95 264Q95 351 132 427T234 560T377 650T542 683Q631 683 698 649T802 553T840 411Q840 324 803 248T701 115T557 25T393 -8ZM403 23Q454 23 501 45T587 108T656 202T702 317T718
444Q718 509 696 555T633 627T537 653Q485 653 438 630T351 566T282 472T236 357T220 231Q220 167 242 120T306 48T403 23ZM649 733L500 787Q478 795 469 811Q461 826 466 840T486 863Q496 868 509 868T534 857L663 753L649 733Z" />
<glyph unicode="&#xd3;" horiz-adv-x="824" d="M393 -8Q304 -8 237 26T133 121T95 264Q95 351 132 427T234 560T377 650T542 683Q631 683 698 649T802 553T840 411Q840 324 803 248T701 115T557 25T393 -8ZM403 23Q454 23 501 45T587 108T656 202T702 317T718
444Q718 509 696 555T633 627T537 653Q485 653 438 630T351 566T282 472T236 357T220 231Q220 167 242 120T306 48T403 23ZM478 735L469 756L678 855Q690 861 699 862T718 862Q733 858 741 845T745 816Q742 805 732 797T704 784L478 735Z" />
<glyph unicode="&#xd4;" horiz-adv-x="824" d="M393 -8Q304 -8 237 26T133 121T95 264Q95 351 132 427T234 560T377 650T542 683Q631 683 698 649T802 553T840 411Q840 324 803 248T701 115T557 25T393 -8ZM403 23Q454 23 501 45T587 108T656 202T702 317T718
444Q718 509 696 555T633 627T537 653Q485 653 438 630T351 566T282 472T236 357T220 231Q220 167 242 120T306 48T403 23ZM430 718L413 736L603 871H638L714 729L687 716L590 790L430 718Z" />
<glyph unicode="&#xd5;" horiz-adv-x="824" d="M393 -8Q304 -8 237 26T133 121T95 264Q95 351 132 427T234 560T377 650T542 683Q631 683 698 649T802 553T840 411Q840 324 803 248T701 115T557 25T393 -8ZM403 23Q454 23 501 45T587 108T656 202T702 317T718
444Q718 509 696 555T633 627T537 653Q485 653 438 630T351 566T282 472T236 357T220 231Q220 167 242 120T306 48T403 23ZM259 718L265 732H275Q311 732 330 736T362 749T386 773Q412 804 448 830T530 873T631 890Q683 890 717 873T768 829T786 772Q786 757 791
748T813 736T866 732H876L870 718H745Q760 745 748 769T700 810T609 826Q554 826 507 811T428 771T383 718H259Z" />
<glyph unicode="&#xd6;" horiz-adv-x="824" d="M393 -8Q304 -8 237 26T133 121T95 264Q95 351 132 427T234 560T377 650T542 683Q631 683 698 649T802 553T840 411Q840 324 803 248T701 115T557 25T393 -8ZM403 23Q454 23 501 45T587 108T656 202T702 317T718
444Q718 509 696 555T633 627T537 653Q485 653 438 630T351 566T282 472T236 357T220 231Q220 167 242 120T306 48T403 23ZM486 738Q462 738 444 756T426 798Q426 824 444 842T486 860Q512 860 530 842T548 798Q548 774 530 756T486 738ZM685 738Q661 738 643 756T625
798Q625 824 643 842T685 860Q711 860 729 842T747 798Q747 774 729 756T685 738Z" />
<glyph unicode="&#xd7;" horiz-adv-x="553" d="M191 164L157 199L290 333L158 465L193 500L325 368L459 501L494 467L360 333L492 201L457 166L325 299L191 164Z" />
<glyph unicode="&#xd8;" horiz-adv-x="827" d="M-7 -9L-29 27L931 683L956 649L-7 -9ZM396 -8Q307 -8 240 26T136 121T98 264Q98 351 135 427T237 560T380 650T545 683Q634 683 701 649T805 553T843 411Q843 324 806 248T704 115T560 25T396 -8ZM406 23Q457 23
504 45T590 108T659 202T705 317T721 444Q721 509 699 555T636 627T540 653Q488 653 441 630T354 566T285 472T239 357T223 231Q223 167 245 120T309 48T406 23Z" />
<glyph unicode="&#xd9;" horiz-adv-x="777" d="M300 -12Q225 -12 180 22T125 114T144 243L281 583Q294 615 287 625T246 642L195 653L204 673H549L541 653L481 642Q454 637 440 632T417 615T400 583L255 225Q222 144 246 96T358 48Q412 48 460 70T547 132T607
225L751 580Q762 608 755 621T716 639L654 653L662 673H939L931 653L866 641Q842 636 827 630T803 612T784 581L593 109Q576 109 557 96T513 64Q478 39 428 14T300 -12ZM702 733L553 787Q531 795 522 811Q514 826 519 840T539 863Q549 868 562 868T587 857L716
753L702 733Z" />
<glyph unicode="&#xda;" horiz-adv-x="777" d="M300 -12Q225 -12 180 22T125 114T144 243L281 583Q294 615 287 625T246 642L195 653L204 673H549L541 653L481 642Q454 637 440 632T417 615T400 583L255 225Q222 144 246 96T358 48Q412 48 460 70T547 132T607
225L751 580Q762 608 755 621T716 639L654 653L662 673H939L931 653L866 641Q842 636 827 630T803 612T784 581L593 109Q576 109 557 96T513 64Q478 39 428 14T300 -12ZM532 735L523 756L732 855Q744 861 753 862T772 862Q787 858 795 845T799 816Q796 805 786
797T758 784L532 735Z" />
<glyph unicode="&#xdb;" horiz-adv-x="777" d="M300 -12Q225 -12 180 22T125 114T144 243L281 583Q294 615 287 625T246 642L195 653L204 673H549L541 653L481 642Q454 637 440 632T417 615T400 583L255 225Q222 144 246 96T358 48Q412 48 460 70T547 132T607
225L751 580Q762 608 755 621T716 639L654 653L662 673H939L931 653L866 641Q842 636 827 630T803 612T784 581L593 109Q576 109 557 96T513 64Q478 39 428 14T300 -12ZM483 718L466 736L656 871H691L767 729L740 716L643 790L483 718Z" />
<glyph unicode="&#xdc;" horiz-adv-x="777" d="M300 -12Q225 -12 180 22T125 114T144 243L281 583Q294 615 287 625T246 642L195 653L204 673H549L541 653L481 642Q454 637 440 632T417 615T400 583L255 225Q222 144 246 96T358 48Q412 48 460 70T547 132T607
225L751 580Q762 608 755 621T716 639L654 653L662 673H939L931 653L866 641Q842 636 827 630T803 612T784 581L593 109Q576 109 557 96T513 64Q478 39 428 14T300 -12ZM539 738Q515 738 497 756T479 798Q479 824 497 842T539 860Q565 860 583 842T601 798Q601
774 583 756T539 738ZM738 738Q714 738 696 756T678 798Q678 824 696 842T738 860Q764 860 782 842T800 798Q800 774 782 756T738 738Z" />
<glyph unicode="&#xdd;" horiz-adv-x="721" d="M357 274L264 610Q260 625 252 632T226 643L186 652L195 673H511L503 653L448 643Q410 637 396 623T389 583L449 364H444L689 592Q706 608 707 619T686 636L618 653L626 673H894L886 653L834 643Q810 639 787 629T741
596L405 284L357 274ZM92 0L100 20L160 31Q187 36 201 41T224 58T242 90L344 343L466 352L360 90Q347 59 354 49T395 31L446 20L437 0H92ZM496 735L487 756L696 855Q708 861 717 862T736 862Q751 858 759 845T763 816Q760 805 750 797T722 784L496 735Z" />
<glyph unicode="&#xde;" horiz-adv-x="637" d="M-53 0L-45 20L14 31Q42 36 56 41T80 58T97 90L296 583Q309 615 303 625T261 642L210 653L219 673H564L556 653L496 642Q470 637 455 632T432 615T414 583L399 546H449Q555 546 616 510T677 404Q677 352 648 307T570
227T465 174T349 155Q318 155 292 163L295 170Q342 172 388 191T472 244T532 322T555 419Q555 470 520 493T424 517H388L215 90Q202 59 209 49T250 31L300 20L292 0H-53Z" />
<glyph unicode="&#xdf;" horiz-adv-x="566" d="M-83 -247Q-111 -247 -137 -237T-180 -210T-197 -173Q-197 -147 -182 -134T-147 -121Q-127 -121 -112 -134T-97 -187Q-97 -204 -90 -211T-71 -219Q-35 -219 -10 -137L184 501Q219 617 270 664T399 711Q468 711 500
683T533 614Q533 575 519 549T485 503T443 464T408 420T394 356Q394 330 410 303T445 252Q467 224 483 196T500 124Q500 81 479 52T423 7T352 -8Q315 -8 284 4T235 42T216 109Q216 140 232 155T267 171Q285 171 299 160T314 127Q314 116 309 108T299 94Q293 86
287 79T281 61Q281 42 300 30T348 18Q380 18 402 37T425 98Q425 125 412 149T379 199Q358 229 340 260T321 331Q321 372 333 399T365 447T403 490T435 543T448 621Q448 647 436 665T395 683Q366 683 345 668T308 619T276 533L73 -138Q61 -138 53 -149T33 -178Q17
-203 -11 -225T-83 -247ZM84 403L97 435H226L212 403H84Z" />
<glyph unicode="&#xe0;" horiz-adv-x="501" d="M61 -8Q29 -8 11 9T-8 67Q-8 105 12 151T67 245T142 335Q191 382 240 413T333 444Q356 444 370 435T394 411H396L459 453H471L329 96Q321 77 323 66T336 54Q346 54 365 72T408 118T453 179L472 167Q411 75 367 34T288
-8Q257 -8 245 14T246 71L266 125H261Q237 90 204 60T133 11T61 -8ZM129 65Q155 65 183 84T239 136T288 205T322 279T335 343Q335 367 324 378T292 389Q266 389 234 372T171 322Q133 282 108 230T82 127Q82 94 94 80T129 65ZM628 542L523 662Q508 680 508 698Q508
714 520 725T549 735Q560 734 570 728T587 706L650 553L628 542Z" />
<glyph unicode="&#xe1;" horiz-adv-x="501" d="M61 -8Q29 -8 11 9T-8 67Q-8 105 12 151T67 245T142 335Q191 382 240 413T333 444Q356 444 370 435T394 411H396L459 453H471L329 96Q321 77 323 66T336 54Q346 54 365 72T408 118T453 179L472 167Q411 75 367 34T288
-8Q257 -8 245 14T246 71L266 125H261Q237 90 204 60T133 11T61 -8ZM129 65Q155 65 183 84T239 136T288 205T322 279T335 343Q335 367 324 378T292 389Q266 389 234 372T171 322Q133 282 108 230T82 127Q82 94 94 80T129 65ZM585 540L572 557L747 708Q758 716 766
720T785 724Q800 724 811 714T822 688Q822 676 815 665T791 645L585 540Z" />
<glyph unicode="&#xe2;" horiz-adv-x="501" d="M61 -8Q29 -8 11 9T-8 67Q-8 105 12 151T67 245T142 335Q191 382 240 413T333 444Q356 444 370 435T394 411H396L459 453H471L329 96Q321 77 323 66T336 54Q346 54 365 72T408 118T453 179L472 167Q411 75 367 34T288
-8Q257 -8 245 14T246 71L266 125H261Q237 90 204 60T133 11T61 -8ZM129 65Q155 65 183 84T239 136T288 205T322 279T335 343Q335 367 324 378T292 389Q266 389 234 372T171 322Q133 282 108 230T82 127Q82 94 94 80T129 65ZM700 709L768 545L751 534L658 619L488
531L473 548L669 709H700Z" />
<glyph unicode="&#xe3;" horiz-adv-x="501" d="M61 -8Q29 -8 11 9T-8 67Q-8 105 12 151T67 245T142 335Q191 382 240 413T333 444Q356 444 370 435T394 411H396L459 453H471L329 96Q321 77 323 66T336 54Q346 54 365 72T408 118T453 179L472 167Q411 75 367 34T288
-8Q257 -8 245 14T246 71L266 125H261Q237 90 204 60T133 11T61 -8ZM129 65Q155 65 183 84T239 136T288 205T322 279T335 343Q335 367 324 378T292 389Q266 389 234 372T171 322Q133 282 108 230T82 127Q82 94 94 80T129 65ZM495 520L473 524Q483 574 501 600T541
637T590 647Q606 647 622 644T653 636Q669 633 686 630T720 627Q734 627 743 632T753 652Q753 661 745 663T725 666Q702 669 693 678T684 708Q684 725 695 736T728 747Q760 747 774 727T788 679Q788 628 763 597T686 566Q673 566 660 568T631 572Q615 575 600 577T570
580Q541 580 524 566T495 520Z" />
<glyph unicode="&#xe4;" horiz-adv-x="501" d="M61 -8Q29 -8 11 9T-8 67Q-8 105 12 151T67 245T142 335Q191 382 240 413T333 444Q356 444 370 435T394 411H396L459 453H471L329 96Q321 77 323 66T336 54Q346 54 365 72T408 118T453 179L472 167Q411 75 367 34T288
-8Q257 -8 245 14T246 71L266 125H261Q237 90 204 60T133 11T61 -8ZM129 65Q155 65 183 84T239 136T288 205T322 279T335 343Q335 367 324 378T292 389Q266 389 234 372T171 322Q133 282 108 230T82 127Q82 94 94 80T129 65ZM550 562Q526 562 508 580T490 622Q490
648 508 666T550 684Q576 684 594 666T612 622Q612 598 594 580T550 562ZM749 562Q725 562 707 580T689 622Q689 648 707 666T749 684Q775 684 793 666T811 622Q811 598 793 580T749 562Z" />
<glyph unicode="&#xe5;" horiz-adv-x="501" d="M61 -8Q29 -8 11 9T-8 67Q-8 105 12 151T67 245T142 335Q191 382 240 413T333 444Q356 444 370 435T394 411H396L459 453H471L329 96Q321 77 323 66T336 54Q346 54 365 72T408 118T453 179L472 167Q411 75 367 34T288
-8Q257 -8 245 14T246 71L266 125H261Q237 90 204 60T133 11T61 -8ZM129 65Q155 65 183 84T239 136T288 205T322 279T335 343Q335 367 324 378T292 389Q266 389 234 372T171 322Q133 282 108 230T82 127Q82 94 94 80T129 65ZM744 624Q744 592 728 565T685 521T625
505Q593 505 566 521T522 564T506 624Q506 657 522 684T565 727T625 743Q658 743 685 727T728 684T744 624ZM697 624Q697 654 677 675T626 696Q597 696 575 675T553 624Q553 594 575 573T626 552Q656 552 676 573T697 624Z" />
<glyph unicode="&#xe6;" horiz-adv-x="633" d="M60 -8Q29 -8 11 9T-8 67Q-8 105 12 151T67 245T142 335Q191 382 240 413T333 444Q356 444 370 435T394 411H396L458 453H469L361 183L307 190Q278 140 238 95T153 21T60 -8ZM129 65Q155 65 183 84T239 136T288 205T322
279T335 343Q335 367 324 378T292 389Q266 389 234 372T171 322Q133 282 108 230T82 127Q82 94 94 80T129 65ZM371 -8Q327 -8 307 21T286 94Q286 151 308 205T365 305T442 386Q475 413 510 428T578 444Q613 444 630 427T648 386Q648 351 619 315T526 251T355 209L358
235Q427 240 472 262T540 313T562 363Q562 393 533 393Q508 393 481 374T429 322T389 244T373 149Q373 110 386 88T432 65Q453 65 477 78T527 118T573 182L592 170Q565 122 527 82T447 17T371 -8Z" />
<glyph unicode="&#xe7;" horiz-adv-x="367" d="M104 -8Q66 -8 41 17T15 90Q15 145 36 197T92 294T163 373Q200 406 237 425T304 444Q343 444 362 423T382 373Q382 351 372 338T342 325Q318 325 312 336T304 363Q302 376 298 384T276 393Q250 393 220 375T163 324T119
248T101 152Q101 101 118 84T160 66Q193 66 230 95T304 180L323 169Q297 125 262 85T187 18T104 -8ZM175 -247L188 -219Q218 -216 246 -210T297 -193T335 -169T349 -137Q349 -118 328 -108T265 -96L329 0H367L341 -39Q390 -45 414 -61T438 -110Q438 -139 416 -163T356
-206T271 -234T175 -247Z" />
<glyph unicode="&#xe8;" horiz-adv-x="366" d="M103 -8Q59 -8 39 21T19 94Q19 151 40 205T97 305T174 386Q207 413 242 428T310 444Q345 444 362 427T380 386Q380 351 351 315T258 251T87 209L90 235Q159 240 204 262T272 313T295 363Q295 393 265 393Q240 393
213 374T161 322T121 244T105 149Q105 110 118 88T164 65Q185 65 209 78T259 118T305 182L324 170Q297 122 259 82T179 17T103 -8ZM347 542L242 662Q227 680 227 698Q227 714 239 725T268 735Q279 734 289 728T306 706L369 553L347 542Z" />
<glyph unicode="&#xe9;" horiz-adv-x="366" d="M103 -8Q59 -8 39 21T19 94Q19 151 40 205T97 305T174 386Q207 413 242 428T310 444Q345 444 362 427T380 386Q380 351 351 315T258 251T87 209L90 235Q159 240 204 262T272 313T295 363Q295 393 265 393Q240 393
213 374T161 322T121 244T105 149Q105 110 118 88T164 65Q185 65 209 78T259 118T305 182L324 170Q297 122 259 82T179 17T103 -8ZM561 540L548 557L723 708Q734 716 742 720T761 724Q776 724 787 714T798 688Q798 676 791 665T767 645L561 540Z" />
<glyph unicode="&#xea;" horiz-adv-x="366" d="M103 -8Q59 -8 39 21T19 94Q19 151 40 205T97 305T174 386Q207 413 242 428T310 444Q345 444 362 427T380 386Q380 351 351 315T258 251T87 209L90 235Q159 240 204 262T272 313T295 363Q295 393 265 393Q240 393
213 374T161 322T121 244T105 149Q105 110 118 88T164 65Q185 65 209 78T259 118T305 182L324 170Q297 122 259 82T179 17T103 -8ZM676 709L744 545L727 534L634 619L464 531L449 548L645 709H676Z" />
<glyph unicode="&#xeb;" horiz-adv-x="366" d="M103 -8Q59 -8 39 21T19 94Q19 151 40 205T97 305T174 386Q207 413 242 428T310 444Q345 444 362 427T380 386Q380 351 351 315T258 251T87 209L90 235Q159 240 204 262T272 313T295 363Q295 393 265 393Q240 393
213 374T161 322T121 244T105 149Q105 110 118 88T164 65Q185 65 209 78T259 118T305 182L324 170Q297 122 259 82T179 17T103 -8ZM526 562Q502 562 484 580T466 622Q466 648 484 666T526 684Q552 684 570 666T588 622Q588 598 570 580T526 562ZM725 562Q701 562
683 580T665 622Q665 648 683 666T725 684Q751 684 769 666T787 622Q787 598 769 580T725 562Z" />
<glyph unicode="&#xec;" horiz-adv-x="323" d="M106 -8Q75 -8 61 14T58 69L167 343Q176 366 173 374T163 382Q153 382 133 363T89 315T48 258L30 269Q92 358 134 401T217 444Q249 444 261 421T259 359L155 96Q146 74 150 64T162 54Q172 54 191 72T234 118T279
179L298 167Q234 75 188 34T106 -8ZM281 542L176 662Q161 680 161 698Q161 714 173 725T202 735Q213 734 223 728T240 706L303 553L281 542Z" />
<glyph unicode="&#xed;" horiz-adv-x="323" d="M106 -8Q75 -8 61 14T58 69L167 343Q176 366 173 374T163 382Q153 382 133 363T89 315T48 258L30 269Q92 358 134 401T217 444Q249 444 261 421T259 359L155 96Q146 74 150 64T162 54Q172 54 191 72T234 118T279
179L298 167Q234 75 188 34T106 -8ZM494 540L481 557L656 708Q667 716 675 720T694 724Q709 724 720 714T731 688Q731 676 724 665T700 645L494 540Z" />
<glyph unicode="&#xee;" horiz-adv-x="323" d="M106 -8Q75 -8 61 14T58 69L167 343Q176 366 173 374T163 382Q153 382 133 363T89 315T48 258L30 269Q92 358 134 401T217 444Q249 444 261 421T259 359L155 96Q146 74 150 64T162 54Q172 54 191 72T234 118T279
179L298 167Q234 75 188 34T106 -8ZM353 709L421 545L404 534L311 619L141 531L126 548L322 709H353Z" />
<glyph unicode="&#xef;" horiz-adv-x="323" d="M106 -8Q75 -8 61 14T58 69L167 343Q176 366 173 374T163 382Q153 382 133 363T89 315T48 258L30 269Q92 358 134 401T217 444Q249 444 261 421T259 359L155 96Q146 74 150 64T162 54Q172 54 191 72T234 118T279
179L298 167Q234 75 188 34T106 -8ZM204 562Q180 562 162 580T144 622Q144 648 162 666T204 684Q230 684 248 666T266 622Q266 598 248 580T204 562ZM403 562Q379 562 361 580T343 622Q343 648 361 666T403 684Q429 684 447 666T465 622Q465 598 447 580T403 562Z"
/>
<glyph unicode="&#xf0;" horiz-adv-x="542" d="M358 468L348 498L677 622L688 593L358 468ZM169 -14Q117 -14 83 5T33 56T17 126Q17 185 37 238T94 333T180 399T286 423Q322 423 350 408T392 365T401 298H407Q433 343 452 394T482 496T493 589Q493 619 484 634T449
650Q432 650 415 635T382 599Q367 581 351 563T316 545Q300 545 291 554T281 575Q281 602 298 621T343 654T400 675T456 682Q514 682 547 648T581 552Q581 480 561 402T503 249T415 116T302 21T169 -14ZM193 22Q234 22 268 49T326 119T364 209T378 297Q378 338
358 360T294 382Q252 382 220 360T164 300T129 215T117 119Q117 94 125 72T150 36T193 22Z" />
<glyph unicode="&#xf1;" horiz-adv-x="571" d="M26 -11L168 345Q176 365 174 373T163 381Q153 381 133 362T89 314T48 257L30 269Q91 357 134 400T216 443Q248 443 261 420T257 358L185 184H188Q205 212 229 246T281 315T342 379T407 426T473 444Q508 444 519
419T515 358L401 92Q394 73 397 64T410 54Q421 54 440 72T483 118T528 179L546 167Q483 75 437 34T354 -8Q320 -8 308 16T312 81L420 334Q428 353 425 363T407 374Q388 374 352 345T272 263T187 144T117 0L26 -11ZM529 520L507 524Q517 574 535 600T575 637T624
647Q640 647 656 644T687 636Q703 633 720 630T754 627Q768 627 777 632T787 652Q787 661 779 663T759 666Q736 669 727 678T718 708Q718 725 729 736T762 747Q794 747 808 727T822 679Q822 628 797 597T720 566Q707 566 694 568T665 572Q649 575 634 577T604 580Q575
580 558 566T529 520Z" />
<glyph unicode="&#xf2;" horiz-adv-x="457" d="M176 -8Q112 -8 75 29T37 133Q37 189 56 244T110 344T190 417T286 444Q350 444 385 404T421 302Q421 247 403 192T350 92T272 19T176 -8ZM161 19Q187 19 213 42T262 103T304 185T333 272T344 346Q344 415 297 415Q271
415 246 392T197 331T155 250T126 164T115 89Q115 56 127 38T161 19ZM359 542L254 662Q239 680 239 698Q239 714 251 725T280 735Q291 734 301 728T318 706L381 553L359 542Z" />
<glyph unicode="&#xf3;" horiz-adv-x="457" d="M176 -8Q112 -8 75 29T37 133Q37 189 56 244T110 344T190 417T286 444Q350 444 385 404T421 302Q421 247 403 192T350 92T272 19T176 -8ZM161 19Q187 19 213 42T262 103T304 185T333 272T344 346Q344 415 297 415Q271
415 246 392T197 331T155 250T126 164T115 89Q115 56 127 38T161 19ZM573 540L560 557L735 708Q746 716 754 720T773 724Q788 724 799 714T810 688Q810 676 803 665T779 645L573 540Z" />
<glyph unicode="&#xf4;" horiz-adv-x="457" d="M176 -8Q112 -8 75 29T37 133Q37 189 56 244T110 344T190 417T286 444Q350 444 385 404T421 302Q421 247 403 192T350 92T272 19T176 -8ZM161 19Q187 19 213 42T262 103T304 185T333 272T344 346Q344 415 297 415Q271
415 246 392T197 331T155 250T126 164T115 89Q115 56 127 38T161 19ZM688 709L756 545L739 534L646 619L476 531L461 548L657 709H688Z" />
<glyph unicode="&#xf5;" horiz-adv-x="457" d="M176 -8Q112 -8 75 29T37 133Q37 189 56 244T110 344T190 417T286 444Q350 444 385 404T421 302Q421 247 403 192T350 92T272 19T176 -8ZM161 19Q187 19 213 42T262 103T304 185T333 272T344 346Q344 415 297 415Q271
415 246 392T197 331T155 250T126 164T115 89Q115 56 127 38T161 19ZM482 520L460 524Q470 574 488 600T528 637T577 647Q593 647 609 644T640 636Q656 633 673 630T707 627Q721 627 730 632T740 652Q740 661 732 663T712 666Q689 669 680 678T671 708Q671 725
682 736T715 747Q747 747 761 727T775 679Q775 628 750 597T673 566Q660 566 647 568T618 572Q602 575 587 577T557 580Q528 580 511 566T482 520Z" />
<glyph unicode="&#xf6;" horiz-adv-x="457" d="M176 -8Q112 -8 75 29T37 133Q37 189 56 244T110 344T190 417T286 444Q350 444 385 404T421 302Q421 247 403 192T350 92T272 19T176 -8ZM161 19Q187 19 213 42T262 103T304 185T333 272T344 346Q344 415 297 415Q271
415 246 392T197 331T155 250T126 164T115 89Q115 56 127 38T161 19ZM538 562Q514 562 496 580T478 622Q478 648 496 666T538 684Q564 684 582 666T600 622Q600 598 582 580T538 562ZM737 562Q713 562 695 580T677 622Q677 648 695 666T737 684Q763 684 781 666T799
622Q799 598 781 580T737 562Z" />
<glyph unicode="&#xf7;" horiz-adv-x="553" d="M326 107Q297 107 277 127T257 175Q257 204 277 224T325 244Q354 244 374 224T394 175Q394 147 374 127T326 107ZM326 423Q297 423 277 443T257 491Q257 520 277 540T325 560Q354 560 374 540T394 492Q394 463 374
443T326 423ZM124 309V358H527V309H124Z" />
<glyph unicode="&#xf8;" horiz-adv-x="458" d="M-14 -9L-36 18L468 444L492 416L-14 -9ZM176 -8Q113 -8 76 29T38 133Q38 189 57 244T111 344T191 417T287 444Q351 444 386 404T422 302Q422 247 403 192T351 92T273 19T176 -8ZM162 19Q187 19 213 42T262 103T304
185T333 272T344 346Q344 415 298 415Q272 415 247 392T197 331T155 250T127 164T116 89Q116 56 128 38T162 19Z" />
<glyph unicode="&#xf9;" horiz-adv-x="563" d="M97 -8Q63 -8 52 17T56 78L170 344Q178 363 175 372T161 382Q151 382 131 364T88 318T44 257L25 268Q89 361 135 402T217 443Q251 443 264 419T260 355L150 101Q142 83 145 73T163 62Q182 62 217 91T295 173T378
292T447 436L537 446L396 90Q388 71 390 63T401 54Q411 54 431 73T474 122T516 178L534 167Q472 78 429 35T347 -8Q316 -8 303 15T306 77L379 252H376Q360 224 336 190T284 121T224 57T161 10T97 -8ZM652 542L547 662Q532 680 532 698Q532 714 544 725T573 735Q584
734 594 728T611 706L674 553L652 542Z" />
<glyph unicode="&#xfa;" horiz-adv-x="563" d="M97 -8Q63 -8 52 17T56 78L170 344Q178 363 175 372T161 382Q151 382 131 364T88 318T44 257L25 268Q89 361 135 402T217 443Q251 443 264 419T260 355L150 101Q142 83 145 73T163 62Q182 62 217 91T295 173T378
292T447 436L537 446L396 90Q388 71 390 63T401 54Q411 54 431 73T474 122T516 178L534 167Q472 78 429 35T347 -8Q316 -8 303 15T306 77L379 252H376Q360 224 336 190T284 121T224 57T161 10T97 -8ZM354 540L341 557L516 708Q527 716 535 720T554 724Q569 724
580 714T591 688Q591 676 584 665T560 645L354 540Z" />
<glyph unicode="&#xfb;" horiz-adv-x="563" d="M97 -8Q63 -8 52 17T56 78L170 344Q178 363 175 372T161 382Q151 382 131 364T88 318T44 257L25 268Q89 361 135 402T217 443Q251 443 264 419T260 355L150 101Q142 83 145 73T163 62Q182 62 217 91T295 173T378
292T447 436L537 446L396 90Q388 71 390 63T401 54Q411 54 431 73T474 122T516 178L534 167Q472 78 429 35T347 -8Q316 -8 303 15T306 77L379 252H376Q360 224 336 190T284 121T224 57T161 10T97 -8ZM725 709L793 545L776 534L683 619L513 531L498 548L694 709H725Z"
/>
<glyph unicode="&#xfc;" horiz-adv-x="563" d="M97 -8Q63 -8 52 17T56 78L170 344Q178 363 175 372T161 382Q151 382 131 364T88 318T44 257L25 268Q89 361 135 402T217 443Q251 443 264 419T260 355L150 101Q142 83 145 73T163 62Q182 62 217 91T295 173T378
292T447 436L537 446L396 90Q388 71 390 63T401 54Q411 54 431 73T474 122T516 178L534 167Q472 78 429 35T347 -8Q316 -8 303 15T306 77L379 252H376Q360 224 336 190T284 121T224 57T161 10T97 -8ZM572 562Q548 562 530 580T512 622Q512 648 530 666T572 684Q598
684 616 666T634 622Q634 598 616 580T572 562ZM771 562Q747 562 729 580T711 622Q711 648 729 666T771 684Q797 684 815 666T833 622Q833 598 815 580T771 562Z" />
<glyph unicode="&#xfd;" horiz-adv-x="483" d="M-67 -284Q-102 -284 -132 -274T-180 -245T-199 -201Q-199 -173 -184 -160T-149 -146Q-120 -146 -111 -164T-98 -205Q-93 -225 -88 -242T-61 -259Q-15 -259 28 -232T109 -157T174 -51T217 71T233 193Q233 297 205
351T129 405Q94 405 76 383T57 330Q57 313 64 295T88 261L78 249Q54 264 42 288T30 338Q30 378 58 411T142 444Q187 444 219 423T273 366T303 285T313 192Q313 146 305 102T282 22L286 20Q307 41 329 75T370 148T402 226T414 292Q414 323 402 336T375 359Q364 367
355 378T345 406Q345 435 364 447T404 460Q430 460 445 438T461 372Q461 326 444 265T395 135T316 1Q279 -50 234 -100T137 -192T34 -259T-67 -284ZM502 540L489 557L664 708Q675 716 683 720T702 724Q717 724 728 714T739 688Q739 676 732 665T708 645L502 540Z"
/>
<glyph unicode="&#xfe;" horiz-adv-x="474" d="M-168 -250L-161 -234L-122 -222Q-104 -217 -95 -209T-79 -186L244 618Q250 635 244 642T221 652L190 658L194 673Q242 681 280 688T357 712L370 705Q358 685 347 662T328 616L275 484L191 309H195Q224 348 261 378T335
426T403 444Q432 444 452 426T472 366Q472 323 457 275T414 181T351 96T275 35T194 12Q145 12 113 30T80 88Q80 110 93 120T125 131Q146 131 159 117T173 68Q173 54 178 47T200 39Q228 39 254 57T302 106T342 175T368 252T378 327Q378 381 334 381Q313 381 288
363T237 315T189 249T153 177L5 -190Q-5 -214 21 -222L67 -234L61 -250H-168Z" />
<glyph unicode="&#xff;" horiz-adv-x="483" d="M-67 -284Q-102 -284 -132 -274T-180 -245T-199 -201Q-199 -173 -184 -160T-149 -146Q-120 -146 -111 -164T-98 -205Q-93 -225 -88 -242T-61 -259Q-15 -259 28 -232T109 -157T174 -51T217 71T233 193Q233 297 205
351T129 405Q94 405 76 383T57 330Q57 313 64 295T88 261L78 249Q54 264 42 288T30 338Q30 378 58 411T142 444Q187 444 219 423T273 366T303 285T313 192Q313 146 305 102T282 22L286 20Q307 41 329 75T370 148T402 226T414 292Q414 323 402 336T375 359Q364 367
355 378T345 406Q345 435 364 447T404 460Q430 460 445 438T461 372Q461 326 444 265T395 135T316 1Q279 -50 234 -100T137 -192T34 -259T-67 -284ZM467 562Q443 562 425 580T407 622Q407 648 425 666T467 684Q493 684 511 666T529 622Q529 598 511 580T467 562ZM666
562Q642 562 624 580T606 622Q606 648 624 666T666 684Q692 684 710 666T728 622Q728 598 710 580T666 562Z" />
<glyph unicode="&#x2013;" horiz-adv-x="553" d="M13 226V272H566V226H13Z" />
<glyph unicode="&#x2014;" horiz-adv-x="1106" d="M1118 225H12V272H1118V225Z" />
<glyph unicode="&#x2018;" horiz-adv-x="276" d="M421 681L411 656Q377 651 342 632T282 585T257 520Q257 499 272 484T317 463L307 433Q287 425 274 417T248 397T220 369Q192 380 176 404T160 459Q160 501 181 539T240 607T324 657T421 681Z" />
<glyph unicode="&#x2019;" horiz-adv-x="276" d="M103 367L114 392Q147 397 182 416T242 464T267 528Q267 549 252 565T207 585L217 615Q237 624 250 632T276 651T304 680Q332 669 348 645T364 589Q364 547 343 509T284 441T200 392T103 367Z" />
<glyph unicode="&#x201a;" horiz-adv-x="276" d="M-108 -155L-97 -130Q-64 -125 -29 -106T31 -58T56 6Q56 27 41 43T-4 63L6 93Q26 102 39 110T65 129T93 158Q121 147 137 123T153 67Q153 25 132 -13T73 -81T-11 -130T-108 -155Z" />
<glyph unicode="&#x201c;" horiz-adv-x="483" d="M425 689L415 664Q381 659 346 640T286 593T261 528Q261 507 276 492T321 471L311 441Q291 433 278 425T252 405T224 377Q196 388 180 412T164 467Q164 509 185 547T244 615T328 665T425 689ZM631 689L621 664Q587
659 552 640T492 593T467 528Q467 507 482 492T527 471L517 441Q497 433 484 425T458 405T430 377Q402 388 386 412T370 467Q370 509 391 547T450 615T534 665T631 689Z" />
<glyph unicode="&#x201d;" horiz-adv-x="483" d="M313 376L324 401Q357 406 392 425T452 473T477 537Q477 558 462 574T417 594L427 624Q447 633 460 641T486 660T514 689Q542 678 558 654T574 598Q574 556 553 518T494 450T410 401T313 376ZM106 376L117 401Q150
406 185 425T245 473T270 537Q270 558 255 574T210 594L220 624Q240 633 253 641T279 660T307 689Q335 678 351 654T367 598Q367 556 346 518T287 450T203 401T106 376Z" />
<glyph unicode="&#x201e;" horiz-adv-x="482" d="M98 -155L109 -130Q142 -125 177 -106T237 -58T262 6Q262 27 247 43T202 63L212 93Q232 102 245 110T271 129T299 158Q327 147 343 123T359 67Q359 25 338 -13T279 -81T195 -130T98 -155ZM-108 -155L-97 -130Q-64
-125 -29 -106T31 -58T56 6Q56 27 41 43T-4 63L6 93Q26 102 39 110T65 129T93 158Q121 147 137 123T153 67Q153 25 132 -13T73 -81T-11 -130T-108 -155Z" />
<glyph unicode="&#x2022;" horiz-adv-x="372" d="M124 359Q124 392 140 419T182 462T242 478Q275 478 302 462T345 419T361 359Q361 326 345 300T302 257T242 241Q193 241 159 275T124 359Z" />
<glyph unicode="&#x2039;" horiz-adv-x="218" d="M105 56L13 197L17 209L217 347L236 334L98 201L129 72L105 56Z" />
<glyph unicode="&#x203a;" horiz-adv-x="219" d="M101 346L193 205L188 193L-12 55L-31 68L108 201L76 330L101 346Z" />
</font>
</defs>
</svg>
