<?xml version="1.0" standalone="no"?>
<!DOCTYPE svg PUBLIC "-//W3C//DTD SVG 1.1//EN" "http://www.w3.org/Graphics/SVG/1.1/DTD/svg11.dtd">
<svg xmlns="http://www.w3.org/2000/svg">
<defs >
<font id="Jost" horiz-adv-x="546" ><font-face
    font-family="Jost ExtraLight"
    units-per-em="1000"
    panose-1="0 0 0 0 0 0 0 0 0 0"
    ascent="1070"
    descent="-375"
    alphabetic="0" />
<glyph unicode=" " horiz-adv-x="300" />
<glyph unicode="!" horiz-adv-x="273" d="M117 700L126 200H147L156 700H117ZM113 12Q113 2 120 -4T137 -11Q147 -11 153 -5T160 12Q160 23 154 29T137 36Q127 36 120 29T113 12Z" />
<glyph unicode="&quot;" horiz-adv-x="421" d="M137 700L87 414H108L174 700H137ZM317 700L267 414H288L354 700H317Z" />
<glyph unicode="#" horiz-adv-x="581" d="M75 450H206H213H416H423H546V477H75V450ZM35 228H506V255H379H369H166H158H35V228ZM466 700L409 467L407 459L356 246L353 239L296 0H325L495 700H466ZM256 700L86 0H115L173 238L174 244L227 460L229 468L285 700H256Z" />
<glyph unicode="$" horiz-adv-x="580" d="M251 818V691H280V818H251ZM253 13V-112H281V13H253ZM432 538L460 553Q449 589 425 625T362 685T265 709Q215 709 174 689T108 632T83 547Q83 505 100 473T146 418T206 379T267 353Q305 339 343 317T406 261T431 177Q431
132 415 97T364 43T271 23Q216 23 178 49T114 116T73 206L44 190Q61 139 90 94T164 20T270 -9Q340 -9 382 16T445 84T465 179Q465 222 450 254T410 310T354 349T293 376Q251 392 211 413T144 467T117 545Q117 585 136 614T188 660T265 677Q314 677 347 656T400
603T432 538Z" />
<glyph unicode="%" horiz-adv-x="716" d="M35 557Q35 514 54 480T106 425T186 404Q232 404 266 424T318 479T337 557Q337 600 319 634T266 689T186 710Q140 710 107 690T54 635T35 557ZM63 557Q63 592 78 620T120 666T186 684Q225 684 252 667T294 621T309 557Q309
523 294 494T252 448T186 430Q148 430 121 447T78 494T63 557ZM379 143Q379 100 397 66T450 11T530 -10Q576 -10 610 10T662 65T681 143Q681 186 663 220T610 275T530 296Q484 296 450 276T398 221T379 143ZM407 143Q407 177 422 206T464 252T530 270Q568 270 595
253T638 206T653 143Q653 109 638 80T596 33T530 15Q492 15 465 33T422 80T407 143ZM570 700L115 0H146L601 700H570Z" />
<glyph unicode="&amp;" horiz-adv-x="675" d="M195 414L558 0H596L218 432Q194 461 172 492T149 570Q149 617 180 650T274 683Q314 683 339 666T377 622T390 568Q390 526 354 487T254 410Q234 398 207 385T150 353T96 311T56 253T40 176Q40 117 69 75T146 12T251
-10Q318 -10 371 18T467 93T548 194T627 301L603 316Q565 264 528 212T449 116T360 46T252 19Q202 19 161 37T96 91T72 177Q72 226 93 259T146 316T213 357T275 391Q310 412 337 433T382 475T411 520T421 568Q421 603 405 635T356 689T274 711Q224 711 189 693T136
642T117 570Q117 534 129 506T160 455T195 414Z" />
<glyph unicode="&apos;" horiz-adv-x="241" d="M137 700L87 414H108L174 700H137Z" />
<glyph unicode="(" horiz-adv-x="261" d="M205 780Q145 668 118 543T90 290Q90 163 117 38T205 -200H231Q176 -82 150 40T123 290Q123 418 149 540T231 780H205Z" />
<glyph unicode=")" horiz-adv-x="261" d="M56 -200Q116 -87 143 38T171 290Q171 418 144 543T56 780H30Q85 662 111 540T137 290Q137 163 111 41T30 -200H56Z" />
<glyph unicode="*" horiz-adv-x="592" d="M464 589L292 528L299 510L472 561L464 589ZM414 381L303 525L289 513L390 364L414 381ZM202 364L303 513L289 525L178 381L202 364ZM120 561L293 510L300 528L128 589L120 561ZM281 700L287 519H305L311 700H281Z" />
<glyph unicode="+" horiz-adv-x="569" d="M65 240H497V270H65V240ZM265 486V24H297V486H265Z" />
<glyph unicode="," horiz-adv-x="285" d="M167 99L67 -156L88 -164L198 86L167 99Z" />
<glyph unicode="-" horiz-adv-x="210" d="M5 246H205V275H5V246Z" />
<glyph unicode="." horiz-adv-x="272" d="M112 12Q112 2 119 -4T136 -11Q146 -11 153 -5T160 12Q160 23 153 29T136 36Q127 36 120 29T112 12Z" />
<glyph unicode="/" horiz-adv-x="487" d="M440 700L15 -150H47L472 700H440Z" />
<glyph unicode="0" horiz-adv-x="565" d="M83 350Q83 417 96 477T136 582T199 653T282 679Q330 679 366 654T429 583T468 477T481 350Q481 283 468 223T429 118T367 47T282 21Q236 21 199 46T136 117T97 223T83 350ZM51 350Q51 249 79 168T159 38T282 -10Q354
-10 406 38T486 167T514 350Q514 451 486 532T406 662T282 710Q211 710 159 662T79 533T51 350Z" />
<glyph unicode="1" horiz-adv-x="422" d="M91 627L256 667V0H288V706L91 661V627Z" />
<glyph unicode="2" horiz-adv-x="530" d="M24 0H489V31H93L373 322Q412 362 440 409T469 516Q469 548 458 582T422 645T360 692T270 711Q205 711 157 680T82 592T56 460H88Q88 526 110 575T173 652T270 680Q314 680 345 665T397 626T426 572T435 515Q435 477 423
447T391 391T347 340L24 0Z" />
<glyph unicode="3" horiz-adv-x="550" d="M249 357Q307 357 357 378T438 439T470 531Q470 578 449 618T385 684T283 710Q226 710 184 687T118 622T94 526H124Q124 593 167 636T284 680Q334 680 368 659T420 604T438 529Q438 495 422 467T378 420T317 390T249 379V357ZM279
-10Q342 -10 389 13T463 79T490 178Q490 227 469 263T413 324T335 360T249 372V350Q283 350 319 340T387 308T438 255T458 181Q458 134 436 98T374 41T279 21Q222 21 181 42T118 100T96 185H64Q64 144 78 109T121 47T188 5T279 -10Z" />
<glyph unicode="4" horiz-adv-x="562" d="M24 140H528V169H406H399H78L386 621V159V152V0H419V700H408L24 140Z" />
<glyph unicode="5" horiz-adv-x="559" d="M499 230Q499 296 472 346T400 424T297 452Q242 452 200 432T135 383L206 671H511V700H181L89 327Q118 359 148 380T212 412T287 423Q337 423 377 398T442 330T466 230Q466 163 441 116T370 45T268 21Q221 21 184 37T120
84T75 155L48 137Q67 93 96 60T168 9T268 -10Q317 -10 358 5T431 50T481 125T499 230Z" />
<glyph unicode="6" horiz-adv-x="548" d="M81 223Q81 274 105 319T174 391T282 418Q332 418 374 392T441 322T467 223Q467 164 443 119T375 47T274 20Q217 20 174 46T106 118T81 223ZM330 700L102 378Q82 350 66 308T50 223Q50 154 78 102T156 20T274 -10Q342
-10 392 19T470 101T498 223Q498 269 482 308T438 378T372 426T291 443Q241 443 201 426T133 373L135 371L370 700H330Z" />
<glyph unicode="7" horiz-adv-x="518" d="M34 669H461L116 0H150L509 700H34V669Z" />
<glyph unicode="8" horiz-adv-x="525" d="M84 538Q84 500 98 468T138 413T195 377T262 364Q298 364 330 377T387 413T426 468T441 538Q441 585 418 624T355 686T262 710Q211 710 171 687T107 624T84 538ZM114 535Q114 575 133 608T186 661T262 681Q306 681 339
661T391 608T410 535Q410 492 388 458T331 405T262 385Q229 385 195 404T137 458T114 535ZM62 186Q62 145 75 110T115 47T178 5T262 -10Q309 -10 346 5T409 47T449 109T463 186Q463 230 447 265T402 325T338 363T262 377Q224 377 188 364T123 325T79 265T62 186ZM93
189Q93 238 117 275T181 334T262 356Q304 356 343 335T407 276T432 189Q432 139 411 101T352 41T262 19Q212 19 174 40T114 100T93 189Z" />
<glyph unicode="9" horiz-adv-x="548" d="M467 477Q467 426 443 382T374 310T266 282Q216 282 174 308T107 378T81 477Q81 536 105 582T173 654T274 680Q332 680 375 654T442 582T467 477ZM218 0L445 322Q465 350 481 392T498 477Q498 546 470 598T392 680T274
710Q207 710 157 681T78 599T50 477Q50 431 66 392T110 322T176 274T257 257Q307 257 347 274T415 327L413 329L178 0H218Z" />
<glyph unicode=":" horiz-adv-x="300" d="M112 12Q112 2 119 -4T136 -11Q146 -11 153 -5T160 12Q160 23 153 29T136 36Q127 36 120 29T112 12ZM112 370Q112 360 119 353T136 346Q146 346 153 353T160 370Q160 380 153 387T136 394Q127 394 120 387T112 370Z" />
<glyph unicode=";" horiz-adv-x="292" d="M142 370Q142 360 149 353T166 346Q176 346 183 353T190 370Q190 380 183 387T166 394Q157 394 150 387T142 370ZM167 99L67 -156L88 -164L198 86L167 99Z" />
<glyph unicode="&lt;" horiz-adv-x="640" d="M116 258L575 448V479L65 266V248L575 36V67L116 258Z" />
<glyph unicode="=" horiz-adv-x="615" d="M65 172H550V201H65V172ZM65 304H550V333H65V304Z" />
<glyph unicode="&gt;" horiz-adv-x="640" d="M524 257L65 67V36L575 249V267L65 479V448L524 257Z" />
<glyph unicode="?" d="M441 514Q441 469 414 431T337 369T223 345H215L224 170H248L249 323Q311 325 361 351T442 420T472 514Q472 556 458 591T417 654T353 695T268 710Q216 710 179 696T114 655T64 593L89 577Q119 625 160 653T265 681Q321 681 360 660T420
601T441 514ZM208 12Q208 2 215 -4T232 -11Q243 -11 249 -5T256 12Q256 23 250 29T232 36Q223 36 216 30T208 12Z" />
<glyph unicode="@" horiz-adv-x="770" d="M231 320Q231 379 252 419T308 479T378 500Q410 500 433 482T470 435T483 370Q483 317 463 277T411 213T341 190Q292 190 262 226T231 320ZM201 319Q201 270 219 235T268 181T336 162Q381 162 418 189T477 262T500 368Q500
411 486 447T444 506T378 529Q336 529 295 506T228 436T201 319ZM35 320Q35 221 72 147T182 32T358 -9Q444 -9 500 9T602 51L588 74Q545 50 488 34T358 18Q266 18 200 55T99 160T63 320Q63 397 88 463T160 578T272 654T415 682Q486 682 540 658T632 591T688 497T707
390Q707 320 683 273T624 203T559 179Q534 179 521 191T504 222T500 256Q500 262 500 273T502 289L543 520H513L474 284H477Q471 244 478 214T506 168T556 151Q584 151 615 165T673 209T718 283T735 390Q735 450 715 506T653 609T552 682T415 709Q331 709 262 679T141
596T63 473T35 320Z" />
<glyph unicode="A" horiz-adv-x="618" d="M134 254H485L476 284H143L134 254ZM309 645L461 271L464 263L569 0H606L309 721L12 0H48L155 265L158 273L309 645Z" />
<glyph unicode="B" horiz-adv-x="513" d="M112 381H225Q281 381 324 397T393 448T419 536Q419 589 395 625T326 680T218 700H87V0H228Q296 0 347 21T427 87T456 201Q456 249 436 285T383 344T311 379T235 391H112V372H228Q264 372 299 361T362 328T407 275T424
203Q424 144 400 106T331 49T228 30H119V670H218Q297 670 341 635T386 534Q386 487 363 458T302 415T218 401H112V381Z" />
<glyph unicode="C" horiz-adv-x="685" d="M82 350Q82 446 121 519T229 633T383 675Q431 675 471 665T546 635T608 586V629Q564 668 512 688T383 709Q310 709 249 683T142 608T72 494T47 350Q47 272 72 207T142 93T248 18T383 -9Q460 -9 512 11T608 71V115Q580
86 547 66T474 35T383 25Q297 25 229 67T122 182T82 350Z" />
<glyph unicode="D" horiz-adv-x="648" d="M87 700V0H120V700H87ZM262 0Q364 0 440 44T559 166T601 350Q601 455 559 533T441 656T262 700H104V667H262Q332 667 389 645T485 581T546 481T568 350Q568 278 547 220T486 119T389 55T262 33H104V0H262Z" />
<glyph unicode="E" horiz-adv-x="522" d="M102 0H445V31H102V0ZM102 669H445V700H102V669ZM102 371H425V402H102V371ZM87 700V0H120V700H87Z" />
<glyph unicode="F" horiz-adv-x="465" d="M103 669H405V700H103V669ZM103 363H395V394H103V363ZM87 700V0H120V700H87Z" />
<glyph unicode="G" horiz-adv-x="768" d="M416 314H681Q678 255 657 203T597 111T507 47T391 24Q302 24 232 66T121 182T81 350Q81 446 121 519T232 634T391 676Q480 676 546 637T649 537L673 557Q643 603 602 636T509 689T391 709Q318 709 255 683T146 608T73
494T47 350Q47 272 73 207T145 93T255 18T391 -9Q467 -9 527 19T629 97T693 210T716 344H416V314Z" />
<glyph unicode="H" horiz-adv-x="667" d="M103 366H569V397H103V366ZM547 700V0H580V700H547ZM87 700V0H120V700H87Z" />
<glyph unicode="I" horiz-adv-x="199" d="M84 700V0H116V700H84Z" />
<glyph unicode="J" horiz-adv-x="210" d="M-109 -142L-127 -166Q-119 -176 -102 -189T-60 -211T-9 -220Q26 -220 51 -211T92 -181T115 -131T123 -60V700H91V-50Q91 -126 69 -157T-8 -189Q-40 -189 -66 -175T-109 -142Z" />
<glyph unicode="K" horiz-adv-x="487" d="M84 700V0H116V700H84ZM417 700L107 371L432 0H474L148 372L459 700H417Z" />
<glyph unicode="L" horiz-adv-x="436" d="M87 700V0H419V31H119V700H87Z" />
<glyph unicode="M" horiz-adv-x="824" d="M152 616L412 93L672 616L737 0H770L692 721L412 159L132 721L54 0H87L152 616Z" />
<glyph unicode="N" horiz-adv-x="740" d="M620 700V65L87 721V0H120V632L653 -21V700H620Z" />
<glyph unicode="O" horiz-adv-x="779" d="M81 350Q81 445 120 518T230 633T389 676Q480 676 549 634T658 518T697 350Q697 256 658 183T550 67T389 24Q300 24 230 66T121 182T81 350ZM47 350Q47 273 72 207T144 93T252 18T389 -9Q464 -9 526 18T634 93T706 207T732
350Q732 428 707 493T635 607T526 682T389 709Q315 709 253 682T144 607T73 494T47 350Z" />
<glyph unicode="P" horiz-adv-x="500" d="M87 700V0H120V700H87ZM106 669H231Q315 669 367 624T420 495Q420 411 368 366T231 320H106V290H231Q296 290 346 314T424 385T453 495Q453 560 425 605T346 675T231 700H106V669Z" />
<glyph unicode="Q" horiz-adv-x="777" d="M81 350Q81 445 120 518T230 633T389 676Q480 676 549 634T658 518T697 350Q697 256 658 183T550 67T389 24Q300 24 230 66T121 182T81 350ZM47 350Q47 273 72 207T144 93T252 18T389 -9Q464 -9 526 18T634 93T706 207T732
350Q732 428 707 493T635 607T526 682T389 709Q315 709 253 682T144 607T73 494T47 350ZM394 300L708 0H752L437 300H394Z" />
<glyph unicode="R" horiz-adv-x="495" d="M201 325L427 0H467L237 325H201ZM87 700V0H120V700H87ZM102 670H224Q284 670 330 652T402 596T428 502Q428 446 402 409T330 352T224 333H102V304H224Q292 304 345 326T429 393T461 502Q461 567 430 611T345 677T224
700H102V670Z" />
<glyph unicode="S" horiz-adv-x="506" d="M76 195L49 179Q61 129 88 86T159 17T266 -9Q310 -9 346 5T407 43T447 102T461 176Q461 221 446 254T405 310T350 349T289 377Q236 396 197 419T135 473T112 550Q112 608 150 642T254 676Q303 676 336 658T389 613T420
558L450 574Q438 605 413 636T349 688T255 709Q204 709 164 689T102 633T79 547Q79 504 95 473T138 420T199 381T265 351Q305 336 342 315T403 260T427 173Q427 108 385 66T267 23Q209 23 171 47T111 110T76 195Z" />
<glyph unicode="T" horiz-adv-x="441" d="M17 669H204V0H237V669H424V700H17V669Z" />
<glyph unicode="U" horiz-adv-x="591" d="M82 700V223Q82 171 95 128T136 55T203 7T295 -10Q347 -10 387 7T454 54T495 128T509 223V700H476V223Q476 130 429 76T295 21Q210 21 163 75T115 223V700H82Z" />
<glyph unicode="V" horiz-adv-x="618" d="M309 57L49 700H12L309 -21L606 700H568L309 57Z" />
<glyph unicode="W" horiz-adv-x="962" d="M697 73L481 721L266 73L53 700H17L264 -21L481 628L698 -21L945 700H909L697 73Z" />
<glyph unicode="X" horiz-adv-x="516" d="M445 700L261 396L81 700H42L244 367L17 0H56L260 338L460 0H499L278 367L484 700H445Z" />
<glyph unicode="Y" horiz-adv-x="523" d="M474 700L257 309L49 700H12L242 276V0H274V277L511 700H474Z" />
<glyph unicode="Z" horiz-adv-x="538" d="M39 669H464L19 0H509V31H76L521 700H39V669Z" />
<glyph unicode="[" horiz-adv-x="272" d="M131 750H252V780H100V-220H252V-190H131V750Z" />
<glyph unicode="\" horiz-adv-x="458" d="M15 700L409 0H443L49 700H15Z" />
<glyph unicode="]" horiz-adv-x="272" d="M141 -190H20V-220H172V780H20V750H141V-190Z" />
<glyph unicode="^" horiz-adv-x="510" d="M255 672L411 460H445L261 710H249L65 460H99L255 672Z" />
<glyph unicode="_" horiz-adv-x="500" d="M0 -116H500V-92H0V-116Z" />
<glyph unicode="`" horiz-adv-x="359" d="M93 683L268 528L284 540L120 700L93 683Z" />
<glyph unicode="a" horiz-adv-x="448" d="M68 136Q68 177 87 202T138 239T208 251Q252 251 291 239T363 202V225Q354 234 332 246T279 267T204 277Q128 277 83 239T37 134Q37 85 59 53T117 6T189 -10Q231 -10 270 9T334 69T360 169L351 201Q351 139 329 98T273
37T197 17Q164 17 135 29T87 68T68 136ZM81 393Q96 404 116 415T163 434T224 442Q266 442 291 430T330 398T347 358T351 320V0H381V323Q381 370 364 403T312 453T226 470Q169 470 130 452T66 416L81 393Z" />
<glyph unicode="b" horiz-adv-x="550" d="M108 780H77V0H108V780ZM507 230Q507 304 479 357T401 440T290 470Q230 470 186 437T118 349T94 230Q94 167 118 112T186 23T290 -10Q351 -10 400 19T478 103T507 230ZM477 230Q477 165 451 118T382 45T285 19Q237 19
197 48T132 125T108 230Q108 287 132 334T196 411T285 441Q339 441 382 416T451 343T477 230Z" />
<glyph unicode="c" horiz-adv-x="485" d="M68 230Q68 291 95 339T168 414T272 441Q309 441 340 430T395 404T428 373V412Q410 433 367 451T272 470Q205 470 152 439T68 354T37 230Q37 161 68 107T152 21T272 -10Q324 -10 367 8T428 48V87Q418 72 395 57T341 30T272
19Q215 19 169 46T95 121T68 230Z" />
<glyph unicode="d" horiz-adv-x="550" d="M442 780V0H472V780H442ZM42 230Q42 157 71 103T149 20T259 -10Q320 -10 364 23T432 111T456 230Q456 294 432 349T364 437T259 470Q199 470 150 441T71 358T42 230ZM73 230Q73 296 98 343T167 415T265 441Q314 441 354
412T418 335T442 230Q442 173 418 126T354 49T265 19Q211 19 168 44T99 117T73 230Z" />
<glyph unicode="e" horiz-adv-x="506" d="M251 -10Q317 -10 366 18T456 107L431 123Q395 69 353 44T254 19Q201 19 161 46T97 122T73 233Q73 294 97 341T162 415T257 442Q306 442 345 418T408 352T431 258Q431 250 430 243T426 230L440 250H62V223H462Q463 229
463 236T464 248Q464 311 437 361T364 441T257 470Q195 470 147 440T70 355T42 231Q42 162 69 108T143 22T251 -10Z" />
<glyph unicode="f" horiz-adv-x="280" d="M47 460V431H252V460H47ZM275 719L293 743Q286 753 274 763T246 781T207 789Q165 789 140 770T104 718T92 644V0H123V641Q123 671 130 697T155 741T206 758Q229 758 246 746T275 719Z" />
<glyph unicode="g" horiz-adv-x="550" d="M55 -30Q55 -89 80 -134T152 -205T258 -230Q316 -230 364 -203T442 -123T472 10V460H442V10Q442 -61 416 -108T348 -178T258 -201Q207 -201 168 -179T108 -119T86 -30H55ZM42 230Q42 157 71 103T149 20T259 -10Q320 -10
364 23T432 111T456 230Q456 294 432 349T364 437T259 470Q199 470 150 441T71 358T42 230ZM73 230Q73 296 98 343T167 415T265 441Q301 441 333 424T390 377T428 311T442 234Q442 176 418 127T354 49T265 19Q211 19 168 44T99 117T73 230Z" />
<glyph unicode="h" horiz-adv-x="490" d="M113 780H82V0H113V780ZM377 308V0H408V311Q408 361 393 396T346 450T267 470Q220 470 183 445T123 378T101 280H113Q113 324 132 360T185 419T261 441Q324 441 350 405T377 308Z" />
<glyph unicode="i" horiz-adv-x="211" d="M82 682Q82 673 88 666T105 659Q116 659 122 666T128 682Q128 692 122 698T105 705Q95 705 89 699T82 682ZM90 460V0H121V460H90Z" />
<glyph unicode="j" horiz-adv-x="201" d="M71 682Q71 673 77 666T94 659Q104 659 110 666T117 682Q117 692 111 698T94 705Q84 705 78 699T71 682ZM-73 -150L-91 -174Q-82 -185 -70 -195T-42 -213T-5 -220Q37 -220 62 -201T99 -148T111 -76V460H80V-73Q80 -102
73 -128T48 -172T-3 -189Q-28 -189 -45 -177T-73 -150Z" />
<glyph unicode="k" horiz-adv-x="392" d="M77 780V0H108V780H77ZM326 460L97 270L346 0H385L137 270L366 460H326Z" />
<glyph unicode="l" horiz-adv-x="195" d="M82 780V0H113V780H82Z" />
<glyph unicode="m" horiz-adv-x="716" d="M634 311Q634 360 620 395T579 450T511 470Q465 470 426 437T369 349Q362 405 332 437T250 470Q204 470 167 437T113 348V460H82V0H113V280Q113 324 131 361T180 419T244 441Q295 441 319 405T343 308V0H373V280Q373 324
391 361T440 419T505 441Q556 441 580 405T604 308V0H634V311Z" />
<glyph unicode="n" horiz-adv-x="490" d="M377 308V0H408V311Q408 383 374 426T267 470Q212 470 171 436T113 346V460H82V0H113V280Q113 324 132 360T185 419T261 441Q324 441 350 405T377 308Z" />
<glyph unicode="o" horiz-adv-x="553" d="M42 230Q42 161 73 107T157 21T276 -10Q343 -10 396 21T480 106T511 230Q511 300 480 354T396 439T276 470Q210 470 157 439T73 354T42 230ZM73 230Q73 291 100 339T173 414T277 441Q334 441 380 414T453 339T480 230Q480
169 453 121T380 46T277 19Q220 19 174 46T100 120T73 230Z" />
<glyph unicode="p" horiz-adv-x="550" d="M108 -220V460H77V-220H108ZM507 230Q507 304 479 357T401 440T290 470Q230 470 186 437T118 349T94 230Q94 167 118 112T186 23T290 -10Q351 -10 400 19T478 103T507 230ZM477 230Q477 165 451 118T382 45T285 19Q237
19 197 48T132 125T108 230Q108 287 132 334T196 411T285 441Q339 441 382 416T451 343T477 230Z" />
<glyph unicode="q" horiz-adv-x="550" d="M442 -220H472V460H442V-220ZM42 230Q42 157 71 103T149 20T259 -10Q320 -10 364 23T432 111T456 230Q456 294 432 349T364 437T259 470Q199 470 150 441T71 358T42 230ZM73 230Q73 296 98 343T167 415T265 441Q314 441
354 412T418 335T442 230Q442 173 418 126T354 49T265 19Q211 19 168 44T99 117T73 230Z" />
<glyph unicode="r" horiz-adv-x="306" d="M113 460H82V0H113V460ZM276 420L293 445Q279 457 261 463T224 470Q185 470 157 445T114 378T99 280H113Q113 324 123 360T157 419T218 441Q234 441 248 436T276 420Z" />
<glyph unicode="s" horiz-adv-x="403" d="M66 123L40 111Q47 81 66 53T119 8T203 -10Q266 -10 305 26T344 121Q344 158 325 182T276 223T210 251Q179 261 152 272T109 303T93 358Q93 399 121 420T189 441Q242 441 272 416T316 357L342 372Q332 398 312 419T263
455T192 469Q158 469 129 456T81 419T63 356Q63 314 81 289T130 250T194 225Q226 215 253 202T296 169T313 118Q313 71 283 45T204 18Q163 18 135 33T90 72T66 123Z" />
<glyph unicode="t" horiz-adv-x="205" d="M12 460V431H193V460H12ZM87 620V0H118V620H87Z" />
<glyph unicode="u" horiz-adv-x="490" d="M113 159V460H82V156Q82 80 116 35T222 -10Q278 -10 319 24T377 114V0H408V460H377V180Q377 137 358 101T305 42T228 20Q167 20 140 57T113 159Z" />
<glyph unicode="v" horiz-adv-x="426" d="M7 460L213 -21L419 460H384L213 47L42 460H7Z" />
<glyph unicode="w" horiz-adv-x="638" d="M12 460L175 -21L314 400L463 -21L626 460H592L461 59L314 481L176 60L46 460H12Z" />
<glyph unicode="x" horiz-adv-x="392" d="M338 460L196 261L54 460H17L178 237L7 0H44L196 213L348 0H385L213 237L374 460H338Z" />
<glyph unicode="y" horiz-adv-x="429" d="M422 460H388L209 45L227 43L43 460H7L200 33L88 -220H122L422 460Z" />
<glyph unicode="z" horiz-adv-x="439" d="M356 431L19 0H414V29H76L413 460H41V431H356Z" />
<glyph unicode="{" horiz-adv-x="290" d="M157 646Q157 703 172 727T230 752H254V780H222Q190 780 169 766T137 721T126 640V430Q126 373 110 342T71 302V278Q94 271 110 239T126 150V-60Q126 -109 136 -140T168 -185T222 -200H254V-172H230Q188 -172 173 -147T157
-66V132Q157 165 152 195T136 247T111 281T76 294V286Q95 286 110 298T136 333T151 385T157 448V646Z" />
<glyph unicode="|" horiz-adv-x="229" d="M100 785V-215H129V785H100Z" />
<glyph unicode="}" horiz-adv-x="290" d="M136 -66Q136 -122 120 -147T63 -172H39V-200H70Q103 -200 124 -186T155 -140T166 -60V150Q166 207 182 239T221 278V302Q199 310 183 341T166 430V640Q166 690 156 720T124 765T70 780H39V752H63Q104 752 120 728T136
646V448Q136 415 141 385T156 333T182 299T217 286V294Q197 294 182 282T157 247T141 195T136 132V-66Z" />
<glyph unicode="~" horiz-adv-x="575" d="M104 177Q102 183 101 188T100 199Q100 243 123 270T187 298Q210 298 228 289T262 265T290 236Q314 212 339 192T401 172Q427 172 447 182T481 211Q493 227 498 248T503 290Q503 298 502 305T499 318L469 322Q472 315
473 307T474 292Q474 252 456 227T400 201Q371 201 349 219T306 259Q291 275 273 290T235 316T187 327Q159 327 136 316T97 286Q84 269 78 248T72 205Q72 192 75 181L104 177Z" />
<glyph unicode="&#xa0;" horiz-adv-x="300" />
<glyph unicode="&#xa1;" horiz-adv-x="300" d="M183 -245L174 255H153L144 -245H183ZM187 442Q187 453 181 459T164 466Q154 466 147 460T140 443Q140 433 147 426T164 419Q174 419 180 426T187 442Z" />
<glyph unicode="&#xa2;" horiz-adv-x="580" d="M305 8L302 -112H331L327 8H305ZM115 230Q115 291 142 338T215 413T319 441Q375 441 417 419T475 373V412Q457 433 415 451T319 470Q253 470 200 439T116 354T85 230Q85 161 116 107T200 21T319 -10Q372 -10 414
8T475 48V87Q459 63 417 41T319 19Q261 19 215 46T142 122T115 230ZM302 578L305 453H327L331 578H302Z" />
<glyph unicode="&#xa3;" horiz-adv-x="580" d="M81 324V295H406V324H81ZM472 492L500 501Q498 531 488 567T455 635T399 689T314 710Q258 710 217 686T153 622T130 532Q130 493 142 464T171 410T205 362T234 315T246 260Q246 216 224 176T164 94T85 0H503V31H119L121
15Q135 30 161 55T213 113T258 185T277 264Q277 297 266 322T237 371T203 417T175 468T163 533Q163 573 182 606T235 658T314 678Q355 678 384 661T433 615T461 554T472 492Z" />
<glyph unicode="&#xa4;" horiz-adv-x="566" d="M51 517L124 445L145 466L73 539L51 517ZM73 61L145 134L124 155L51 83L73 61ZM449 445L521 517L500 539L427 466L449 445ZM427 134L500 61L521 83L449 155L427 134ZM52 300Q52 231 83 177T166 91T283 60Q347 60
399 91T483 176T514 300Q514 370 483 424T400 509T283 540Q219 540 167 509T83 424T52 300ZM83 300Q83 361 110 408T182 483T283 511Q339 511 384 484T456 409T483 300Q483 239 456 192T384 117T283 89Q227 89 182 116T110 191T83 300Z" />
<glyph unicode="&#xa5;" horiz-adv-x="569" d="M34 276H514V305H34V276ZM34 144H514V173H34V144ZM487 700L272 309L63 700H26L255 278V0H288V277L524 700H487Z" />
<glyph unicode="&#xa6;" horiz-adv-x="229" d="M100 695V455H129V695H100ZM129 245H100V5H129V245Z" />
<glyph unicode="&#xa7;" horiz-adv-x="401" d="M343 605L367 620Q358 646 333 666T275 698T204 710Q167 710 134 698T80 660T59 596Q59 567 73 547T110 513T159 489T209 469Q236 459 266 445T318 410T340 361Q340 330 323 307T276 270T206 250V240Q243 240 273
247T326 269T359 307T371 363Q371 397 350 420T297 460T231 490Q212 498 188 507T142 528T105 557T90 596Q90 626 107 644T151 672T205 681Q233 681 261 672T311 645T343 605ZM55 137L30 123Q37 86 64 56T132 8T214 -10Q246 -10 274 -4T324 17T358 54T371 109Q371
150 349 176T293 218T226 248Q207 256 184 266T139 289T104 320T90 362Q90 386 105 409T150 449T224 472V480Q181 480 150 470T99 443T69 404T59 359Q59 325 82 300T139 258T204 228Q234 216 265 202T318 165T340 107Q340 73 321 54T273 27T215 19Q176 19 142 35T85
78T55 137Z" />
<glyph unicode="&#xa8;" horiz-adv-x="436" d="M294 680Q294 671 301 664T318 657Q328 657 335 664T342 680Q342 691 335 697T318 704Q309 704 302 697T294 680ZM94 680Q94 671 101 664T118 657Q128 657 135 664T142 680Q142 691 135 697T118 704Q109 704 102
697T94 680Z" />
<glyph unicode="&#xa9;" horiz-adv-x="800" d="M210 350Q210 407 233 451T297 520T391 545Q433 545 467 532T526 492V518Q500 541 469 553T391 565Q333 565 288 538T216 462T189 350Q189 288 215 239T287 163T391 135Q437 135 468 147T526 182V209Q501 183 468
169T391 155Q338 155 298 180T234 249T210 350ZM63 350Q63 423 89 485T161 592T269 663T400 688Q470 688 531 663T638 593T711 485T737 350Q737 277 711 215T639 108T531 37T400 12Q330 12 269 37T162 107T89 215T63 350ZM40 350Q40 272 67 206T143 92T258 17T400
-10Q477 -10 542 16T656 91T732 206T760 350Q760 428 733 494T657 608T543 683T400 710Q324 710 258 684T144 609T68 494T40 350Z" />
<glyph unicode="&#xaa;" horiz-adv-x="238" d="M39 529Q39 560 63 576T117 592Q142 592 159 585T187 568V579Q181 586 164 595T117 604Q82 604 53 585T24 529Q24 491 48 473T101 455Q139 455 162 479T186 536L182 543Q182 511 159 490T104 469Q78 469 59 483T39
529ZM52 657Q64 669 81 678T124 688Q153 688 167 672T182 628V460H197V628Q197 661 179 681T124 701Q96 701 76 691T43 669L52 657Z" />
<glyph unicode="&#xab;" horiz-adv-x="492" d="M233 256L422 472L403 490L200 255L403 20L422 38L233 256ZM73 256L262 472L243 490L40 255L243 20L262 38L73 256Z" />
<glyph unicode="&#xac;" horiz-adv-x="620" d="M65 346H526V175H555V375H65V346Z" />
<glyph unicode="&#xad;" horiz-adv-x="210" d="M5 246H205V275H5V246Z" />
<glyph unicode="&#xae;" horiz-adv-x="800" d="M360 345L496 150H521L383 345H360ZM292 570V150H312V570H292ZM301 552H375Q428 552 462 527T497 451Q497 401 463 376T375 350H301V332H375Q436 332 476 362T517 451Q517 509 477 539T375 570H301V552ZM63 350Q63
423 89 485T161 592T269 663T400 688Q470 688 531 663T638 593T711 485T737 350Q737 277 711 215T639 108T531 37T400 12Q330 12 269 37T162 107T89 215T63 350ZM40 350Q40 272 67 206T143 92T258 17T400 -10Q477 -10 542 16T656 91T732 206T760 350Q760 428 733
494T657 608T543 683T400 710Q324 710 258 684T144 609T68 494T40 350Z" />
<glyph unicode="&#xaf;" horiz-adv-x="510" d="M80 646H430V675H80V646Z" />
<glyph unicode="&#xb0;" horiz-adv-x="278" d="M20 600Q20 548 54 514T139 480Q190 480 224 514T258 600Q258 653 224 686T139 720Q88 720 54 687T20 600ZM39 600Q39 645 68 673T139 702Q181 702 210 674T239 600Q239 555 210 527T139 498Q97 498 68 526T39 600Z" />
<glyph unicode="&#xb1;" horiz-adv-x="611" d="M65 0H546V31H65V0ZM65 370H546V400H65V370ZM290 620V150H322V620H290Z" />
<glyph unicode="&#xb2;" horiz-adv-x="336" d="M29 282H308V300H70L238 475Q261 499 278 527T295 590Q295 616 283 643T245 690T178 709Q139 709 110 690T64 637T48 558H67Q67 617 97 654T178 691Q213 691 234 675T265 637T275 592Q275 558 260 534T222 486L29 282Z" />
<glyph unicode="&#xb3;" horiz-adv-x="309" d="M140 494Q175 494 205 507T254 543T273 598Q273 639 244 672T161 706Q109 706 78 676T47 596H65Q65 637 91 662T161 688Q206 688 230 661T254 598Q254 570 237 550T193 518T140 507V494ZM158 274Q214 274 249 305T285
387Q285 427 263 452T208 490T140 503V490Q167 490 196 479T245 446T266 389Q266 346 237 319T158 292Q107 292 78 320T48 391H29Q29 359 44 332T88 290T158 274Z" />
<glyph unicode="&#xb4;" horiz-adv-x="359" d="M267 683L239 700L75 540L92 528L267 683Z" />
<glyph unicode="&#xb5;" horiz-adv-x="490" d="M113 460H82V-320H113V55Q127 24 153 7T222 -10Q277 -10 319 23T377 111V0H408V460H377V180Q377 137 358 100T305 41T228 19Q167 19 140 56T113 159V460Z" />
<glyph unicode="&#xb6;" horiz-adv-x="486" d="M288 270V-220H316V674H399V-220H426V700H288Q226 700 174 675T91 603T60 485Q60 416 91 368T174 295T288 270Z" />
<glyph unicode="&#xb7;" horiz-adv-x="259" d="M106 227Q106 217 113 210T130 203Q140 203 146 210T153 226Q153 237 147 243T130 250Q120 250 113 244T106 227Z" />
<glyph unicode="&#xb8;" horiz-adv-x="350" d="M182 18L118 -94Q135 -82 154 -76T192 -70Q215 -70 233 -83T251 -126Q251 -161 226 -179T168 -197Q145 -197 129 -190T94 -166L79 -182Q100 -203 120 -211T168 -220Q196 -220 220 -209T259 -177T275 -126Q275 -101
264 -85T236 -61T202 -52Q184 -52 175 -56T150 -69L208 18H182Z" />
<glyph unicode="&#xb9;" horiz-adv-x="470" d="M146 650L245 674V274H264V698L146 670V650Z" />
<glyph unicode="&#xba;" horiz-adv-x="278" d="M20 580Q20 528 54 494T139 460Q190 460 224 494T258 580Q258 633 224 666T139 700Q88 700 54 667T20 580ZM39 580Q39 625 68 653T139 682Q181 682 210 654T239 580Q239 535 210 507T139 478Q97 478 68 506T39 580Z" />
<glyph unicode="&#xbb;" horiz-adv-x="492" d="M259 254L70 38L90 20L292 255L90 490L70 472L259 254ZM419 254L230 38L250 20L452 255L250 490L230 472L419 254Z" />
<glyph unicode="&#xbc;" horiz-adv-x="754" d="M655 700L98 0H126L683 700H655ZM24 650L123 674V274H142V698L24 670V650ZM400 84H703V101H630H626H417L400 84ZM421 84L618 373V95V91V0H637V420H631L400 84H421Z" />
<glyph unicode="&#xbd;" horiz-adv-x="819" d="M655 700L98 0H126L683 700H655ZM24 650L123 674V274H142V698L24 670V650ZM495 2H774V20H537L704 195Q728 219 745 246T762 310Q762 336 750 363T712 410T644 429Q605 429 576 410T531 357T515 278H534Q534 337 564
374T644 411Q679 411 700 395T732 356T742 311Q742 277 727 253T689 206L495 2Z" />
<glyph unicode="&#xbe;" horiz-adv-x="820" d="M722 700L165 0H193L750 700H722ZM145 494Q180 494 210 507T259 543T278 598Q278 639 249 672T166 706Q114 706 83 676T52 596H70Q70 637 96 662T166 688Q211 688 235 661T259 598Q259 570 242 550T198 518T145 507V494ZM163
274Q219 274 254 305T290 387Q290 427 268 452T213 490T145 503V490Q172 490 201 479T250 446T271 389Q271 346 242 319T163 292Q112 292 83 320T53 391H34Q34 359 49 332T93 290T163 274ZM467 84H770V101H697H693H484L467 84ZM488 84L685 373V95V91V0H704V420H698L467
84H488Z" />
<glyph unicode="&#xbf;" d="M105 186Q105 231 133 269T211 331T324 355H331L322 530H299L297 377Q236 375 186 349T105 281T74 186Q74 144 88 109T129 46T193 5T278 -10Q331 -10 368 4T432 45T483 107L457 123Q427 76 386 48T281 19Q225 19 186 40T126 100T105
186ZM338 688Q338 698 331 704T314 711Q305 711 298 705T290 688Q290 678 297 671T314 664Q324 664 331 671T338 688Z" />
<glyph unicode="&#xc0;" horiz-adv-x="618" d="M133 254H485L476 284H142L133 254ZM309 645L461 271L464 263L569 0H606L309 721L12 0H48L155 265L158 273L309 645ZM175 936L350 781L366 793L202 953L175 936Z" />
<glyph unicode="&#xc1;" horiz-adv-x="618" d="M133 254H485L476 284H142L133 254ZM309 645L461 271L464 263L569 0H606L309 721L12 0H48L155 265L158 273L309 645ZM443 936L415 953L251 793L267 781L443 936Z" />
<glyph unicode="&#xc2;" horiz-adv-x="618" d="M133 254H485L476 284H142L133 254ZM309 645L461 271L464 263L569 0H606L309 721L12 0H48L155 265L158 273L309 645ZM309 892L449 769L469 786L309 926L149 786L168 769L309 892Z" />
<glyph unicode="&#xc3;" horiz-adv-x="618" d="M133 254H485L476 284H142L133 254ZM309 645L461 271L464 263L569 0H606L309 721L12 0H48L155 265L158 273L309 645ZM171 801L194 789Q194 801 198 812T215 832T247 840Q270 840 287 829T323 805T369 793Q386 793
401 800T427 820T446 852L426 867Q414 843 402 831T370 819Q350 819 336 826T310 842T283 859T246 866Q224 866 208 857T182 834T171 801Z" />
<glyph unicode="&#xc4;" horiz-adv-x="618" d="M133 254H485L476 284H142L133 254ZM309 645L461 271L464 263L569 0H606L309 721L12 0H48L155 265L158 273L309 645ZM385 819Q385 809 392 802T409 795Q419 795 426 802T433 819Q433 829 426 836T409 843Q400 843
393 836T385 819ZM185 819Q185 809 192 802T209 795Q219 795 226 802T233 819Q233 829 226 836T209 843Q200 843 193 836T185 819Z" />
<glyph unicode="&#xc5;" horiz-adv-x="618" d="M133 254H485L476 284H142L133 254ZM309 645L461 271L464 263L569 0H606L309 721L12 0H48L155 265L158 273L309 645ZM207 805Q207 760 238 733T309 705Q348 705 379 732T411 805Q411 850 380 877T309 905Q270 905
239 878T207 805ZM229 805Q229 841 253 862T309 884Q340 884 364 863T389 805Q389 769 365 748T309 726Q278 726 254 747T229 805Z" />
<glyph unicode="&#xc6;" horiz-adv-x="915" d="M210 259H503V290H210V259ZM470 700L5 0H42L500 688L470 700ZM509 0H838V31H509V0ZM513 669H838V700H470L513 669ZM509 371H818V402H509V371ZM490 700V0H523V700H490Z" />
<glyph unicode="&#xc7;" horiz-adv-x="685" d="M82 350Q82 446 121 519T229 633T383 675Q431 675 471 665T546 635T608 586V629Q564 668 512 688T383 709Q310 709 249 683T142 608T72 494T47 350Q47 272 72 207T142 93T248 18T383 -9Q460 -9 512 11T608 71V115Q580
86 547 66T474 35T383 25Q297 25 229 67T122 182T82 350ZM376 17L312 -95Q328 -83 348 -77T386 -71Q409 -71 427 -84T445 -127Q445 -162 420 -180T362 -198Q339 -198 323 -191T288 -167L273 -183Q294 -204 314 -212T362 -221Q390 -221 414 -210T453 -178T469 -127Q469
-102 458 -86T430 -62T396 -53Q378 -53 369 -57T344 -70L402 17H376Z" />
<glyph unicode="&#xc8;" horiz-adv-x="522" d="M102 0H445V31H102V0ZM102 669H445V700H102V669ZM102 371H425V402H102V371ZM87 700V0H120V700H87ZM117 924L293 769L309 781L145 941L117 924Z" />
<glyph unicode="&#xc9;" horiz-adv-x="522" d="M102 0H445V31H102V0ZM102 669H445V700H102V669ZM102 371H425V402H102V371ZM87 700V0H120V700H87ZM414 924L387 941L222 781L238 769L414 924Z" />
<glyph unicode="&#xca;" horiz-adv-x="522" d="M102 0H445V31H102V0ZM102 669H445V700H102V669ZM102 371H425V402H102V371ZM87 700V0H120V700H87ZM269 892L409 769L429 785L269 925L109 785L128 769L269 892Z" />
<glyph unicode="&#xcb;" horiz-adv-x="522" d="M102 0H445V31H102V0ZM102 669H445V700H102V669ZM102 371H425V402H102V371ZM87 700V0H120V700H87ZM345 812Q345 803 352 796T369 789Q379 789 386 796T393 812Q393 823 386 829T369 836Q360 836 353 829T345 812ZM145
812Q145 803 152 796T169 789Q179 789 186 796T193 812Q193 823 186 829T169 836Q160 836 153 829T145 812Z" />
<glyph unicode="&#xcc;" horiz-adv-x="199" d="M84 700V0H116V700H84ZM-49 924L127 769L143 781L-21 941L-49 924Z" />
<glyph unicode="&#xcd;" horiz-adv-x="199" d="M84 700V0H116V700H84ZM248 924L220 941L56 781L72 769L248 924Z" />
<glyph unicode="&#xce;" horiz-adv-x="199" d="M84 700V0H116V700H84ZM99 892L240 769L259 785L99 925L-61 785L-41 769L99 892Z" />
<glyph unicode="&#xcf;" horiz-adv-x="199" d="M84 700V0H116V700H84ZM155 807Q155 797 162 790T178 783Q188 783 195 790T202 807Q202 817 195 824T178 831Q169 831 162 824T155 807ZM-3 807Q-3 797 4 790T21 783Q31 783 38 790T45 807Q45 817 38 824T21 831Q11
831 4 824T-3 807Z" />
<glyph unicode="&#xd0;" horiz-adv-x="680" d="M5 335H305V364H5V335ZM87 700V0H120V700H87ZM262 0Q364 0 440 44T559 166T601 350Q601 455 559 533T441 656T262 700H104V667H262Q331 667 388 645T485 581T546 481T568 350Q568 278 547 220T485 119T388 55T262
33H104V0H262Z" />
<glyph unicode="&#xd1;" horiz-adv-x="697" d="M592 700V65L59 721V0H92V632L624 -21V700H592ZM208 767L230 755Q230 767 234 778T251 798T283 806Q306 806 322 795T358 771T404 759Q422 759 437 766T463 786T482 818L462 833Q450 809 438 797T406 785Q386 785
372 792T346 808T319 825T282 832Q260 832 244 823T218 799T208 767Z" />
<glyph unicode="&#xd2;" horiz-adv-x="779" d="M81 350Q81 445 120 518T230 633T389 676Q480 676 549 634T658 518T697 350Q697 256 658 183T550 67T389 24Q300 24 230 66T121 182T81 350ZM47 350Q47 273 72 207T144 93T252 18T389 -9Q464 -9 526 18T634 93T706
207T732 350Q732 428 707 493T635 607T526 682T389 709Q315 709 253 682T144 607T73 494T47 350ZM259 924L433 769L451 781L286 941L259 924Z" />
<glyph unicode="&#xd3;" horiz-adv-x="779" d="M81 350Q81 445 120 518T230 633T389 676Q480 676 549 634T658 518T697 350Q697 256 658 183T550 67T389 24Q300 24 230 66T121 182T81 350ZM47 350Q47 273 72 207T144 93T252 18T389 -9Q464 -9 526 18T634 93T706
207T732 350Q732 428 707 493T635 607T526 682T389 709Q315 709 253 682T144 607T73 494T47 350ZM520 924L492 941L328 781L346 769L520 924Z" />
<glyph unicode="&#xd4;" horiz-adv-x="779" d="M81 350Q81 445 120 518T230 633T389 676Q480 676 549 634T658 518T697 350Q697 256 658 183T550 67T389 24Q300 24 230 66T121 182T81 350ZM47 350Q47 273 72 207T144 93T252 18T389 -9Q464 -9 526 18T634 93T706
207T732 350Q732 428 707 493T635 607T526 682T389 709Q315 709 253 682T144 607T73 494T47 350ZM389 892L530 769L549 785L389 925L229 785L249 769L389 892Z" />
<glyph unicode="&#xd5;" horiz-adv-x="779" d="M81 350Q81 445 120 518T230 633T389 676Q480 676 549 634T658 518T697 350Q697 256 658 183T550 67T389 24Q300 24 230 66T121 182T81 350ZM47 350Q47 273 72 207T144 93T252 18T389 -9Q464 -9 526 18T634 93T706
207T732 350Q732 428 707 493T635 607T526 682T389 709Q315 709 253 682T144 607T73 494T47 350ZM253 794L274 783Q274 794 279 806T296 826T328 834Q351 834 367 823T402 799T448 787Q466 787 481 794T507 814T526 846L507 860Q495 836 483 824T451 812Q431 812
417 819T391 835T364 852T327 859Q305 859 289 850T263 827T253 794Z" />
<glyph unicode="&#xd6;" horiz-adv-x="779" d="M81 350Q81 445 120 518T230 633T389 676Q480 676 549 634T658 518T697 350Q697 256 658 183T550 67T389 24Q300 24 230 66T121 182T81 350ZM47 350Q47 273 72 207T144 93T252 18T389 -9Q464 -9 526 18T634 93T706
207T732 350Q732 428 707 493T635 607T526 682T389 709Q315 709 253 682T144 607T73 494T47 350ZM473 814Q473 804 480 797T496 790Q507 790 513 797T520 814Q520 824 514 831T496 838Q487 838 480 831T473 814ZM258 814Q258 804 265 797T282 790Q293 790 299 797T306
814Q306 824 300 831T282 838Q273 838 266 831T258 814Z" />
<glyph unicode="&#xd7;" horiz-adv-x="583" d="M98 39L292 235L486 39L507 60L311 254L508 449L486 470L292 273L97 470L76 449L272 254L76 60L98 39Z" />
<glyph unicode="&#xd8;" horiz-adv-x="790" d="M81 350Q81 445 120 518T230 633T389 676Q480 676 549 634T658 518T697 350Q697 256 658 183T550 67T389 24Q300 24 230 66T121 182T81 350ZM47 350Q47 273 72 207T144 93T252 18T389 -9Q464 -9 526 18T634 93T706
207T732 350Q732 428 707 493T635 607T526 682T389 709Q315 709 253 682T144 607T73 494T47 350ZM705 738L57 -22L81 -38L730 722L705 738Z" />
<glyph unicode="&#xd9;" horiz-adv-x="591" d="M82 700V223Q82 171 95 128T136 55T203 7T295 -10Q347 -10 387 7T454 54T495 128T509 223V700H476V223Q476 130 429 76T295 21Q210 21 163 75T115 223V700H82ZM161 924L337 769L353 781L189 941L161 924Z" />
<glyph unicode="&#xda;" horiz-adv-x="591" d="M82 700V223Q82 171 95 128T136 55T203 7T295 -10Q347 -10 387 7T454 54T495 128T509 223V700H476V223Q476 130 429 76T295 21Q210 21 163 75T115 223V700H82ZM430 924L402 941L238 781L254 769L430 924Z" />
<glyph unicode="&#xdb;" horiz-adv-x="591" d="M82 700V223Q82 171 95 128T136 55T203 7T295 -10Q347 -10 387 7T454 54T495 128T509 223V700H476V223Q476 130 429 76T295 21Q210 21 163 75T115 223V700H82ZM295 892L436 769L455 785L295 925L135 785L155 769L295 892Z" />
<glyph unicode="&#xdc;" horiz-adv-x="591" d="M82 700V223Q82 171 95 128T136 55T203 7T295 -10Q347 -10 387 7T454 54T495 128T509 223V700H476V223Q476 130 429 76T295 21Q210 21 163 75T115 223V700H82ZM364 792Q364 783 371 776T388 769Q399 769 405 776T412
792Q412 803 405 809T388 816Q379 816 372 809T364 792ZM178 792Q178 783 185 776T203 769Q213 769 219 776T226 792Q226 803 220 809T203 816Q193 816 186 809T178 792Z" />
<glyph unicode="&#xdd;" horiz-adv-x="523" d="M409 924L382 941L218 781L234 769L409 924ZM474 700L257 309L49 700H12L242 276V0H274V277L511 700H474Z" />
<glyph unicode="&#xde;" horiz-adv-x="529" d="M80 700V0H112V700H80ZM97 529H249Q307 529 353 509T427 448T454 350Q454 296 427 256T354 194T249 171H97V140H249Q317 140 370 165T455 238T487 350Q487 415 456 462T371 534T249 560H97V529Z" />
<glyph unicode="&#xdf;" horiz-adv-x="540" d="M312 -11Q354 -11 388 4T448 48T487 114T501 196Q501 242 487 271T450 318T404 347T357 367T321 387T306 418Q306 438 318 455T349 489T387 526T418 574T431 639Q431 687 409 721T349 775T266 794Q210 794 168 767T102
693T78 585V-1H108V582Q108 637 128 678T182 742T262 766Q300 766 330 750T380 705T399 637Q399 604 387 579T355 533T318 494T287 458T274 418Q274 394 288 380T324 355T371 333T418 305T454 261T469 191Q469 143 450 104T395 42T314 19Q289 19 262 25T212 43T172
71L153 49Q169 31 196 18T253 -3T312 -11Z" />
<glyph unicode="&#xe0;" horiz-adv-x="450" d="M68 135Q68 176 90 203T147 244T224 258Q273 258 307 244T364 211V232Q355 241 337 253T291 273T222 282Q175 282 133 266T64 216T37 132Q37 83 58 52T116 5T192 -10Q242 -10 280 12T339 70T360 151L352 166Q352
123 332 90T276 37T197 18Q163 18 134 30T86 67T68 135ZM92 382Q109 397 129 411T177 433T237 442Q292 442 322 411T352 323V0H383V323Q383 368 367 400T318 451T237 470Q180 470 141 449T76 406L92 382ZM95 699L269 544L287 556L123 716L95 699Z" />
<glyph unicode="&#xe1;" horiz-adv-x="450" d="M68 135Q68 176 90 203T147 244T224 258Q273 258 307 244T364 211V232Q355 241 337 253T291 273T222 282Q175 282 133 266T64 216T37 132Q37 83 58 52T116 5T192 -10Q242 -10 280 12T339 70T360 151L352 166Q352
123 332 90T276 37T197 18Q163 18 134 30T86 67T68 135ZM92 382Q109 397 129 411T177 433T237 442Q292 442 322 411T352 323V0H383V323Q383 368 367 400T318 451T237 470Q180 470 141 449T76 406L92 382ZM366 699L338 716L174 556L191 544L366 699Z" />
<glyph unicode="&#xe2;" horiz-adv-x="450" d="M68 135Q68 176 90 203T147 244T224 258Q273 258 307 244T364 211V232Q355 241 337 253T291 273T222 282Q175 282 133 266T64 216T37 132Q37 83 58 52T116 5T192 -10Q242 -10 280 12T339 70T360 151L352 166Q352
123 332 90T276 37T197 18Q163 18 134 30T86 67T68 135ZM92 382Q109 397 129 411T177 433T237 442Q292 442 322 411T352 323V0H383V323Q383 368 367 400T318 451T237 470Q180 470 141 449T76 406L92 382ZM237 660L378 537L397 554L237 694L77 554L97 537L237 660Z"
/>
<glyph unicode="&#xe3;" horiz-adv-x="450" d="M68 135Q68 176 90 203T147 244T224 258Q273 258 307 244T364 211V232Q355 241 337 253T291 273T222 282Q175 282 133 266T64 216T37 132Q37 83 58 52T116 5T192 -10Q242 -10 280 12T339 70T360 151L352 166Q352
123 332 90T276 37T197 18Q163 18 134 30T86 67T68 135ZM92 382Q109 397 129 411T177 433T237 442Q292 442 322 411T352 323V0H383V323Q383 368 367 400T318 451T237 470Q180 470 141 449T76 406L92 382ZM94 577L115 565Q115 577 120 588T137 608T169 616Q192 616
208 605T243 581T289 569Q307 569 322 576T348 596T367 628L348 643Q336 619 324 607T292 595Q272 595 258 602T232 618T205 635T168 642Q146 642 130 633T104 610T94 577Z" />
<glyph unicode="&#xe4;" horiz-adv-x="450" d="M68 135Q68 176 90 203T147 244T224 258Q273 258 307 244T364 211V232Q355 241 337 253T291 273T222 282Q175 282 133 266T64 216T37 132Q37 83 58 52T116 5T192 -10Q242 -10 280 12T339 70T360 151L352 166Q352
123 332 90T276 37T197 18Q163 18 134 30T86 67T68 135ZM92 382Q109 397 129 411T177 433T237 442Q292 442 322 411T352 323V0H383V323Q383 368 367 400T318 451T237 470Q180 470 141 449T76 406L92 382ZM292 568Q292 558 299 551T316 544Q326 544 333 551T340
568Q340 578 333 585T316 592Q307 592 300 585T292 568ZM121 568Q121 558 128 551T144 544Q155 544 161 551T168 568Q168 578 162 585T144 592Q135 592 128 585T121 568Z" />
<glyph unicode="&#xe5;" horiz-adv-x="450" d="M68 135Q68 176 90 203T147 244T224 258Q273 258 307 244T364 211V232Q355 241 337 253T291 273T222 282Q175 282 133 266T64 216T37 132Q37 83 58 52T116 5T192 -10Q242 -10 280 12T339 70T360 151L352 166Q352
123 332 90T276 37T197 18Q163 18 134 30T86 67T68 135ZM92 382Q109 397 129 411T177 433T237 442Q292 442 322 411T352 323V0H383V323Q383 368 367 400T318 451T237 470Q180 470 141 449T76 406L92 382ZM135 630Q135 585 166 558T237 530Q276 530 307 557T339
630Q339 675 308 702T237 730Q198 730 167 703T135 630ZM157 630Q157 666 181 687T237 709Q268 709 292 688T317 630Q317 594 293 573T237 551Q206 551 182 572T157 630Z" />
<glyph unicode="&#xe6;" horiz-adv-x="825" d="M198 -10Q271 -10 317 34T373 158H367Q384 76 434 33T563 -10Q632 -10 688 20T780 107L755 123Q723 73 674 46T566 19Q510 19 469 45T406 118T384 230L374 223H785Q787 231 787 235T788 247Q788 311 761 361T688
440T583 470Q533 470 489 449T413 390T370 304H376Q377 387 344 428T241 470Q196 470 153 454T76 406L92 382Q113 402 137 415T187 435T239 442Q294 442 323 409T352 314V232L368 233Q338 258 303 270T225 282Q169 282 127 263T61 210T37 130Q37 69 82 30T198 -10ZM198
18Q140 18 104 49T68 133Q68 190 111 224T226 258Q266 258 300 247T357 215L352 227L357 161L358 196Q351 110 310 64T198 18ZM383 237Q383 295 408 341T478 415T577 442Q628 442 668 418T731 351T755 256Q755 250 755 246T753 239L765 250H374L383 237Z" />
<glyph unicode="&#xe7;" horiz-adv-x="485" d="M68 230Q68 291 95 339T168 414T272 441Q309 441 340 430T395 404T428 373V412Q410 433 367 451T272 470Q205 470 152 439T68 354T37 230Q37 161 68 107T152 21T272 -10Q324 -10 367 8T428 48V87Q418 72 395 57T341
30T272 19Q215 19 169 46T95 121T68 230ZM264 15L200 -96Q217 -85 237 -79T275 -73Q298 -73 316 -86T334 -128Q334 -163 309 -181T250 -200Q227 -200 211 -193T176 -168L161 -184Q182 -205 202 -213T250 -222Q278 -222 302 -211T341 -179T357 -128Q357 -103 346
-87T318 -63T284 -54Q266 -54 257 -58T232 -71L290 15H264Z" />
<glyph unicode="&#xe8;" horiz-adv-x="506" d="M62 223H462Q463 229 463 235T464 248Q464 314 436 363T361 441T257 470Q205 470 163 449T92 389T50 299Q46 283 44 266T42 231Q42 162 70 108T145 22T251 -10Q313 -10 351 8T414 53T456 107L431 123Q416 99 395
75T339 35T254 19Q202 19 161 46T97 121T73 231V240Q73 304 99 349T168 418T257 442Q306 442 346 417T409 349T430 250H62V223ZM114 688L288 533L306 545L141 705L114 688Z" />
<glyph unicode="&#xe9;" horiz-adv-x="506" d="M62 223H462Q463 229 463 235T464 248Q464 314 436 363T361 441T257 470Q205 470 163 449T92 389T50 299Q46 283 44 266T42 231Q42 162 70 108T145 22T251 -10Q313 -10 351 8T414 53T456 107L431 123Q416 99 395
75T339 35T254 19Q202 19 161 46T97 121T73 231V240Q73 304 99 349T168 418T257 442Q306 442 346 417T409 349T430 250H62V223ZM407 688L379 705L215 545L232 533L407 688Z" />
<glyph unicode="&#xea;" horiz-adv-x="506" d="M62 223H462Q463 229 463 235T464 248Q464 314 436 363T361 441T257 470Q205 470 163 449T92 389T50 299Q46 283 44 266T42 231Q42 162 70 108T145 22T251 -10Q313 -10 351 8T414 53T456 107L431 123Q416 99 395
75T339 35T254 19Q202 19 161 46T97 121T73 231V240Q73 304 99 349T168 418T257 442Q306 442 346 417T409 349T430 250H62V223ZM257 653L398 530L417 547L257 687L97 547L117 530L257 653Z" />
<glyph unicode="&#xeb;" horiz-adv-x="506" d="M62 223H462Q463 229 463 235T464 248Q464 314 436 363T361 441T257 470Q205 470 163 449T92 389T50 299Q46 283 44 266T42 231Q42 162 70 108T145 22T251 -10Q313 -10 351 8T414 53T456 107L431 123Q416 99 395
75T339 35T254 19Q202 19 161 46T97 121T73 231V240Q73 304 99 349T168 418T257 442Q306 442 346 417T409 349T430 250H62V223ZM333 554Q333 544 340 537T357 530Q368 530 374 537T381 554Q381 564 375 571T357 578Q348 578 341 571T333 554ZM133 554Q133 544 140
537T157 530Q168 530 174 537T181 554Q181 564 175 571T157 578Q148 578 141 571T133 554Z" />
<glyph unicode="&#xec;" horiz-adv-x="211" d="M90 460V0H121V460H90ZM-51 691L123 536L141 548L-24 708L-51 691Z" />
<glyph unicode="&#xed;" horiz-adv-x="211" d="M90 460V0H121V460H90ZM262 691L234 708L70 548L87 536L262 691Z" />
<glyph unicode="&#xee;" horiz-adv-x="211" d="M90 460V0H121V460H90ZM105 656L246 533L265 550L105 690L-55 550L-35 533L105 656Z" />
<glyph unicode="&#xef;" horiz-adv-x="211" d="M90 460V0H121V460H90ZM167 563Q167 553 174 546T191 539Q201 539 208 546T215 563Q215 573 208 580T191 587Q182 587 175 580T167 563ZM-5 563Q-5 553 2 546T20 539Q30 539 36 546T43 563Q43 573 37 580T20 587Q10
587 3 580T-5 563Z" />
<glyph unicode="&#xf0;" horiz-adv-x="548" d="M274 -10Q341 -10 391 19T470 101T498 223Q498 256 490 287T463 355T412 440T330 553T210 707L191 687Q240 626 274 583T333 506T381 438T426 363L440 364Q364 443 257 443Q199 443 152 414T78 335T50 223Q50 154
78 102T157 20T274 -10ZM274 20Q217 20 174 46T106 118T81 223Q81 277 106 321T173 391T266 418Q324 418 369 393T441 323T467 223Q467 164 443 118T374 46T274 20ZM180 515L437 624L429 645L172 536L180 515Z" />
<glyph unicode="&#xf1;" horiz-adv-x="490" d="M113 460H82V0H113V460ZM377 308V0H408V311Q408 385 373 427T267 470Q220 470 182 445T121 378T99 280H113Q113 324 132 360T185 419T261 441Q324 441 350 405T377 308ZM108 556L130 544Q130 556 134 567T151 587T183
595Q206 595 222 584T258 560T304 548Q322 548 337 555T363 575T382 607L362 622Q350 598 338 586T306 574Q286 574 272 581T246 597T219 614T182 621Q160 621 144 612T118 589T108 556Z" />
<glyph unicode="&#xf2;" horiz-adv-x="553" d="M42 230Q42 161 73 107T157 21T276 -10Q343 -10 396 21T480 106T511 230Q511 300 480 354T396 439T276 470Q210 470 157 439T73 354T42 230ZM73 230Q73 291 100 339T173 414T277 441Q334 441 380 414T453 339T480
230Q480 169 453 121T380 46T277 19Q220 19 174 46T100 120T73 230ZM133 691L309 536L325 548L161 708L133 691Z" />
<glyph unicode="&#xf3;" horiz-adv-x="553" d="M42 230Q42 161 73 107T157 21T276 -10Q343 -10 396 21T480 106T511 230Q511 300 480 354T396 439T276 470Q210 470 157 439T73 354T42 230ZM73 230Q73 291 100 339T173 414T277 441Q334 441 380 414T453 339T480
230Q480 169 453 121T380 46T277 19Q220 19 174 46T100 120T73 230ZM420 691L392 708L228 548L244 536L420 691Z" />
<glyph unicode="&#xf4;" horiz-adv-x="553" d="M42 230Q42 161 73 107T157 21T276 -10Q343 -10 396 21T480 106T511 230Q511 300 480 354T396 439T276 470Q210 470 157 439T73 354T42 230ZM73 230Q73 291 100 339T173 414T277 441Q334 441 380 414T453 339T480
230Q480 169 453 121T380 46T277 19Q220 19 174 46T100 120T73 230ZM277 673L417 550L437 567L277 707L117 567L136 550L277 673Z" />
<glyph unicode="&#xf5;" horiz-adv-x="553" d="M42 230Q42 161 73 107T157 21T277 -10Q343 -10 396 21T480 106T511 230Q511 300 480 354T396 439T277 470Q210 470 157 439T73 354T42 230ZM73 230Q73 291 100 339T173 414T277 441Q334 441 380 414T453 339T480
230Q480 169 453 121T380 46T277 19Q220 19 174 46T100 121T73 230ZM139 556L162 544Q162 556 166 567T183 587T215 595Q238 595 254 584T290 560T336 548Q354 548 368 555T394 575T414 607L393 622Q381 598 369 586T337 574Q317 574 303 581T277 597T250 614T213
621Q191 621 175 612T150 589T139 556Z" />
<glyph unicode="&#xf6;" horiz-adv-x="553" d="M42 230Q42 161 73 107T157 21T276 -10Q343 -10 396 21T480 106T511 230Q511 300 480 354T396 439T276 470Q210 470 157 439T73 354T42 230ZM73 230Q73 291 100 339T173 414T277 441Q334 441 380 414T453 339T480
230Q480 169 453 121T380 46T277 19Q220 19 174 46T100 120T73 230ZM353 577Q353 567 360 560T377 553Q387 553 393 560T400 577Q400 587 394 594T377 601Q367 601 360 594T353 577ZM153 577Q153 567 160 560T177 553Q187 553 193 560T200 577Q200 587 194 594T177
601Q167 601 160 594T153 577Z" />
<glyph unicode="&#xf7;" horiz-adv-x="623" d="M286 451Q286 441 293 434T310 427Q320 427 327 434T334 451Q334 461 327 468T310 475Q301 475 294 468T286 451ZM286 42Q286 32 293 26T310 19Q320 19 327 25T334 42Q334 53 327 59T310 66Q301 66 294 59T286 42ZM60
232H560V263H60V232Z" />
<glyph unicode="&#xf8;" d="M42 230Q42 161 73 107T157 21T276 -10Q343 -10 396 21T480 106T511 230Q511 300 480 354T396 439T276 470Q210 470 157 439T73 354T42 230ZM73 230Q73 291 100 339T173 414T277 441Q334 441 380 414T453 339T480 230Q480 169 453 121T380
46T277 19Q220 19 174 46T100 120T73 230ZM453 495L63 -29L82 -39L472 485L453 495Z" />
<glyph unicode="&#xf9;" horiz-adv-x="490" d="M377 0H408V460H377V0ZM113 159V460H82V156Q82 77 116 34T222 -10Q270 -10 308 15T368 82T391 180H377Q377 137 358 100T305 41T228 19Q167 19 140 56T113 159ZM100 698L275 543L292 555L128 715L100 698Z" />
<glyph unicode="&#xfa;" horiz-adv-x="490" d="M377 0H408V460H377V0ZM113 159V460H82V156Q82 77 116 34T222 -10Q270 -10 308 15T368 82T391 180H377Q377 137 358 100T305 41T228 19Q167 19 140 56T113 159ZM390 698L362 715L198 555L215 543L390 698Z" />
<glyph unicode="&#xfb;" horiz-adv-x="490" d="M377 0H408V460H377V0ZM113 159V460H82V156Q82 77 116 34T222 -10Q270 -10 308 15T368 82T391 180H377Q377 137 358 100T305 41T228 19Q167 19 140 56T113 159ZM245 666L385 543L405 560L245 700L85 560L104 543L245 666Z" />
<glyph unicode="&#xfc;" horiz-adv-x="490" d="M377 0H408V460H377V0ZM113 159V460H82V156Q82 77 116 34T222 -10Q270 -10 308 15T368 82T391 180H377Q377 137 358 100T305 41T228 19Q167 19 140 56T113 159ZM307 574Q307 564 314 557T331 550Q341 550 347 557T354
574Q354 584 348 591T331 598Q322 598 315 591T307 574ZM135 574Q135 564 142 557T159 550Q169 550 176 557T183 574Q183 584 176 591T159 598Q150 598 143 591T135 574Z" />
<glyph unicode="&#xfd;" horiz-adv-x="429" d="M422 460H388L209 45L227 43L43 460H7L200 33L88 -220H122L422 460ZM363 691L335 708L171 548L188 536L363 691Z" />
<glyph unicode="&#xfe;" horiz-adv-x="550" d="M108 -220V780H77V-220H108ZM507 230Q507 304 479 357T401 440T290 470Q230 470 186 437T118 349T94 230Q94 167 118 112T186 23T290 -10Q351 -10 400 19T478 103T507 230ZM477 230Q477 165 451 118T382 45T285 19Q237
19 197 48T132 125T108 230Q108 287 132 334T196 411T285 441Q339 441 382 416T451 343T477 230Z" />
<glyph unicode="&#xff;" horiz-adv-x="429" d="M422 460H388L209 45L227 43L43 460H7L200 33L88 -220H122L422 460ZM277 568Q277 558 284 551T300 544Q311 544 318 551T325 568Q325 578 318 585T300 592Q291 592 284 585T277 568ZM105 568Q105 558 112 551T128
544Q139 544 146 551T153 568Q153 578 146 585T128 592Q119 592 112 585T105 568Z" />
<glyph unicode="&#x2013;" horiz-adv-x="740" d="M70 246H670V275H70V246Z" />
<glyph unicode="&#x2014;" horiz-adv-x="890" d="M70 246H820V275H70V246Z" />
<glyph unicode="&#x2018;" horiz-adv-x="240" d="M99 470L183 700H159L63 470H99Z" />
<glyph unicode="&#x2019;" horiz-adv-x="254" d="M155 700L71 470H94L191 700H155Z" />
<glyph unicode="&#x201a;" horiz-adv-x="254" d="M143 80L60 -150H83L180 80H143Z" />
<glyph unicode="&#x201c;" horiz-adv-x="411" d="M113 470L197 700H174L77 470H113ZM271 470L354 700H331L235 470H271Z" />
<glyph unicode="&#x201d;" horiz-adv-x="411" d="M140 700L57 470H80L177 700H140ZM298 700L215 470H238L334 700H298Z" />
<glyph unicode="&#x201e;" horiz-adv-x="411" d="M140 80L57 -150H80L177 80H140ZM298 80L215 -150H238L334 80H298Z" />
<glyph unicode="&#x2022;" horiz-adv-x="300" d="M112 387Q112 377 119 371T136 364Q146 364 153 370T160 387Q160 398 153 404T136 411Q127 411 120 404T112 387Z" />
<glyph unicode="&#x2039;" horiz-adv-x="332" d="M73 256L262 472L243 490L40 255L243 20L262 38L73 256Z" />
<glyph unicode="&#x203a;" horiz-adv-x="350" d="M277 254L88 38L107 20L310 255L107 490L88 472L277 254Z" />
</font>
</defs>
</svg>
