<?xml version="1.0" standalone="no"?>
<!DOCTYPE svg PUBLIC "-//W3C//DTD SVG 1.1//EN" "http://www.w3.org/Graphics/SVG/1.1/DTD/svg11.dtd">
<svg xmlns="http://www.w3.org/2000/svg">
<defs >
<font id="Jost" horiz-adv-x="531" ><font-face
    font-family="Jost Light"
    units-per-em="1000"
    panose-1="0 0 0 0 0 0 0 0 0 0"
    ascent="1070"
    descent="-375"
    alphabetic="0" />
<glyph unicode=" " horiz-adv-x="301" />
<glyph unicode="!" horiz-adv-x="276" d="M198 700L127 201H165L264 700H198ZM78 24Q78 9 89 -2T116 -13Q131 -13 142 -2T153 24Q153 40 142 51T116 62Q101 62 90 51T78 24Z" />
<glyph unicode="&quot;" horiz-adv-x="427" d="M220 700L127 409H163L283 700H220ZM395 700L301 409H337L458 700H395Z" />
<glyph unicode="#" horiz-adv-x="574" d="M122 446H253H262H455H464H590L597 489H129L122 446ZM44 217H512L519 259H393H379H184H173H51L44 217ZM539 700L446 472L442 460L355 246L350 234L254 0H303L589 700H539ZM335 700L52 0H100L195 233L199 244L288 463L293
474L385 700H335Z" />
<glyph unicode="$" horiz-adv-x="563" d="M356 818L335 682H382L404 818H356ZM236 28L213 -111H261L283 28H236ZM488 528L536 555Q527 594 505 629T447 686T359 709Q309 709 264 688T188 629T150 545Q143 492 164 454T221 389T296 346Q333 331 365 310T416 257T429
180Q423 140 402 110T347 62T268 44Q219 45 188 69T139 132T109 214L59 188Q71 136 96 92T161 20T260 -8Q324 -8 371 16T448 85T486 184Q493 238 474 276T420 341T345 385Q318 397 291 411T243 443T212 485T206 540Q212 575 232 601T285 642T355 656Q396 656 422
637T464 589T488 528Z" />
<glyph unicode="%" horiz-adv-x="709" d="M101 555Q95 514 108 479T151 421T226 399Q272 399 309 420T370 476T401 554Q407 595 394 630T351 688T276 710Q231 710 194 689T132 632T101 555ZM147 554Q152 583 169 609T213 651T272 667Q305 666 324 650T352 608T355
554Q351 525 334 499T290 457T230 442Q198 442 178 458T151 501T147 554ZM374 147Q368 106 381 71T424 13T500 -9Q545 -9 582 12T643 68T674 146Q680 187 667 222T624 280T549 302Q504 302 467 281T405 224T374 147ZM420 146Q425 175 442 201T486 243T545 259Q577
258 597 242T625 200T629 146Q624 117 606 91T562 49T503 34Q471 34 451 50T424 93T420 146ZM642 700L83 0H133L693 700H642Z" />
<glyph unicode="&amp;" horiz-adv-x="655" d="M246 401L527 0H586L288 429Q274 450 261 471T240 516T236 564Q241 592 257 615T300 651T359 664Q390 664 410 649T438 611T442 562Q436 531 414 505T360 456T291 413Q265 399 235 384T174 350T117 307T73 252T49
179Q42 123 65 81T133 15T233 -9Q302 -10 360 18T469 91T565 188T653 290L615 315Q577 271 536 223T448 132T350 65T240 39Q197 40 164 57T114 107T104 182Q110 225 133 255T189 307T258 347T324 382Q366 406 402 433T463 491T494 562Q499 600 485 634T440 689T363
711Q317 711 278 693T214 641T183 565Q179 531 188 503T214 449T246 401Z" />
<glyph unicode="&apos;" horiz-adv-x="253" d="M220 700L127 409H163L283 700H220Z" />
<glyph unicode="(" horiz-adv-x="274" d="M302 779Q228 669 181 545T114 290Q96 167 104 43T152 -200H197Q163 -80 158 43T172 290Q192 420 236 543T348 779H302Z" />
<glyph unicode=")" horiz-adv-x="274" d="M28 -199Q102 -89 148 35T215 290Q233 414 226 538T177 781H131Q166 661 171 538T157 290Q137 161 93 38T-19 -199H28Z" />
<glyph unicode="*" horiz-adv-x="575" d="M527 593L345 530L351 498L534 548L527 593ZM450 375L361 523L333 503L409 348L450 375ZM232 349L359 502L336 522L198 377L232 349ZM174 549L341 498L357 529L195 593L174 549ZM358 700L332 514H363L404 700H358Z" />
<glyph unicode="+" horiz-adv-x="572" d="M75 230L518 229L527 281H84L75 230ZM314 492L233 19L286 18L369 492H314Z" />
<glyph unicode="," horiz-adv-x="287" d="M144 103L8 -152L44 -165L194 82L144 103Z" />
<glyph unicode="-" horiz-adv-x="204" d="M16 227H212L220 275H25L16 227Z" />
<glyph unicode="." horiz-adv-x="275" d="M78 25Q78 10 89 -1T115 -12Q130 -12 141 -2T152 24Q152 40 141 51T115 62Q100 62 89 51T78 25Z" />
<glyph unicode="/" horiz-adv-x="484" d="M510 700L-38 -149H14L564 700H510Z" />
<glyph unicode="0" horiz-adv-x="563" d="M132 350Q140 405 159 459T208 559T278 631T369 658Q409 657 435 638T476 587T496 514T502 432T497 350Q489 295 470 241T421 141T350 69T259 43Q219 43 193 62T153 114T132 186T126 269T132 350ZM77 350Q71 302 72 252T83
155T114 71T170 13T255 -9Q317 -9 367 21T455 104T518 220T551 350Q557 398 556 449T545 546T514 630T458 688T374 710Q312 710 262 680T173 597T111 481T77 350Z" />
<glyph unicode="1" horiz-adv-x="421" d="M158 599L322 641L212 0H266L388 709L168 657L158 599Z" />
<glyph unicode="2" d="M4 0H469L478 52L126 53L414 315Q457 356 492 405T535 513Q543 560 525 605T466 681T360 711Q290 711 238 677T154 586T110 461H163Q174 514 198 559T263 632T356 659Q403 659 432 637T473 581T479 511Q474 478 459 449T421 395T373 345L4 0Z" />
<glyph unicode="3" horiz-adv-x="532" d="M281 353Q325 355 366 367T440 401T496 455T526 528Q533 575 516 616T460 684T367 710Q310 710 266 686T192 621T153 527H205Q214 564 235 594T289 642T364 660Q404 660 429 641T466 591T471 526Q464 484 436 454T369
408T285 388L281 353ZM256 -9Q316 -9 366 15T451 82T492 181Q499 230 484 266T439 325T368 361T284 375L278 339Q311 337 342 327T396 299T431 253T438 187Q432 145 407 113T344 62T260 43Q213 43 182 62T137 112T126 185H71Q67 131 87 87T150 17T256 -9Z" />
<glyph unicode="4" horiz-adv-x="554" d="M19 141L521 140L529 189H399H388L117 190L433 570L365 171L364 162L335 0H389L510 700L488 699L19 141Z" />
<glyph unicode="5" horiz-adv-x="545" d="M514 230Q522 289 505 341T448 425T348 458Q307 458 271 444T207 408L306 651H584L593 700H271L125 328Q172 365 219 387T322 408Q371 407 403 383T450 318T458 230Q450 176 422 134T351 67T253 43Q191 43 152 79T92 168L43
138Q68 73 117 32T248 -9Q299 -9 344 8T425 56T484 132T514 230Z" />
<glyph unicode="6" horiz-adv-x="543" d="M118 226Q125 275 154 316T227 383T324 408Q372 407 405 381T454 314T462 226Q454 176 426 134T355 66T259 41Q208 41 174 67T126 136T118 226ZM410 700L136 377Q111 347 92 308T66 226Q58 163 78 110T143 24T255 -9Q323
-9 378 22T469 107T514 226Q521 283 502 333T443 416T345 449Q303 449 268 435T205 393L209 389L480 700H410Z" />
<glyph unicode="7" horiz-adv-x="505" d="M113 648H500L86 0H144L592 700H121L113 648Z" />
<glyph unicode="8" horiz-adv-x="518" d="M144 536Q138 499 147 468T176 412T227 375T296 361Q334 361 369 374T432 410T479 466T504 535Q509 569 500 600T471 656T420 695T351 710Q300 710 256 686T181 623T144 536ZM194 529Q200 565 222 595T276 643T347 661Q385
661 410 642T446 593T451 529Q445 493 422 463T365 415T298 397Q264 398 239 416T202 465T194 529ZM62 189Q56 149 65 114T96 51T153 7T232 -9Q277 -9 317 6T388 48T440 111T467 188Q473 230 463 265T428 327T371 368T296 383Q254 383 215 369T143 328T90 267T62
189ZM114 194Q122 236 149 270T214 326T293 347Q334 347 364 325T408 269T416 194Q409 150 383 115T319 60T237 40Q193 41 164 61T121 117T114 194Z" />
<glyph unicode="9" horiz-adv-x="543" d="M500 474Q492 426 464 385T392 318T294 293Q246 294 213 319T164 386T156 474Q164 525 192 567T263 634T358 660Q410 660 444 634T492 565T500 474ZM208 0L482 323Q507 354 526 393T552 474Q561 538 541 591T475 677T362
710Q296 710 240 679T149 594T104 474Q97 418 115 368T174 285T273 252Q314 251 349 266T413 307L408 311L137 0H208Z" />
<glyph unicode=":" horiz-adv-x="291" d="M78 25Q78 10 89 -1T115 -12Q130 -12 141 -2T152 24Q152 40 141 51T115 62Q100 62 89 51T78 25ZM141 392Q141 377 152 366T178 355Q193 355 204 366T215 392Q215 407 204 418T178 429Q163 429 152 418T141 392Z" />
<glyph unicode=";" horiz-adv-x="299" d="M170 392Q170 377 181 366T207 355Q223 355 233 366T244 392Q244 407 234 418T207 429Q192 429 181 418T170 392ZM144 103L8 -152L44 -165L194 82L144 103Z" />
<glyph unicode="&lt;" horiz-adv-x="621" d="M164 258L606 435L616 489L82 272L77 243L537 28L545 77L164 258Z" />
<glyph unicode="=" horiz-adv-x="597" d="M64 159L535 158L543 207H71L64 159ZM87 299L559 298L567 347H95L87 299Z" />
<glyph unicode="&gt;" horiz-adv-x="621" d="M491 257L49 81L40 27L573 243L578 272L119 487L110 438L491 257Z" />
<glyph unicode="?" horiz-adv-x="535" d="M478 508Q468 462 435 426T353 368T247 345H233L217 171H256L284 309Q343 315 395 340T484 409T530 508Q536 549 527 585T495 650T437 694T357 710Q281 711 229 678T134 595L173 567Q206 606 248 633T347 661Q395 661
426 641T471 586T478 508ZM173 24Q173 9 183 -1T210 -12Q226 -12 236 -2T247 24Q247 39 237 50T211 62Q195 62 184 51T173 24Z" />
<glyph unicode="@" horiz-adv-x="747" d="M266 320Q272 364 295 401T353 461T424 483Q454 482 471 466T494 424T498 370Q492 326 469 289T411 230T340 209Q310 210 293 225T269 266T266 320ZM217 319Q212 277 223 242T260 185T325 162Q375 162 417 190T487 266T522
369Q527 406 521 442T493 503T429 529Q380 531 334 503T256 426T217 319ZM61 320Q51 252 62 193T107 88T194 18T324 -8Q399 -9 457 7T566 50L549 89Q499 64 444 49T328 35Q243 36 190 74T116 177T107 320Q119 390 152 452T236 563T352 639T491 666Q554 665 599
642T671 579T707 490T708 390Q704 353 688 317T650 252T601 208T550 196Q531 198 523 208T513 232T514 259Q515 266 517 274T521 289L602 520H552L474 279H479Q472 248 474 220T491 172T540 151Q577 149 612 167T677 218T727 296T754 390Q764 449 752 505T707 608T621
681T495 709Q411 710 338 680T207 595T111 470T61 320Z" />
<glyph unicode="A" horiz-adv-x="617" d="M149 235H498L489 287H174L149 235ZM386 600L462 266L464 253L522 0H581L406 728L-20 0H42L189 257L197 269L386 600Z" />
<glyph unicode="B" horiz-adv-x="517" d="M161 377H272Q326 378 373 395T452 446T492 531Q498 572 488 603T455 656T397 688T320 700H174L54 0H214Q279 0 334 23T427 91T473 203Q480 249 467 283T425 342T360 378T281 391H163L158 360L275 359Q320 359 355 340T408
287T419 206Q411 157 383 122T312 68T218 50L117 49L220 651H315Q375 650 410 618T436 528Q430 489 406 463T346 423T270 408H165L161 377Z" />
<glyph unicode="C" horiz-adv-x="665" d="M133 350Q143 413 172 467T246 564T344 629T461 653Q526 654 577 630T662 558L674 631Q632 671 583 690T467 709Q392 709 326 681T208 603T121 489T75 350Q65 280 78 216T127 101T219 21T348 -9Q419 -9 474 11T579 69L590
142Q543 100 485 74T353 48Q293 48 248 73T174 141T135 238T133 350Z" />
<glyph unicode="D" horiz-adv-x="642" d="M173 700L55 0H108L229 700H173ZM241 0Q318 0 384 26T502 100T587 211T633 350Q644 422 631 485T581 596T489 672T357 700H203L193 645H351Q415 645 462 622T538 558T577 464T579 350Q565 265 519 199T404 94T246 55H93L83
0H241Z" />
<glyph unicode="E" horiz-adv-x="518" d="M83 0H421L429 52H92L83 0ZM194 648H531L540 700H202L194 648ZM144 358H462L471 410H153L144 358ZM173 700L55 0H108L229 700H173Z" />
<glyph unicode="F" horiz-adv-x="466" d="M194 648H492L501 700H203L194 648ZM144 354L432 353L441 405H152L144 354ZM173 700L55 0H108L229 700H173Z" />
<glyph unicode="G" horiz-adv-x="748" d="M422 297H664Q648 248 621 203T556 123T468 68T360 47Q298 47 251 72T175 139T135 236T133 350Q143 413 172 468T247 564T349 630T468 654Q544 654 600 620T684 524L728 558Q691 630 627 670T474 709Q398 709 331 681T210
604T122 490T75 350Q65 280 79 216T129 101T223 21T355 -9Q433 -9 496 20T608 100T688 215T733 349H431L422 297Z" />
<glyph unicode="H" horiz-adv-x="668" d="M144 355H603L611 407H152L144 355ZM624 700L505 0H559L680 700H624ZM173 700L55 0H108L229 700H173Z" />
<glyph unicode="I" horiz-adv-x="213" d="M172 700L53 0H106L227 700H172Z" />
<glyph unicode="J" horiz-adv-x="216" d="M-138 -126L-172 -167Q-157 -186 -129 -202T-65 -219Q-17 -219 16 -200T70 -144T99 -60L228 700H176L48 -50Q41 -102 14 -134T-57 -167Q-84 -168 -104 -156T-138 -126Z" />
<glyph unicode="K" horiz-adv-x="505" d="M172 700L53 0H106L227 700H172ZM506 700L154 373L403 0H468L219 371L576 700H506Z" />
<glyph unicode="L" horiz-adv-x="429" d="M174 700L54 0H389L398 52H118L228 700H174Z" />
<glyph unicode="M" horiz-adv-x="794" d="M227 554L384 80L703 551L666 0H720L768 730L402 191L223 728L18 0H73L227 554Z" />
<glyph unicode="N" horiz-adv-x="721" d="M682 700L581 114L171 726L46 0H101L202 584L612 -26L737 700H682Z" />
<glyph unicode="O" horiz-adv-x="761" d="M133 350Q143 412 172 467T245 564T346 630T467 654Q530 654 576 629T652 560T692 463T694 350Q684 288 655 234T581 137T480 71T359 47Q296 47 250 72T174 140T135 237T133 350ZM75 350Q65 280 79 216T129 101T222 21T354
-9Q430 -9 497 19T617 96T705 211T752 350Q762 421 748 485T697 599T604 679T472 709Q397 709 330 681T209 604T121 489T75 350Z" />
<glyph unicode="P" horiz-adv-x="506" d="M173 700L55 0H108L229 700H173ZM195 648H326Q375 648 409 629T458 575T466 493Q458 445 430 410T361 357T270 338H142L133 286H264Q329 286 383 311T474 384T521 493Q531 554 509 600T440 673T332 700H204L195 648Z" />
<glyph unicode="Q" horiz-adv-x="759" d="M133 350Q143 412 172 467T245 564T346 630T467 654Q530 654 576 629T652 560T692 463T694 350Q684 288 655 234T581 137T480 71T359 47Q296 47 250 72T174 140T135 237T133 350ZM75 350Q65 280 79 216T129 101T222 21T354
-9Q430 -9 497 19T617 96T705 211T752 350Q762 421 748 485T697 599T604 679T473 709Q397 709 330 681T210 604T121 489T75 350ZM401 300L649 0H717L469 300H401Z" />
<glyph unicode="R" horiz-adv-x="507" d="M227 334L396 0H461L286 334H227ZM173 700L55 0H108L229 700H173ZM193 651H323Q372 650 408 632T461 579T471 497Q463 448 434 414T361 361T267 343H141L132 294H262Q328 294 384 318T478 388T526 497Q536 559 512 604T439
675T328 700H202L193 651Z" />
<glyph unicode="S" horiz-adv-x="509" d="M88 204L44 175Q56 128 82 86T149 18T249 -9Q310 -9 360 18T441 91T475 195Q478 250 457 286T402 346T331 385Q298 399 272 414T227 447T199 488T193 539Q196 573 214 599T262 641T334 656Q379 656 408 639T453 594T479
538L526 562Q516 600 493 633T432 688T340 709Q283 709 238 686T166 622T136 532Q133 493 146 463T183 412T234 374T289 346Q325 329 355 310T403 262T418 189Q416 150 395 117T337 64T251 44Q202 44 171 66T120 124T88 204Z" />
<glyph unicode="T" horiz-adv-x="438" d="M96 648H275L164 0H219L330 648H509L518 700H106L96 648Z" />
<glyph unicode="U" horiz-adv-x="588" d="M169 700L88 226Q79 164 96 110T156 24T268 -9Q343 -9 396 22T481 107T524 226L605 700H551L469 226Q461 175 436 134T371 68T272 43Q219 43 189 68T147 136T142 226L224 700H169Z" />
<glyph unicode="V" horiz-adv-x="617" d="M306 101L159 700H100L287 -28L701 700H638L306 101Z" />
<glyph unicode="W" horiz-adv-x="945" d="M678 121L568 729L268 121L164 700H105L244 -28L545 575L659 -28L1024 700H963L678 121Z" />
<glyph unicode="X" horiz-adv-x="517" d="M516 700L308 417L192 700H129L274 369L-5 0H61L294 318L424 0H486L328 366L582 700H516Z" />
<glyph unicode="Y" horiz-adv-x="523" d="M546 700L289 340L161 700H102L256 289L205 0H260L309 287L609 700H546Z" />
<glyph unicode="Z" horiz-adv-x="525" d="M119 648H499L-12 0H466L475 53H91L602 700H128L119 648Z" />
<glyph unicode="[" horiz-adv-x="275" d="M244 731H353L360 780H200L45 -220H206L214 -171H105L244 731Z" />
<glyph unicode="\" horiz-adv-x="469" d="M106 701L374 0H427L161 700L106 701Z" />
<glyph unicode="]" horiz-adv-x="275" d="M84 -171H-25L-32 -220H128L282 780H122L114 731H223L84 -171Z" />
<glyph unicode="^" horiz-adv-x="495" d="M333 649L433 460H483L352 710H328L113 461H168L333 649Z" />
<glyph unicode="_" horiz-adv-x="485" d="M-48 -123H438L444 -86H-42L-48 -123Z" />
<glyph unicode="`" horiz-adv-x="356" d="M169 673L319 521L349 539L219 700L169 673Z" />
<glyph unicode="a" horiz-adv-x="542" d="M474 460L396 0H443L523 460H474ZM49 230Q41 166 59 112T120 24T227 -9Q273 -9 312 10T380 64T429 140T456 230Q462 274 457 316T433 393T383 449T305 470Q241 471 187 439T96 352T49 230ZM101 230Q110 283 139 327T212
396T307 421Q342 420 367 404T409 360T431 299T432 230Q426 193 408 159T364 98T305 56T238 40Q187 40 154 66T108 136T101 230Z" />
<glyph unicode="b" horiz-adv-x="542" d="M229 780H178L44 0H95L229 780ZM517 230Q526 294 508 348T447 436T340 470Q293 470 254 450T186 397T138 320T111 230Q105 186 110 144T134 67T184 11T262 -10Q326 -10 380 22T471 109T517 230ZM465 230Q458 177 428 134T355
65T260 40Q225 41 200 57T158 100T136 161T135 230Q141 268 159 302T203 363T261 405T329 421Q380 421 413 395T459 325T465 230Z" />
<glyph unicode="c" horiz-adv-x="468" d="M103 230Q111 283 140 326T214 395T312 421Q361 421 398 400T453 347L462 411Q438 438 400 454T316 470Q248 470 192 438T98 351T51 230Q43 166 64 112T132 24T245 -9Q293 -9 335 7T407 49L416 113Q390 85 346 62T250
40Q198 41 163 67T112 137T103 230Z" />
<glyph unicode="d" horiz-adv-x="542" d="M525 780L393 0H443L577 780H525ZM49 230Q41 166 59 112T120 24T227 -9Q273 -9 312 10T380 64T429 140T456 230Q462 274 457 316T433 393T383 449T305 470Q241 471 187 439T96 352T49 230ZM101 230Q110 283 139 327T212
396T307 421Q342 420 367 404T409 360T431 299T432 230Q426 193 408 159T364 98T305 56T238 40Q187 40 154 66T108 136T101 230Z" />
<glyph unicode="e" horiz-adv-x="501" d="M233 -10Q302 -10 356 21T450 107L409 134Q378 90 335 65T239 39Q195 39 164 59T118 117T102 202Q102 245 117 285T159 356T223 405T300 424Q341 424 369 406T413 356T429 283Q429 268 425 255T416 231L438 262H85V217H471Q476
227 479 243T482 273Q482 333 460 377T397 445T303 470Q251 470 205 448T125 387T70 301T50 199Q50 135 73 88T137 16T233 -10Z" />
<glyph unicode="f" horiz-adv-x="275" d="M94 460L85 411H296L305 460H94ZM356 704L391 745Q379 762 360 775T312 789Q269 790 240 770T192 714T168 639L58 0H110L218 632Q223 658 233 682T260 722T304 738Q322 737 334 728T356 704Z" />
<glyph unicode="g" horiz-adv-x="542" d="M17 -30Q11 -86 30 -131T92 -202T196 -229Q261 -229 313 -199T401 -114T446 10L523 460H471L393 10Q386 -46 358 -89T287 -156T197 -180Q150 -180 120 -160T78 -105T68 -30H17ZM49 230Q41 166 59 112T120 24T227 -9Q273
-9 312 10T380 64T429 140T456 230Q462 274 457 316T433 393T383 449T305 470Q241 471 187 439T96 352T49 230ZM101 230Q110 283 139 327T212 396T307 421Q342 420 367 404T409 360T431 299T432 232Q426 195 409 161T365 99T306 56T238 40Q187 40 154 66T108 136T101
230Z" />
<glyph unicode="h" horiz-adv-x="490" d="M234 780H183L49 0H100L234 780ZM387 296L336 0H386L439 302Q444 349 435 386T398 447T321 470Q271 470 231 444T166 374T130 281H148Q157 317 178 349T232 402T305 421Q342 420 361 403T385 358T387 296Z" />
<glyph unicode="i" horiz-adv-x="225" d="M163 668Q163 653 174 643T200 632Q215 632 226 642T237 668Q237 684 226 694T200 705Q185 705 174 695T163 668ZM138 460L61 0H112L191 460H138Z" />
<glyph unicode="j" horiz-adv-x="216" d="M152 668Q152 653 163 643T188 632Q204 632 214 642T225 668Q225 684 215 694T188 704Q174 704 163 694T152 668ZM-99 -134L-133 -176Q-119 -193 -99 -206T-51 -219Q-8 -220 21 -199T67 -143T91 -69L181 460H129L39 -63Q36
-87 26 -111T-1 -152T-46 -168Q-63 -168 -76 -158T-99 -134Z" />
<glyph unicode="k" horiz-adv-x="401" d="M177 780L45 0H95L230 780H177ZM364 460L124 272L307 0H369L185 266L432 460H364Z" />
<glyph unicode="l" horiz-adv-x="204" d="M182 780L50 0H100L234 780H182Z" />
<glyph unicode="m" horiz-adv-x="722" d="M670 302Q676 346 669 384T637 446T567 470Q516 470 477 441T411 364Q409 393 398 417T364 455T308 470Q276 470 249 458T201 423T165 372L180 460H128L48 0H100L151 287Q157 324 176 354T226 402T292 420Q326 420 341
403T360 357T360 296L309 0H359L409 285Q415 322 434 352T484 402T550 420Q584 420 599 403T619 357T619 296L567 0H619L670 302Z" />
<glyph unicode="n" horiz-adv-x="490" d="M387 296L336 0H386L439 302Q445 347 435 385T398 446T321 470Q268 470 229 443T165 369L180 460H128L48 0H100L151 286Q157 324 178 354T233 403T305 421Q342 421 361 404T385 358T387 296Z" />
<glyph unicode="o" horiz-adv-x="534" d="M56 230Q48 166 69 112T137 24T250 -9Q318 -9 374 23T468 110T515 230Q524 294 502 348T434 436T321 470Q254 470 197 438T103 351T56 230ZM107 230Q115 282 145 325T219 395T316 421Q368 421 403 394T454 323T464 230Q456
178 426 135T352 66T254 40Q202 40 167 67T116 137T107 230Z" />
<glyph unicode="p" horiz-adv-x="542" d="M59 -219L174 460H124L6 -220L59 -219ZM517 230Q526 294 508 348T447 436T340 470Q293 470 254 450T186 397T138 320T111 230Q105 186 110 144T134 67T184 11T262 -10Q326 -10 380 22T471 109T517 230ZM465 230Q458 177
428 134T355 65T260 40Q225 41 200 57T158 100T136 161T135 230Q141 268 159 302T203 363T261 405T329 421Q380 421 413 395T459 325T465 230Z" />
<glyph unicode="q" horiz-adv-x="542" d="M354 -220H405L523 460H471L354 -220ZM49 230Q41 166 59 112T120 24T227 -9Q273 -9 312 10T380 64T429 140T456 230Q462 274 457 316T433 393T383 449T305 470Q241 471 187 439T96 352T49 230ZM101 230Q110 283 139 327T212
396T307 421Q342 420 367 404T409 360T431 299T432 230Q426 193 408 159T364 98T305 56T238 40Q187 40 154 66T108 136T101 230Z" />
<glyph unicode="r" horiz-adv-x="312" d="M180 460H128L48 0H100L180 460ZM318 400L353 441Q337 455 320 462T281 470Q239 471 207 443T153 371T124 281H148Q155 315 168 347T205 401T264 421Q280 421 293 415T318 400Z" />
<glyph unicode="s" horiz-adv-x="391" d="M80 136L37 113Q45 83 65 55T118 9T197 -10Q241 -10 275 8T330 58T353 128Q355 166 339 191T295 232T234 262Q209 272 188 283T154 311T144 354Q147 387 173 405T236 424Q276 424 301 403T343 351L382 376Q365 415 330
442T239 469Q204 469 172 456T118 415T94 348Q92 310 108 286T151 246T206 220Q231 211 254 199T291 168T303 122Q300 85 272 61T201 37Q167 38 143 51T104 88T80 136Z" />
<glyph unicode="t" horiz-adv-x="213" d="M62 460L53 411H250L259 460H62ZM160 620L55 0H105L212 620H160Z" />
<glyph unicode="u" horiz-adv-x="490" d="M129 168L179 460H129L77 162Q71 117 80 78T116 15T193 -9Q246 -9 285 18T350 90L335 0H386L466 460H414L364 174Q358 139 337 108T283 59T210 40Q172 40 153 58T129 105T129 168Z" />
<glyph unicode="v" horiz-adv-x="419" d="M58 460L188 -28L471 460H412L205 87L115 460H58Z" />
<glyph unicode="w" horiz-adv-x="637" d="M61 460L150 -28L349 355L422 -28L681 460H623L440 105L370 489L175 106L117 460H61Z" />
<glyph unicode="x" horiz-adv-x="392" d="M373 460L222 278L125 460H68L188 240L-15 0H46L210 197L314 0H371L245 235L434 460H373Z" />
<glyph unicode="y" horiz-adv-x="421" d="M471 460H412L187 71L211 68L113 460H56L166 49L4 -219H63L471 460Z" />
<glyph unicode="z" horiz-adv-x="434" d="M364 411L-12 0H380L389 49H92L468 460H93L84 411H364Z" />
<glyph unicode="{" horiz-adv-x="290" d="M245 652Q250 689 267 711T318 734H347L353 780H309Q276 780 252 762T212 713T191 641L159 430Q153 383 136 354T90 310L84 270Q108 253 115 225T117 150L85 -60Q81 -98 86 -130T109 -181T160 -200H203L209 -153H180Q158
-153 147 -143T133 -114T133 -72L162 114Q166 144 167 173T163 229T143 273T98 297L95 284Q127 289 148 305T182 347T203 403T216 466L245 652Z" />
<glyph unicode="|" horiz-adv-x="241" d="M200 785L47 -214H94L248 785H200Z" />
<glyph unicode="}" horiz-adv-x="290" d="M106 -72Q101 -108 84 -131T33 -154H5L-2 -199H42Q75 -199 99 -182T139 -132T160 -60L192 150Q199 198 216 227T261 270L267 310Q243 328 236 356T234 430L266 640Q271 679 265 710T242 761T191 780H148L142 734H170Q193
734 204 723T218 694T218 653L189 466Q185 437 184 407T188 352T208 308T254 283L255 297Q225 292 204 275T169 233T148 177T134 114L106 -72Z" />
<glyph unicode="~" horiz-adv-x="558" d="M128 177Q127 183 127 188T127 199Q133 232 155 255T212 279Q229 279 244 272T272 253T296 229Q319 207 343 190T398 173Q423 172 446 183T487 214Q500 230 508 250T519 290Q521 297 521 304T519 318L470 322Q471 315
471 308T470 294Q465 265 447 244T399 222Q377 221 359 236T325 267Q302 291 276 309T216 327Q188 327 162 315T116 281Q102 265 93 246T81 206Q80 199 80 193T81 181L128 177Z" />
<glyph unicode="&#xa0;" horiz-adv-x="301" />
<glyph unicode="&#xa1;" horiz-adv-x="291" d="M117 -245L189 255H150L51 -245H117ZM236 430Q237 445 229 456T205 468Q191 469 178 457T163 431Q162 417 171 406T194 394Q208 393 221 404T236 430Z" />
<glyph unicode="&#xa2;" horiz-adv-x="563" d="M263 21L237 -111H280L302 21H263ZM144 230Q153 282 183 325T259 395T357 421Q405 421 442 400T496 347L506 411Q483 438 445 454T361 470Q293 470 236 438T141 351T92 230Q83 167 104 113T171 25T283 -9Q331 -9
373 7T446 49L455 113Q428 85 384 62T287 40Q235 41 201 67T151 137T144 230ZM355 578L333 443H373L399 578H355Z" />
<glyph unicode="&#xa3;" horiz-adv-x="563" d="M104 344L95 295H426L436 344H104ZM505 487L553 504Q556 536 550 571T526 638T478 690T400 710Q359 710 322 697T256 658T207 599T182 527Q177 484 187 450T213 384T238 322T243 255Q234 206 204 165T132 84T47 0H467L477
52H111L109 31Q136 47 166 70T223 123T270 188T296 264Q302 301 292 333T266 394T242 456T238 527Q245 564 267 593T323 640T394 656Q431 655 453 639T488 598T503 544T505 487Z" />
<glyph unicode="&#xa4;" horiz-adv-x="555" d="M103 512L171 431L208 462L142 545L103 512ZM60 56L153 135L125 170L31 91L60 56ZM483 431L576 509L548 545L454 465L483 431ZM399 138L466 56L503 88L437 170L399 138ZM74 300Q65 238 85 183T151 95T263 61Q330
61 386 93T481 179T530 300Q539 363 519 417T453 506T341 540Q274 540 218 508T123 421T74 300ZM126 300Q135 352 165 395T239 464T337 491Q388 491 422 463T471 392T478 300Q470 249 440 206T365 136T267 110Q216 110 182 137T133 208T126 300Z" />
<glyph unicode="&#xa5;" horiz-adv-x="557" d="M59 283L528 282L536 331H67L59 283ZM35 143L504 142L512 191H43L35 143ZM558 700L301 340L173 700H114L268 291L216 0H272L322 288L620 700H558Z" />
<glyph unicode="&#xa6;" horiz-adv-x="241" d="M189 695L147 456H195L237 695H189ZM160 245H112L70 6H118L160 245Z" />
<glyph unicode="&#xa7;" horiz-adv-x="392" d="M395 594L438 619Q424 661 384 685T292 710Q256 710 221 696T162 657T131 594Q127 566 136 546T164 510T205 484T248 463Q272 453 296 440T335 408T346 362Q342 334 323 314T277 281T219 261L216 241Q250 242 281
249T337 270T378 308T399 366Q404 399 389 423T346 465T289 497Q273 504 254 513T217 533T189 559T182 593Q186 616 202 631T242 653T288 660Q324 660 352 643T395 594ZM68 147L23 124Q28 86 49 56T104 9T179 -9Q222 -9 260 4T325 46T357 118Q362 154 346 179T303
223T246 256Q228 264 209 273T173 295T148 325T143 365Q148 392 166 410T212 442T272 464L275 479Q238 478 207 470T152 448T112 411T91 360Q86 325 102 299T147 255T205 222Q229 211 254 198T294 165T303 114Q299 89 281 72T237 47T186 40Q136 40 105 71T68 147Z"
/>
<glyph unicode="&#xa8;" horiz-adv-x="438" d="M366 672Q364 658 373 647T397 635Q411 634 424 645T439 671Q440 686 431 697T407 709Q393 710 380 698T366 672ZM172 672Q170 658 179 647T203 635Q217 634 230 645T245 671Q246 686 237 697T213 709Q199 710 186
698T172 672Z" />
<glyph unicode="&#xa9;" horiz-adv-x="776" d="M253 350Q260 400 287 441T356 507T448 532Q487 532 517 518T569 475L576 519Q550 542 520 554T449 566Q391 566 341 537T259 459T218 350Q211 294 229 245T288 166T387 135Q429 134 462 147T524 181L530 224Q502
201 467 185T389 169Q339 170 307 195T261 262T253 350ZM112 350Q123 417 155 476T236 580T347 651T478 676Q545 676 597 650T685 577T734 473T739 350Q728 283 696 224T615 120T504 50T373 25Q306 25 254 51T166 123T117 227T112 350ZM75 350Q65 278 82 214T138
99T237 19T372 -10Q449 -10 517 18T639 95T729 209T775 350Q785 422 768 487T712 602T613 681T479 710Q402 710 334 683T211 606T122 491T75 350Z" />
<glyph unicode="&#xaa;" horiz-adv-x="231" d="M111 530Q114 556 138 572T190 588Q210 588 225 581T255 564L258 581Q247 590 231 598T189 608Q154 608 122 587T85 531Q80 498 99 478T149 456Q186 455 211 477T245 530L241 546Q233 519 211 499T157 480Q134 481
121 494T111 530ZM139 653Q153 662 172 671T213 679Q236 678 246 665T256 631L226 461H252L281 631Q284 662 267 682T215 703Q188 704 167 694T129 674L139 653Z" />
<glyph unicode="&#xab;" horiz-adv-x="485" d="M267 257L470 459L442 490L211 257L363 20L400 49L267 257ZM112 257L315 459L286 490L55 257L208 20L244 49L112 257Z" />
<glyph unicode="&#xac;" horiz-adv-x="602" d="M91 326H520L493 176H542L577 375H100L91 326Z" />
<glyph unicode="&#xad;" horiz-adv-x="204" d="M16 227H212L220 275H25L16 227Z" />
<glyph unicode="&#xae;" horiz-adv-x="776" d="M381 351L487 150H527L417 351H381ZM347 570L282 151H315L380 570H347ZM358 540H436Q480 539 506 516T527 448Q521 404 486 381T406 355H330L326 327H403Q462 329 507 360T560 448Q568 504 532 536T439 570H363L358
540ZM112 350Q123 417 155 476T236 580T347 651T478 676Q545 676 597 650T685 577T734 473T739 350Q728 283 696 224T615 120T504 50T373 25Q306 25 254 51T166 123T117 227T112 350ZM75 350Q65 278 82 214T138 99T237 19T372 -10Q449 -10 517 18T639 95T729 210T775
350Q785 422 768 487T712 602T613 681T479 710Q402 710 334 683T211 606T122 491T75 350Z" />
<glyph unicode="&#xaf;" horiz-adv-x="495" d="M157 626H498L505 675H165L157 626Z" />
<glyph unicode="&#xb0;" horiz-adv-x="270" d="M94 601Q87 552 114 517T191 481Q225 481 254 497T302 540T327 600Q332 632 321 659T287 703T230 720Q196 720 167 704T119 661T94 601ZM122 600Q126 625 141 646T180 680T228 693Q266 692 285 665T299 600Q295 575
280 554T242 521T193 508Q155 508 136 536T122 600Z" />
<glyph unicode="&#xb1;" horiz-adv-x="595" d="M47 0H516L524 52H54L47 0ZM102 359H571L579 411H110L102 359ZM348 620L277 151L330 150L404 620H348Z" />
<glyph unicode="&#xb2;" horiz-adv-x="330" d="M47 283H325L331 313L121 314L296 471Q322 495 343 523T370 587Q375 616 366 643T333 690T271 709Q228 710 196 689T144 634T115 559H148Q155 590 171 617T212 662T269 678Q297 677 313 664T335 630T337 589Q332
559 313 535T271 490L47 283Z" />
<glyph unicode="&#xb3;" horiz-adv-x="301" d="M193 492Q228 495 260 507T314 541T343 596Q348 625 338 649T305 690T249 706Q197 707 163 675T118 598L150 597Q159 629 184 653T247 676Q282 675 298 651T310 596Q305 571 288 554T247 526T196 513L193 492ZM176
275Q211 275 242 289T293 329T319 389Q323 418 314 439T287 474T246 496T195 505L192 483Q218 481 241 471T278 442T286 393Q281 356 250 331T178 306Q135 307 116 331T98 391H65Q64 359 75 333T111 291T176 275Z" />
<glyph unicode="&#xb4;" horiz-adv-x="356" d="M361 671L316 700L138 542L165 521L361 671Z" />
<glyph unicode="&#xb5;" horiz-adv-x="490" d="M180 460H128L-5 -319L45 -320L107 37Q118 17 139 4T193 -9Q245 -9 284 17T348 85L335 0H386L466 460H414L364 174Q358 138 337 108T283 59T210 40Q175 40 156 55T130 98T126 158L180 460Z" />
<glyph unicode="&#xb6;" horiz-adv-x="511" d="M298 271L215 -219H260L410 658H493L343 -219H388L546 700H371Q307 700 252 675T161 601T113 486Q104 422 125 375T192 302T298 271Z" />
<glyph unicode="&#xb7;" horiz-adv-x="269" d="M110 233Q110 223 113 215T124 201T141 196Q151 195 160 200T176 214T184 232Q186 241 182 249T170 263T153 270Q143 270 134 265T119 252T110 233Z" />
<glyph unicode="&#xb8;" horiz-adv-x="340" d="M161 35L67 -99Q84 -90 102 -84T137 -79Q151 -79 162 -84T178 -100T181 -125Q180 -142 168 -155T139 -176T104 -183Q84 -183 71 -176T44 -156L18 -181Q37 -199 55 -209T100 -219Q127 -219 153 -208T198 -176T219
-127Q223 -94 205 -74T159 -52Q149 -52 142 -54T126 -61L202 35H161Z" />
<glyph unicode="&#xb9;" horiz-adv-x="456" d="M225 634L322 658L257 275H290L364 699L231 668L225 634Z" />
<glyph unicode="&#xba;" horiz-adv-x="270" d="M91 581Q84 532 111 497T188 461Q222 461 251 477T299 520T323 580Q328 612 317 639T283 683T226 700Q193 700 164 684T115 641T91 581ZM118 580Q123 605 138 626T176 660T225 673Q262 672 281 645T296 580Q292 555
277 534T239 501T189 488Q152 488 133 516T118 580Z" />
<glyph unicode="&#xbb;" horiz-adv-x="485" d="M251 253L49 51L77 21L308 253L155 490L119 461L251 253ZM407 253L204 51L232 21L463 253L311 490L275 461L407 253Z" />
<glyph unicode="&#xbc;" horiz-adv-x="732" d="M712 699L68 0H112L756 699H712ZM107 634L204 658L139 275H172L245 699L112 668L107 634ZM375 85H677L681 113H603H596H405L375 85ZM410 85L623 341L583 102L582 98L565 0H598L670 420L656 419L374 86L410 85Z" />
<glyph unicode="&#xbd;" horiz-adv-x="795" d="M712 699L68 0H112L756 699H712ZM107 634L204 658L139 275H172L245 699L112 668L107 634ZM453 3H732L737 33L527 34L702 191Q728 215 749 243T776 306Q781 335 772 363T739 410T676 429Q633 430 602 409T550 354T520
279H553Q560 310 576 337T617 382T674 397Q702 396 718 383T741 350T743 309Q739 278 720 254T677 209L453 3Z" />
<glyph unicode="&#xbe;" horiz-adv-x="796" d="M777 699L133 0H177L821 699H777ZM198 492Q233 495 265 507T319 541T348 596Q353 625 343 649T310 690T254 706Q202 707 168 675T123 598L154 597Q164 629 189 653T252 676Q287 675 303 651T315 596Q310 571 293
554T252 526T201 513L198 492ZM180 275Q216 275 247 289T298 329T324 389Q328 418 319 439T292 474T251 496T200 505L196 483Q222 481 245 471T282 442T291 393Q286 356 255 331T182 306Q140 307 121 331T103 391H70Q69 359 80 333T116 291T180 275ZM440 85H742L746
113H668H661H470L440 85ZM475 85L688 341L648 102L647 98L630 0H663L735 420L721 419L439 86L475 85Z" />
<glyph unicode="&#xbf;" horiz-adv-x="535" d="M123 192Q131 234 161 270T241 329T353 355H368L383 530H345L316 391Q258 386 206 360T117 292T71 193Q65 152 74 116T106 51T164 7T243 -9Q320 -10 372 23T467 106L428 134Q395 95 353 67T253 40Q207 40 175 60T129
115T123 192ZM427 675Q428 690 419 701T396 713Q386 714 377 709T362 695T354 676Q352 662 361 651T384 639Q394 638 403 643T420 657T427 675Z" />
<glyph unicode="&#xc0;" horiz-adv-x="617" d="M148 235H498L489 287H173L148 235ZM386 600L462 266L464 253L522 0H581L406 728L-20 0H42L189 257L197 269L386 600ZM313 940L462 787L492 806L364 967L313 940Z" />
<glyph unicode="&#xc1;" horiz-adv-x="617" d="M148 235H498L489 287H173L148 235ZM386 600L462 266L464 253L522 0H581L406 728L-20 0H42L189 257L197 269L386 600ZM572 938L527 967L347 809L373 788L572 938Z" />
<glyph unicode="&#xc2;" horiz-adv-x="617" d="M148 235H498L489 287H173L148 235ZM386 600L462 266L464 253L522 0H581L406 728L-20 0H42L189 257L197 269L386 600ZM433 874L537 764L572 789L439 930L261 791L289 764L433 874Z" />
<glyph unicode="&#xc3;" horiz-adv-x="617" d="M148 235H498L489 287H173L148 235ZM386 600L462 266L464 253L522 0H581L406 728L-20 0H42L189 257L197 269L386 600ZM273 807L306 784Q313 800 325 816T366 834Q387 835 402 824T434 801T475 788Q497 787 515 796T548
820T573 851L545 879Q532 860 517 847T482 832Q459 831 444 842T412 866T369 878Q347 879 328 869T295 842T273 807Z" />
<glyph unicode="&#xc4;" horiz-adv-x="617" d="M148 235H498L489 287H173L148 235ZM386 600L462 266L464 253L522 0H581L406 728L-20 0H42L189 257L197 269L386 600ZM484 833Q483 819 492 808T515 796Q530 795 543 806T557 832Q559 846 550 857T527 870Q513 870
500 859T484 833ZM290 833Q288 819 297 808T321 796Q336 795 349 806T363 832Q365 846 356 857T332 870Q318 870 305 859T290 833Z" />
<glyph unicode="&#xc5;" horiz-adv-x="617" d="M148 235H498L489 287H173L148 235ZM386 600L462 266L464 253L522 0H581L406 728L-20 0H42L189 257L197 269L386 600ZM319 803Q315 776 325 754T356 717T402 703Q429 703 454 716T497 751T518 801Q522 829 512 851T482
888T435 902Q409 902 384 889T341 853T319 803ZM353 802Q356 820 368 836T397 861T431 870Q456 869 471 849T484 803Q481 775 456 755T406 735Q381 736 366 756T353 802Z" />
<glyph unicode="&#xc6;" horiz-adv-x="907" d="M221 239L508 238L518 290H229L221 239ZM535 700L-22 0H39L576 674L535 700ZM479 0H809L818 52H488L479 0ZM597 648H920L929 700H535L597 648ZM540 358H851L860 410H549L540 358ZM568 700L449 0H502L623 700H568Z" />
<glyph unicode="&#xc7;" horiz-adv-x="665" d="M133 350Q143 413 172 467T246 564T344 629T461 653Q526 654 577 630T662 558L674 631Q632 671 583 690T467 709Q392 709 326 681T208 603T121 489T75 350Q65 280 78 216T127 101T219 21T348 -9Q419 -9 474 11T579
69L590 142Q543 100 485 74T353 48Q293 48 248 73T174 141T135 238T133 350ZM344 34L251 -100Q267 -91 286 -85T321 -80Q335 -80 345 -85T361 -101T365 -126Q363 -143 351 -156T322 -177T287 -184Q268 -184 255 -177T228 -157L202 -182Q221 -200 239 -210T284 -220Q311
-220 337 -209T381 -177T403 -128Q407 -95 388 -75T343 -53Q333 -53 326 -55T309 -62L386 34H344Z" />
<glyph unicode="&#xc8;" horiz-adv-x="518" d="M83 0H421L429 52H92L83 0ZM194 649L531 648L540 700H202L194 649ZM144 358H462L471 410H153L144 358ZM173 700L55 0H108L229 700H173ZM258 923L406 770L436 789L308 949L258 923Z" />
<glyph unicode="&#xc9;" horiz-adv-x="518" d="M83 0H421L429 52H92L83 0ZM194 649L531 648L540 700H202L194 649ZM144 358H462L471 410H153L144 358ZM173 700L55 0H108L229 700H173ZM531 920L488 949L307 791L334 770L531 920Z" />
<glyph unicode="&#xca;" horiz-adv-x="518" d="M83 0H421L429 52H92L83 0ZM194 649L531 648L540 700H202L194 649ZM144 358H462L471 410H153L144 358ZM173 700L55 0H108L229 700H173ZM395 880L499 770L535 795L401 936L223 798L252 770L395 880Z" />
<glyph unicode="&#xcb;" horiz-adv-x="518" d="M83 0H421L429 52H92L83 0ZM194 649L531 648L540 700H202L194 649ZM144 358H462L471 410H153L144 358ZM173 700L55 0H108L229 700H173ZM444 827Q443 813 452 802T476 790Q490 789 503 800T518 826Q519 841 511 852T487
864Q473 865 460 853T444 827ZM250 827Q249 813 258 802T282 790Q296 789 309 800T324 826Q325 841 316 852T292 864Q278 865 265 853T250 827Z" />
<glyph unicode="&#xcc;" horiz-adv-x="213" d="M172 700L53 0H106L227 700H172ZM100 923L248 770L279 789L151 949L100 923Z" />
<glyph unicode="&#xcd;" horiz-adv-x="213" d="M172 700L53 0H106L227 700H172ZM373 920L330 949L150 791L175 770L373 920Z" />
<glyph unicode="&#xce;" horiz-adv-x="213" d="M172 700L53 0H106L227 700H172ZM231 880L336 770L371 795L238 936L59 798L88 770L231 880Z" />
<glyph unicode="&#xcf;" horiz-adv-x="213" d="M172 700L53 0H106L227 700H172ZM267 815Q266 802 274 790T298 778Q312 777 325 788T341 814Q342 829 333 840T309 852Q295 853 282 841T267 815ZM96 815Q95 802 103 790T127 778Q142 777 155 788T170 814Q171 829
162 840T138 852Q125 853 112 841T96 815Z" />
<glyph unicode="&#xd0;" horiz-adv-x="660" d="M33 325L326 324L334 373H42L33 325ZM173 700L55 0H108L229 700H173ZM241 0Q343 2 426 47T563 171T633 350Q647 446 619 524T524 651T357 700H203L193 645H351Q437 643 492 603T569 497T579 350Q565 265 519 200T403
96T246 55H93L83 0H241Z" />
<glyph unicode="&#xd1;" horiz-adv-x="709" d="M674 700L573 114L163 726L38 0H93L194 584L604 -26L729 700H674ZM310 779L342 756Q348 772 361 788T402 806Q423 807 439 796T471 773T511 760Q532 759 550 768T583 792T609 823L581 851Q567 832 552 819T518 804Q495
803 479 814T447 838T405 850Q383 851 364 841T332 814T310 779Z" />
<glyph unicode="&#xd2;" horiz-adv-x="761" d="M133 350Q143 412 172 467T245 564T346 630T467 654Q530 654 576 629T652 560T692 463T694 350Q684 288 655 234T581 137T480 71T359 47Q296 47 250 72T174 140T135 237T133 350ZM75 350Q65 280 79 216T129 101T222
21T354 -9Q430 -9 497 19T617 96T705 211T752 350Q762 421 748 485T697 599T604 679T472 709Q397 709 330 681T209 604T121 489T75 350ZM388 923L535 770L567 789L439 949L388 923Z" />
<glyph unicode="&#xd3;" horiz-adv-x="761" d="M133 350Q143 412 172 467T245 564T346 630T467 654Q530 654 576 629T652 560T692 463T694 350Q684 288 655 234T581 137T480 71T359 47Q296 47 250 72T174 140T135 237T133 350ZM75 350Q65 280 79 216T129 101T222
21T354 -9Q430 -9 497 19T617 96T705 211T752 350Q762 421 748 485T697 599T604 679T472 709Q397 709 330 681T209 604T121 489T75 350ZM634 920L590 949L409 791L437 770L634 920Z" />
<glyph unicode="&#xd4;" horiz-adv-x="761" d="M133 350Q143 412 172 467T245 564T346 630T467 654Q530 654 576 629T652 560T692 463T694 350Q684 288 655 234T581 137T480 71T359 47Q296 47 250 72T174 140T135 237T133 350ZM75 350Q65 280 79 216T129 101T222
21T354 -9Q430 -9 497 19T617 96T705 211T752 350Q762 421 748 485T697 599T604 679T473 709Q397 709 330 681T210 604T121 489T75 350ZM505 880L610 770L645 795L512 936L333 798L362 770L505 880Z" />
<glyph unicode="&#xd5;" horiz-adv-x="761" d="M133 350Q143 412 172 467T245 564T346 630T467 654Q530 654 576 629T652 560T692 463T694 350Q684 288 655 234T581 137T480 71T359 47Q296 47 250 72T174 140T135 237T133 350ZM75 350Q65 280 79 216T129 101T222
21T354 -9Q430 -9 497 19T617 96T705 211T752 350Q762 421 748 485T697 599T604 679T473 709Q397 709 330 681T210 604T121 489T75 350ZM344 801L376 778Q383 794 396 811T437 828Q458 829 473 818T506 795T546 782Q568 782 585 791T618 814T643 846L616 873Q602
854 587 841T553 826Q530 826 514 837T482 860T440 872Q421 872 400 862T363 836T344 801Z" />
<glyph unicode="&#xd6;" horiz-adv-x="761" d="M133 350Q143 412 172 467T245 564T346 630T467 654Q530 654 576 629T652 560T692 463T694 350Q684 288 655 234T581 137T480 71T359 47Q296 47 250 72T174 140T135 237T133 350ZM75 350Q65 280 79 216T129 101T222
21T354 -9Q430 -9 497 19T617 96T705 211T752 350Q762 421 748 485T697 599T604 679T472 709Q397 709 330 681T209 604T121 489T75 350ZM557 819Q556 805 565 794T588 782Q603 781 616 792T630 818Q632 833 623 844T599 856Q586 857 572 845T557 819ZM355 819Q354
805 363 794T386 782Q401 781 414 792T429 818Q430 833 421 844T398 856Q384 857 371 845T355 819Z" />
<glyph unicode="&#xd7;" horiz-adv-x="571" d="M84 32L298 221L447 32L487 67L334 253L551 439L521 478L306 289L158 478L117 443L271 256L53 70L84 32Z" />
<glyph unicode="&#xd8;" horiz-adv-x="767" d="M133 350Q143 412 172 467T245 564T346 630T467 654Q530 654 576 629T652 560T692 463T694 350Q684 288 655 234T581 137T480 71T359 47Q296 47 250 72T174 140T135 237T133 350ZM75 350Q65 280 79 216T129 101T222
21T354 -9Q430 -9 497 19T617 96T705 211T752 350Q762 421 748 485T697 599T604 679T473 709Q397 709 330 681T210 604T121 489T75 350ZM776 743L17 -15L53 -42L812 716L776 743Z" />
<glyph unicode="&#xd9;" horiz-adv-x="588" d="M169 700L88 226Q80 164 96 110T156 24T268 -9Q338 -9 391 22T479 107T524 226L605 700H551L469 226Q460 175 434 134T368 68T272 43Q219 44 189 69T147 136T142 226L224 700H169ZM295 923L444 770L474 789L346 949L295
923Z" />
<glyph unicode="&#xda;" horiz-adv-x="588" d="M169 700L88 226Q80 164 96 110T156 24T268 -9Q338 -9 391 22T479 107T524 226L605 700H551L469 226Q460 175 434 134T368 68T272 43Q219 44 189 69T147 136T142 226L224 700H169ZM554 920L510 949L329 791L356 770L554
920Z" />
<glyph unicode="&#xdb;" horiz-adv-x="588" d="M169 700L88 226Q80 164 96 110T156 24T268 -9Q338 -9 391 22T479 107T524 226L605 700H551L469 226Q460 175 434 134T368 68T272 43Q219 44 189 69T147 136T142 226L224 700H169ZM419 880L523 770L559 795L426 936L247
798L276 770L419 880Z" />
<glyph unicode="&#xdc;" horiz-adv-x="588" d="M169 700L88 226Q80 164 96 110T156 24T268 -9Q338 -9 391 22T479 107T524 226L605 700H551L469 226Q460 175 434 134T368 68T272 43Q219 44 189 69T147 136T142 226L224 700H169ZM461 807Q460 793 469 782T493 770Q507
769 520 780T535 806Q536 821 527 832T504 844Q490 845 477 833T461 807ZM275 807Q274 793 283 782T306 770Q320 769 333 780T349 806Q350 821 341 832T317 844Q303 845 290 833T275 807Z" />
<glyph unicode="&#xdd;" horiz-adv-x="523" d="M529 920L485 949L305 791L331 770L529 920ZM546 700L289 340L161 700H102L256 289L205 0H260L309 287L609 700H546Z" />
<glyph unicode="&#xde;" horiz-adv-x="522" d="M170 700L51 0H104L225 700H170ZM165 508H312Q361 507 397 488T451 434T460 350Q452 302 422 267T349 213T254 192H112L103 140H249Q315 142 372 167T467 240T515 350Q525 412 501 459T429 532T317 560H175L165 508Z" />
<glyph unicode="&#xdf;" horiz-adv-x="551" d="M319 -11Q375 -11 420 17T491 94T518 202Q518 248 503 276T466 321T421 351T383 377T368 413Q368 436 384 453T424 486T472 524T512 576T528 652Q528 697 508 728T452 777T370 794Q309 794 262 767T186 696T148 596L48
-1H101L200 585Q208 634 230 670T286 726T362 746Q409 746 441 721T474 648Q474 612 458 586T417 539T369 500T328 461T311 413Q311 382 326 363T364 330T410 300T448 259T464 195Q464 152 446 117T395 60T323 38Q289 38 258 52T203 90L171 52Q188 33 211 19T262
-3T319 -11Z" />
<glyph unicode="&#xe0;" horiz-adv-x="542" d="M474 460L396 0H443L523 460H474ZM49 230Q41 166 59 112T120 24T227 -9Q273 -9 312 10T380 64T429 140T456 230Q462 274 457 316T433 393T383 449T305 470Q241 471 187 439T96 352T49 230ZM101 230Q110 283 139 327T212
396T307 421Q342 420 367 404T409 360T431 299T432 230Q426 193 408 159T364 98T305 56T238 40Q187 40 154 66T108 136T101 230ZM218 687L367 534L397 553L269 714L218 687Z" />
<glyph unicode="&#xe1;" horiz-adv-x="542" d="M474 460L396 0L443 1L523 460H474ZM49 230Q41 166 59 112T120 24T227 -9Q273 -9 312 10T380 64T429 140T456 230Q462 274 457 316T433 393T383 449T305 470Q241 471 187 439T96 352T49 230ZM101 230Q110 283 139
327T212 396T307 421Q342 420 367 404T409 360T431 299T432 230Q426 193 408 159T364 98T305 56T238 40Q187 40 154 66T108 136T101 230ZM457 685L413 714L233 556L259 535L457 685Z" />
<glyph unicode="&#xe2;" horiz-adv-x="542" d="M474 460L396 0H443L523 460H474ZM49 230Q41 166 59 112T120 24T227 -9Q273 -9 312 10T380 64T429 140T456 230Q462 274 457 316T433 393T383 449T305 470Q241 471 187 439T96 352T49 230ZM101 230Q110 283 139 327T212
396T307 421Q342 420 367 404T409 360T431 299T432 230Q426 193 408 159T364 98T305 56T238 40Q187 40 154 66T108 136T101 230ZM351 649L455 539L490 564L357 705L179 566L207 539L351 649Z" />
<glyph unicode="&#xe3;" horiz-adv-x="542" d="M474 460L396 0H443L523 460H474ZM49 230Q41 166 59 112T120 24T227 -9Q273 -9 312 10T380 64T429 140T456 230Q462 274 457 316T433 393T383 449T305 470Q241 471 187 439T96 352T49 230ZM101 230Q110 283 139 327T212
396T307 421Q342 420 367 404T409 360T431 299T432 230Q426 193 408 159T364 98T305 56T238 40Q187 40 154 66T108 136T101 230ZM188 562L221 539Q228 555 240 571T280 589Q301 590 317 579T350 556T390 543Q412 542 429 551T462 575T487 606L460 634Q446 615 431
602T396 587Q373 586 357 597T325 621T284 633Q264 633 244 623T208 597T188 562Z" />
<glyph unicode="&#xe4;" horiz-adv-x="542" d="M474 460L396 0H443L523 460H474ZM49 230Q41 166 59 112T120 24T227 -9Q273 -9 312 10T380 64T429 140T456 230Q462 274 457 316T433 393T383 449T305 470Q241 471 187 439T96 352T49 230ZM101 230Q110 283 139 327T212
396T307 421Q342 420 367 404T409 360T431 299T432 230Q426 193 408 159T364 98T305 56T238 40Q187 40 154 66T108 136T101 230ZM403 588Q401 574 410 563T433 551Q448 550 461 561T476 587Q477 601 468 612T445 625Q431 625 418 614T403 588ZM209 588Q207 574
216 563T239 551Q254 550 267 561T282 587Q283 601 274 612T251 625Q237 625 224 614T209 588Z" />
<glyph unicode="&#xe5;" horiz-adv-x="542" d="M474 460L396 0H443L523 460H474ZM49 230Q41 166 59 112T120 24T227 -9Q273 -9 312 10T380 64T429 140T456 230Q462 274 457 316T433 393T383 449T305 470Q241 471 187 439T96 352T49 230ZM101 230Q110 283 139 327T212
396T307 421Q342 420 367 404T409 360T431 299T432 230Q426 193 408 159T364 98T305 56T238 40Q187 40 154 66T108 136T101 230ZM230 630Q227 603 237 581T267 545T314 530Q341 530 365 543T407 579T429 629Q433 656 423 679T393 715T346 729Q319 730 294 717T252
681T230 630ZM264 629Q267 648 279 663T308 688T343 697Q368 697 383 677T396 630Q394 613 382 597T352 572T317 563Q292 563 277 583T264 629Z" />
<glyph unicode="&#xe6;" horiz-adv-x="811" d="M173 -10Q247 -10 297 29T369 137H358Q370 63 414 27T531 -10Q596 -10 656 20T756 107L714 134Q682 87 635 63T534 39Q482 39 450 64T407 132T404 229L388 217H780Q785 228 787 238T790 263Q794 324 773 370T712
443T617 470Q567 470 522 450T444 395T391 317L405 326Q416 398 384 434T283 470Q237 470 192 455T108 409L134 369Q156 387 180 399T231 417T282 424Q329 424 352 396T367 314L353 231L378 232Q341 260 307 272T230 284Q172 284 127 263T54 206T23 125Q19 68 58
29T173 -10ZM182 37Q127 37 100 61T75 131Q78 165 99 190T155 229T233 243Q271 243 302 234T357 206L351 225L349 141L356 194Q334 117 290 77T182 37ZM404 238Q415 292 444 334T514 400T606 424Q653 424 683 403T726 345T736 260Q735 248 732 244L750 262H389L404
238Z" />
<glyph unicode="&#xe7;" horiz-adv-x="468" d="M96 230Q105 282 135 325T211 395T309 421Q358 421 395 400T449 347L459 411Q435 438 397 454T314 470Q246 470 189 438T94 351T45 230Q35 167 56 113T123 25T235 -9Q283 -9 325 7T398 49L408 113Q381 85 337 62T240
40Q188 41 154 67T104 137T96 230ZM232 34L138 -101Q154 -92 173 -86T208 -81Q222 -81 233 -86T249 -102T253 -127Q251 -144 239 -157T210 -177T175 -185Q155 -185 142 -178T115 -157L89 -183Q108 -201 126 -211T171 -221Q198 -221 224 -210T268 -177T290 -128Q294
-96 276 -76T230 -54Q221 -53 213 -56T197 -63L273 34H232Z" />
<glyph unicode="&#xe8;" horiz-adv-x="495" d="M83 218H470Q472 224 472 230T474 242Q482 303 465 354T407 438T304 470Q249 470 202 446T120 382T68 291Q62 276 58 262T52 231Q44 171 61 116T118 27T222 -9Q276 -9 316 6T387 48T444 106L406 134Q386 110 361
88T304 53T232 40Q181 41 151 68T110 138T104 231L109 249Q118 298 145 337T212 401T300 424Q346 424 374 401T414 341T421 262H90L83 218ZM195 689L345 536L375 555L246 716L195 689Z" />
<glyph unicode="&#xe9;" horiz-adv-x="495" d="M83 218H470Q472 224 472 230T474 242Q482 303 465 354T407 438T304 470Q249 470 202 446T120 382T68 291Q62 276 58 262T52 231Q44 171 61 116T118 27T222 -9Q276 -9 316 6T387 48T444 106L406 134Q386 110 361
88T304 53T232 40Q181 41 151 68T110 138T104 231L109 249Q118 298 145 337T212 401T300 424Q346 424 374 401T414 341T421 262H90L83 218ZM496 687L452 715L273 557L300 537L496 687Z" />
<glyph unicode="&#xea;" horiz-adv-x="495" d="M83 218H470Q472 224 472 230T474 242Q482 303 465 354T407 438T304 470Q249 470 202 446T120 382T68 291Q62 276 58 262T52 231Q44 171 61 116T118 27T222 -9Q276 -9 316 6T387 48T444 106L406 134Q386 110 361
88T304 53T232 40Q181 41 151 68T110 138T104 231L109 249Q118 298 145 337T212 401T300 424Q346 424 374 401T414 341T421 262H90L83 218ZM335 641L439 531L474 556L341 696L163 558L192 531L335 641Z" />
<glyph unicode="&#xeb;" horiz-adv-x="495" d="M83 218H470Q472 224 472 230T474 242Q482 303 465 354T407 438T304 470Q249 470 202 446T120 382T68 291Q62 276 58 262T52 231Q44 171 61 116T118 27T222 -9Q276 -9 316 6T387 48T444 106L406 134Q386 110 361
88T304 53T232 40Q181 41 151 68T110 138T104 231L109 249Q118 298 145 337T212 401T300 424Q346 424 374 401T414 341T421 262H90L83 218ZM380 568Q379 554 388 543T411 531Q426 530 439 541T454 567Q455 581 446 592T422 605Q409 605 396 594T380 568ZM186 568Q185
554 194 543T217 531Q231 530 244 541T260 567Q261 581 252 592T228 605Q215 605 202 594T186 568Z" />
<glyph unicode="&#xec;" horiz-adv-x="225" d="M138 460L61 0H111L190 460H138ZM51 695L198 542L229 561L102 722L51 695Z" />
<glyph unicode="&#xed;" horiz-adv-x="225" d="M138 460L61 0H111L190 460H138ZM359 693L314 722L134 564L161 543L359 693Z" />
<glyph unicode="&#xee;" horiz-adv-x="225" d="M138 460L61 0H111L190 460H138ZM198 647L303 537L338 562L204 703L26 564L54 537L198 647Z" />
<glyph unicode="&#xef;" horiz-adv-x="225" d="M138 460L61 0H111L190 460H138ZM238 586Q237 572 246 561T269 549Q284 548 297 559T311 585Q313 599 304 610T280 623Q267 623 253 612T238 586ZM59 586Q58 572 67 561T91 549Q105 548 118 559T133 585Q134 599
126 610T102 623Q88 623 75 612T59 586Z" />
<glyph unicode="&#xf0;" horiz-adv-x="560" d="M253 -10Q309 -10 357 13T440 75T496 164T515 267Q515 300 508 333T485 402T441 484T372 585T274 715L242 679Q283 629 313 590T365 517T405 448T440 373L465 374Q429 411 389 430T298 449Q253 449 209 430T129 375T72
294T51 195Q51 132 75 86T145 15T253 -10ZM253 40Q186 40 145 82T103 195Q103 237 120 275T167 343T233 390T307 408Q355 408 389 389T442 335T461 255Q461 214 445 176T400 107T333 58T253 40ZM228 510L503 618L491 650L217 542L228 510Z" />
<glyph unicode="&#xf1;" horiz-adv-x="490" d="M180 460H128L48 0H100L180 460ZM387 296L336 0H386L439 302Q444 349 435 386T398 447T321 470Q270 470 230 444T162 374T124 281H148Q157 317 178 349T232 402T305 421Q342 420 361 403T385 358T387 296ZM168 562L201
539Q207 555 220 571T261 589Q282 590 297 579T330 556T370 543Q391 542 409 551T442 575T468 606L440 634Q427 615 412 602T377 587Q354 586 338 597T306 621T264 633Q242 634 223 624T190 597T168 562Z" />
<glyph unicode="&#xf2;" horiz-adv-x="534" d="M49 230Q40 167 61 113T128 25T240 -9Q308 -9 365 23T460 110T509 230Q519 294 498 348T431 436T318 470Q251 470 194 438T98 351T49 230ZM101 230Q110 282 140 325T216 395T314 421Q366 421 400 394T450 323T457
230Q449 178 419 135T343 66T244 40Q192 40 158 67T109 137T101 230ZM212 695L361 542L391 561L263 722L212 695Z" />
<glyph unicode="&#xf3;" horiz-adv-x="534" d="M49 230Q40 167 61 113T128 25T240 -9Q308 -9 365 23T460 110T509 230Q519 294 498 348T431 436T318 470Q251 470 194 438T98 351T49 230ZM101 230Q110 282 140 325T216 395T314 421Q366 421 400 394T450 323T457
230Q449 178 419 135T343 66T244 40Q192 40 158 67T109 137T101 230ZM505 693L461 722L281 564L307 543L505 693Z" />
<glyph unicode="&#xf4;" horiz-adv-x="534" d="M49 230Q40 167 61 113T128 25T240 -9Q308 -9 365 23T460 110T509 230Q519 294 498 348T431 436T318 470Q251 470 194 438T98 351T49 230ZM101 230Q110 282 140 325T216 395T314 421Q366 421 400 394T450 323T457
230Q449 178 419 135T343 66T244 40Q192 40 158 67T109 137T101 230ZM355 661L459 551L495 576L361 717L183 578L211 551L355 661Z" />
<glyph unicode="&#xf5;" horiz-adv-x="534" d="M49 230Q40 167 61 113T128 25T240 -9Q308 -9 365 23T460 110T509 230Q519 294 498 348T431 436T318 470Q251 470 194 438T98 351T49 230ZM101 230Q110 282 140 325T216 395T314 421Q366 421 400 394T450 323T457
230Q449 178 419 135T343 66T244 40Q192 40 158 67T109 137T101 230ZM190 562L222 539Q229 555 242 571T282 589Q303 590 319 579T352 556T392 543Q413 542 431 551T464 575T489 606L462 634Q448 615 433 602T398 587Q375 586 359 597T327 621T286 633Q269 633
246 623T206 597T190 562Z" />
<glyph unicode="&#xf6;" horiz-adv-x="534" d="M49 230Q40 167 61 113T128 25T240 -9Q308 -9 365 23T460 110T509 230Q519 294 498 348T431 436T318 470Q251 470 194 438T98 351T49 230ZM101 230Q110 282 140 325T216 395T314 421Q366 421 400 394T450 323T457
230Q449 178 419 135T343 66T244 40Q192 40 158 67T109 137T101 230ZM402 594Q400 580 409 569T433 557Q447 556 460 567T475 593Q476 607 468 618T444 631Q430 631 417 620T402 594ZM208 594Q206 580 215 569T239 557Q252 556 266 567T281 593Q282 607 274 618T250
631Q236 631 223 620T208 594Z" />
<glyph unicode="&#xf7;" horiz-adv-x="605" d="M314 451Q314 441 317 433T328 419T346 414Q355 413 364 418T380 432T388 450Q389 459 385 467T374 481T357 488Q347 488 338 483T322 470T314 451ZM247 55Q245 41 254 30T278 18Q288 17 297 22T312 36T320 54Q322
63 318 71T306 85T289 92Q280 92 271 87T255 74T247 55ZM70 230L557 229L565 281H79L70 230Z" />
<glyph unicode="&#xf8;" horiz-adv-x="530" d="M49 230Q40 167 61 113T128 25T240 -9Q308 -9 365 23T460 110T509 230Q519 294 498 348T431 436T318 470Q251 470 194 438T98 351T49 230ZM101 230Q110 282 140 325T216 395T314 421Q366 421 400 394T450 323T457
230Q449 178 419 135T343 66T244 40Q192 40 158 67T109 137T101 230ZM491 497L23 -25L52 -40L520 482L491 497Z" />
<glyph unicode="&#xf9;" horiz-adv-x="490" d="M335 0H386L466 460H414L335 0ZM129 168L179 460H129L77 162Q71 115 80 77T116 15T193 -9Q244 -9 285 17T353 87T391 179H366Q358 143 337 111T283 59T210 40Q172 41 153 58T130 105T129 168ZM206 699L354 546L386
565L257 726L206 699Z" />
<glyph unicode="&#xfa;" horiz-adv-x="490" d="M335 0H386L466 460H414L335 0ZM129 168L179 460H129L77 162Q71 115 80 77T116 15T193 -9Q244 -9 285 17T353 87T391 179H366Q358 143 337 111T283 59T210 40Q172 41 153 58T130 105T129 168ZM468 697L424 726L245
568L271 547L468 697Z" />
<glyph unicode="&#xfb;" horiz-adv-x="490" d="M335 0H386L466 460H414L335 0ZM129 168L179 460H129L77 162Q71 115 80 77T116 15T193 -9Q244 -9 285 17T353 87T391 179H366Q358 143 337 111T283 59T210 40Q172 41 153 58T130 105T129 168ZM332 657L436 547L472
572L338 713L160 574L188 547L332 657Z" />
<glyph unicode="&#xfc;" horiz-adv-x="490" d="M335 0H386L466 460H414L335 0ZM129 168L179 460H129L77 162Q71 115 80 77T116 15T193 -9Q244 -9 285 17T353 87T391 179H366Q358 143 337 111T283 59T210 40Q172 41 153 58T130 105T129 168ZM371 588Q370 575 378
563T402 551Q416 550 429 561T445 587Q446 601 437 612T413 625Q399 625 386 614T371 588ZM193 588Q191 575 200 563T223 551Q238 550 251 561T266 587Q267 601 258 612T235 625Q221 625 208 614T193 588Z" />
<glyph unicode="&#xfd;" horiz-adv-x="421" d="M471 460H412L187 71L211 68L116 460H56L166 49L4 -219H63L471 460ZM439 693L395 722L215 564L242 543L439 693Z" />
<glyph unicode="&#xfe;" horiz-adv-x="542" d="M59 -219L229 780H178L6 -220L59 -219ZM517 230Q526 294 508 348T447 436T340 470Q293 470 254 450T186 397T138 320T111 230Q105 186 110 144T134 67T184 11T262 -10Q326 -10 380 22T471 109T517 230ZM465 230Q458
177 428 134T355 65T260 40Q225 41 200 57T158 100T136 161T135 230Q141 268 159 302T203 363T261 405T329 421Q380 421 413 395T459 325T465 230Z" />
<glyph unicode="&#xff;" horiz-adv-x="421" d="M471 460H412L187 71L211 68L116 460H56L166 49L4 -219H63L471 460ZM335 576Q334 562 342 551T365 539Q380 538 393 549T408 575Q409 589 400 600T377 613Q363 613 350 602T335 576ZM156 576Q155 562 163 551T187
539Q201 538 214 549T229 575Q231 589 222 600T198 613Q184 613 171 602T156 576Z" />
<glyph unicode="&#x2013;" horiz-adv-x="718" d="M80 227L663 226L671 275H88L80 227Z" />
<glyph unicode="&#x2014;" horiz-adv-x="864" d="M80 227L809 226L817 275H88L80 227Z" />
<glyph unicode="&#x2018;" horiz-adv-x="247" d="M178 471L289 699H251L115 471H178Z" />
<glyph unicode="&#x2019;" horiz-adv-x="255" d="M223 700L113 471H150L286 700H223Z" />
<glyph unicode="&#x201a;" horiz-adv-x="255" d="M116 80L5 -149H42L178 80H116Z" />
<glyph unicode="&#x201c;" horiz-adv-x="426" d="M186 471L296 699H259L123 471H186ZM357 471L467 699H430L294 471H357Z" />
<glyph unicode="&#x201d;" horiz-adv-x="426" d="M216 700L105 471H142L278 700H216ZM386 700L275 471H313L449 700H386Z" />
<glyph unicode="&#x201e;" horiz-adv-x="426" d="M113 80L2 -149H39L175 80H113ZM283 80L172 -149H210L346 80H283Z" />
<glyph unicode="&#x2022;" horiz-adv-x="291" d="M142 401Q142 390 147 382T160 368T180 363Q190 363 198 368T211 381T216 401Q216 411 212 419T199 432T180 437Q169 437 161 433T147 420T142 401Z" />
<glyph unicode="&#x2039;" horiz-adv-x="330" d="M112 257L315 459L286 490L55 257L208 20L244 49L112 257Z" />
<glyph unicode="&#x203a;" horiz-adv-x="340" d="M261 253L58 51L87 21L318 253L165 490L128 461L261 253Z" />
</font>
</defs>
</svg>
