<?xml version="1.0" standalone="no"?>
<!DOCTYPE svg PUBLIC "-//W3C//DTD SVG 1.1//EN" "http://www.w3.org/Graphics/SVG/1.1/DTD/svg11.dtd">
<svg xmlns="http://www.w3.org/2000/svg">
<defs >
<font id="Jost" horiz-adv-x="531" ><font-face
    font-family="Jost Medium"
    units-per-em="1000"
    panose-1="0 0 0 0 0 0 0 0 0 0"
    ascent="1070"
    descent="-375"
    alphabetic="0" />
<glyph unicode=" " horiz-adv-x="301" />
<glyph unicode="!" horiz-adv-x="308" d="M180 700L122 213H207L314 700H180ZM66 49Q66 21 86 1T136 -19Q167 -19 187 1T207 49Q207 78 187 97T136 116Q107 116 87 97T66 49Z" />
<glyph unicode="&quot;" horiz-adv-x="472" d="M206 700L113 393L186 394L328 700H206ZM393 700L299 393L372 394L514 700H393Z" />
<glyph unicode="#" horiz-adv-x="611" d="M120 430L257 429L275 431H467L485 429L625 430L640 516H133L120 430ZM39 190H545L560 276H433L409 274H203L182 276H53L39 190ZM539 700L450 482L445 460L359 248L347 227L255 0H353L639 700H539ZM323 700L40 0H137L229
226L235 247L323 462L334 485L423 700H323Z" />
<glyph unicode="$" horiz-adv-x="579" d="M361 818L338 656H426L454 818H361ZM246 54L218 -111H310L333 54H246ZM494 504L591 560Q576 600 549 634T481 689T384 710Q327 710 275 688T188 625T145 534Q138 477 159 436T217 368T292 324Q326 310 358 293T408 250T420
188Q416 159 400 138T358 105T300 93Q259 93 232 112T185 164T151 236L55 178Q71 126 103 84T181 16T286 -9Q355 -9 409 15T499 85T543 193Q550 248 531 288T476 357T400 403Q374 414 349 425T303 450T272 483T265 529Q270 554 285 573T324 602T378 612Q411 612
432 597T468 557T494 504Z" />
<glyph unicode="%" horiz-adv-x="795" d="M94 545Q88 500 103 462T153 399T235 375Q284 375 325 398T393 460T428 544Q434 589 418 627T369 690T286 714Q237 714 196 691T128 629T94 545ZM185 544Q188 565 201 584T234 615T276 627Q300 627 314 615T334 583T337
544Q333 523 320 504T288 473T245 461Q222 462 208 474T188 505T185 544ZM433 158Q427 113 442 74T492 12T574 -12Q623 -12 664 11T732 72T766 157Q772 201 757 240T708 303T625 327Q577 327 536 304T467 242T433 158ZM524 156Q528 178 541 197T573 229T616 240Q639
239 653 227T673 196T676 157Q672 135 659 116T627 85T584 74Q561 75 547 87T527 118T524 156ZM670 700L81 0H189L781 700H670Z" />
<glyph unicode="&amp;" horiz-adv-x="685" d="M260 379L529 0H649L354 415Q337 438 321 459T296 503T291 547Q294 569 306 586T337 613T380 623Q403 623 418 612T439 584T443 546Q439 520 419 497T368 455T305 418Q279 405 247 391T182 358T122 316T75 260T49
185Q42 126 68 83T143 15T250 -10Q320 -11 382 14T498 81T599 172T688 271L617 325Q582 284 543 241T459 163T368 106T269 85Q235 86 210 100T172 138T164 193Q169 229 190 253T241 295T305 329T366 360Q411 386 449 414T514 475T546 552Q552 595 534 632T479 691T391
714Q339 714 294 693T220 636T184 552Q180 517 192 487T223 431T260 379Z" />
<glyph unicode="&apos;" horiz-adv-x="286" d="M206 700L113 393L186 394L328 700H206Z" />
<glyph unicode="(" horiz-adv-x="313" d="M294 779Q220 669 173 545T106 290Q88 167 97 43T147 -200H244Q209 -81 205 43T218 290Q239 420 283 543T393 779H294Z" />
<glyph unicode=")" horiz-adv-x="313" d="M75 -199Q149 -89 196 35T263 290Q281 414 272 538T222 781H125Q159 663 164 539T151 290Q130 161 86 38T-25 -199H75Z" />
<glyph unicode="*" horiz-adv-x="575" d="M542 601L339 519L349 461L557 508L542 601ZM479 346L368 507L317 473L393 289L479 346ZM230 291L365 469L321 506L160 350L230 291ZM137 509L332 461L359 517L180 600L137 509ZM332 700L315 490H373L429 700H332Z" />
<glyph unicode="+" horiz-adv-x="620" d="M71 208H567L585 314H89L71 208ZM315 516L228 6L339 5L428 516H315Z" />
<glyph unicode="," horiz-adv-x="305" d="M123 109L-6 -148L72 -170L227 77L123 109Z" />
<glyph unicode="-" horiz-adv-x="209" d="M10 190H211L228 286H27L10 190Z" />
<glyph unicode="." horiz-adv-x="300" d="M63 51Q63 23 83 3T133 -18Q163 -18 183 2T204 51Q204 80 184 100T133 121Q103 121 83 101T63 51Z" />
<glyph unicode="/" horiz-adv-x="536" d="M509 700L-39 -149H70L617 700H509Z" />
<glyph unicode="0" horiz-adv-x="606" d="M186 350Q192 397 208 442T250 525T308 583T384 605Q417 604 438 589T471 547T487 487T491 419T487 350Q481 304 465 259T423 176T364 117T289 96Q256 96 235 112T202 154T186 213T181 281T186 350ZM71 350Q65 298 67
246T83 148T122 66T186 11T279 -10Q345 -10 400 19T497 99T565 214T602 350Q608 403 606 455T590 553T551 635T487 691T394 711Q328 711 273 682T176 602T107 486T71 350Z" />
<glyph unicode="1" horiz-adv-x="460" d="M136 536L302 580L202 0H317L439 713L156 649L136 536Z" />
<glyph unicode="2" horiz-adv-x="586" d="M1 0H522L540 110L246 111L469 305Q514 344 548 394T591 502Q599 554 576 602T505 681T386 712Q308 713 250 678T157 584T109 454L224 453Q232 494 251 529T302 585T374 606Q409 606 432 590T464 549T470 496Q466 467
451 441T414 390T366 341L1 0Z" />
<glyph unicode="3" horiz-adv-x="559" d="M290 344Q340 345 387 356T471 389T534 444T566 522Q574 575 553 617T487 686T382 711Q320 711 270 686T188 616T145 515L254 514Q262 541 278 563T319 598T374 611Q403 611 421 598T446 563T449 516Q444 484 423 460T369
423T298 406L290 344ZM273 -12Q339 -12 395 13T489 82T535 188Q542 240 525 277T474 337T393 372T295 385L286 318Q316 316 342 309T388 287T416 252T420 200Q415 168 396 143T348 105T284 91Q250 91 226 105T191 144T182 200H66Q62 141 85 93T156 17T273 -12Z"
/>
<glyph unicode="4" horiz-adv-x="611" d="M12 135L574 134L592 236H448L430 228L200 229L414 483L364 187L354 176L324 0H444L564 700L491 699L12 135Z" />
<glyph unicode="5" horiz-adv-x="579" d="M559 228Q567 290 549 342T489 428T387 461Q358 461 330 454T276 435L348 597L609 596L626 700H273L125 316Q175 342 221 357T316 370Q356 369 384 352T427 305T436 235Q430 195 407 165T349 117T268 100Q219 100 179
129T113 199L34 114Q72 60 130 25T273 -10Q325 -10 373 6T460 53T526 128T559 228Z" />
<glyph unicode="6" horiz-adv-x="596" d="M181 236Q187 277 210 310T268 363T343 383Q383 383 410 362T448 308T454 237Q448 197 425 164T368 112T292 93Q253 93 226 113T187 166T181 236ZM410 699L148 401Q119 367 97 326T67 236Q58 166 83 110T160 21T283 -12Q355
-12 416 20T517 108T568 236Q575 296 555 347T494 431T394 464Q361 464 334 454T282 423L302 426L561 699H410Z" />
<glyph unicode="7" horiz-adv-x="540" d="M101 589H437L68 0H195L630 700H119L101 589Z" />
<glyph unicode="8" horiz-adv-x="562" d="M140 532Q133 490 144 457T181 400T241 364T318 351Q360 351 399 363T470 399T523 455T550 531Q555 570 544 603T508 660T448 699T372 713Q315 713 266 690T182 626T140 532ZM247 518Q252 546 268 568T309 605T362 619Q390
619 408 605T434 568T438 519Q434 493 417 470T375 434T322 421Q296 422 278 435T251 471T247 518ZM57 191Q51 148 64 111T104 47T171 4T255 -12Q302 -12 346 3T426 45T485 109T516 190Q523 237 509 275T467 339T400 379T317 393Q273 393 230 380T150 340T89 276T57
191ZM173 206Q179 237 199 264T250 308T312 324Q344 324 366 307T399 264T405 207Q400 172 379 146T329 104T266 89Q234 89 212 104T179 147T173 206Z" />
<glyph unicode="9" horiz-adv-x="596" d="M489 464Q483 425 460 392T403 338T327 318Q287 318 260 339T222 393T216 464Q222 504 245 537T303 589T378 609Q418 609 445 589T483 536T489 464ZM260 2L522 299Q551 333 573 374T603 464Q612 535 587 591T511 680T387
713Q316 713 254 681T152 593T102 464Q95 405 115 354T176 270T276 238Q309 237 336 246T387 277L368 276L108 2H260Z" />
<glyph unicode=":" horiz-adv-x="300" d="M62 51Q62 23 82 3T132 -18Q162 -18 182 2T202 51Q202 80 182 100T132 121Q102 121 82 101T62 51ZM126 429Q126 401 146 381T196 360Q227 360 247 380T267 429Q267 458 247 478T196 499Q167 499 147 479T126 429Z" />
<glyph unicode=";" horiz-adv-x="345" d="M163 426Q163 398 183 378T234 357Q264 357 284 377T304 426Q304 455 284 475T234 496Q204 496 184 476T163 426ZM131 109L2 -148L80 -170L236 77L131 109Z" />
<glyph unicode="&lt;" horiz-adv-x="621" d="M242 261L601 401L621 513L86 294L74 228L534 10L552 112L242 261Z" />
<glyph unicode="=" horiz-adv-x="601" d="M53 118H536L553 215H69L53 118ZM82 291L566 290L583 388H98L82 291Z" />
<glyph unicode="&gt;" horiz-adv-x="621" d="M414 260L55 120L36 7L571 226L582 293L123 510L104 408L414 260Z" />
<glyph unicode="?" horiz-adv-x="568" d="M464 500Q456 462 427 430T353 380T257 359H230L221 183H306L331 288Q388 297 439 324T527 396T572 500Q578 545 566 584T528 652T462 697T377 714Q295 715 235 681T127 594L198 534Q229 569 269 593T358 618Q396 618
421 603T458 562T464 500ZM170 48Q170 21 190 2T240 -18Q270 -18 289 1T309 48Q309 74 290 94T240 114Q210 114 190 95T170 48Z" />
<glyph unicode="@" horiz-adv-x="747" d="M305 320Q310 352 327 382T370 431T423 449Q444 448 456 437T473 408T476 368Q472 332 453 302T407 255T354 240Q333 241 322 252T307 281T305 320ZM213 316Q208 274 218 239T255 181T321 159Q372 158 413 186T482 263T516
370Q521 407 514 443T484 504T420 530Q372 532 327 503T251 424T213 316ZM55 320Q45 251 57 190T103 83T194 11T329 -15Q400 -16 457 -1T563 40L538 112Q491 88 442 76T340 64Q262 65 214 99T148 191T140 320Q151 384 181 441T257 543T361 611T488 636Q545 636
584 615T646 559T676 481T675 390Q673 359 661 329T632 274T597 236T561 227Q549 229 544 235T538 251T538 270Q539 277 541 284T544 297L618 520H527L457 281L464 269Q459 239 465 212T490 167T543 148Q582 147 618 164T684 215T734 293T760 390Q770 450 758 508T711
612T623 687T494 715Q409 715 335 684T203 598T106 472T55 320Z" />
<glyph unicode="A" horiz-adv-x="669" d="M161 180H522L517 280H199L161 180ZM395 502L458 242L456 213L511 0H640L434 741L-28 0H107L239 219L245 245L395 502Z" />
<glyph unicode="B" horiz-adv-x="583" d="M198 362H318Q379 363 431 380T518 434T562 524Q569 568 557 601T517 656T452 689T369 700H167L47 0H269Q339 0 397 22T495 89T545 202Q553 251 538 286T491 345T418 381T329 393H203L192 328L317 327Q354 327 381 314T421
276T428 215Q422 177 400 151T344 112T271 98H181L268 603H352Q396 602 421 578T440 511Q436 483 418 462T372 431T314 419H207L198 362Z" />
<glyph unicode="C" horiz-adv-x="671" d="M195 350Q203 402 228 447T291 525T375 578T472 597Q538 597 586 570T665 498L687 638Q645 676 596 694T481 713Q402 713 333 685T208 607T116 492T68 350Q58 278 74 212T129 96T228 17T364 -12Q435 -12 489 7T591 62L612
202Q567 162 510 133T380 104Q331 104 293 124T231 179T197 257T195 350Z" />
<glyph unicode="D" horiz-adv-x="681" d="M167 700L48 0H166L287 700H167ZM272 0Q352 0 420 26T542 98T631 209T678 350Q690 424 674 487T619 598T521 673T384 700H238L218 589H369Q421 589 460 572T524 522T558 446T559 350Q547 277 508 224T410 141T281 111H138L118
0H272Z" />
<glyph unicode="E" horiz-adv-x="555" d="M119 0H464L481 104H137L119 0ZM221 596H565L583 700H239L221 596ZM175 325H499L517 426H192L175 325ZM167 700L48 0H161L282 700H167Z" />
<glyph unicode="F" horiz-adv-x="506" d="M221 594H526L544 700H239L221 594ZM173 317L469 316L487 419H191L173 317ZM167 700L48 0H161L282 700H167Z" />
<glyph unicode="G" horiz-adv-x="767" d="M416 266H620Q604 232 582 201T530 147T463 110T380 96Q328 96 289 117T226 173T193 254T192 350Q200 403 225 449T289 529T374 583T474 603Q539 603 584 574T653 493L755 556Q716 631 648 672T486 713Q406 713 336 685T209
608T117 493T68 350Q58 277 73 211T129 94T229 14T368 -15Q452 -15 519 16T637 100T718 222T761 366H434L416 266Z" />
<glyph unicode="H" horiz-adv-x="722" d="M149 322H636L654 430H167L149 322ZM623 700L504 0H620L741 700H623ZM167 700L48 0H164L285 700H167Z" />
<glyph unicode="I" horiz-adv-x="267" d="M167 700L48 0H165L286 700H167Z" />
<glyph unicode="J" horiz-adv-x="268" d="M-112 -88L-185 -174Q-162 -194 -127 -210T-48 -227Q6 -227 49 -207T120 -149T158 -57L287 700H167L41 -36Q36 -74 12 -97T-41 -122Q-64 -123 -81 -113T-112 -88Z" />
<glyph unicode="K" horiz-adv-x="601" d="M167 700L48 0H166L287 700H167ZM535 700L195 372L432 0H570L333 370L680 700H535Z" />
<glyph unicode="L" horiz-adv-x="467" d="M167 700L47 0H434L453 106H183L285 700H167Z" />
<glyph unicode="M" horiz-adv-x="818" d="M250 426L394 64L660 421L635 0H754L789 740L425 262L228 736L7 0H129L250 426Z" />
<glyph unicode="N" horiz-adv-x="759" d="M663 700L582 230L172 734L47 0H162L243 471L652 -34L778 700H663Z" />
<glyph unicode="O" horiz-adv-x="779" d="M192 350Q201 401 225 446T286 526T369 580T469 599Q521 599 559 579T620 523T652 443T653 350Q645 299 620 254T559 175T476 122T376 102Q324 102 286 123T225 178T193 257T192 350ZM68 350Q58 278 73 213T128 96T226
15T364 -15Q443 -15 512 13T637 92T729 208T777 350Q787 423 771 488T716 603T617 683T480 713Q402 713 333 685T208 607T116 492T68 350Z" />
<glyph unicode="P" horiz-adv-x="561" d="M167 700L48 0H164L285 700H167ZM218 597H359Q396 597 422 583T461 544T467 483Q461 447 439 422T384 383T313 369H179L161 265H303Q375 265 434 291T533 367T581 483Q591 548 566 597T490 673T369 700H236L218 597Z" />
<glyph unicode="Q" horiz-adv-x="796" d="M192 350Q201 401 225 446T287 526T370 580T470 599Q523 599 562 578T626 519T658 437T659 343Q650 292 626 248T564 169T481 116T381 97Q329 97 290 118T227 174T194 255T192 350ZM68 350Q58 278 73 213T128 96T228 15T365
-15Q444 -15 513 13T638 92T729 208T777 350Q787 423 772 488T717 603T618 683T482 713Q404 713 334 685T209 607T117 492T68 350ZM386 300L637 -5H767L513 300H386Z" />
<glyph unicode="R" horiz-adv-x="577" d="M247 334L407 0H542L369 334H247ZM167 700L48 0H164L285 700H167ZM218 598H359Q396 598 422 583T460 542T467 480Q460 444 438 418T384 377T312 363H178L161 265H307Q379 265 439 292T538 368T586 483Q596 548 571 597T495
673T374 700H236L218 598Z" />
<glyph unicode="S" horiz-adv-x="562" d="M126 226L36 165Q54 116 88 75T170 10T279 -15Q345 -15 402 14T495 93T534 208Q536 263 515 300T459 363T385 404Q355 415 331 427T288 454T261 486T252 524Q253 548 265 567T300 597T354 608Q393 608 418 594T460 558T488
510L585 562Q569 602 540 636T468 691T366 713Q300 713 248 688T165 618T131 517Q130 475 144 444T183 389T234 350T286 323Q322 307 351 292T396 256T412 200Q411 172 395 148T351 108T285 92Q245 92 216 109T166 156T126 226Z" />
<glyph unicode="T" horiz-adv-x="489" d="M80 591H260L158 0H276L378 591H556L575 700H99L80 591Z" />
<glyph unicode="U" horiz-adv-x="637" d="M162 700L83 230Q72 160 95 104T169 16T293 -17Q374 -17 434 14T531 102T580 230L661 700H544L463 235Q457 195 438 163T385 111T304 92Q261 93 236 112T203 165T199 235L280 700H162Z" />
<glyph unicode="V" horiz-adv-x="669" d="M348 209L225 700H94L312 -40L761 700H624L348 209Z" />
<glyph unicode="W" horiz-adv-x="990" d="M706 228L591 737L317 229L232 700H99L262 -40L550 456L683 -39L1076 700H939L706 228Z" />
<glyph unicode="X" horiz-adv-x="590" d="M517 700L351 466L261 700H124L273 367L-13 0H132L323 267L427 0H564L401 361L662 700H517Z" />
<glyph unicode="Y" horiz-adv-x="583" d="M540 700L331 403L225 700H96L257 298L205 0H324L373 293L677 700H540Z" />
<glyph unicode="Z" horiz-adv-x="558" d="M115 591H425L-18 0H490L508 106L192 107L636 700H134L115 591Z" />
<glyph unicode="[" horiz-adv-x="315" d="M288 683H386L401 780H196L41 -220H246L262 -122H163L288 683Z" />
<glyph unicode="\" horiz-adv-x="512" d="M107 701L366 0H469L213 700L107 701Z" />
<glyph unicode="]" horiz-adv-x="315" d="M81 -122H-17L-33 -220H172L326 780H122L106 683H205L81 -122Z" />
<glyph unicode="^" horiz-adv-x="495" d="M326 604L394 455H492L370 710H310L101 456H206L326 604Z" />
<glyph unicode="_" horiz-adv-x="497" d="M-52 -140H448L459 -70H-40L-52 -140Z" />
<glyph unicode="`" horiz-adv-x="364" d="M149 659L303 508L365 541L242 703L149 659Z" />
<glyph unicode="a" horiz-adv-x="571" d="M457 460L379 0H482L562 460H457ZM44 230Q35 165 55 111T118 24T226 -9Q272 -9 310 9T378 61T427 137T453 230Q459 277 454 320T429 396T379 450T300 470Q237 471 182 439T91 353T44 230ZM154 230Q161 271 184 305T243
358T316 376Q343 375 362 363T395 331T414 285T415 230Q410 200 395 174T359 127T312 96T260 85Q221 85 196 105T160 158T154 230Z" />
<glyph unicode="b" horiz-adv-x="571" d="M276 780H169L35 0H142L276 780ZM552 230Q561 296 542 350T478 437T371 470Q325 470 286 451T218 399T169 323T143 230Q137 184 143 141T167 64T218 10T296 -10Q360 -10 414 21T506 108T552 230ZM442 230Q436 189 412
156T354 104T280 85Q254 86 234 97T201 129T183 175T182 230Q187 261 201 287T237 334T284 365T336 376Q375 376 401 356T437 303T442 230Z" />
<glyph unicode="c" horiz-adv-x="468" d="M154 230Q161 271 184 304T242 357T319 377Q363 377 398 356T451 299L467 419Q441 443 404 456T322 470Q251 470 192 439T93 353T45 230Q37 164 61 110T135 23T254 -9Q301 -9 341 5T411 42L427 160Q401 129 359 106T267
84Q227 85 200 105T161 158T154 230Z" />
<glyph unicode="d" horiz-adv-x="571" d="M507 780L376 0H482L616 780H507ZM44 230Q35 165 55 111T118 24T226 -9Q272 -9 310 9T378 61T427 137T453 230Q459 277 454 320T429 396T379 450T300 470Q237 471 182 439T91 353T44 230ZM154 230Q161 271 184 305T243
358T316 376Q343 375 362 363T395 331T414 285T415 230Q410 200 395 174T359 127T312 96T260 85Q221 85 196 105T160 158T154 230Z" />
<glyph unicode="e" horiz-adv-x="523" d="M253 -10Q333 -10 392 24T487 115L397 152Q374 120 340 100T262 79Q224 79 199 95T163 142T154 211Q156 249 167 281T199 337T246 374T307 388Q340 388 361 375T392 339T403 282Q403 270 399 258T390 234L423 280H106V205H503Q507
216 510 234T514 268Q514 333 490 378T422 446T316 470Q257 470 208 449T123 390T66 304T46 200Q46 134 72 87T144 15T253 -10Z" />
<glyph unicode="f" horiz-adv-x="301" d="M81 460L64 365H322L340 460H81ZM364 665L426 747Q410 765 387 778T329 793Q281 793 246 773T188 715T158 631L50 0H156L261 609Q264 631 272 650T293 680T323 691Q336 691 346 685T364 665Z" />
<glyph unicode="g" horiz-adv-x="569" d="M8 -31Q5 -91 28 -136T100 -207T216 -233Q286 -233 342 -203T434 -118T482 10L559 460H454L376 10Q370 -34 347 -68T291 -120T218 -139Q182 -139 158 -125T123 -86T113 -31H8ZM44 233Q36 167 56 114T120 28T227 -4Q273
-4 311 14T379 64T428 140T454 233Q460 280 454 322T429 397T378 450T300 470Q237 471 183 440T91 355T44 233ZM155 232Q162 273 185 306T242 358T316 376Q343 376 363 365T396 333T414 288T415 233Q410 203 396 177T360 131T313 101T261 90Q222 90 197 109T160
161T155 232Z" />
<glyph unicode="h" horiz-adv-x="526" d="M280 780H173L39 0H146L280 780ZM375 280L327 0H433L484 295Q491 346 481 386T440 449T357 473Q304 473 265 446T201 376T167 281H194Q201 309 217 332T258 369T313 383Q342 381 356 367T375 331T375 280Z" />
<glyph unicode="i" horiz-adv-x="259" d="M145 643Q145 616 164 597T212 578Q241 578 260 597T280 643Q280 671 261 690T212 709Q184 709 165 690T145 643ZM127 460L51 0H156L234 460H127Z" />
<glyph unicode="j" horiz-adv-x="252" d="M136 643Q136 616 155 597T203 578Q232 578 251 597T271 643Q271 671 252 689T203 708Q175 708 156 690T136 643ZM-69 -99L-130 -181Q-112 -201 -88 -213T-29 -226Q19 -227 53 -206T109 -147T138 -65L227 460H122L35 -43Q33
-64 25 -83T5 -114T-26 -125Q-39 -125 -50 -118T-69 -99Z" />
<glyph unicode="k" horiz-adv-x="480" d="M168 780L36 0H140L275 780H168ZM379 460L157 274L325 0H450L283 265L514 460H379Z" />
<glyph unicode="l" horiz-adv-x="239" d="M172 780L40 0H145L280 780H172Z" />
<glyph unicode="m" horiz-adv-x="773" d="M730 293Q736 341 728 381T693 446T614 470Q565 470 527 447T461 385Q455 411 441 430T403 460T345 470Q317 470 293 461T249 436T213 397L223 460H118L38 0H144L194 285Q198 314 212 335T249 369T300 382Q328 382 340
368T354 331T354 280L305 0H411L460 282Q464 311 478 333T516 369T568 382Q596 382 608 368T622 331T622 280L572 0H680L730 293Z" />
<glyph unicode="n" horiz-adv-x="529" d="M375 280L327 0H436L486 293Q493 341 482 381T440 446T356 470Q310 470 275 450T215 393L225 460H118L38 0H146L196 283Q200 313 216 335T257 370T311 383Q341 383 356 369T375 331T375 280Z" />
<glyph unicode="o" horiz-adv-x="547" d="M51 230Q42 164 66 110T140 23T258 -9Q329 -9 388 22T486 108T534 230Q543 296 519 350T445 437T326 470Q257 470 198 439T99 353T51 230ZM159 230Q165 270 187 303T244 356T317 375Q356 375 382 354T419 301T425 230Q419
191 397 158T340 106T266 86Q227 86 202 106T165 160T159 230Z" />
<glyph unicode="p" horiz-adv-x="571" d="M106 -219L221 460H115L-3 -220L106 -219ZM552 230Q561 296 542 351T479 439T371 473Q324 473 286 454T219 401T171 323T145 230Q139 184 144 141T167 63T217 8T296 -12Q359 -12 414 19T506 106T552 230ZM442 230Q436
190 412 157T354 105T281 87Q254 88 234 99T201 130T183 175T182 230Q187 261 201 287T237 332T284 363T336 374Q375 374 400 355T437 303T442 230Z" />
<glyph unicode="q" horiz-adv-x="571" d="M337 -220H444L561 460H454L337 -220ZM44 230Q35 164 54 109T118 22T226 -11Q272 -11 310 7T378 59T425 137T451 230Q457 277 452 320T429 397T380 452T301 473Q237 474 183 442T91 354T44 230ZM154 230Q161 271 184 304T242
356T316 374Q342 373 362 362T395 330T414 285T415 230Q410 200 395 174T359 129T313 98T260 87Q222 88 196 107T160 158T154 230Z" />
<glyph unicode="r" horiz-adv-x="361" d="M224 460H118L38 0H145L224 460ZM340 346L405 435Q388 452 369 461T325 471Q285 471 250 443T191 372T158 281L189 260Q195 288 206 313T237 354T285 369Q302 369 315 363T340 346Z" />
<glyph unicode="s" horiz-adv-x="412" d="M93 150L24 89Q44 63 73 40T140 2T225 -13Q274 -13 311 5T371 57T395 134Q396 174 379 200T334 243T273 275Q250 285 231 294T199 315T188 345Q188 364 205 376T248 388Q280 388 309 371T359 327L419 389Q391 424 348
447T249 470Q209 470 172 456T112 413T87 340Q86 301 103 276T146 234T201 206Q223 197 243 187T276 163T289 128Q289 106 271 90T224 74Q198 74 175 83T132 110T93 150Z" />
<glyph unicode="t" horiz-adv-x="263" d="M57 460L40 365H296L312 460H57ZM158 620L53 0H156L264 620H158Z" />
<glyph unicode="u" horiz-adv-x="529" d="M178 180L227 460H119L68 168Q61 120 72 80T114 15T197 -9Q244 -9 279 11T339 68L328 0H436L516 460H408L358 177Q353 148 337 126T297 91T241 78Q212 78 198 92T179 130T178 180Z" />
<glyph unicode="v" horiz-adv-x="461" d="M53 460L207 -44L519 460H400L239 166L168 460H53Z" />
<glyph unicode="w" horiz-adv-x="692" d="M53 460L177 -34L365 276L451 -34L746 460H627L476 188L400 497L222 190L166 460H53Z" />
<glyph unicode="x" horiz-adv-x="452" d="M376 460L258 316L183 460H65L189 243L-20 0H105L235 160L318 0H433L303 233L499 460H376Z" />
<glyph unicode="y" horiz-adv-x="459" d="M517 460H399L198 100L248 96L165 460H49L160 58L-7 -219H109L517 460Z" />
<glyph unicode="z" horiz-adv-x="470" d="M306 360L-15 0H406L424 100H194L511 460H100L82 360H306Z" />
<glyph unicode="{" horiz-adv-x="336" d="M290 640Q293 662 307 676T345 690H378L391 780H318Q284 780 254 763T202 715T175 641L144 440Q138 394 122 369T76 330L65 250Q91 235 98 211T100 140L69 -60Q64 -101 76 -132T113 -182T172 -200H241L254 -109H219Q204
-109 195 -103T182 -85T180 -60L204 90Q209 123 211 157T207 222T178 274T114 300L111 281Q155 286 183 305T227 354T251 419T267 490L290 640Z" />
<glyph unicode="|" horiz-adv-x="297" d="M200 785L47 -214H151L304 785H200Z" />
<glyph unicode="}" horiz-adv-x="336" d="M109 -60Q105 -82 91 -96T53 -110H20L7 -199H81Q115 -199 145 -182T196 -134T223 -60L254 140Q260 188 276 212T322 250L333 330Q307 346 300 370T298 440L329 640Q335 682 323 713T285 762T226 780H157L144 690H179Q194
690 203 683T216 666T218 641L194 490Q189 458 187 423T191 358T220 307T284 280L287 300Q244 296 216 276T172 227T147 162T132 90L109 -60Z" />
<glyph unicode="~" horiz-adv-x="558" d="M154 171Q153 177 153 183T154 196Q158 217 173 231T212 247Q225 247 237 243T263 231T288 214Q316 193 342 180T397 165Q428 165 455 178T501 214Q516 232 525 253T536 295Q538 302 538 309T536 323L442 328Q444 321
444 314T443 299Q440 281 428 268T397 254Q383 253 367 263T333 286Q305 308 278 321T220 335Q183 335 153 320T101 280Q86 262 77 242T64 201Q63 194 63 188T64 176L154 171Z" />
<glyph unicode="&#xa0;" horiz-adv-x="301" />
<glyph unicode="&#xa1;" horiz-adv-x="308" d="M153 -239L212 249H127L19 -239H153ZM267 412Q270 439 253 459T207 480Q179 481 156 461T129 414Q126 386 143 367T188 346Q216 345 240 365T267 412Z" />
<glyph unicode="&#xa2;" horiz-adv-x="563" d="M234 38L204 -111H293L316 38H234ZM187 230Q194 271 218 304T278 357T354 377Q401 377 434 356T485 299L503 419Q477 444 439 457T358 470Q288 470 228 439T128 353T78 230Q69 165 92 111T164 24T284 -9Q329 -9 370
4T441 42L459 161Q432 130 390 107T297 84Q257 85 230 105T192 158T187 230ZM322 578L300 429H382L412 578H322Z" />
<glyph unicode="&#xa3;" horiz-adv-x="575" d="M101 370L85 285H444L460 370H101ZM486 475L587 512Q588 547 578 581T545 645T487 692T405 710Q360 710 319 697T245 659T189 598T161 520Q156 480 165 448T189 386T213 328T218 264Q209 213 182 170T115 86T30 0H484L503
104H153L124 51Q157 62 189 81T250 129T298 192T323 267Q328 303 319 333T297 390T276 447T274 510Q279 541 297 562T341 595T396 606Q426 605 443 594T471 563T484 521T486 475Z" />
<glyph unicode="&#xa4;" horiz-adv-x="562" d="M89 505L170 409L229 460L150 558L89 505ZM67 43L175 137L128 193L20 100L67 43ZM482 408L591 501L545 558L436 465L482 408ZM381 141L461 43L520 95L442 193L381 141ZM73 300Q64 237 85 183T154 95T268 61Q336 61
393 93T489 179T538 300Q547 364 525 418T457 506T343 540Q275 540 218 508T122 421T73 300ZM175 300Q182 338 204 370T259 421T333 440Q371 440 396 420T431 369T436 300Q430 262 407 231T351 180T279 161Q240 161 215 181T180 232T175 300Z" />
<glyph unicode="&#xa5;" horiz-adv-x="598" d="M65 281L572 280L587 365H79L65 281ZM39 131L547 130L561 215H53L39 131ZM548 700L338 403L233 700H103L265 299L212 0H332L383 296L683 700H548Z" />
<glyph unicode="&#xa6;" horiz-adv-x="297" d="M188 695L145 446H249L292 695H188ZM217 255H113L70 6H174L217 255Z" />
<glyph unicode="&#xa7;" horiz-adv-x="462" d="M409 568L482 630Q464 670 421 693T323 716Q284 716 245 700T179 656T145 586Q141 559 148 537T171 499T207 470T249 447Q272 438 294 426T330 398T340 356Q337 335 323 318T288 290T246 273L240 237Q277 238 311
245T373 268T420 310T445 373Q450 407 436 433T396 479T338 512Q323 518 307 524T276 539T254 557T248 581Q251 594 261 602T287 615T318 620Q346 620 369 606T409 568ZM105 166L30 105Q42 71 66 44T127 2T207 -14Q254 -14 297 1T369 49T405 130Q409 165 396 191T357
237T302 271Q285 279 267 287T233 305T209 331T205 369Q210 391 223 405T257 430T301 449L306 479Q268 478 233 471T170 448T124 408T99 350Q94 314 110 286T154 239T213 207Q234 198 254 189T287 165T296 130Q293 114 282 103T253 86T217 81Q177 81 149 105T105
166Z" />
<glyph unicode="&#xa8;" horiz-adv-x="472" d="M358 650Q355 623 372 604T416 584Q443 583 466 602T492 648Q495 674 478 694T433 715Q407 715 384 695T358 650ZM147 650Q144 623 161 604T205 584Q232 583 255 602T281 648Q284 674 267 694T222 715Q196 715 173
695T147 650Z" />
<glyph unicode="&#xa9;" horiz-adv-x="776" d="M289 350Q295 392 319 425T378 478T454 498Q494 498 522 482T570 439L582 523Q556 545 527 556T456 568Q395 568 343 539T256 461T213 350Q206 292 226 243T291 164T396 134Q438 133 469 145T530 177L541 261Q515
237 480 220T403 203Q362 204 335 224T295 277T289 350ZM130 350Q140 414 171 470T248 569T353 636T477 660Q541 660 590 635T672 566T717 467T721 350Q711 287 681 231T604 132T499 65T374 41Q310 41 261 66T179 135T134 234T130 350ZM75 350Q65 278 82 214T139
99T239 19T374 -10Q451 -10 519 18T641 95T730 209T775 350Q785 422 768 487T712 602T612 681T477 710Q401 710 333 683T210 606T121 491T75 350Z" />
<glyph unicode="&#xaa;" horiz-adv-x="244" d="M136 531Q138 549 156 562T196 575Q214 576 228 570T257 553L262 581Q251 591 233 600T189 609Q152 609 120 588T82 532Q77 499 97 478T150 456Q186 455 210 474T244 524L240 551Q233 527 214 512T169 497Q152 498
143 507T136 531ZM143 638Q156 644 175 652T217 659Q234 658 243 650T253 625L224 461H277L305 633Q309 668 285 686T223 705Q194 706 171 698T128 679L143 638Z" />
<glyph unicode="&#xab;" horiz-adv-x="507" d="M323 258L501 443L442 498L223 259L363 12L436 63L323 258ZM150 258L329 443L269 498L50 259L190 12L264 63L150 258Z" />
<glyph unicode="&#xac;" horiz-adv-x="614" d="M85 289H489L468 176H554L591 386H102L85 289Z" />
<glyph unicode="&#xad;" horiz-adv-x="204" d="M12 201H209L221 275H25L12 201Z" />
<glyph unicode="&#xae;" horiz-adv-x="776" d="M386 346L477 150H559L454 346H386ZM328 570L264 151H334L399 570H328ZM360 509H444Q477 507 496 490T511 440Q506 408 480 390T419 370H338L329 312L417 313Q482 315 528 349T583 442Q591 500 553 534T453 570H369L360
509ZM130 350Q140 414 171 470T248 569T353 636T477 660Q541 660 590 635T672 566T717 467T721 350Q711 287 681 231T604 132T499 65T374 41Q310 41 261 66T179 135T134 234T130 350ZM75 350Q65 278 82 214T139 99T239 19T374 -10Q451 -10 519 18T641 95T730 210T775
350Q785 422 768 487T712 602T612 681T477 710Q401 710 333 683T210 606T121 491T75 350Z" />
<glyph unicode="&#xaf;" horiz-adv-x="504" d="M151 589H501L516 686H166L151 589Z" />
<glyph unicode="&#xb0;" horiz-adv-x="277" d="M93 600Q86 550 115 515T196 479Q231 479 260 494T310 537T335 599Q340 632 328 659T292 703T232 720Q198 720 168 704T118 661T93 600ZM146 599Q149 618 161 634T191 661T229 672Q258 671 272 649T282 599Q279 580
267 564T237 537T199 527Q170 528 156 549T146 599Z" />
<glyph unicode="&#xb1;" horiz-adv-x="604" d="M47 3H526L542 103H61L47 3ZM99 340H578L594 443H114L99 340ZM325 620L256 163H365L437 620H325Z" />
<glyph unicode="&#xb2;" horiz-adv-x="360" d="M44 283H357L368 348L194 349L329 465Q356 489 376 517T403 579Q408 612 396 641T356 690T285 710Q238 711 203 689T145 632T113 555L184 554Q190 578 203 599T235 634T280 646Q300 645 312 636T328 611T331 580Q327
553 308 531T266 487L44 283Z" />
<glyph unicode="&#xb3;" horiz-adv-x="324" d="M198 487Q238 489 274 500T335 534T366 593Q371 624 359 650T320 691T257 707Q200 707 162 673T112 591L179 590Q187 612 206 630T252 647Q277 646 288 630T296 590Q293 571 280 557T247 535T204 524L198 487ZM186
273Q225 273 259 288T316 330T344 392Q349 424 339 446T308 482T260 503T201 511L194 471Q219 469 238 462T268 440T274 401Q270 373 246 354T191 335Q160 336 146 354T131 400H61Q60 366 73 337T114 291T186 273Z" />
<glyph unicode="&#xb4;" horiz-adv-x="364" d="M384 655L298 703L130 545L188 509L384 655Z" />
<glyph unicode="&#xb5;" horiz-adv-x="533" d="M228 460H117L-15 -319L89 -320L146 13Q161 3 178 -2T215 -7Q252 -7 283 10T337 57L328 0H436L515 460H409L360 187Q355 159 340 137T300 101T245 88Q217 88 201 100T180 134T177 182L228 460Z" />
<glyph unicode="&#xb6;" horiz-adv-x="597" d="M298 271L215 -219H308L452 625H526L382 -219H476L633 700H371Q307 700 252 675T161 601T113 486Q104 422 125 375T192 302T298 271Z" />
<glyph unicode="&#xb7;" horiz-adv-x="300" d="M97 252Q95 234 102 218T123 193T156 182Q175 182 192 191T222 217T236 250Q238 269 231 284T210 310T176 321Q157 322 140 312T111 287T97 252Z" />
<glyph unicode="&#xb8;" horiz-adv-x="357" d="M167 64L55 -113Q74 -105 93 -101T125 -97Q138 -97 149 -100T166 -111T170 -130Q169 -141 160 -150T138 -164T111 -169Q94 -170 80 -163T52 -145L8 -194Q33 -214 57 -224T113 -234Q142 -234 170 -222T218 -188T241
-136Q246 -99 225 -76T174 -51Q170 -51 166 -51T156 -53L249 62L167 64Z" />
<glyph unicode="&#xb9;" horiz-adv-x="461" d="M215 596L312 622L254 275H324L398 702L226 663L215 596Z" />
<glyph unicode="&#xba;" horiz-adv-x="270" d="M90 581Q83 531 113 496T194 461Q229 461 258 476T308 519T333 580Q338 613 326 640T288 683T229 700Q195 700 165 685T115 642T90 581ZM144 580Q148 599 160 615T189 642T226 652Q254 651 268 630T278 580Q275 561
263 545T234 519T197 509Q168 509 155 531T144 580Z" />
<glyph unicode="&#xbb;" horiz-adv-x="507" d="M217 253L39 68L99 14L318 252L177 498L104 447L217 253ZM390 253L212 68L271 14L490 252L350 498L277 447L390 253Z" />
<glyph unicode="&#xbc;" horiz-adv-x="759" d="M694 699L72 0H151L774 699H694ZM101 596L199 622L141 275H210L284 702L112 663L101 596ZM375 81H713L724 142H628L617 137L440 136L375 81ZM452 93L616 288L586 108L581 102L563 0H636L707 420L663 419L373 81L452 93Z" />
<glyph unicode="&#xbd;" horiz-adv-x="824" d="M694 699L72 0H151L774 699H694ZM101 596L199 622L141 275H210L284 702L112 663L101 596ZM456 3H768L780 68L606 69L741 185Q767 209 788 237T814 299Q819 332 807 361T767 410T696 430Q649 431 614 409T556 352T525
275L595 274Q601 298 614 319T646 354T690 365Q711 365 723 355T740 331T743 300Q739 273 720 251T677 207L456 3Z" />
<glyph unicode="&#xbe;" horiz-adv-x="819" d="M758 699L136 0H215L838 699H758ZM204 487Q244 489 280 500T341 534T372 593Q378 624 365 650T326 691T263 707Q205 707 168 673T118 591L185 590Q193 612 212 630T258 647Q283 646 294 630T302 590Q299 571 286
557T253 535T210 524L204 487ZM192 273Q231 273 265 288T322 330T350 392Q355 424 345 446T314 482T266 503T207 511L200 471Q225 469 244 462T274 440T280 401Q276 373 252 354T197 335Q166 336 152 354T137 400H68Q66 366 79 337T121 291T192 273ZM437 81H775L785
142H690L679 137L501 136L437 81ZM514 93L678 288L647 108L642 102L625 0H697L769 420L724 419L435 81L514 93Z" />
<glyph unicode="&#xbf;" horiz-adv-x="568" d="M170 200Q178 239 207 270T281 321T377 341H404L413 518H328L303 412Q247 404 195 376T108 304T62 201Q56 156 68 117T106 49T171 4T256 -13Q340 -14 399 20T507 107L436 167Q406 132 366 108T276 84Q238 84 213
99T176 140T170 200ZM462 652Q465 678 448 698T402 719Q384 720 367 711T338 686T324 654Q321 628 338 608T383 587Q402 587 419 596T448 620T462 652Z" />
<glyph unicode="&#xc0;" horiz-adv-x="669" d="M161 181L522 180L517 280H199L161 181ZM396 502L458 242L455 213L511 0H640L434 741L-28 0H107L239 219L245 245L396 502ZM332 950L484 799L546 832L426 994L332 950Z" />
<glyph unicode="&#xc1;" horiz-adv-x="669" d="M161 181L522 180L517 280H199L161 181ZM396 502L458 242L455 213L511 0H640L434 741L-28 0H107L239 219L245 245L396 502ZM608 947L524 994L352 836L410 800L608 947Z" />
<glyph unicode="&#xc2;" horiz-adv-x="669" d="M161 181L522 180L517 280H199L161 181ZM396 502L458 242L455 213L511 0H640L434 741L-28 0H107L239 219L245 245L396 502ZM458 860L541 769L619 820L469 961L278 824L342 770L458 860Z" />
<glyph unicode="&#xc3;" horiz-adv-x="669" d="M161 181L522 180L517 280H199L161 181ZM396 502L458 242L455 213L511 0H640L434 741L-28 0H107L239 219L245 245L396 502ZM277 834L331 786Q337 800 349 817T388 836Q410 837 427 825T463 801T504 788Q531 787 555
798T598 828T629 864L581 920Q566 901 549 887T513 871Q489 871 473 882T440 906T396 919Q370 920 346 908T305 876T277 834Z" />
<glyph unicode="&#xc4;" horiz-adv-x="669" d="M161 181L522 180L517 280H199L161 181ZM396 502L458 242L455 213L511 0H640L434 741L-28 0H107L239 219L245 245L396 502ZM498 843Q495 817 512 798T555 777Q582 777 605 796T631 841Q634 868 618 887T574 908Q548
909 525 889T498 843ZM270 846Q267 819 284 800T328 780Q354 779 377 798T404 844Q407 870 390 890T347 910Q320 911 297 891T270 846Z" />
<glyph unicode="&#xc5;" horiz-adv-x="669" d="M161 181L522 180L517 280H199L161 181ZM396 502L458 242L455 213L511 0H640L434 741L-28 0H107L239 219L245 245L396 502ZM336 800Q331 771 342 747T377 709T428 694Q458 694 485 707T531 745T553 798Q557 828 546
852T512 890T460 905Q431 905 404 891T358 854T336 800ZM397 799Q399 812 408 824T430 843T455 850Q472 849 483 834T492 800Q490 780 471 764T434 749Q416 750 406 765T397 799Z" />
<glyph unicode="&#xc6;" horiz-adv-x="981" d="M236 187L531 186L550 296H257L236 187ZM519 700L-19 0H122L614 658L519 700ZM531 0H887L905 104H548L531 0ZM644 596H989L1007 700H519L644 596ZM586 325L923 324L941 426H603L586 325ZM590 700L472 0H592L713 700H590Z" />
<glyph unicode="&#xc7;" horiz-adv-x="671" d="M195 350Q203 402 228 447T291 525T375 578T472 597Q538 597 586 570T665 498L687 638Q645 676 596 694T481 713Q402 713 333 685T208 608T116 492T68 350Q58 278 74 212T129 96T228 17T364 -12Q435 -12 489 7T591
62L612 202Q567 162 510 133T380 104Q331 104 293 124T231 179T197 257T195 350ZM340 54L228 -123Q247 -115 266 -111T299 -107Q312 -107 322 -110T339 -121T343 -140Q342 -151 333 -160T311 -174T284 -179Q268 -179 254 -173T225 -155L181 -204Q206 -224 230 -234T286
-244Q315 -244 343 -232T391 -198T414 -146Q419 -109 398 -86T348 -61Q343 -61 339 -61T329 -63L422 52L340 54Z" />
<glyph unicode="&#xc8;" horiz-adv-x="555" d="M119 0H464L481 104H137L119 0ZM221 597L565 596L583 700H239L221 597ZM175 325L499 324L517 426H192L175 325ZM167 700L48 0H161L282 700H167ZM274 927L427 775L489 809L369 970L274 927Z" />
<glyph unicode="&#xc9;" horiz-adv-x="555" d="M119 0H464L481 104H137L119 0ZM221 597L565 596L583 700H239L221 597ZM175 325L499 324L517 426H192L175 325ZM167 700L48 0H161L282 700H167ZM551 923L467 970L295 813L353 776L551 923Z" />
<glyph unicode="&#xca;" horiz-adv-x="555" d="M119 0H464L481 104H137L119 0ZM221 597L565 596L583 700H239L221 597ZM175 325L499 324L517 426H192L175 325ZM167 700L48 0H161L282 700H167ZM411 864L495 773L572 824L423 965L231 828L296 773L411 864Z" />
<glyph unicode="&#xcb;" horiz-adv-x="555" d="M119 0H464L481 104H137L119 0ZM221 597L565 596L583 700H239L221 597ZM175 325L499 324L517 426H192L175 325ZM167 700L48 0H161L282 700H167ZM447 855Q444 828 461 809T505 789Q531 788 554 807T581 852Q584 879
567 898T523 919Q497 920 474 900T447 855ZM236 855Q233 828 250 809T294 789Q320 788 343 807T370 852Q373 879 356 898T312 919Q286 920 263 900T236 855Z" />
<glyph unicode="&#xcc;" horiz-adv-x="267" d="M167 700L48 0H165L286 700H167ZM123 927L275 775L339 809L218 970L123 927Z" />
<glyph unicode="&#xcd;" horiz-adv-x="267" d="M167 700L48 0H165L286 700H167ZM400 923L316 970L145 813L201 776L400 923Z" />
<glyph unicode="&#xce;" horiz-adv-x="267" d="M167 700L48 0H165L286 700H167ZM253 864L336 773L414 824L265 965L73 828L137 773L253 864Z" />
<glyph unicode="&#xcf;" horiz-adv-x="267" d="M167 700L48 0H165L286 700H167ZM289 840Q286 814 302 794T346 774Q372 773 396 792T423 837Q425 864 408 883T365 904Q338 905 315 885T289 840ZM78 840Q75 814 91 794T135 774Q161 773 185 792T212 837Q214 864
197 883T153 904Q127 905 104 885T78 840Z" />
<glyph unicode="&#xd0;" horiz-adv-x="681" d="M30 308L343 307L357 392H45L30 308ZM167 700L48 0H166L287 700H167ZM272 0Q378 2 464 47T606 170T678 350Q693 449 661 527T558 652T384 700H238L218 589H369Q439 588 485 558T550 474T559 350Q547 277 508 225T410
143T281 111H138L118 0H272Z" />
<glyph unicode="&#xd1;" horiz-adv-x="759" d="M663 700L582 230L172 734L47 0H162L243 471L652 -34L778 700H663ZM302 811L356 762Q362 776 374 793T413 812Q435 814 452 802T488 778T529 764Q556 763 580 775T623 804T654 840L606 897Q591 877 574 863T538 848Q515
847 499 859T465 883T421 896Q395 897 372 885T330 853T302 811Z" />
<glyph unicode="&#xd2;" horiz-adv-x="779" d="M192 350Q201 401 225 446T286 526T369 580T469 599Q521 599 559 579T620 523T652 443T653 350Q645 299 620 254T559 175T476 122T376 102Q324 102 286 123T225 178T193 257T192 350ZM68 350Q58 278 73 213T128 96T226
15T364 -15Q443 -15 512 13T637 92T729 208T777 350Q787 423 771 488T716 603T617 683T480 713Q402 713 333 685T208 607T116 492T68 350ZM393 927L545 775L608 809L487 970L393 927Z" />
<glyph unicode="&#xd3;" horiz-adv-x="779" d="M192 350Q201 401 225 446T286 526T369 580T469 599Q521 599 559 579T620 523T652 443T653 350Q645 299 620 254T559 175T476 122T376 102Q324 102 286 123T225 178T193 257T192 350ZM68 350Q58 278 73 213T128 96T226
15T364 -15Q443 -15 512 13T637 92T729 208T777 350Q787 423 771 488T716 603T617 683T480 713Q402 713 333 685T208 607T116 492T68 350ZM655 923L570 970L399 813L457 776L655 923Z" />
<glyph unicode="&#xd4;" horiz-adv-x="779" d="M192 350Q201 401 225 446T286 526T369 580T469 599Q521 599 559 579T620 523T652 443T653 350Q645 299 620 254T559 175T476 122T376 102Q324 102 286 123T225 178T193 257T192 350ZM68 350Q58 278 73 213T128 96T226
15T364 -15Q443 -15 512 13T637 92T729 208T777 350Q787 423 771 488T716 603T617 683T481 713Q402 713 333 685T208 607T116 492T68 350ZM515 864L598 773L675 824L526 965L335 828L399 773L515 864Z" />
<glyph unicode="&#xd5;" horiz-adv-x="779" d="M192 350Q201 401 225 446T286 526T369 580T469 599Q521 599 559 579T620 523T652 443T653 350Q645 299 620 254T559 175T476 122T376 102Q324 102 286 123T225 178T193 257T192 350ZM68 350Q58 278 73 213T128 96T226
15T364 -15Q443 -15 512 13T637 92T729 208T777 350Q787 423 771 488T716 603T617 683T481 713Q402 713 333 685T208 607T116 492T68 350ZM328 822L383 774Q389 788 401 805T440 824Q462 825 479 813T514 789T556 775Q583 774 606 786T649 815T680 851L632 908Q618
889 601 875T565 859Q541 858 525 870T492 894T448 907Q426 907 399 895T352 864T328 822Z" />
<glyph unicode="&#xd6;" horiz-adv-x="779" d="M192 350Q201 401 225 446T286 526T369 580T469 599Q521 599 559 579T620 523T652 443T653 350Q645 299 620 254T559 175T476 122T376 102Q324 102 286 123T225 178T193 257T192 350ZM68 350Q58 278 73 213T128 96T226
15T364 -15Q443 -15 512 13T637 92T729 208T777 350Q787 423 771 488T716 603T617 683T480 713Q402 713 333 685T208 607T116 492T68 350ZM544 840Q541 813 558 794T602 774Q628 773 651 792T678 837Q681 864 665 883T620 904Q594 905 571 885T544 840ZM333 840Q330
813 347 794T391 774Q417 773 440 792T467 837Q470 864 453 883T409 904Q383 905 360 885T333 840Z" />
<glyph unicode="&#xd7;" horiz-adv-x="578" d="M103 15L297 188L432 14L511 83L370 253L568 421L510 496L314 323L180 496L102 428L242 258L43 89L103 15Z" />
<glyph unicode="&#xd8;" horiz-adv-x="767" d="M192 350Q201 401 225 446T286 526T369 580T469 599Q521 599 559 579T620 523T652 443T653 350Q645 299 620 254T559 175T476 121T376 102Q324 102 286 122T225 178T193 257T192 350ZM68 350Q58 278 73 213T128 96T227
15T364 -15Q443 -15 512 13T637 92T728 208T777 350Q787 423 771 488T716 603T617 683T481 713Q402 713 333 685T208 607T116 492T68 350ZM770 753L13 -6L70 -52L828 706L770 753Z" />
<glyph unicode="&#xd9;" horiz-adv-x="637" d="M162 700L83 230Q73 160 95 104T168 16T292 -17Q367 -17 427 15T528 102T580 230L661 700H544L463 235Q456 196 435 163T381 111T304 92Q261 93 236 113T203 165T199 235L280 700H162ZM310 924L463 773L525 806L405
968L310 924Z" />
<glyph unicode="&#xda;" horiz-adv-x="637" d="M162 700L83 230Q73 160 95 104T168 16T292 -17Q367 -17 427 15T528 102T580 230L661 700H544L463 235Q456 196 435 163T381 111T304 92Q261 93 236 113T203 165T199 235L280 700H162ZM588 920L504 967L332 810L390
774L588 920Z" />
<glyph unicode="&#xdb;" horiz-adv-x="637" d="M162 700L83 230Q73 160 95 104T168 16T292 -17Q367 -17 427 15T528 102T580 230L661 700H544L463 235Q456 196 435 163T381 111T304 92Q261 93 236 113T203 165T199 235L280 700H162ZM442 864L525 773L603 824L454
965L262 828L326 773L442 864Z" />
<glyph unicode="&#xdc;" horiz-adv-x="637" d="M162 700L83 230Q73 160 95 104T168 16T292 -17Q367 -17 427 15T528 102T580 230L661 700H544L463 235Q456 196 435 163T381 111T304 92Q261 93 236 113T203 165T199 235L280 700H162ZM481 840Q478 813 494 794T539
774Q564 773 588 792T615 837Q618 864 601 883T557 904Q530 905 507 885T481 840ZM255 840Q252 813 269 794T312 774Q339 773 362 792T389 837Q392 864 375 883T331 904Q305 905 282 885T255 840Z" />
<glyph unicode="&#xdd;" horiz-adv-x="583" d="M561 920L477 967L306 810L363 774L561 920ZM540 700L331 403L225 700H96L257 298L205 0H324L373 293L677 700H540Z" />
<glyph unicode="&#xde;" horiz-adv-x="558" d="M169 700L51 0H158L279 700H169ZM193 466H334Q373 465 400 452T440 414T447 352Q440 314 418 289T362 250T288 236H154L136 135H278Q350 137 409 163T507 237T557 351Q567 417 542 465T465 540T344 568H211L193 466Z" />
<glyph unicode="&#xdf;" horiz-adv-x="580" d="M360 -12Q416 -12 461 14T534 86T562 187Q562 230 548 258T514 304T472 337T438 365T424 399Q424 421 439 438T476 473T521 513T558 565T573 640Q573 689 549 723T482 776T386 795Q310 795 258 768T175 694T134 586L37
-2H146L243 573Q249 615 266 642T310 683T372 697Q410 697 435 680T460 624Q460 592 445 569T407 527T361 488T323 446T307 395Q307 364 321 343T356 305T399 272T434 234T448 180Q448 153 436 131T402 96T352 83Q325 83 299 95T250 127L209 45Q226 28 250 15T302
-5T360 -12Z" />
<glyph unicode="&#xe0;" horiz-adv-x="571" d="M457 460L379 0H482L562 460H457ZM44 230Q35 165 55 111T118 24T226 -9Q272 -9 310 9T378 61T427 137T453 230Q459 277 454 320T429 396T379 450T300 470Q237 471 182 439T91 353T44 230ZM154 230Q161 271 184 305T243
358T316 376Q343 375 362 363T395 331T414 285T415 230Q410 200 395 174T359 127T312 96T260 85Q221 85 196 105T160 158T154 230ZM206 682L358 530L421 564L301 726L206 682Z" />
<glyph unicode="&#xe1;" horiz-adv-x="571" d="M457 460L379 0L482 1L562 460H457ZM44 230Q35 165 55 111T118 24T226 -9Q272 -9 310 9T378 61T427 137T453 230Q459 277 454 320T429 396T379 450T300 470Q237 471 182 439T91 353T44 230ZM154 230Q161 271 184
305T243 358T316 376Q343 375 362 363T395 331T414 285T415 230Q410 200 395 174T359 127T312 96T260 85Q221 85 196 105T160 158T154 230ZM493 678L409 725L238 568L295 531L493 678Z" />
<glyph unicode="&#xe2;" horiz-adv-x="571" d="M457 460L379 0H482L562 460H457ZM44 230Q35 165 55 111T118 24T226 -9Q272 -9 310 9T378 61T427 137T453 230Q459 277 454 320T429 396T379 450T300 470Q237 471 182 439T91 353T44 230ZM154 230Q161 271 184 305T243
358T316 376Q343 375 362 363T395 331T414 285T415 230Q410 200 395 174T359 127T312 96T260 85Q221 85 196 105T160 158T154 230ZM369 621L453 531L530 581L381 723L189 585L253 531L369 621Z" />
<glyph unicode="&#xe3;" horiz-adv-x="571" d="M457 460L379 0H482L562 460H457ZM44 230Q35 165 55 111T118 24T226 -9Q272 -9 310 9T378 61T427 137T453 230Q459 277 454 320T429 396T379 450T300 470Q237 471 182 439T91 353T44 230ZM154 230Q161 271 184 305T243
358T316 376Q343 375 362 363T395 331T414 285T415 230Q410 200 395 174T359 127T312 96T260 85Q221 85 196 105T160 158T154 230ZM188 581L242 533Q249 547 261 564T300 583Q322 584 339 572T374 548T416 534Q443 533 466 545T509 574T540 610L492 667Q477 648
461 634T424 618Q400 617 384 629T351 653T308 666Q281 666 258 654T216 623T188 581Z" />
<glyph unicode="&#xe4;" horiz-adv-x="571" d="M457 460L379 0H482L562 460H457ZM44 230Q35 165 55 111T118 24T226 -9Q272 -9 310 9T378 61T427 137T453 230Q459 277 454 320T429 396T379 450T300 470Q237 471 182 439T91 353T44 230ZM154 230Q161 271 184 305T243
358T316 376Q343 375 362 363T395 331T414 285T415 230Q410 200 395 174T359 127T312 96T260 85Q221 85 196 105T160 158T154 230ZM398 597Q395 571 412 552T455 531Q482 531 505 550T532 595Q535 622 518 641T474 662Q448 663 425 643T398 597ZM187 597Q184 571
201 552T244 531Q271 531 294 550T320 595Q323 622 307 641T263 662Q237 663 214 643T187 597Z" />
<glyph unicode="&#xe5;" horiz-adv-x="571" d="M457 460L379 0H482L562 460H457ZM44 230Q35 165 55 111T118 24T226 -9Q272 -9 310 9T378 61T427 137T453 230Q459 277 454 320T429 396T379 450T300 470Q237 471 182 439T91 353T44 230ZM154 230Q161 271 184 305T243
358T316 376Q343 375 362 363T395 331T414 285T415 230Q410 200 395 174T359 127T312 96T260 85Q221 85 196 105T160 158T154 230ZM237 637Q234 608 245 584T279 546T331 531Q361 531 387 545T432 582T456 636Q460 665 449 689T414 728T362 742Q333 743 306 729T261
691T237 637ZM298 636Q300 649 309 660T332 679T357 687Q375 687 385 672T394 637Q393 624 384 612T361 593T335 586Q318 586 307 601T298 636Z" />
<glyph unicode="&#xe6;" horiz-adv-x="836" d="M185 -10Q263 -10 315 21T389 107H375Q394 46 438 18T554 -10Q626 -10 688 21T790 115L698 152Q676 116 640 98T561 79Q520 79 496 98T463 150T460 224L438 205H808Q813 215 816 229T819 262Q822 327 801 373T739
445T639 470Q590 470 549 454T475 410T422 346L440 358Q444 414 406 442T298 471Q249 471 201 457T106 416L145 339Q165 352 189 362T239 378T287 383Q325 383 346 363T362 301L350 228H401Q346 259 309 271T229 283Q169 283 122 262T48 205T18 123Q15 65 57 28T185
-10ZM211 72Q168 72 148 86T128 132Q129 158 143 176T183 204T241 214Q274 214 303 206T358 184L346 211L345 123L352 190Q336 130 301 101T211 72ZM461 238Q472 284 492 317T543 369T613 388Q649 388 670 373T699 331T707 266Q706 256 704 250L729 280H442L461
238Z" />
<glyph unicode="&#xe7;" horiz-adv-x="470" d="M149 230Q157 270 181 303T240 357T317 377Q362 377 397 356T448 299L466 419Q440 443 403 456T321 470Q251 470 191 439T91 353T41 230Q31 165 54 111T127 24T246 -9Q293 -9 333 5T404 42L422 160Q395 129 353 106T260
84Q220 85 193 105T155 159T149 230ZM224 59L111 -118Q129 -110 149 -106T182 -102Q194 -102 205 -105T222 -116T226 -135Q226 -146 217 -155T194 -169T167 -174Q151 -174 137 -168T109 -150L64 -199Q89 -219 113 -229T170 -239Q199 -239 226 -227T273 -193T297
-141Q301 -104 281 -81T230 -56Q226 -56 222 -56T213 -58L305 57L224 59Z" />
<glyph unicode="&#xe8;" horiz-adv-x="523" d="M104 206H498Q501 214 502 221T504 235Q512 301 494 354T431 438T316 470Q252 470 200 445T111 377T56 279Q52 267 49 255T44 230Q35 167 55 113T121 25T237 -9Q293 -9 336 6T415 50T478 113L390 152Q373 133 352
116T305 90T250 80Q209 81 186 101T154 155T152 230L159 258Q168 294 188 323T239 371T307 388Q341 387 360 373T387 334T395 280H116L104 206ZM211 689L363 538L426 571L305 733L211 689Z" />
<glyph unicode="&#xe9;" horiz-adv-x="523" d="M104 206H498Q501 214 502 221T504 235Q512 301 494 354T431 438T316 470Q252 470 200 445T111 377T56 279Q52 267 49 255T44 230Q35 167 55 113T121 25T237 -9Q293 -9 336 6T415 50T478 113L390 152Q373 133 352
116T305 90T250 80Q209 81 186 101T154 155T152 230L159 258Q168 294 188 323T239 371T307 388Q341 387 360 373T387 334T395 280H116L104 206ZM518 686L433 733L262 575L319 539L518 686Z" />
<glyph unicode="&#xea;" horiz-adv-x="523" d="M104 206H498Q501 214 502 221T504 235Q512 301 494 354T431 438T316 470Q252 470 200 445T111 377T56 279Q52 267 49 255T44 230Q35 167 55 113T121 25T237 -9Q293 -9 336 6T415 50T478 113L390 152Q373 133 352
116T305 90T250 80Q209 81 186 101T154 155T152 230L159 258Q168 294 188 323T239 371T307 388Q341 387 360 373T387 334T395 280H116L104 206ZM349 621L432 531L509 581L360 723L169 585L233 531L349 621Z" />
<glyph unicode="&#xeb;" horiz-adv-x="523" d="M104 206H498Q501 214 502 221T504 235Q512 301 494 354T431 438T316 470Q252 470 200 445T111 377T56 279Q52 267 49 255T44 230Q35 167 55 113T121 25T237 -9Q293 -9 336 6T415 50T478 113L390 152Q373 133 352
116T305 90T250 80Q209 81 186 101T154 155T152 230L159 258Q168 294 188 323T239 371T307 388Q341 387 360 373T387 334T395 280H116L104 206ZM379 597Q377 571 394 552T437 531Q464 531 487 550T513 595Q516 622 500 641T456 662Q430 663 406 643T379 597ZM168
597Q166 571 182 552T226 531Q252 531 276 550T302 595Q305 622 289 641T245 662Q219 663 195 643T168 597Z" />
<glyph unicode="&#xec;" horiz-adv-x="259" d="M127 460L51 0H155L234 460H127ZM58 697L210 545L273 579L152 741L58 697Z" />
<glyph unicode="&#xed;" horiz-adv-x="259" d="M127 460L51 0H155L234 460H127ZM382 693L297 740L126 583L184 546L382 693Z" />
<glyph unicode="&#xee;" horiz-adv-x="259" d="M127 460L51 0H155L234 460H127ZM212 629L297 538L373 589L224 730L33 593L97 539L212 629Z" />
<glyph unicode="&#xef;" horiz-adv-x="259" d="M127 460L51 0H155L234 460H127ZM246 620Q244 593 261 574T304 554Q331 553 354 572T380 618Q383 644 367 664T323 684Q297 685 273 665T246 620ZM35 620Q33 593 50 574T93 554Q120 553 143 572T169 618Q172 644
156 664T112 684Q86 685 62 665T35 620Z" />
<glyph unicode="&#xf0;" horiz-adv-x="596" d="M276 -12Q340 -12 391 11T479 75T535 168T555 276Q555 319 546 362T516 448T464 538T386 634T281 739L207 676Q253 639 289 603T353 531T402 455T440 370L481 369Q437 416 394 440T299 464Q251 464 207 445T128 392T72
311T51 209Q51 142 79 92T159 15T276 -12ZM281 88Q229 88 197 121T164 210Q164 244 177 274T213 327T265 363T324 377Q359 377 384 362T424 319T439 253Q439 222 428 193T395 140T345 102T281 88ZM221 505L528 614L511 664L203 555L221 505Z" />
<glyph unicode="&#xf1;" horiz-adv-x="529" d="M225 460H118L38 0H146L225 460ZM375 280L327 0H436L486 293Q492 344 481 384T440 447T356 470Q303 470 263 443T196 373T160 279L194 281Q201 309 217 332T258 369T313 383Q342 381 356 367T375 331T375 280ZM164
581L218 533Q224 547 236 564T275 583Q297 584 314 572T349 548T391 534Q418 533 441 545T484 574T516 610L467 667Q453 648 436 634T400 618Q376 617 360 629T327 653T283 666Q256 667 233 655T192 623T164 581Z" />
<glyph unicode="&#xf2;" horiz-adv-x="547" d="M44 230Q35 165 58 111T130 24T248 -9Q319 -9 378 22T478 108T528 230Q538 296 515 350T442 437T323 470Q254 470 194 439T94 353T44 230ZM153 230Q160 270 183 303T240 356T314 375Q353 375 378 354T414 301T418
230Q412 191 389 158T332 106T258 86Q219 86 194 106T158 160T153 230ZM209 697L362 545L425 579L304 741L209 697Z" />
<glyph unicode="&#xf3;" horiz-adv-x="547" d="M44 230Q35 165 58 111T130 24T248 -9Q319 -9 378 22T478 108T528 230Q538 296 515 350T442 437T323 470Q254 470 194 439T94 353T44 230ZM153 230Q160 270 183 303T240 356T314 375Q353 375 378 354T414 301T418
230Q412 191 389 158T332 106T258 86Q219 86 194 106T158 160T153 230ZM521 693L437 740L266 583L323 546L521 693Z" />
<glyph unicode="&#xf4;" horiz-adv-x="547" d="M44 230Q35 165 58 111T130 24T248 -9Q319 -9 378 22T478 108T528 230Q538 296 515 350T442 437T323 470Q254 470 194 439T94 353T44 230ZM153 230Q160 270 183 303T240 356T314 375Q353 375 378 354T414 301T418
230Q412 191 389 158T332 106T258 86Q219 86 194 106T158 160T153 230ZM358 636L442 546L519 596L370 738L179 600L243 546L358 636Z" />
<glyph unicode="&#xf5;" horiz-adv-x="547" d="M44 230Q35 165 58 111T130 24T248 -9Q319 -9 378 22T478 108T528 230Q538 296 515 350T442 437T323 470Q254 470 194 439T94 353T44 230ZM153 230Q160 270 183 303T240 356T314 375Q353 375 378 354T414 301T418
230Q412 191 389 158T332 106T258 86Q219 86 194 106T158 160T153 230ZM172 581L226 533Q233 547 245 564T284 583Q306 584 323 572T358 548T400 534Q427 533 450 545T493 574T524 610L476 667Q461 648 445 634T408 618Q384 617 368 629T335 653T292 666Q271 666
243 654T193 623T172 581Z" />
<glyph unicode="&#xf6;" horiz-adv-x="547" d="M44 230Q35 165 58 111T130 24T248 -9Q319 -9 378 22T478 108T528 230Q538 296 515 350T442 437T323 470Q254 470 194 439T94 353T44 230ZM153 230Q160 270 183 303T240 356T314 375Q353 375 378 354T414 301T418
230Q412 191 389 158T332 106T258 86Q219 86 194 106T158 160T153 230ZM391 620Q388 593 404 574T449 554Q474 553 498 572T525 618Q528 644 511 664T467 684Q441 685 418 665T391 620ZM180 620Q177 593 193 574T238 554Q263 553 287 572T314 618Q317 644 300 664T256
684Q230 685 207 665T180 620Z" />
<glyph unicode="&#xf7;" horiz-adv-x="612" d="M292 492Q291 474 298 458T319 433T352 422Q371 422 388 431T417 457T431 490Q434 509 427 524T405 550T371 561Q353 562 336 552T307 527T292 492ZM222 82Q219 55 236 34T282 12Q301 12 318 21T347 47T361 80Q364
99 357 114T335 140T301 151Q283 152 266 142T237 117T222 82ZM59 240L580 239L597 341H76L59 240Z" />
<glyph unicode="&#xf8;" horiz-adv-x="530" d="M44 230Q35 164 58 110T130 24T248 -9Q318 -9 378 22T477 108T528 230Q538 297 515 351T442 437T323 470Q254 470 194 439T94 353T44 230ZM148 230Q156 270 179 303T238 357T314 378Q355 377 381 356T418 302T423
230Q417 190 393 156T334 103T257 84Q217 84 191 104T154 158T148 230ZM490 502L24 -19L71 -45L538 476L490 502Z" />
<glyph unicode="&#xf9;" horiz-adv-x="529" d="M328 0H436L516 460H408L328 0ZM178 180L227 460H119L68 168Q62 118 73 78T114 14T197 -9Q251 -9 291 18T358 88T394 182L360 179Q353 153 337 130T296 92T241 78Q212 80 198 94T180 130T178 180ZM230 697L382 545L445
579L324 741L230 697Z" />
<glyph unicode="&#xfa;" horiz-adv-x="529" d="M328 0H436L516 460H408L328 0ZM178 180L227 460H119L68 168Q62 118 73 78T114 14T197 -9Q251 -9 291 18T358 88T394 182L360 179Q353 153 337 130T296 92T241 78Q212 80 198 94T180 130T178 180ZM483 693L399 740L228
583L285 546L483 693Z" />
<glyph unicode="&#xfb;" horiz-adv-x="529" d="M328 0H436L516 460H408L328 0ZM178 180L227 460H119L68 168Q62 118 73 78T114 14T197 -9Q251 -9 291 18T358 88T394 182L360 179Q353 153 337 130T296 92T241 78Q212 80 198 94T180 130T178 180ZM349 636L432 546L510
596L360 738L169 600L233 546L349 636Z" />
<glyph unicode="&#xfc;" horiz-adv-x="529" d="M328 0H436L516 460H408L328 0ZM178 180L227 460H119L68 168Q62 118 73 78T114 14T197 -9Q251 -9 291 18T358 88T394 182L360 179Q353 153 337 130T296 92T241 78Q212 80 198 94T180 130T178 180ZM381 612Q378 587
394 567T438 546Q464 546 488 565T515 610Q518 637 501 656T457 677Q430 678 407 658T381 612ZM170 612Q167 587 183 567T227 546Q253 546 277 565T303 610Q306 637 289 656T246 677Q219 678 196 658T170 612Z" />
<glyph unicode="&#xfd;" horiz-adv-x="459" d="M517 460H399L198 100L248 96L168 460H49L160 58L-7 -219H109L517 460ZM460 693L376 740L205 583L262 546L460 693Z" />
<glyph unicode="&#xfe;" horiz-adv-x="571" d="M106 -219L276 780H169L-3 -220L106 -219ZM552 230Q561 296 542 350T478 437T371 470Q325 470 286 451T218 399T169 323T143 230Q137 184 143 141T167 64T218 10T296 -10Q360 -10 414 21T506 108T552 230ZM442 230Q436
189 412 156T354 104T280 85Q254 86 234 97T201 129T183 175T181 230Q186 261 201 287T237 334T284 365T336 376Q375 376 401 356T437 303T442 230Z" />
<glyph unicode="&#xff;" horiz-adv-x="459" d="M517 460H399L198 100L248 96L168 460H49L160 58L-7 -219H109L517 460ZM343 597Q340 571 357 552T400 531Q427 531 450 550T476 595Q479 622 463 641T419 662Q393 663 370 643T343 597ZM132 597Q129 571 146 552T189
531Q216 531 239 550T265 595Q268 622 252 641T208 662Q182 663 159 643T132 597Z" />
<glyph unicode="&#x2013;" horiz-adv-x="735" d="M73 190L672 189L689 286H90L73 190Z" />
<glyph unicode="&#x2014;" horiz-adv-x="883" d="M73 190L821 189L837 286H90L73 190Z" />
<glyph unicode="&#x2018;" horiz-adv-x="289" d="M238 461L335 699H257L116 461H238Z" />
<glyph unicode="&#x2019;" horiz-adv-x="289" d="M195 700L99 461H176L316 700H195Z" />
<glyph unicode="&#x201a;" horiz-adv-x="289" d="M99 80L3 -159H80L220 80H99Z" />
<glyph unicode="&#x201c;" horiz-adv-x="495" d="M238 461L335 699H257L116 461H238ZM444 461L541 699H463L322 461H444Z" />
<glyph unicode="&#x201d;" horiz-adv-x="495" d="M195 700L99 461H176L316 700H195ZM402 700L305 461H383L523 700H402Z" />
<glyph unicode="&#x201e;" horiz-adv-x="495" d="M94 80L-2 -159H75L215 80H94ZM301 80L204 -159H282L422 80H301Z" />
<glyph unicode="&#x2022;" horiz-adv-x="295" d="M126 428Q125 409 133 393T157 368T193 358Q212 358 228 367T255 393T266 428Q267 447 259 462T236 487T200 497Q181 497 165 488T138 463T126 428Z" />
<glyph unicode="&#x2039;" horiz-adv-x="340" d="M150 258L329 443L269 498L50 259L190 12L264 63L150 258Z" />
<glyph unicode="&#x203a;" horiz-adv-x="340" d="M222 253L44 68L104 14L323 252L182 498L109 447L222 253Z" />
</font>
</defs>
</svg>
