<?xml version="1.0" standalone="no"?>
<!DOCTYPE svg PUBLIC "-//W3C//DTD SVG 1.1//EN" "http://www.w3.org/Graphics/SVG/1.1/DTD/svg11.dtd">
<svg xmlns="http://www.w3.org/2000/svg">
<defs >
<font id="Jost" horiz-adv-x="531" ><font-face
    font-family="Jost SemiBold"
    units-per-em="1000"
    panose-1="0 0 0 0 0 0 0 0 0 0"
    ascent="1070"
    descent="-375"
    alphabetic="0" />
<glyph unicode=" " horiz-adv-x="301" />
<glyph unicode="!" horiz-adv-x="320" d="M174 700L120 222H223L332 700H174ZM62 55Q62 22 85 1T144 -21Q179 -21 202 0T226 55Q226 88 203 109T144 131Q109 131 86 110T62 55Z" />
<glyph unicode="&quot;" horiz-adv-x="487" d="M199 700L107 388H192L339 700H199ZM394 700L302 388H387L534 700H394Z" />
<glyph unicode="#" horiz-adv-x="629" d="M118 422L258 421L280 425H475L498 421H641L658 524H134L118 422ZM37 181H561L579 284H452L425 280H211L186 284H54L37 181ZM544 700L456 484L451 458L366 249L352 225L260 0H374L660 700H544ZM319 700L36 0H149L242 226L246
249L332 459L347 486L435 700H319Z" />
<glyph unicode="$" horiz-adv-x="591" d="M362 818L339 647H437L469 818H362ZM249 57L218 -111H324L347 57H249ZM495 497L609 561Q593 602 564 636T493 690T392 710Q330 710 276 687T185 622T140 528Q133 471 155 429T214 359T290 314Q323 300 353 285T402 247T414
191Q411 166 396 148T358 119T305 109Q267 109 240 126T193 174T158 243L48 174Q66 122 100 81T182 16T290 -9Q361 -9 419 14T515 84T562 194Q569 249 551 290T497 360T418 408Q394 418 369 428T322 452T291 482T284 525Q288 547 301 564T337 590T386 599Q415 599
435 585T470 547T495 497Z" />
<glyph unicode="%" horiz-adv-x="841" d="M90 540Q83 494 100 454T153 388T239 363Q290 363 333 387T405 452T441 539Q447 586 430 626T377 691T291 716Q240 716 197 692T126 628T90 540ZM195 539Q198 558 210 575T240 604T279 615Q300 614 313 603T331 575T335
540Q332 521 320 504T291 475T252 465Q231 466 218 477T199 505T195 539ZM467 162Q460 115 477 75T530 10T616 -15Q667 -15 710 9T782 73T817 161Q823 208 807 248T755 313T668 338Q618 338 575 314T503 250T467 162ZM573 161Q576 181 588 198T618 226T657 236Q677
236 690 225T709 197T712 162Q708 142 696 125T667 97T628 87Q608 87 595 98T576 126T573 161ZM694 700L80 0H212L828 700H694Z" />
<glyph unicode="&amp;" horiz-adv-x="706" d="M259 375L530 0H671L375 408Q357 432 341 453T315 497T309 541Q313 560 324 575T352 601T392 610Q413 610 427 600T447 575T451 541Q447 516 427 494T377 454T315 419Q288 406 255 392T188 361T125 319T76 263T49
186Q42 126 69 82T146 14T255 -12Q327 -12 390 13T508 78T611 168T700 267L619 333Q586 292 548 250T466 174T377 119T280 100Q249 101 226 113T192 147T185 197Q190 230 210 252T261 292T323 322T382 352Q429 380 469 408T537 470T570 550Q576 594 557 632T498
692T405 715Q350 715 302 693T224 634T186 548Q182 514 193 484T222 428T259 375Z" />
<glyph unicode="&apos;" horiz-adv-x="292" d="M199 700L107 388H192L339 700H199Z" />
<glyph unicode="(" horiz-adv-x="322" d="M289 779Q215 669 167 545T99 290Q81 167 91 43T143 -200H257Q222 -81 216 43T228 290Q249 420 295 543T406 779H289Z" />
<glyph unicode=")" horiz-adv-x="322" d="M88 -199Q162 -89 210 35T278 290Q296 414 286 538T234 781H120Q155 663 161 539T149 290Q128 161 83 38T-29 -199H88Z" />
<glyph unicode="*" horiz-adv-x="575" d="M550 602L336 510L347 446L567 490L550 602ZM491 330L368 497L312 460L387 262L491 330ZM227 264L365 456L316 496L143 335L227 264ZM121 491L329 446L359 508L173 601L121 491ZM322 700L310 478H375L439 700H322Z" />
<glyph unicode="+" horiz-adv-x="636" d="M70 203L582 202L604 327H91L70 203ZM315 528L226 2L357 1L448 528H315Z" />
<glyph unicode="," horiz-adv-x="309" d="M115 109L-15 -148L80 -171L240 76L115 109Z" />
<glyph unicode="-" horiz-adv-x="212" d="M8 181H213L233 294H28L8 181Z" />
<glyph unicode="." horiz-adv-x="306" d="M57 59Q57 27 80 3T138 -21Q174 -21 197 3T220 59Q220 93 197 116T138 140Q103 140 80 117T57 59Z" />
<glyph unicode="/" horiz-adv-x="562" d="M516 700L-40 -149H90L643 700H516Z" />
<glyph unicode="0" horiz-adv-x="624" d="M207 350Q213 393 228 435T266 512T321 567T390 587Q420 586 439 572T468 533T483 477T486 414T482 350Q477 307 462 265T423 188T369 133T300 114Q270 114 251 129T221 168T206 223T203 287T207 350ZM71 350Q64 296 67
244T84 145T126 64T193 9T287 -12Q356 -12 412 17T512 96T582 212T619 350Q626 404 623 457T606 556T565 637T498 692T402 712Q335 712 279 684T179 604T108 488T71 350Z" />
<glyph unicode="1" horiz-adv-x="476" d="M129 517L300 560L204 0H341L463 714L152 648L129 517Z" />
<glyph unicode="2" horiz-adv-x="610" d="M0 0H550L571 131L289 132L491 303Q536 341 571 390T614 497Q623 552 598 601T522 682T397 713Q315 714 254 678T156 581T106 448H244Q252 485 270 517T316 569T382 588Q414 588 434 574T463 537T468 489Q464 459 448
433T408 382T359 332L0 0Z" />
<glyph unicode="3" horiz-adv-x="580" d="M296 342Q348 343 398 353T489 385T557 440T591 521Q599 576 576 619T504 687T392 712Q326 712 273 685T185 612T140 506L270 505Q278 530 293 550T331 583T382 595Q408 595 425 584T448 554T452 513Q447 483 426 461T373
426T305 410L296 342ZM283 -14Q353 -14 413 11T512 81T560 189Q567 243 549 281T493 342T406 376T302 388L291 312Q321 311 347 304T392 284T419 252T423 204Q419 174 401 152T356 117T297 105Q265 106 243 119T211 156T202 211H64Q59 149 83 98T158 17T283 -14Z"
/>
<glyph unicode="4" horiz-adv-x="643" d="M9 130L602 129L623 251H479L459 237H224L419 466L372 187L357 176L327 0H472L592 700L494 699L9 130Z" />
<glyph unicode="5" horiz-adv-x="601" d="M582 226Q590 288 570 340T509 425T407 457Q377 457 348 451T292 432L359 576H625L645 700H271L120 307Q171 331 219 344T316 356Q352 355 380 341T423 301T432 239Q426 202 404 176T348 135T273 120Q227 120 187 145T115
207L35 97Q78 50 139 19T285 -12Q337 -12 387 4T478 50T547 125T582 226Z" />
<glyph unicode="6" horiz-adv-x="622" d="M205 241Q211 278 232 308T286 356T355 374Q392 374 416 355T452 306T457 241Q451 205 430 175T377 127T307 110Q271 110 247 128T211 176T205 241ZM410 698L161 420Q127 382 101 338T67 241Q58 166 85 109T167 19T296
-14Q371 -14 435 18T542 107T594 241Q601 302 581 353T518 436T418 468Q383 468 356 458T303 427L332 435L592 698H410Z" />
<glyph unicode="7" horiz-adv-x="561" d="M97 566H422L63 0H217L653 700H119L97 566Z" />
<glyph unicode="8" horiz-adv-x="584" d="M138 532Q132 488 145 454T185 396T250 360T329 347Q371 347 412 359T487 395T544 452T573 531Q579 572 567 606T527 664T462 701T383 714Q324 714 272 692T183 628T138 532ZM267 516Q272 541 286 561T323 595T372 607Q397
607 413 594T436 561T439 517Q436 494 421 473T383 440T335 428Q311 429 295 441T271 473T267 516ZM56 191Q49 146 63 109T108 44T179 1T267 -14Q315 -14 361 0T444 42T507 106T540 190Q546 239 531 277T484 341T413 380T328 394Q283 394 238 381T154 342T89 279T56
191ZM197 210Q203 238 221 262T265 301T322 316Q351 316 371 301T400 262T405 211Q400 180 382 156T337 119T279 105Q251 105 231 119T202 157T197 210Z" />
<glyph unicode="9" horiz-adv-x="622" d="M490 460Q485 423 464 393T410 345T341 327Q304 327 280 346T245 395T239 459Q244 496 265 526T319 573T388 591Q425 591 449 573T485 525T490 460ZM286 3L535 280Q569 318 595 362T628 459Q638 535 611 592T529 681T400
714Q326 714 261 683T154 594T101 459Q94 399 115 348T178 265T278 233Q312 232 339 242T392 273L363 266L103 3H286Z" />
<glyph unicode=":" horiz-adv-x="306" d="M55 59Q55 27 78 3T136 -21Q172 -21 195 3T218 59Q218 93 195 116T136 140Q101 140 78 117T55 59ZM119 435Q119 402 142 379T200 355Q236 355 259 378T282 435Q282 468 259 492T200 516Q165 516 142 492T119 435Z" />
<glyph unicode=";" horiz-adv-x="362" d="M162 431Q162 398 185 375T244 351Q279 351 302 374T325 431Q325 464 302 487T244 511Q209 511 186 488T162 431ZM129 109L0 -148L94 -171L254 76L129 109Z" />
<glyph unicode="&lt;" horiz-adv-x="621" d="M265 262L599 389L623 521L87 304L73 222L533 6L554 127L265 262Z" />
<glyph unicode="=" horiz-adv-x="604" d="M47 102L539 101L559 215H66L47 102ZM79 291L572 290L592 404H98L79 291Z" />
<glyph unicode="&gt;" horiz-adv-x="621" d="M392 262L57 135L34 2L569 219L583 302L124 518L102 397L392 262Z" />
<glyph unicode="?" horiz-adv-x="587" d="M465 500Q457 465 429 435T357 388T263 369H235L226 192H329L352 287Q408 297 459 324T547 396T593 500Q600 547 587 586T545 655T475 700T388 716Q303 717 240 682T123 592L203 520Q235 556 276 581T367 605Q402 605
425 592T459 556T465 500ZM171 53Q171 23 194 2T252 -20Q286 -20 309 1T332 53Q332 83 309 105T252 127Q218 127 195 106T171 53Z" />
<glyph unicode="@" horiz-adv-x="747" d="M319 320Q323 348 338 377T377 424T424 441Q442 440 452 430T466 403T467 366Q463 335 446 307T406 261T359 246Q341 247 332 257T320 285T319 320ZM214 315Q209 273 219 237T254 179T321 157Q370 156 410 185T477 263T511
370Q516 407 508 443T478 504T414 530Q367 532 324 502T251 422T214 315ZM50 320Q40 250 52 189T100 81T192 7T328 -20Q398 -21 455 -6T562 34L537 115Q491 93 444 81T343 69Q266 70 219 103T154 194T147 320Q158 383 187 439T261 538T363 606T488 630Q543 629
581 609T641 555T669 479T668 390Q666 360 655 331T629 279T596 243T563 234Q553 236 549 242T544 257T544 275Q545 282 547 289T550 302L618 520H516L451 288L459 267Q454 236 461 209T488 164T544 146Q584 145 621 163T688 214T738 292T765 390Q774 451 761 509T714
615T624 690T494 719Q409 719 334 688T200 601T101 473T50 320Z" />
<glyph unicode="A" horiz-adv-x="690" d="M167 159H528L531 272H202L167 159ZM400 473L461 230L454 194L507 0H662L444 744L-30 0H133L256 200L259 232L400 473Z" />
<glyph unicode="B" horiz-adv-x="612" d="M211 356H338Q400 356 455 374T547 430T593 523Q600 568 586 601T543 656T474 689T388 700H165L45 0H292Q364 0 424 21T525 86T576 199Q584 250 567 286T517 347T441 382T350 394H218L204 317L332 316Q365 316 390 305T428
273T435 218Q430 183 409 160T356 126T290 114H205L287 586H364Q405 586 428 565T445 505Q441 479 424 460T383 431T329 420H222L211 356Z" />
<glyph unicode="C" horiz-adv-x="675" d="M219 350Q227 399 251 440T310 512T389 560T479 577Q545 577 591 551T669 481L694 642Q652 677 604 696T488 714Q407 714 336 687T209 610T115 494T66 350Q55 276 72 210T129 94T232 15T372 -14Q442 -14 495 5T597 58L621
218Q577 180 521 152T394 124Q347 124 312 142T253 192T221 263T219 350Z" />
<glyph unicode="D" horiz-adv-x="695" d="M165 700L46 0H190L310 700H165ZM282 0Q363 0 433 25T557 97T647 208T695 350Q706 425 690 489T634 600T533 673T392 700H254L231 570H374Q422 570 458 555T517 510T549 441T550 350Q539 280 502 231T411 156T291 130H157L134
0H282Z" />
<glyph unicode="E" horiz-adv-x="569" d="M135 0H480L501 121H156L135 0ZM234 579H579L600 700H255L234 579ZM188 313H514L535 431H209L188 313ZM165 700L46 0H181L302 700H165Z" />
<glyph unicode="F" horiz-adv-x="521" d="M233 575H539L561 700H255L233 575ZM186 300L483 299L503 418H207L186 300ZM165 700L46 0H181L302 700H165Z" />
<glyph unicode="G" horiz-adv-x="778" d="M419 260H609Q594 229 574 202T526 154T465 122T390 110Q340 110 304 129T245 182T215 259T214 350Q222 400 246 443T306 518T386 568T479 586Q540 586 580 559T641 483L770 553Q728 628 659 671T493 714Q412 714 340
687T211 611T116 495T66 350Q55 275 72 209T130 91T233 10T375 -19Q462 -19 531 13T651 100T733 225T775 374H439L419 260Z" />
<glyph unicode="H" horiz-adv-x="742" d="M144 308H646L668 437H166L144 308ZM621 700L502 0H642L763 700H621ZM165 700L46 0H186L306 700H165Z" />
<glyph unicode="I" horiz-adv-x="288" d="M165 700L46 0H188L308 700H165Z" />
<glyph unicode="J" horiz-adv-x="293" d="M-112 -76L-201 -177Q-172 -199 -132 -215T-43 -232Q14 -232 62 -213T143 -154T186 -56L314 700H165L40 -26Q36 -63 12 -86T-40 -110Q-62 -111 -80 -101T-112 -76Z" />
<glyph unicode="K" horiz-adv-x="638" d="M165 700L46 0H190L311 700H165ZM547 700L212 372L443 0H609L377 369L719 700H547Z" />
<glyph unicode="L" horiz-adv-x="489" d="M165 700L45 0H457L479 125H208L306 700H165Z" />
<glyph unicode="M" horiz-adv-x="840" d="M266 392L406 64L655 387L633 0H779L805 740L440 285L234 736L5 0H154L266 392Z" />
<glyph unicode="N" horiz-adv-x="764" d="M648 700L573 266L170 734L45 0H182L257 435L660 -34L785 700H648Z" />
<glyph unicode="O" horiz-adv-x="788" d="M215 350Q223 397 245 439T301 513T378 563T470 581Q519 581 554 562T610 510T638 436T638 350Q631 303 608 261T552 188T475 138T383 120Q335 120 300 139T244 191T216 264T215 350ZM66 350Q56 277 71 211T127 93T228
11T368 -19Q448 -19 519 10T646 89T738 207T787 350Q798 424 782 490T725 606T623 685T484 714Q405 714 335 687T208 609T115 493T66 350Z" />
<glyph unicode="P" horiz-adv-x="582" d="M165 700L46 0H186L306 700H165ZM230 580H369Q403 580 426 568T461 533T467 478Q461 445 441 422T391 388T327 375H195L173 254H314Q391 255 453 281T554 358T603 477Q612 546 587 595T509 672T382 700H250L230 580Z" />
<glyph unicode="Q" horiz-adv-x="816" d="M215 350Q223 397 245 439T302 513T380 563T472 581Q523 580 560 560T619 504T648 426T649 337Q640 290 618 249T561 177T484 129T392 112Q343 112 307 131T248 184T217 260T215 350ZM66 350Q56 277 72 211T128 93T230
11T370 -19Q450 -19 521 10T647 89T739 207T787 350Q798 424 782 490T725 606T625 685T487 714Q407 714 337 687T209 609T115 493T66 350ZM380 300L639 -9H788L525 300H380Z" />
<glyph unicode="R" horiz-adv-x="601" d="M258 326L407 0H568L402 326H258ZM165 700L46 0H186L306 700H165ZM229 578H369Q402 578 426 565T461 529T466 473Q460 441 440 417T391 381T325 368H194L173 254H322Q399 254 460 281T562 359T611 477Q621 544 595 594T517
672T390 700H250L229 578Z" />
<glyph unicode="S" horiz-adv-x="583" d="M141 235L34 163Q52 113 88 72T174 6T287 -19Q355 -19 414 9T512 88T556 207Q559 261 540 299T486 365T408 408Q381 419 357 430T314 454T285 484T276 520Q278 541 289 557T321 582T369 591Q404 591 427 579T466 547T494
502L609 562Q592 603 562 637T488 693T382 714Q315 715 260 690T171 619T132 515Q130 473 144 440T181 383T233 342T287 313Q323 297 351 283T395 250T409 200Q407 175 393 154T353 120T295 107Q257 107 229 123T179 169T141 235Z" />
<glyph unicode="T" horiz-adv-x="516" d="M74 571H258L160 0H301L399 571H581L604 700H97L74 571Z" />
<glyph unicode="U" horiz-adv-x="658" d="M160 700L81 230Q70 155 95 98T173 10T303 -22Q385 -22 448 9T551 97T603 230L683 700H542L463 239Q457 202 439 172T390 125T316 107Q277 108 255 126T224 174T221 239L301 700H160Z" />
<glyph unicode="V" horiz-adv-x="690" d="M364 245L252 700H92L322 -43L784 700H618L364 245Z" />
<glyph unicode="W" horiz-adv-x="1011" d="M718 261L601 737L335 262L259 700H97L268 -42L555 419L698 -41L1099 700H931L718 261Z" />
<glyph unicode="X" horiz-adv-x="626" d="M525 700L371 482L290 700H122L274 365L-15 0H161L338 250L435 0H602L435 359L700 700H525Z" />
<glyph unicode="Y" horiz-adv-x="610" d="M541 700L348 421L251 700H94L258 293L207 0H350L398 287L706 700H541Z" />
<glyph unicode="Z" horiz-adv-x="579" d="M118 571H407L-20 0H508L530 125L229 126L659 700H140L118 571Z" />
<glyph unicode="[" horiz-adv-x="333" d="M303 666L401 667L418 780H193L39 -220H264L282 -106H183L303 666Z" />
<glyph unicode="\" horiz-adv-x="521" d="M107 701L357 0H478L231 700L107 701Z" />
<glyph unicode="]" horiz-adv-x="333" d="M83 -106H-15L-33 -220H192L346 780H122L104 666H202L83 -106Z" />
<glyph unicode="^" horiz-adv-x="495" d="M324 592L385 451H498L376 710H302L93 452H214L324 592Z" />
<glyph unicode="_" horiz-adv-x="506" d="M-53 -147H455L469 -64H-39L-53 -147Z" />
<glyph unicode="`" horiz-adv-x="364" d="M142 658L297 506L370 542L247 705L142 658Z" />
<glyph unicode="a" horiz-adv-x="584" d="M452 460L374 0H499L578 460H452ZM43 230Q34 165 54 111T117 24T223 -9Q269 -9 308 9T376 61T425 137T451 230Q457 277 451 320T426 396T375 450T296 470Q234 471 180 439T89 353T43 230ZM175 230Q181 267 202 297T255
346T322 363Q346 362 364 351T394 322T410 280T411 230Q406 203 393 179T360 137T317 108T270 98Q235 99 212 117T180 165T175 230Z" />
<glyph unicode="b" horiz-adv-x="584" d="M293 780H165L31 0H159L293 780ZM566 230Q574 296 555 350T492 437T387 470Q341 470 302 451T233 399T184 323T158 230Q152 184 158 141T183 64T234 10T313 -10Q376 -10 430 21T520 107T566 230ZM434 230Q428 194 407
164T354 115T287 98Q263 99 245 109T216 138T200 180T198 230Q203 258 216 282T249 324T292 353T339 363Q374 362 397 344T430 295T434 230Z" />
<glyph unicode="c" horiz-adv-x="471" d="M174 230Q180 267 201 297T255 345T327 364Q368 364 401 345T453 291L471 424Q444 446 408 458T328 470Q255 470 194 439T93 354T44 230Q35 163 60 109T138 23T261 -9Q307 -9 345 3T413 37L431 169Q405 139 365 118T279
97Q242 98 217 116T180 164T174 230Z" />
<glyph unicode="d" horiz-adv-x="584" d="M504 780L372 0H498L633 780H504ZM43 230Q34 165 54 111T117 24T223 -9Q269 -9 308 9T376 61T425 137T451 230Q457 277 451 320T426 396T375 450T296 470Q234 471 180 439T89 353T43 230ZM175 230Q181 267 202 297T255
346T322 363Q346 362 364 351T394 322T410 280T411 230Q406 203 393 179T360 137T317 108T270 98Q235 99 212 117T180 165T175 230Z" />
<glyph unicode="e" horiz-adv-x="539" d="M264 -10Q347 -10 408 24T506 120L396 155Q375 125 344 107T272 89Q236 89 213 104T180 149T174 216Q177 252 187 282T216 333T258 367T313 379Q343 379 361 367T389 333T399 280Q399 269 395 257T386 235L420 281H113V201H519Q524
214 527 232T530 267Q530 332 506 377T437 446T324 470Q263 470 212 449T124 391T66 305T45 200Q45 134 72 87T149 15T264 -10Z" />
<glyph unicode="f" horiz-adv-x="317" d="M75 460L55 351H337L357 460H75ZM377 651L445 746Q428 765 402 779T337 794Q286 795 248 774T187 716T155 631L48 0H172L275 601Q278 621 286 638T307 666T337 677Q350 676 359 670T377 651Z" />
<glyph unicode="g" horiz-adv-x="580" d="M7 -32Q5 -93 29 -139T102 -210T223 -235Q295 -235 352 -206T448 -121T497 10L574 460H450L372 10Q366 -30 345 -62T293 -111T225 -128Q193 -128 172 -116T140 -83T130 -32H7ZM44 235Q35 169 55 116T118 31T224 -1Q270
-1 309 17T377 67T426 142T452 234Q458 282 452 324T426 399T375 451T296 470Q234 471 180 441T90 357T44 235ZM176 234Q182 271 203 300T255 346T322 363Q346 362 364 352T394 325T411 284T412 235Q407 208 394 184T361 143T318 116T271 107Q237 107 214 124T181
170T176 234Z" />
<glyph unicode="h" horiz-adv-x="538" d="M296 780H168L34 0H162L296 780ZM372 280L323 0H450L501 299Q508 349 498 389T458 452T373 475Q319 475 280 448T216 376T183 281H210Q216 306 230 327T267 362T317 374Q343 372 356 359T372 326T372 280Z" />
<glyph unicode="i" horiz-adv-x="263" d="M136 638Q136 607 159 586T213 565Q246 565 268 586T291 638Q291 670 269 690T213 711Q182 711 159 691T136 638ZM120 460L43 0H167L246 460H120Z" />
<glyph unicode="j" horiz-adv-x="258" d="M129 638Q129 607 152 586T207 565Q239 565 261 586T284 638Q284 670 262 690T207 711Q175 711 152 691T129 638ZM-73 -89L-140 -184Q-121 -203 -94 -217T-29 -232Q22 -232 59 -211T119 -153T150 -69L240 460H116L30 -39Q28
-58 21 -75T1 -104T-29 -114Q-43 -114 -54 -107T-73 -89Z" />
<glyph unicode="k" horiz-adv-x="518" d="M164 780L32 0H155L289 780H164ZM393 460L172 274L340 0H486L320 265L551 460H393Z" />
<glyph unicode="l" horiz-adv-x="250" d="M167 780L35 0H161L296 780H167Z" />
<glyph unicode="m" horiz-adv-x="784" d="M746 294Q752 343 744 383T709 447T630 470Q581 470 543 448T476 388Q470 414 456 432T419 461T360 470Q331 470 307 461T262 436T227 397L237 460H113L34 0H158L207 285Q212 311 224 331T257 362T302 373Q326 373 336
360T349 326T349 280L299 0H426L474 282Q479 309 491 329T524 361T570 373Q595 373 605 360T618 326T618 280L567 0H696L746 294Z" />
<glyph unicode="n" horiz-adv-x="542" d="M372 280L323 0H454L505 294Q512 344 501 383T458 447T372 470Q325 470 290 450T231 394L241 460H113L34 0H162L211 283Q215 310 229 330T265 362T314 374Q342 374 355 361T371 326T372 280Z" />
<glyph unicode="o" horiz-adv-x="559" d="M49 230Q41 163 66 109T143 23T265 -9Q337 -9 397 22T498 107T547 230Q556 297 531 351T454 438T331 470Q260 470 200 439T99 354T49 230ZM179 230Q185 266 205 296T256 344T321 361Q356 361 379 342T412 294T417 230Q412
195 392 165T341 118T274 100Q240 101 217 119T184 167T179 230Z" />
<glyph unicode="p" horiz-adv-x="584" d="M122 -219L237 460H111L-7 -220L122 -219ZM566 230Q574 297 555 352T493 441T387 474Q340 474 302 455T235 401T188 323T162 230Q156 184 161 140T183 62T233 7T312 -14Q375 -14 429 18T520 105T566 230ZM434 230Q429
194 407 165T355 118T288 102Q264 103 246 113T216 140T200 180T198 230Q203 257 216 280T249 322T292 349T339 359Q373 358 396 341T430 295T434 230Z" />
<glyph unicode="q" horiz-adv-x="584" d="M333 -220H461L578 460H450L333 -220ZM43 230Q34 164 53 109T116 20T222 -13Q269 -13 307 6T375 59T422 137T447 230Q453 277 448 320T426 398T377 453T297 474Q234 475 180 443T89 356T43 230ZM175 230Q181 266 202 296T255
343T321 359Q345 358 363 348T393 320T410 280T411 230Q406 203 393 180T361 139T318 112T270 102Q236 103 213 120T180 166T175 230Z" />
<glyph unicode="r" horiz-adv-x="381" d="M239 460H113L34 0H160L239 460ZM351 326L424 433Q409 451 390 461T345 471Q305 471 270 443T209 372T174 281L202 244Q206 272 218 296T251 335T297 350Q314 350 326 343T351 326Z" />
<glyph unicode="s" horiz-adv-x="427" d="M90 158L19 79Q44 54 76 32T147 -3T234 -16Q284 -16 322 2T384 54T410 133Q412 173 396 199T353 242T291 274Q269 283 248 292T215 312T204 340Q205 357 220 367T259 378Q291 378 321 360T374 316L435 395Q402 427 358
448T256 470Q214 470 176 456T114 412T86 338Q84 300 100 273T142 229T198 201Q222 192 241 183T273 161T284 130Q284 110 268 97T227 83Q203 82 180 91T135 118T90 158Z" />
<glyph unicode="t" horiz-adv-x="285" d="M57 460L37 351H315L334 460H57ZM159 620L54 0H176L284 620H159Z" />
<glyph unicode="u" horiz-adv-x="542" d="M196 180L244 460H114L63 166Q56 117 67 77T109 14T195 -10Q243 -10 278 11T337 67L326 0H454L534 460H406L356 177Q352 150 337 130T300 98T251 87Q224 87 212 100T196 135T196 180Z" />
<glyph unicode="v" horiz-adv-x="485" d="M52 460L219 -49L544 460H405L254 186L188 460H52Z" />
<glyph unicode="w" horiz-adv-x="714" d="M49 460L184 -33L375 259L467 -33L772 460H634L491 206L411 497L235 208L181 460H49Z" />
<glyph unicode="x" horiz-adv-x="483" d="M385 460L275 328L206 460H65L194 243L-21 0H129L248 149L328 0H464L328 233L530 460H385Z" />
<glyph unicode="y" horiz-adv-x="481" d="M542 460H406L202 97L266 94L183 460H46L162 50L0 -219H134L542 460Z" />
<glyph unicode="z" horiz-adv-x="488" d="M290 343L-16 0H420L441 118H230L528 460H103L82 343H290Z" />
<glyph unicode="{" horiz-adv-x="360" d="M312 626Q316 647 330 661T367 676H401L416 780H333Q295 780 261 764T204 716T175 641L145 448Q139 400 123 375T74 337L60 243Q89 228 96 204T98 133L69 -60Q64 -103 78 -134T122 -182T188 -200H265L280 -95H245Q230
-95 221 -89T208 -71T206 -46L228 90Q234 124 235 158T229 223T198 274T129 300L126 281Q173 285 202 304T249 352T275 417T291 490L312 626Z" />
<glyph unicode="|" horiz-adv-x="318" d="M200 785L46 -214H173L326 785H200Z" />
<glyph unicode="}" horiz-adv-x="360" d="M109 -46Q105 -67 91 -81T53 -96H20L5 -199H88Q126 -199 159 -183T216 -135T246 -60L275 133Q282 181 298 205T347 243L361 337Q332 353 325 377T322 447L351 640Q358 684 343 715T299 763T232 780H156L140 676H176Q191
676 200 669T212 651T214 627L192 490Q187 457 186 422T192 357T223 306T292 280L294 300Q248 296 219 277T172 228T146 163T130 90L109 -46Z" />
<glyph unicode="~" horiz-adv-x="558" d="M158 167Q157 174 157 180T157 194Q161 213 175 227T212 242Q225 243 237 239T262 226T287 209Q316 188 342 174T398 160Q432 159 460 173T508 210Q524 229 533 252T545 299Q547 306 547 313T545 327L439 332Q441 325
442 317T441 300Q437 285 426 272T397 258Q383 258 367 268T334 291Q305 313 279 326T220 340Q180 340 149 325T95 284Q78 265 68 243T55 197Q54 190 54 184T55 172L158 167Z" />
<glyph unicode="&#xa0;" horiz-adv-x="301" />
<glyph unicode="&#xa1;" horiz-adv-x="320" d="M172 -234L226 244H123L14 -234H172ZM283 410Q287 442 267 464T214 487Q181 488 154 466T123 412Q119 380 139 358T193 335Q226 335 253 357T283 410Z" />
<glyph unicode="&#xa2;" horiz-adv-x="563" d="M221 38L189 -111H297L317 38H221ZM199 230Q205 267 228 297T284 346T355 364Q399 364 430 343T479 290L499 424Q473 446 436 458T357 470Q284 470 223 439T120 354T69 230Q60 163 84 109T160 23T283 -9Q328 -9 367
3T436 36L456 169Q429 141 390 119T302 97Q265 98 240 116T204 164T199 230ZM307 578L287 429H383L415 578H307Z" />
<glyph unicode="&#xa3;" horiz-adv-x="584" d="M101 370L84 278H448L465 370H101ZM481 471L601 514Q602 550 590 585T553 648T492 693T406 710Q360 710 318 697T240 659T182 600T152 521Q148 482 158 451T182 393T207 337T211 275Q203 222 176 177T111 89T27 0H490L512
121H166L121 51Q154 62 188 81T254 129T306 192T334 268Q339 304 330 333T307 389T286 443T284 503Q289 531 306 551T347 582T398 592Q426 591 442 580T468 552T479 514T481 471Z" />
<glyph unicode="&#xa4;" horiz-adv-x="561" d="M85 505L168 407L230 461L150 562L85 505ZM66 39L176 135L126 195L16 101L66 39ZM484 406L594 501L545 562L434 467L484 406ZM378 139L460 39L523 94L443 195L378 139ZM73 300Q64 237 85 183T154 95T268 61Q336 61
393 93T489 179T537 300Q546 364 525 418T456 506T342 540Q274 540 217 508T121 421T73 300ZM190 300Q196 333 215 361T265 406T329 422Q363 422 385 405T416 360T420 300Q415 267 395 239T345 195T281 179Q248 179 226 196T194 240T190 300Z" />
<glyph unicode="&#xa5;" horiz-adv-x="623" d="M63 273H596L612 365H79L63 273ZM37 123H570L586 215H53L37 123ZM547 700L353 421L257 700H100L264 294L212 0H357L406 290L711 700H547Z" />
<glyph unicode="&#xa6;" horiz-adv-x="318" d="M188 695L144 438H270L314 695H188ZM240 262H114L70 6H196L240 262Z" />
<glyph unicode="&#xa7;" horiz-adv-x="509" d="M433 559L511 638Q490 676 445 697T344 719Q303 719 262 703T191 657T155 583Q152 555 159 533T181 494T215 464T257 442Q280 432 303 421T341 393T352 351Q349 330 335 314T302 288T262 272L255 233Q293 234 329
242T396 266T447 310T473 375Q478 410 464 437T424 484T364 515Q349 521 334 526T304 538T282 554T276 574Q278 587 287 594T312 605T341 610Q367 610 391 596T433 559ZM113 169L34 92Q51 59 78 35T143 -3T228 -18Q276 -18 321 -2T397 48T435 130Q439 166 426 193T387
240T332 275Q315 283 296 290T260 307T234 332T229 369Q233 391 247 404T280 428T321 445L327 479Q288 478 251 470T183 446T132 404T105 343Q100 306 116 279T162 232T225 201Q245 193 265 185T298 165T307 134Q305 120 294 111T268 97T236 91Q198 91 167 112T113
169Z" />
<glyph unicode="&#xa8;" horiz-adv-x="483" d="M359 642Q356 611 376 590T426 568Q456 568 482 589T512 640Q515 670 495 692T444 714Q414 715 388 693T359 642ZM136 642Q133 611 152 590T203 568Q233 568 259 589T288 640Q292 670 272 692T221 714Q191 715 165
693T136 642Z" />
<glyph unicode="&#xa9;" horiz-adv-x="776" d="M302 350Q309 389 331 419T387 468T458 486Q498 486 525 470T572 429L585 525Q559 546 530 557T460 569Q396 569 343 540T254 462T211 350Q203 290 225 241T292 162T400 132Q441 132 472 143T532 175L545 271Q519
248 486 231T410 215Q372 216 346 234T309 282T302 350ZM130 350Q140 414 171 470T248 569T353 636T477 660Q541 660 590 635T672 566T717 467T721 350Q711 287 680 231T603 132T498 65T374 41Q310 41 261 66T179 135T134 234T130 350ZM75 350Q65 278 82 214T139
99T239 19T374 -10Q451 -10 519 18T641 95T730 209T775 350Q785 422 768 487T711 602T612 681T477 710Q400 710 332 683T209 606T120 491T75 350Z" />
<glyph unicode="&#xaa;" horiz-adv-x="252" d="M145 530Q147 547 163 558T199 569Q217 570 230 564T256 548L262 580Q250 590 231 598T187 606Q150 606 118 586T80 530Q76 497 97 477T151 456Q186 455 210 474T244 524L240 552Q233 529 216 515T174 501Q159 502
151 510T145 530ZM143 631Q156 638 176 646T218 652Q235 651 243 642T252 618L223 461H286L314 632Q317 668 291 686T226 705Q197 706 172 698T127 679L143 631Z" />
<glyph unicode="&#xab;" horiz-adv-x="516" d="M340 257L519 443L447 503L232 259L367 7L453 63L340 257ZM155 257L334 443L263 503L47 259L183 7L269 63L155 257Z" />
<glyph unicode="&#xac;" horiz-adv-x="622" d="M84 281H487L467 176H563L601 394H103L84 281Z" />
<glyph unicode="&#xad;" horiz-adv-x="204" d="M12 201H209L221 275H25L12 201Z" />
<glyph unicode="&#xae;" horiz-adv-x="776" d="M392 337L470 150H568L470 337H392ZM322 570L257 151H342L408 570H322ZM362 497H446Q475 496 492 481T506 437Q502 408 478 393T423 375H343L332 307L422 308Q490 310 538 345T594 441Q602 499 562 534T457 570H373L362
497ZM130 350Q140 414 171 470T248 569T353 636T477 660Q541 660 590 635T672 566T717 467T721 350Q711 287 680 231T603 132T498 65T374 41Q310 41 261 66T179 135T134 234T130 350ZM75 350Q65 278 82 214T139 99T239 19T374 -10Q451 -10 519 18T641 95T730 210T775
350Q785 422 768 487T711 602T612 681T477 710Q400 710 332 683T209 606T120 491T75 350Z" />
<glyph unicode="&#xaf;" horiz-adv-x="510" d="M149 581H506L524 694H167L149 581Z" />
<glyph unicode="&#xb0;" horiz-adv-x="282" d="M91 599Q84 548 114 513T198 477Q234 477 264 492T316 535T341 597Q346 632 334 659T295 703T233 720Q199 720 168 704T117 661T91 599ZM154 597Q157 615 168 630T196 654T230 664Q256 663 269 644T278 598Q275 581
264 566T236 542T202 533Q176 534 164 553T154 597Z" />
<glyph unicode="&#xb1;" horiz-adv-x="609" d="M47 4H531L549 119H64L47 4ZM97 336H582L601 455H116L97 336ZM318 620L249 172L379 171L449 620H318Z" />
<glyph unicode="&#xb2;" horiz-adv-x="378" d="M43 283H373L387 361L220 362L343 464Q370 487 391 515T417 577Q422 611 409 641T365 691T291 710Q241 711 204 689T144 630T112 551H196Q202 573 213 592T243 624T283 635Q302 635 313 626T328 604T330 576Q326
548 306 526T262 482L43 283Z" />
<glyph unicode="&#xb3;" horiz-adv-x="338" d="M202 485Q243 488 282 498T348 532T381 592Q386 625 372 651T330 692T263 707Q202 707 162 672T109 585L189 584Q196 605 214 621T257 637Q280 637 290 623T297 588Q294 570 281 557T249 537T208 526L202 485ZM192
272Q234 272 270 286T330 329T359 393Q364 426 353 448T319 484T267 505T205 513L197 468Q221 466 240 460T270 439T275 404Q272 377 249 360T199 344Q170 345 157 362T143 406H60Q59 370 72 340T116 291T192 272Z" />
<glyph unicode="&#xb4;" horiz-adv-x="364" d="M389 653L292 704L124 547L193 507L389 653Z" />
<glyph unicode="&#xb5;" horiz-adv-x="550" d="M245 460H113L-20 -319L104 -320L160 14Q175 4 191 0T226 -5Q258 -5 286 11T335 54L326 0H455L533 460H408L360 195Q355 168 341 148T306 116T257 104Q232 104 217 115T198 146T196 191L245 460Z" />
<glyph unicode="&#xb6;" horiz-adv-x="623" d="M298 271L214 -219H326L468 616H533L390 -219H502L659 700H371Q307 700 252 675T161 601T113 486Q104 422 125 375T192 302T298 271Z" />
<glyph unicode="&#xb7;" horiz-adv-x="306" d="M90 260Q88 239 96 221T120 191T159 180Q181 179 201 190T235 219T251 258Q254 280 246 298T221 327T182 340Q160 341 140 330T107 300T90 260Z" />
<glyph unicode="&#xb8;" horiz-adv-x="369" d="M164 67L50 -117Q71 -109 92 -105T128 -102Q140 -102 151 -105T170 -115T175 -134Q174 -145 165 -154T142 -167T115 -172Q98 -172 82 -165T50 -148L1 -205Q30 -225 58 -235T122 -245Q152 -244 181 -232T232 -197T257
-142Q262 -103 240 -78T185 -51Q179 -51 173 -52T160 -54L260 65L164 67Z" />
<glyph unicode="&#xb9;" horiz-adv-x="465" d="M207 585L308 610L251 275H335L409 703L220 662L207 585Z" />
<glyph unicode="&#xba;" horiz-adv-x="270" d="M90 581Q83 530 114 496T197 461Q233 461 263 476T314 518T339 580Q344 614 331 641T292 684T231 700Q196 700 166 685T115 642T90 581ZM154 580Q158 597 168 612T195 636T228 645Q253 644 265 625T274 580Q271 563
260 548T234 525T200 516Q176 517 164 536T154 580Z" />
<glyph unicode="&#xbb;" horiz-adv-x="516" d="M209 253L30 68L102 8L318 251L182 504L96 447L209 253ZM394 253L215 68L286 8L502 251L366 504L281 447L394 253Z" />
<glyph unicode="&#xbc;" horiz-adv-x="777" d="M697 699L74 0H163L787 699H697ZM97 585L198 610L142 275H225L298 703L110 662L97 585ZM376 79L733 78L746 151H644L632 142L454 141L376 79ZM470 99L623 277L594 106L585 100L568 0H656L728 420L668 419L373 77L470 99Z" />
<glyph unicode="&#xbd;" horiz-adv-x="845" d="M697 699L74 0H163L787 699H697ZM97 585L198 610L142 275H225L298 703L110 662L97 585ZM458 3H788L802 81L635 82L757 184Q785 207 805 235T831 297Q837 331 823 361T779 411T705 430Q656 431 619 409T559 350T527
271H611Q616 293 628 312T657 344T698 355Q716 354 727 345T742 323T745 296Q741 268 721 246T676 202L458 3Z" />
<glyph unicode="&#xbe;" horiz-adv-x="835" d="M760 699L137 0H226L850 699H760ZM209 485Q250 488 289 498T355 532T388 592Q394 625 380 651T337 692T269 707Q208 707 168 672T116 585L196 584Q203 605 221 621T264 637Q286 637 296 623T304 588Q301 570 288
557T256 537T215 526L209 485ZM198 272Q241 272 277 286T337 329T366 393Q371 426 360 448T326 484T274 505T212 513L204 468Q228 466 247 460T277 439T282 404Q279 377 256 360T206 344Q177 345 164 362T150 406H67Q65 370 79 340T124 291T198 272ZM435 79L792
78L805 151H703L691 142L513 141L435 79ZM528 99L681 277L652 106L644 100L627 0H715L787 420L727 419L432 77L528 99Z" />
<glyph unicode="&#xbf;" horiz-adv-x="587" d="M188 200Q195 236 224 265T296 313T389 331H418L427 509H324L302 413Q246 404 194 376T106 305T60 201Q54 154 67 115T109 46T178 1T265 -16Q350 -16 413 18T530 108L450 181Q419 145 377 120T286 96Q252 96 228
109T194 145T188 200ZM480 646Q483 676 462 698T409 721Q388 722 368 712T335 685T319 648Q315 619 336 597T389 574Q410 573 430 583T464 610T480 646Z" />
<glyph unicode="&#xc0;" horiz-adv-x="690" d="M167 159H528L531 272H202L167 159ZM402 473L461 230L452 194L507 0H662L444 744L-30 0H133L256 200L259 232L402 473ZM334 953L486 801L560 838L440 1000L334 953Z" />
<glyph unicode="&#xc1;" horiz-adv-x="690" d="M167 159H528L531 272H202L167 159ZM402 473L461 230L452 194L507 0H662L444 744L-30 0H133L256 200L259 232L402 473ZM627 949L531 1000L360 843L429 802L627 949Z" />
<glyph unicode="&#xc2;" horiz-adv-x="690" d="M167 159H528L531 272H202L167 159ZM402 473L461 230L452 194L507 0H662L444 744L-30 0H133L256 200L259 232L402 473ZM470 867L548 779L642 838L482 980L281 843L360 779L470 867Z" />
<glyph unicode="&#xc3;" horiz-adv-x="690" d="M167 159H528L531 272H202L167 159ZM402 473L461 230L452 194L507 0H662L444 744L-30 0H133L256 200L259 232L402 473ZM281 849L340 793Q346 807 358 824T396 843Q419 845 437 833T474 807T517 793Q545 792 570 804T616
835T650 872L595 938Q580 919 563 904T525 888Q500 887 484 899T449 924T405 937Q376 938 352 925T309 892T281 849Z" />
<glyph unicode="&#xc4;" horiz-adv-x="690" d="M167 159H528L531 272H202L167 159ZM402 473L461 230L452 194L507 0H662L444 744L-30 0H133L256 200L259 232L402 473ZM509 838Q506 807 525 786T575 764Q605 763 631 784T661 835Q665 866 646 887T595 910Q565 910
539 889T509 838ZM257 842Q254 812 273 791T324 768Q354 768 380 789T410 840Q413 870 394 891T344 914Q314 915 288 893T257 842Z" />
<glyph unicode="&#xc5;" horiz-adv-x="690" d="M167 159H528L531 272H202L167 159ZM402 473L461 230L452 194L507 0H662L444 744L-30 0H133L256 200L259 232L402 473ZM339 801Q335 770 347 745T383 705T438 690Q470 690 498 704T546 743T570 799Q575 831 563 855T526
895T470 910Q439 910 411 896T363 857T339 801ZM408 799Q410 812 419 824T440 843T465 849Q482 848 492 834T501 801Q499 781 480 766T444 752Q427 753 417 767T408 799Z" />
<glyph unicode="&#xc6;" horiz-adv-x="1015" d="M247 170L545 169L568 301H274L247 170ZM520 700L-18 0H158L641 658L520 700ZM556 0H921L942 121H577L556 0ZM667 579H1020L1041 700H520L667 579ZM610 313L955 312L976 431H630L610 313ZM606 700L488 0H636L756 700H606Z" />
<glyph unicode="&#xc7;" horiz-adv-x="675" d="M219 350Q227 399 251 440T310 512T389 560T479 577Q545 577 591 551T669 481L694 642Q652 677 604 696T488 714Q407 714 336 687T209 610T115 494T66 350Q55 276 72 210T129 94T232 15T372 -14Q442 -14 495 5T597
58L621 218Q577 180 521 152T394 124Q347 124 312 142T253 192T221 263T219 350ZM333 51L220 -134Q241 -126 262 -122T298 -118Q310 -118 321 -121T339 -131T344 -150Q344 -161 335 -170T312 -183T284 -188Q268 -188 251 -182T219 -164L171 -221Q199 -241 227 -251T291
-261Q322 -261 351 -249T402 -214T427 -158Q431 -119 409 -94T355 -68Q348 -68 342 -68T329 -70L430 48L333 51Z" />
<glyph unicode="&#xc8;" horiz-adv-x="569" d="M135 0H480L501 121H156L135 0ZM234 580L579 579L600 700H255L234 580ZM188 313L514 312L535 431H209L188 313ZM165 700L46 0H181L302 700H165ZM274 930L426 779L500 815L380 978L274 930Z" />
<glyph unicode="&#xc9;" horiz-adv-x="569" d="M135 0H480L501 121H156L135 0ZM234 580L579 579L600 700H255L234 580ZM188 313L514 312L535 431H209L188 313ZM165 700L46 0H181L302 700H165ZM567 926L471 977L300 820L369 780L567 926Z" />
<glyph unicode="&#xca;" horiz-adv-x="569" d="M135 0H480L501 121H156L135 0ZM234 580L579 579L600 700H255L234 580ZM188 313L514 312L535 431H209L188 313ZM165 700L46 0H181L302 700H165ZM416 862L495 774L588 834L429 976L227 839L306 775L416 862Z" />
<glyph unicode="&#xcb;" horiz-adv-x="569" d="M135 0H480L501 121H156L135 0ZM234 580L579 579L600 700H255L234 580ZM188 313L514 312L535 431H209L188 313ZM165 700L46 0H181L302 700H165ZM450 861Q447 830 466 809T517 787Q547 786 573 807T603 858Q606 889
587 910T537 933Q507 933 481 912T450 861ZM227 861Q224 830 243 809T294 787Q323 786 349 807T380 858Q383 889 364 910T313 933Q283 933 257 912T227 861Z" />
<glyph unicode="&#xcc;" horiz-adv-x="288" d="M165 700L46 0H188L308 700H165ZM124 930L276 779L351 815L230 978L124 930Z" />
<glyph unicode="&#xcd;" horiz-adv-x="288" d="M165 700L46 0H188L308 700H165ZM417 926L322 977L151 820L219 780L417 926Z" />
<glyph unicode="&#xce;" horiz-adv-x="288" d="M165 700L46 0H188L308 700H165ZM260 862L339 774L433 834L273 976L72 839L151 775L260 862Z" />
<glyph unicode="&#xcf;" horiz-adv-x="288" d="M165 700L46 0H188L308 700H165ZM297 849Q294 819 313 798T363 775Q393 775 419 796T450 847Q453 877 434 899T383 921Q353 922 327 901T297 849ZM74 849Q71 819 90 798T140 775Q170 775 196 796T227 847Q230 877
211 899T160 921Q130 922 104 901T74 849Z" />
<glyph unicode="&#xd0;" horiz-adv-x="695" d="M30 305H357L372 397H46L30 305ZM165 700L46 0H190L310 700H165ZM282 0Q390 2 477 46T622 168T695 350Q710 450 677 528T571 653T392 700H254L231 570H374Q438 569 480 542T542 466T550 350Q539 280 502 232T411
158T291 130H157L134 0H282Z" />
<glyph unicode="&#xd1;" horiz-adv-x="764" d="M648 700L573 266L170 734L45 0H182L257 435L660 -34L785 700H648ZM292 822L350 767Q356 781 368 798T407 817Q429 818 447 806T485 781T528 767Q556 766 581 778T627 809T660 846L606 912Q591 892 574 877T536 861Q512
861 495 873T460 898T415 911Q387 912 363 899T320 866T292 822Z" />
<glyph unicode="&#xd2;" horiz-adv-x="788" d="M215 350Q223 397 245 439T301 513T378 563T470 581Q519 581 554 562T610 510T638 436T638 350Q631 303 608 261T552 188T475 138T383 120Q335 120 300 139T244 191T216 264T215 350ZM66 350Q56 277 71 211T127 93T228
11T368 -19Q448 -19 519 10T646 89T738 207T787 350Q798 424 782 490T725 606T623 685T484 714Q405 714 335 687T208 609T115 493T66 350ZM390 930L542 779L617 815L496 978L390 930Z" />
<glyph unicode="&#xd3;" horiz-adv-x="788" d="M215 350Q223 397 245 439T301 513T378 563T470 581Q519 581 554 562T610 510T638 436T638 350Q631 303 608 261T552 188T475 138T383 120Q335 120 300 139T244 191T216 264T215 350ZM66 350Q56 277 71 211T127 93T228
11T368 -19Q448 -19 519 10T646 89T738 207T787 350Q798 424 782 490T725 606T623 685T484 714Q405 714 335 687T208 609T115 493T66 350ZM672 926L576 977L405 820L474 780L672 926Z" />
<glyph unicode="&#xd4;" horiz-adv-x="788" d="M215 350Q223 397 245 439T301 513T378 563T470 581Q519 581 554 562T610 510T638 436T638 350Q631 303 608 261T552 188T475 138T383 120Q335 120 300 139T244 191T216 264T215 350ZM66 350Q56 277 71 211T127 93T228
11T368 -19Q448 -19 519 10T646 89T738 207T787 350Q798 424 782 490T725 606T623 685T484 714Q405 714 335 687T209 609T115 493T66 350ZM520 862L599 774L693 834L532 976L331 839L410 775L520 862Z" />
<glyph unicode="&#xd5;" horiz-adv-x="788" d="M215 350Q223 397 245 439T301 513T378 563T470 581Q519 581 554 562T610 510T638 436T638 350Q631 303 608 261T552 188T475 138T383 120Q335 120 300 139T244 191T216 264T215 350ZM66 350Q56 277 71 211T127 93T228
11T368 -19Q448 -19 519 10T646 89T738 207T787 350Q798 424 782 490T725 606T623 685T484 714Q405 714 335 687T209 609T115 493T66 350ZM325 831L384 775Q390 789 402 806T440 825Q463 827 481 815T518 789T561 775Q590 774 615 786T660 817T693 855L639 920Q624
901 607 886T569 870Q545 869 528 881T493 906T449 919Q424 920 397 907T350 874T325 831Z" />
<glyph unicode="&#xd6;" horiz-adv-x="788" d="M215 350Q223 397 245 439T301 513T378 563T470 581Q519 581 554 562T610 510T638 436T638 350Q631 303 608 261T552 188T475 138T383 120Q335 120 300 139T244 191T216 264T215 350ZM66 350Q56 277 71 211T127 93T228
11T368 -19Q448 -19 519 10T646 89T738 207T787 350Q798 424 782 490T725 606T623 685T484 714Q405 714 335 687T208 609T115 493T66 350ZM547 849Q543 819 563 798T613 775Q643 775 669 796T699 847Q703 877 684 899T633 921Q603 922 577 901T547 849ZM324 849Q320
819 339 798T390 775Q420 775 446 796T476 847Q480 877 461 899T410 921Q380 922 354 901T324 849Z" />
<glyph unicode="&#xd7;" horiz-adv-x="578" d="M107 9L296 177L426 9L517 88L380 252L572 415L505 501L316 334L186 501L95 423L232 258L39 95L107 9Z" />
<glyph unicode="&#xd8;" horiz-adv-x="767" d="M215 350Q223 398 245 440T301 514T378 563T470 581Q519 581 553 562T609 510T638 436T638 350Q631 303 608 261T552 187T475 138T383 120Q334 120 300 139T244 190T216 264T215 350ZM66 350Q56 277 72 211T128 93T229
11T368 -19Q448 -19 518 10T645 89T738 207T787 350Q798 424 782 490T725 606T623 685T484 714Q405 714 335 687T208 609T115 493T66 350ZM773 754L16 -5L76 -54L834 703L773 754Z" />
<glyph unicode="&#xd9;" horiz-adv-x="658" d="M160 700L81 230Q70 155 95 98T173 10T302 -22Q380 -22 443 9T548 97T603 230L683 700H542L463 239Q456 203 437 173T387 125T316 107Q277 108 255 126T224 174T221 239L301 700H160ZM313 926L465 774L539 811L419
973L313 926Z" />
<glyph unicode="&#xda;" horiz-adv-x="658" d="M160 700L81 230Q70 155 95 98T173 10T302 -22Q380 -22 443 9T548 97T603 230L683 700H542L463 239Q456 203 437 173T387 125T316 107Q277 108 255 126T224 174T221 239L301 700H160ZM608 922L512 972L341 816L410
775L608 922Z" />
<glyph unicode="&#xdb;" horiz-adv-x="658" d="M160 700L81 230Q70 155 95 98T173 10T302 -22Q380 -22 443 9T548 97T603 230L683 700H542L463 239Q456 203 437 173T387 125T316 107Q277 108 255 126T224 174T221 239L301 700H160ZM452 862L531 774L625 834L465
976L264 839L342 775L452 862Z" />
<glyph unicode="&#xdc;" horiz-adv-x="658" d="M160 700L81 230Q70 155 95 98T173 10T302 -22Q380 -22 443 9T548 97T603 230L683 700H542L463 239Q456 203 437 173T387 125T316 107Q277 108 255 126T224 174T221 239L301 700H160ZM494 849Q491 819 510 798T561
775Q591 775 617 796T647 847Q651 877 631 899T581 921Q550 922 524 901T494 849ZM246 849Q243 819 262 798T312 775Q342 775 368 796T399 847Q402 877 383 899T332 921Q302 922 276 901T246 849Z" />
<glyph unicode="&#xdd;" horiz-adv-x="610" d="M584 922L488 972L318 816L386 775L584 922ZM541 700L348 421L251 700H94L258 293L207 0H350L398 287L706 700H541Z" />
<glyph unicode="&#xde;" horiz-adv-x="576" d="M169 700L50 0H175L296 700H169ZM204 456H344Q380 455 406 444T444 411T449 353Q443 318 422 295T370 260T300 248H169L148 131H289Q365 133 426 159T527 234T578 352Q588 421 562 469T483 545T356 573H224L204 456Z" />
<glyph unicode="&#xdf;" horiz-adv-x="591" d="M372 -12Q430 -12 477 15T552 88T580 190Q580 233 567 260T534 306T494 337T461 363T447 397Q447 417 461 434T497 468T540 507T575 559T590 631Q590 682 564 718T492 775T390 796Q308 796 253 768T167 688T125 570L29
-2H159L254 562Q260 602 276 628T316 667T374 680Q410 680 432 663T455 609Q455 578 441 556T405 514T362 477T326 438T311 389Q311 360 324 341T358 306T398 274T432 237T446 186Q446 160 434 140T402 108T354 96Q329 96 303 106T255 135L219 37Q236 23 261 12T315
-6T372 -12Z" />
<glyph unicode="&#xe0;" horiz-adv-x="584" d="M452 460L374 0H499L578 460H452ZM43 230Q34 165 54 111T117 24T223 -9Q269 -9 308 9T376 61T425 137T451 230Q457 277 451 320T426 396T375 450T296 470Q234 471 180 439T89 353T43 230ZM175 230Q181 267 202 297T255
346T322 363Q346 362 364 351T394 322T410 280T411 230Q406 203 393 179T360 137T317 108T270 98Q235 99 212 117T180 165T175 230ZM211 682L364 530L437 567L317 729L211 682Z" />
<glyph unicode="&#xe1;" horiz-adv-x="584" d="M452 460L374 0L499 1L578 460H452ZM43 230Q34 165 54 111T117 24T223 -9Q269 -9 308 9T376 61T425 137T451 230Q457 277 451 320T426 396T375 450T296 470Q234 471 180 439T89 353T43 230ZM175 230Q181 267 202
297T255 346T322 363Q346 362 364 351T394 322T410 280T411 230Q406 203 393 179T360 137T317 108T270 98Q235 99 212 117T180 165T175 230ZM509 678L414 729L243 572L311 531L509 678Z" />
<glyph unicode="&#xe2;" horiz-adv-x="584" d="M452 460L374 0H499L578 460H452ZM43 230Q34 165 54 111T117 24T223 -9Q269 -9 308 9T376 61T425 137T451 230Q457 277 451 320T426 396T375 450T296 470Q234 471 180 439T89 353T43 230ZM175 230Q181 267 202 297T255
346T322 363Q346 362 364 351T394 322T410 280T411 230Q406 203 393 179T360 137T317 108T270 98Q235 99 212 117T180 165T175 230ZM378 619L456 531L550 590L390 732L189 595L268 531L378 619Z" />
<glyph unicode="&#xe3;" horiz-adv-x="584" d="M452 460L374 0H499L578 460H452ZM43 230Q34 165 54 111T117 24T223 -9Q269 -9 308 9T376 61T425 137T451 230Q457 277 451 320T426 396T375 450T296 470Q234 471 180 439T89 353T43 230ZM175 230Q181 267 202 297T255
346T322 363Q346 362 364 351T394 322T410 280T411 230Q406 203 393 179T360 137T317 108T270 98Q235 99 212 117T180 165T175 230ZM191 589L249 534Q256 548 268 565T306 584Q329 585 347 573T384 548T427 534Q456 533 481 545T526 576T559 613L506 679Q490 659
473 644T435 628Q410 628 394 640T360 665T315 678Q286 678 262 666T219 633T191 589Z" />
<glyph unicode="&#xe4;" horiz-adv-x="584" d="M452 460L374 0H499L578 460H452ZM43 230Q34 165 54 111T117 24T223 -9Q269 -9 308 9T376 61T425 137T451 230Q457 277 451 320T426 396T375 450T296 470Q234 471 180 439T89 353T43 230ZM175 230Q181 267 202 297T255
346T322 363Q346 362 364 351T394 322T410 280T411 230Q406 203 393 179T360 137T317 108T270 98Q235 99 212 117T180 165T175 230ZM403 605Q399 575 419 554T469 531Q499 531 525 552T556 603Q559 633 540 655T489 677Q459 678 433 657T403 605ZM180 605Q176 575
195 554T245 531Q276 531 302 552T332 603Q335 633 316 655T266 677Q235 678 209 657T180 605Z" />
<glyph unicode="&#xe5;" horiz-adv-x="584" d="M452 460L374 0H499L578 460H452ZM43 230Q34 165 54 111T117 24T223 -9Q269 -9 308 9T376 61T425 137T451 230Q457 277 451 320T426 396T375 450T296 470Q234 471 180 439T89 353T43 230ZM175 230Q181 267 202 297T255
346T322 363Q346 362 364 351T394 322T410 280T411 230Q406 203 393 179T360 137T317 108T270 98Q235 99 212 117T180 165T175 230ZM243 642Q239 611 251 586T287 546T343 531Q374 531 402 545T450 584T474 640Q479 671 467 696T430 736T374 751Q343 752 315 738T267
698T243 642ZM312 640Q314 653 323 664T345 683T369 690Q387 690 397 675T405 642Q404 629 395 618T373 599T348 592Q330 593 320 607T312 640Z" />
<glyph unicode="&#xe6;" horiz-adv-x="860" d="M187 -10Q267 -10 321 20T399 105H385Q404 46 449 18T569 -10Q647 -10 711 22T818 120L706 155Q686 123 652 106T577 89Q540 89 518 105T487 152T484 220L462 201H831Q835 210 838 224T842 256Q847 324 827 371T763
444T658 470Q608 470 566 455T490 413T434 350L451 359Q455 416 418 444T309 472Q259 472 209 459T105 418L144 329Q164 341 189 351T241 366T290 371Q328 371 347 352T362 294L350 226H410Q352 257 313 269T231 281Q171 281 124 261T48 205T17 124Q12 65 55 28T187
-10ZM221 80Q182 80 164 92T148 134Q149 157 162 173T197 197T249 206Q280 206 308 199T361 176L345 203L344 128L351 188Q337 134 305 107T221 80ZM486 237Q496 282 514 313T560 362T624 379Q657 379 676 366T702 327T708 266Q708 257 705 250L731 281H469L486
237Z" />
<glyph unicode="&#xe7;" horiz-adv-x="474" d="M170 230Q177 267 199 297T255 345T327 364Q368 364 401 345T451 291L471 424Q444 446 409 458T328 470Q256 470 195 439T92 354T41 230Q31 163 55 109T132 23T254 -9Q301 -9 339 3T407 37L427 169Q400 139 360 118T273
97Q236 98 211 116T176 164T170 230ZM217 59L103 -125Q124 -117 146 -113T181 -109Q193 -109 204 -112T223 -123T229 -141Q228 -153 219 -161T196 -174T168 -180Q152 -180 136 -173T103 -155L54 -212Q83 -233 111 -243T176 -253Q206 -252 235 -240T285 -205T310
-150Q315 -110 293 -86T239 -59Q232 -59 226 -59T214 -61L313 57L217 59Z" />
<glyph unicode="&#xe8;" horiz-adv-x="539" d="M112 202H514Q517 212 518 220T520 236Q529 304 509 356T443 439T323 470Q257 470 203 446T111 378T54 279Q50 267 48 255T43 230Q34 165 55 111T126 24T248 -9Q307 -9 352 7T433 52T498 118L390 155Q374 137 354
122T311 98T258 90Q222 91 201 109T173 160T171 230L178 256Q186 290 204 318T250 363T313 379Q343 378 360 365T383 330T390 281H124L112 202ZM212 688L364 536L438 573L317 735L212 688Z" />
<glyph unicode="&#xe9;" horiz-adv-x="539" d="M112 202H514Q517 212 518 220T520 236Q529 304 509 356T443 439T323 470Q257 470 203 446T111 378T54 279Q50 267 48 255T43 230Q34 165 55 111T126 24T248 -9Q307 -9 352 7T433 52T498 118L390 155Q374 137 354
122T311 98T258 90Q222 91 201 109T173 160T171 230L178 256Q186 290 204 318T250 363T313 379Q343 378 360 365T383 330T390 281H124L112 202ZM529 684L433 734L262 578L331 537L529 684Z" />
<glyph unicode="&#xea;" horiz-adv-x="539" d="M112 202H514Q517 212 518 220T520 236Q529 304 509 356T443 439T323 470Q257 470 203 446T111 378T54 279Q50 267 48 255T43 230Q34 165 55 111T126 24T248 -9Q307 -9 352 7T433 52T498 118L390 155Q374 137 354
122T311 98T258 90Q222 91 201 109T173 160T171 230L178 256Q186 290 204 318T250 363T313 379Q343 378 360 365T383 330T390 281H124L112 202ZM356 619L435 531L529 590L369 732L168 595L247 531L356 619Z" />
<glyph unicode="&#xeb;" horiz-adv-x="539" d="M112 202H514Q517 212 518 220T520 236Q529 304 509 356T443 439T323 470Q257 470 203 446T111 378T54 279Q50 267 48 255T43 230Q34 165 55 111T126 24T248 -9Q307 -9 352 7T433 52T498 118L390 155Q374 137 354
122T311 98T258 90Q222 91 201 109T173 160T171 230L178 256Q186 290 204 318T250 363T313 379Q343 378 360 365T383 330T390 281H124L112 202ZM385 605Q382 575 401 554T452 531Q482 531 508 552T538 603Q541 633 522 655T472 677Q442 678 416 657T385 605ZM162
605Q159 575 178 554T229 531Q258 531 284 552T315 603Q318 633 299 655T248 677Q219 678 193 657T162 605Z" />
<glyph unicode="&#xec;" horiz-adv-x="263" d="M120 460L43 0H166L246 460H120ZM54 694L206 542L280 579L160 741L54 694Z" />
<glyph unicode="&#xed;" horiz-adv-x="263" d="M120 460L43 0H166L246 460H120ZM387 689L291 740L120 583L189 543L387 689Z" />
<glyph unicode="&#xee;" horiz-adv-x="263" d="M120 460L43 0H166L246 460H120ZM214 624L293 536L387 596L227 738L26 600L104 537L214 624Z" />
<glyph unicode="&#xef;" horiz-adv-x="263" d="M120 460L43 0H166L246 460H120ZM246 622Q242 592 262 571T312 549Q343 548 369 569T398 620Q402 650 383 672T332 694Q302 695 276 674T246 622ZM23 622Q19 592 39 571T89 549Q120 548 146 569T175 620Q179 650
160 672T109 694Q79 695 53 674T23 622Z" />
<glyph unicode="&#xf0;" horiz-adv-x="611" d="M285 -14Q350 -14 403 9T495 73T555 166T576 277Q576 322 566 366T536 455T482 547T402 644T294 749L202 680Q251 643 289 607T357 532T411 451T452 358L493 357Q449 412 403 440T300 468Q251 468 206 449T127 395T73
314T52 211Q52 143 82 92T164 14T285 -14ZM293 103Q245 103 216 134T187 214Q187 244 199 271T231 318T278 351T332 363Q364 363 387 350T424 311T437 251Q437 223 427 197T397 149T352 115T293 103ZM218 506L545 616L528 669L201 558L218 506Z" />
<glyph unicode="&#xf1;" horiz-adv-x="542" d="M241 460H113L34 0H162L241 460ZM372 280L323 0H454L505 294Q511 345 500 385T458 448T372 470Q317 470 277 443T212 372T177 277L210 281Q216 306 230 327T267 362T316 374Q343 372 355 359T371 326T372 280ZM163
589L221 534Q227 548 240 565T278 584Q301 585 319 573T356 548T399 534Q427 533 452 545T498 576T532 613L477 679Q463 659 445 644T407 628Q383 628 366 640T332 665T286 678Q258 679 234 666T192 633T163 589Z" />
<glyph unicode="&#xf2;" horiz-adv-x="559" d="M43 230Q33 164 57 110T133 23T255 -9Q327 -9 388 22T490 107T541 230Q551 297 526 351T450 438T328 470Q257 470 196 439T94 354T43 230ZM173 230Q179 266 200 296T252 344T317 361Q353 361 375 342T406 294T411
230Q405 195 384 165T332 118T266 100Q231 101 209 119T177 167T173 230ZM215 694L368 542L442 579L321 741L215 694Z" />
<glyph unicode="&#xf3;" horiz-adv-x="559" d="M43 230Q33 164 57 110T133 23T255 -9Q327 -9 388 22T490 107T541 230Q551 297 526 351T450 438T328 470Q257 470 196 439T94 354T43 230ZM173 230Q179 266 200 296T252 344T317 361Q353 361 375 342T406 294T411
230Q405 195 384 165T332 118T266 100Q231 101 209 119T177 167T173 230ZM527 689L431 740L260 583L329 543L527 689Z" />
<glyph unicode="&#xf4;" horiz-adv-x="559" d="M43 230Q33 164 57 110T133 23T255 -9Q327 -9 388 22T490 107T541 230Q551 297 526 351T450 438T328 470Q257 470 196 439T94 354T43 230ZM173 230Q179 266 200 296T252 344T317 361Q353 361 375 342T406 294T411
230Q405 195 384 165T332 118T266 100Q231 101 209 119T177 167T173 230ZM363 630L442 542L536 601L376 743L175 606L254 542L363 630Z" />
<glyph unicode="&#xf5;" horiz-adv-x="559" d="M43 230Q33 164 57 110T133 23T255 -9Q327 -9 388 22T490 107T541 230Q551 297 526 351T450 438T328 470Q257 470 196 439T94 354T43 230ZM173 230Q179 266 200 296T252 344T317 361Q353 361 375 342T406 294T411
230Q405 195 384 165T332 118T266 100Q231 101 209 119T177 167T173 230ZM171 589L229 534Q236 548 248 565T286 584Q309 585 327 573T364 548T407 534Q435 533 461 545T507 576T539 613L485 679Q470 659 453 644T414 628Q390 628 374 640T340 665T295 678Q272
678 243 666T193 633T171 589Z" />
<glyph unicode="&#xf6;" horiz-adv-x="559" d="M43 230Q33 164 57 110T133 23T255 -9Q327 -9 388 22T490 107T541 230Q551 297 526 351T450 438T328 470Q257 470 196 439T94 354T43 230ZM173 230Q179 266 200 296T252 344T317 361Q353 361 375 342T406 294T411
230Q405 195 384 165T332 118T266 100Q231 101 209 119T177 167T173 230ZM394 622Q390 592 409 571T460 549Q490 548 516 569T546 620Q550 650 531 672T480 694Q450 695 424 674T394 622ZM171 622Q167 592 186 571T237 549Q267 548 293 569T323 620Q327 650 308
672T257 694Q227 695 201 674T171 622Z" />
<glyph unicode="&#xf7;" horiz-adv-x="616" d="M289 522Q287 501 295 483T319 453T358 441Q381 440 400 451T433 480T450 520Q453 541 445 559T420 589T380 601Q358 602 338 591T305 562T289 522ZM215 90Q211 59 230 35T284 10Q307 9 326 20T360 49T376 88Q379
110 371 128T346 157T306 170Q285 171 265 160T232 130T215 90ZM50 249H596L616 367H71L50 249Z" />
<glyph unicode="&#xf8;" horiz-adv-x="530" d="M43 230Q33 162 58 108T134 23T255 -9Q326 -9 387 21T489 106T541 230Q551 299 526 353T450 438T328 470Q258 470 197 439T94 355T43 230ZM165 230Q172 267 194 297T249 346T318 365Q355 365 379 346T414 296T419
230Q413 193 391 162T336 114T265 96Q228 96 204 114T170 163T165 230ZM493 504L28 -18L79 -47L545 473L493 504Z" />
<glyph unicode="&#xf9;" horiz-adv-x="542" d="M326 0H454L534 460H406L326 0ZM196 180L244 460H114L63 166Q57 116 68 76T110 13T195 -10Q250 -9 290 18T356 89T391 183L358 179Q351 155 337 134T300 99T251 87Q224 88 212 101T196 135T196 180ZM229 694L382
542L456 579L335 741L229 694Z" />
<glyph unicode="&#xfa;" horiz-adv-x="542" d="M326 0H454L534 460H406L326 0ZM196 180L244 460H114L63 166Q57 116 68 76T110 13T195 -10Q250 -9 290 18T356 89T391 183L358 179Q351 155 337 134T300 99T251 87Q224 88 212 101T196 135T196 180ZM496 689L401
740L231 583L298 543L496 689Z" />
<glyph unicode="&#xfb;" horiz-adv-x="542" d="M326 0H454L534 460H406L326 0ZM196 180L244 460H114L63 166Q57 116 68 76T110 13T195 -10Q250 -9 290 18T356 89T391 183L358 179Q351 155 337 134T300 99T251 87Q224 88 212 101T196 135T196 180ZM355 630L433
542L528 601L368 743L166 606L245 542L355 630Z" />
<glyph unicode="&#xfc;" horiz-adv-x="542" d="M326 0H454L534 460H406L326 0ZM196 180L244 460H114L63 166Q57 116 68 76T110 13T195 -10Q250 -9 290 18T356 89T391 183L358 179Q351 155 337 134T300 99T251 87Q224 88 212 101T196 135T196 180ZM386 617Q382
587 401 565T451 543Q481 542 508 563T538 614Q542 645 522 666T471 689Q441 689 415 668T386 617ZM163 617Q159 587 178 565T228 543Q258 542 284 563T314 614Q318 645 298 666T248 689Q218 689 192 668T163 617Z" />
<glyph unicode="&#xfd;" horiz-adv-x="481" d="M542 460H406L202 97L266 94L185 460H46L162 50L0 -219H134L542 460ZM480 689L384 740L214 583L282 543L480 689Z" />
<glyph unicode="&#xfe;" horiz-adv-x="584" d="M122 -219L292 780H165L-7 -220L122 -219ZM566 230Q574 296 555 350T492 437T387 470Q341 470 302 451T233 399T184 323T157 230Q151 184 157 141T183 64T234 10T313 -10Q376 -10 430 21T520 107T566 230ZM434 230Q428
194 407 164T354 115T287 98Q263 99 245 109T215 138T199 180T197 230Q202 258 215 282T249 324T292 353T339 363Q374 362 397 344T430 295T434 230Z" />
<glyph unicode="&#xff;" horiz-adv-x="481" d="M542 460H406L202 97L266 94L185 460H46L162 50L0 -219H134L542 460ZM352 605Q349 575 368 554T418 531Q449 531 475 552T504 603Q508 633 489 655T439 677Q408 678 382 657T352 605ZM129 605Q126 575 145 554T195
531Q226 531 252 552T281 603Q285 633 266 655T215 677Q185 678 159 657T129 605Z" />
<glyph unicode="&#x2013;" horiz-adv-x="747" d="M71 181H680L700 294H91L71 181Z" />
<glyph unicode="&#x2014;" horiz-adv-x="897" d="M71 181H832L852 294H91L71 181Z" />
<glyph unicode="&#x2018;" horiz-adv-x="304" d="M254 453L351 699H257L115 454L254 453Z" />
<glyph unicode="&#x2019;" horiz-adv-x="304" d="M193 700L97 454H189L332 700H193Z" />
<glyph unicode="&#x201a;" horiz-adv-x="304" d="M97 80L1 -166H93L236 80H97Z" />
<glyph unicode="&#x201c;" horiz-adv-x="519" d="M254 453L351 699H257L115 454L254 453ZM469 453L565 699H472L330 454L469 453Z" />
<glyph unicode="&#x201d;" horiz-adv-x="519" d="M193 700L97 454H189L332 700H193ZM408 700L312 454H405L548 700H408Z" />
<glyph unicode="&#x201e;" horiz-adv-x="519" d="M92 80L-4 -166H88L231 80H92ZM307 80L211 -166H304L447 80H307Z" />
<glyph unicode="&#x2022;" horiz-adv-x="298" d="M120 436Q118 414 127 396T154 366T194 355Q217 355 236 366T267 395T281 435Q283 457 274 475T248 504T207 516Q184 516 165 505T134 476T120 436Z" />
<glyph unicode="&#x2039;" horiz-adv-x="340" d="M155 257L334 443L263 503L47 259L183 7L269 63L155 257Z" />
<glyph unicode="&#x203a;" horiz-adv-x="340" d="M217 253L39 68L110 8L326 251L190 504L104 447L217 253Z" />
</font>
</defs>
</svg>
