<?xml version="1.0" standalone="no"?>
<!DOCTYPE svg PUBLIC "-//W3C//DTD SVG 1.1//EN" "http://www.w3.org/Graphics/SVG/1.1/DTD/svg11.dtd">
<svg xmlns="http://www.w3.org/2000/svg">
<defs >
<font id="Jost" horiz-adv-x="546" ><font-face
    font-family="Jost"
    units-per-em="1000"
    panose-1="0 0 0 0 0 0 0 0 0 0"
    ascent="1070"
    descent="-375"
    alphabetic="0" />
<glyph unicode=" " horiz-adv-x="300" />
<glyph unicode="!" horiz-adv-x="343" d="M78 700L111 231H233L265 700H78ZM78 62Q78 24 104 0T172 -24Q213 -24 239 0T266 62Q266 100 240 124T172 148Q131 148 105 124T78 62Z" />
<glyph unicode="&quot;" horiz-adv-x="518" d="M105 700L61 381H160L265 700H105ZM316 700L272 381H371L476 700H316Z" />
<glyph unicode="#" horiz-adv-x="667" d="M75 412H217L244 418H448L477 412H632V533H75V412ZM35 172H592V293H468L438 287H208L176 293H35V172ZM474 700L422 487L421 456L370 250L358 224L304 0H435L605 700H474ZM233 700L63 0H193L248 226V251L298 456L312 488L363
700H233Z" />
<glyph unicode="$" horiz-adv-x="622" d="M262 818L268 637H380L386 818H262ZM268 62L262 -112H385L379 62H268ZM449 489L576 562Q555 600 523 634T442 689T321 710Q248 710 193 684T106 615T74 521Q74 470 93 434T142 371T204 329T263 303Q304 287 336 273T388
241T408 194Q408 172 399 156T371 133T322 125Q286 125 257 139T202 181T152 251L33 167Q55 119 98 79T197 15T317 -10Q400 -10 460 14T553 84T586 196Q586 242 572 276T532 337T475 381T407 413Q365 429 329 442T270 474T247 522Q247 540 255 554T281 577T326
586Q353 586 375 574T415 540T449 489Z" />
<glyph unicode="%" horiz-adv-x="919" d="M23 534Q23 484 47 442T115 375T212 350Q266 350 308 374T376 441T401 534Q401 586 376 627T309 694T212 719Q158 719 115 694T48 628T23 534ZM147 535Q147 553 155 568T178 592T211 601Q231 601 245 592T268 568T276
534Q276 517 268 502T246 477T211 468Q193 468 179 477T156 501T147 535ZM518 166Q518 115 543 73T611 6T707 -19Q761 -19 804 6T871 73T896 166Q896 217 872 259T804 326T707 351Q654 351 611 326T543 259T518 166ZM643 166Q643 185 651 200T673 224T707 233Q726
233 740 224T763 200T772 166Q772 149 764 134T741 109T707 100Q688 100 674 109T651 133T643 166ZM650 700L113 0H269L806 700H650Z" />
<glyph unicode="&amp;" horiz-adv-x="752" d="M223 372L562 0H735L365 400Q325 444 299 474T272 534Q272 558 289 577T340 597Q361 597 375 588T398 564T406 534Q406 507 377 477T291 420Q270 410 239 398T173 370T108 329T59 270T40 187Q40 125 73 80T161 11T284
-13Q357 -13 420 12T537 77T633 167T709 263L608 341Q577 294 543 253T469 181T389 132T304 114Q270 114 247 125T211 157T198 201Q198 232 215 251T258 285T314 313T371 344Q413 372 445 394T499 439T532 487T543 548Q543 590 520 628T452 692T341 717Q275 717
227 692T152 627T126 544Q126 508 140 479T177 424T223 372Z" />
<glyph unicode="&apos;" horiz-adv-x="307" d="M105 700L61 381H160L265 700H105Z" />
<glyph unicode="(" horiz-adv-x="341" d="M189 780Q129 668 99 543T68 290Q68 163 98 38T189 -200H327Q275 -87 246 38T217 290Q217 418 246 543T327 780H189Z" />
<glyph unicode=")" horiz-adv-x="341" d="M152 -200Q212 -87 242 38T273 290Q273 418 243 543T152 780H14Q67 668 95 543T124 290Q124 163 96 38T14 -200H152Z" />
<glyph unicode="*" horiz-adv-x="592" d="M498 603L284 500L308 429L541 472L498 603ZM491 315L326 486L266 443L378 234L491 315ZM214 234L326 443L266 486L101 315L214 234ZM51 472L284 429L308 500L94 603L51 472ZM227 700L259 465H333L365 700H227Z" />
<glyph unicode="+" horiz-adv-x="674" d="M65 196H609V342H65V196ZM259 540V-2H415V540H259Z" />
<glyph unicode="," horiz-adv-x="324" d="M120 110L32 -149L146 -172L271 78L120 110Z" />
<glyph unicode="-" horiz-adv-x="222" d="M5 172H217V303H5V172Z" />
<glyph unicode="." horiz-adv-x="322" d="M67 68Q67 30 94 3T161 -24Q203 -24 229 3T255 68Q255 106 229 133T161 160Q121 160 94 133T67 68Z" />
<glyph unicode="/" horiz-adv-x="608" d="M448 700L15 -150H166L593 700H448Z" />
<glyph unicode="0" horiz-adv-x="662" d="M203 350Q203 399 212 439T238 508T278 552T331 568Q360 568 383 553T424 509T450 440T459 350Q459 301 450 261T424 192T384 148T331 132Q302 132 279 147T238 191T212 260T203 350ZM40 350Q40 236 76 155T179 31T331
-13Q420 -13 485 30T586 155T622 350Q622 464 587 545T486 669T331 713Q245 713 179 670T77 545T40 350Z" />
<glyph unicode="1" horiz-adv-x="509" d="M68 498L241 541V0H404V713L68 645V498Z" />
<glyph unicode="2" horiz-adv-x="656" d="M20 0H613V155H333L496 301Q541 340 569 387T597 492Q597 532 580 571T530 642T446 694T331 714Q241 714 179 677T85 578T54 441H220Q220 479 232 508T269 553T326 569Q350 569 368 562T398 542T416 513T422 481Q422 453
412 429T381 379T332 323L20 0Z" />
<glyph unicode="3" horiz-adv-x="621" d="M275 339Q358 339 425 359T531 419T571 519Q571 573 543 617T459 687T325 713Q251 713 195 685T109 607T78 495H233Q233 532 259 555T325 578Q352 578 369 570T395 545T404 509Q404 490 395 473T369 443T328 423T275 415V339ZM317
-16Q403 -16 464 10T558 83T591 191Q591 244 568 282T502 344T402 380T275 392V306Q313 306 341 299T387 279T415 247T424 207Q424 178 411 158T376 129T323 120Q295 120 270 131T229 165T214 222H48Q48 176 66 133T119 56T204 3T317 -16Z" />
<glyph unicode="4" horiz-adv-x="698" d="M14 124H656V268H513L496 246H238L389 455V187L370 176V0H546V700H420L14 124Z" />
<glyph unicode="5" horiz-adv-x="645" d="M605 224Q605 297 575 348T497 426T392 453Q359 453 329 448T270 429L310 554H590V700H186L88 296Q124 314 158 323T225 336T285 340Q320 340 350 330T400 299T420 242Q420 209 404 186T358 152T285 141Q260 141 229 150T168
176T108 217L42 78Q75 54 115 33T206 0T322 -13Q373 -13 423 0T514 43T580 117T605 224Z" />
<glyph unicode="6" horiz-adv-x="669" d="M217 246Q217 281 232 308T274 350T335 365Q368 365 394 350T436 308T452 246Q452 210 437 184T395 143T335 128Q301 128 275 142T233 183T217 246ZM333 697L131 440Q97 398 74 350T50 246Q50 160 88 102T191 14T335 -16Q413
-16 477 13T580 101T619 246Q619 299 601 341T551 412T481 457T403 473Q365 473 340 465T286 429L321 444L547 697H333Z" />
<glyph unicode="7" horiz-adv-x="603" d="M30 542H353L80 0H263L601 700H30V542Z" />
<glyph unicode="8" horiz-adv-x="627" d="M77 531Q77 483 97 448T152 389T228 354T313 343Q356 343 398 354T474 388T529 447T550 531Q550 590 518 631T432 694T313 716Q249 716 196 695T110 632T77 531ZM236 515Q236 538 245 556T273 585T313 595Q337 595 354
585T381 557T391 515Q391 491 381 473T354 445T313 435Q291 435 274 445T246 473T236 515ZM52 190Q52 142 73 104T131 39T215 -2T313 -16Q365 -16 412 -2T496 39T554 104T575 190Q575 245 551 284T488 348T402 384T313 396Q270 396 224 385T139 349T76 285T52 190ZM220
216Q220 241 232 262T266 295T313 307Q339 307 360 295T394 262T407 216Q407 185 395 164T361 132T313 121Q288 121 267 132T233 164T220 216Z" />
<glyph unicode="9" horiz-adv-x="669" d="M452 454Q452 419 437 392T395 350T335 335Q301 335 275 350T233 392T217 454Q217 490 232 516T274 557T335 572Q368 572 394 558T436 517T452 454ZM336 3L538 260Q572 302 595 350T619 454Q619 541 581 599T478 686T335
716Q256 716 192 687T89 599T50 454Q50 401 69 359T119 288T188 243T266 227Q304 227 329 235T383 271L349 256L122 3H336Z" />
<glyph unicode=":" horiz-adv-x="322" d="M67 68Q67 30 94 3T161 -24Q203 -24 229 3T255 68Q255 106 229 133T161 160Q121 160 94 133T67 68ZM67 442Q67 404 94 377T161 349Q203 349 229 376T255 442Q255 480 229 507T161 534Q121 534 94 507T67 442Z" />
<glyph unicode=";" horiz-adv-x="393" d="M119 436Q119 398 145 371T213 343Q255 343 281 370T307 436Q307 473 281 500T213 528Q172 528 146 501T119 436ZM142 110L54 -149L168 -172L293 78L142 110Z" />
<glyph unicode="&lt;" horiz-adv-x="640" d="M280 268L575 380V528L65 314V213L575 -1V148L280 268Z" />
<glyph unicode="=" horiz-adv-x="626" d="M56 84H571V215H56V84ZM56 290H571V421H56V290Z" />
<glyph unicode="&gt;" horiz-adv-x="640" d="M360 260L65 148V-1L575 213V314L65 528V380L360 260Z" />
<glyph unicode="?" horiz-adv-x="627" d="M420 500Q420 474 401 446T343 399T244 379H212L232 201H354L358 285Q412 294 461 321T541 394T573 500Q573 552 552 592T494 661T413 704T318 719Q259 719 211 704T123 659T48 589L150 505Q178 547 220 569T308 592Q343
592 368 581T407 550T420 500ZM199 59Q199 25 226 1T293 -24Q335 -24 361 0T388 59Q388 92 362 117T293 142Q253 142 226 117T199 59Z" />
<glyph unicode="@" horiz-adv-x="770" d="M316 320Q316 351 326 376T352 417T388 432Q402 432 412 425T429 402T435 364Q435 329 424 304T396 266T361 252Q339 252 328 269T316 320ZM196 313Q196 264 212 228T258 173T328 154Q370 154 405 179T461 252T482 370Q482
413 467 449T424 507T359 530Q320 530 283 505T221 431T196 313ZM19 320Q19 221 58 143T175 20T365 -26Q442 -26 498 -12T599 28L562 118Q519 97 475 86T377 74Q295 74 240 104T158 189T130 320Q130 387 150 442T207 537T296 600T415 623Q471 623 513 605T583 554T626
480T640 390Q640 330 628 298T600 254T572 241Q562 241 556 246T548 260T546 281Q546 287 546 295T548 308L574 520H458L434 295L447 264Q442 231 456 204T498 161T559 144Q594 144 628 157T690 200T734 276T751 390Q751 452 729 511T663 618T558 694T415 722Q329
722 257 692T131 606T49 478T19 320Z" />
<glyph unicode="A" horiz-adv-x="735" d="M184 135H554L543 264H196L184 135ZM367 443L466 216L460 173L544 0H736L367 744L-1 0H190L277 180L269 217L367 443Z" />
<glyph unicode="B" horiz-adv-x="664" d="M200 348H331Q404 348 459 368T547 428T580 522Q580 582 548 621T460 680T331 700H74V0H348Q431 0 492 20T586 84T620 197Q620 250 597 287T534 349T447 385T348 396H200V304H329Q354 304 374 300T411 285T436 259T445
221Q445 187 430 168T388 140T329 131H243V569H313Q356 569 380 551T405 497Q405 473 394 457T363 431T313 422H200V348Z" />
<glyph unicode="C" horiz-adv-x="701" d="M218 350Q218 415 247 461T323 531T428 555Q478 555 516 543T584 509T637 463V645Q595 678 545 697T418 716Q334 716 263 690T141 615T62 499T34 350Q34 268 62 201T141 85T263 10T418 -16Q495 -16 545 3T637 55V237Q614
213 584 192T516 158T428 145Q371 145 324 169T247 239T218 350Z" />
<glyph unicode="D" horiz-adv-x="733" d="M74 700V0H248V700H74ZM324 0Q439 0 523 43T653 164T699 350Q699 458 653 536T523 657T324 700H186V550H318Q358 550 395 540T461 507T507 446T524 350Q524 293 507 255T462 193T396 160T318 150H186V0H324Z" />
<glyph unicode="E" horiz-adv-x="603" d="M186 0H539V139H186V0ZM186 561H539V700H186V561ZM186 300H519V436H186V300ZM74 700V0H236V700H74Z" />
<glyph unicode="F" horiz-adv-x="553" d="M186 555H499V700H186V555ZM186 281H489V417H186V281ZM74 700V0H236V700H74Z" />
<glyph unicode="G" horiz-adv-x="814" d="M421 253H607Q598 226 583 203T545 162T492 135T423 125Q361 125 314 152T239 230T211 350Q211 420 239 468T316 543T423 569Q484 569 524 542T589 472L739 550Q706 599 661 636T556 695T423 716Q340 716 269 690T145
616T63 501T34 350Q34 267 62 199T142 81T263 5T417 -22Q506 -22 575 9T690 97T758 226T775 383H421V253Z" />
<glyph unicode="H" horiz-adv-x="786" d="M121 293H650V445H121V293ZM544 700V0H713V700H544ZM74 700V0H243V700H74Z" />
<glyph unicode="I" horiz-adv-x="320" d="M74 700V0H246V700H74Z" />
<glyph unicode="J" horiz-adv-x="330" d="M-72 -64L-164 -182Q-143 -196 -114 -208T-49 -230T26 -239Q72 -239 114 -229T188 -197T238 -140T256 -54V700H74V-16Q74 -60 53 -78T9 -97Q-13 -97 -35 -87T-72 -64Z" />
<glyph unicode="K" horiz-adv-x="699" d="M74 700V0H249V700H74ZM487 700L200 367L495 0H700L401 372L685 700H487Z" />
<glyph unicode="L" horiz-adv-x="528" d="M74 700V0H524V145H243V700H74Z" />
<glyph unicode="M" horiz-adv-x="891" d="M254 357L445 65L637 357L679 0H857L744 735L445 308L147 735L34 0H212L254 357Z" />
<glyph unicode="N" horiz-adv-x="794" d="M557 700V306L74 735V0H236V394L720 -35V700H557Z" />
<glyph unicode="O" horiz-adv-x="821" d="M213 350Q213 412 237 459T306 534T411 561Q472 561 516 534T584 460T608 350Q608 288 584 241T515 166T411 139Q351 139 307 166T238 240T213 350ZM34 350Q34 269 61 201T139 83T259 6T411 -22Q493 -22 562 5T681 83T759
201T787 350Q787 431 759 498T680 614T561 689T411 716Q331 716 262 690T142 614T63 498T34 350Z" />
<glyph unicode="P" horiz-adv-x="623" d="M74 700V0H243V700H74ZM180 561H317Q368 561 397 538T426 471Q426 428 397 405T317 382H180V243H317Q406 243 466 270T558 349T589 471Q589 543 558 594T467 672T317 700H180V561Z" />
<glyph unicode="Q" horiz-adv-x="863" d="M213 350Q213 412 238 459T309 534T414 561Q481 561 528 530T601 446T627 331Q627 270 602 224T531 152T426 127Q367 127 319 154T242 232T213 350ZM34 350Q34 269 62 201T141 83T262 6T414 -22Q496 -22 564 5T683 83T760
201T787 350Q787 431 760 498T682 614T563 689T414 716Q334 716 265 690T144 614T63 498T34 350ZM357 300L688 -12H869L532 300H357Z" />
<glyph unicode="R" horiz-adv-x="647" d="M248 317L445 0H643L424 317H248ZM74 700V0H243V700H74ZM180 557H317Q351 557 375 546T413 515T426 465Q426 436 413 416T376 385T317 374H180V243H329Q419 243 479 272T570 352T601 471Q601 539 570 590T479 671T329
700H180V557Z" />
<glyph unicode="S" horiz-adv-x="625" d="M151 246L33 161Q57 111 100 69T201 3T328 -22Q377 -22 423 -8T506 35T564 104T586 199Q586 243 572 277T534 337T477 381T408 414Q359 431 325 446T272 479T253 521Q253 544 272 559T327 575Q354 575 377 565T420 536T455
492L584 564Q566 600 532 635T447 693T325 716Q257 716 202 693T114 624T81 517Q81 465 100 429T148 367T209 325T267 300Q318 281 349 266T394 235T408 191Q408 159 384 141T323 122Q288 122 257 137T199 180T151 246Z" />
<glyph unicode="T" horiz-adv-x="561" d="M4 549H196V0H365V549H558V700H4V549Z" />
<glyph unicode="U" horiz-adv-x="701" d="M69 700V230Q69 164 90 115T150 35T240 -13T350 -29Q409 -29 460 -13T550 34T610 115T632 230V700H463V242Q463 189 435 156T350 123Q294 123 266 156T238 242V700H69Z" />
<glyph unicode="V" horiz-adv-x="735" d="M367 282L196 700H-1L367 -44L736 700H538L367 282Z" />
<glyph unicode="W" horiz-adv-x="1065" d="M724 301L532 735L342 301L204 700H4L307 -41L532 381L758 -41L1061 700H860L724 301Z" />
<glyph unicode="X" horiz-adv-x="685" d="M458 700L346 497L238 700H29L244 359L4 0H213L345 233L473 0H682L447 359L667 700H458Z" />
<glyph unicode="Y" horiz-adv-x="660" d="M467 700L330 437L193 700H-1L244 284V0H416V285L661 700H467Z" />
<glyph unicode="Z" horiz-adv-x="620" d="M57 549H335L9 0H570V145H275L606 700H57V549Z" />
<glyph unicode="[" horiz-adv-x="362" d="M241 649H342V780H91V-220H342V-89H241V649Z" />
<glyph unicode="\" d="M15 700L384 0H531L162 700H15Z" />
<glyph unicode="]" horiz-adv-x="362" d="M121 -89H20V-220H271V780H20V649H121V-89Z" />
<glyph unicode="^" horiz-adv-x="510" d="M255 581L334 448H470L300 710H210L40 448H176L255 581Z" />
<glyph unicode="_" horiz-adv-x="531" d="M0 -154H531V-57H0V-154Z" />
<glyph unicode="`" horiz-adv-x="375" d="M53 654L233 504L319 546L169 706L53 654Z" />
<glyph unicode="a" horiz-adv-x="539" d="M176 144Q176 161 184 172T208 190T251 196Q286 196 317 187T373 159V226Q361 239 337 251T280 271T204 279Q118 279 71 241T24 136Q24 89 46 56T106 7T188 -10Q232 -10 270 5T332 51T356 126L340 186Q340 154 326 132T290
99T242 88Q224 88 209 94T185 113T176 144ZM109 319Q119 325 141 334T192 351T253 358Q274 358 290 354T318 341T334 320T340 290V0H485V324Q485 372 457 405T381 455T272 473Q207 473 152 456T58 420L109 319Z" />
<glyph unicode="b" horiz-adv-x="617" d="M209 780H58V0H209V780ZM585 230Q585 308 554 361T473 442T366 470Q309 470 264 441T193 359T167 230Q167 156 193 102T264 19T366 -10Q423 -10 472 18T553 99T585 230ZM426 230Q426 194 411 168T371 127T316 112Q290
112 266 126T225 166T209 230Q209 267 225 293T265 334T316 348Q346 348 371 334T411 293T426 230Z" />
<glyph unicode="c" horiz-adv-x="494" d="M186 230Q186 264 202 291T246 334T308 350Q333 350 359 342T407 319T444 282V430Q420 447 384 458T296 470Q220 470 160 440T65 357T30 230Q30 158 64 104T159 20T296 -10Q348 -10 384 1T444 32V179Q430 157 409 142T362
119T308 110Q275 110 247 125T202 166T186 230Z" />
<glyph unicode="d" horiz-adv-x="617" d="M408 780V0H559V780H408ZM32 230Q32 153 63 100T145 18T251 -10Q309 -10 353 19T424 102T450 230Q450 305 424 358T354 441T251 470Q195 470 145 442T64 361T32 230ZM191 230Q191 266 206 292T246 333T301 348Q327 348
351 334T392 294T408 230Q408 193 392 167T352 126T301 112Q271 112 246 126T206 167T191 230Z" />
<glyph unicode="e" horiz-adv-x="573" d="M293 -10Q381 -10 442 24T540 126L405 159Q388 129 360 114T291 99Q256 99 232 114T196 160T184 232Q185 278 196 308T231 354T288 369Q315 369 335 357T366 323T377 271Q377 264 374 254T365 236L401 282H117V198H537Q539
205 539 215T539 237Q539 311 510 363T426 442T291 470Q211 470 153 441T63 358T32 230Q32 157 64 103T154 20T293 -10Z" />
<glyph unicode="f" horiz-adv-x="344" d="M18 460V335H332V460H18ZM315 635L376 746Q366 756 349 767T308 787T249 796Q192 796 154 776T96 719T76 630V0H221V592Q221 616 227 631T243 653T269 660Q282 660 293 654T315 635Z" />
<glyph unicode="g" horiz-adv-x="610" d="M42 -33Q47 -94 75 -140T158 -213T299 -239Q370 -239 427 -214T518 -133T553 10V460H408V10Q408 -32 393 -60T351 -103T293 -118Q264 -118 241 -109T205 -80T188 -33H42ZM32 236Q32 159 63 107T145 29T251 2Q309 2 353
29T424 109T450 236Q450 311 424 363T354 442T251 470Q195 470 145 444T64 366T32 236ZM191 236Q191 272 206 297T246 335T301 348Q320 348 339 341T373 320T398 285T408 236Q408 199 392 174T352 137T301 124Q271 124 246 137T206 175T191 236Z" />
<glyph unicode="h" horiz-adv-x="568" d="M211 780H59V0H211V780ZM358 280V0H509V302Q509 359 493 398T443 457T351 477Q294 477 258 451T203 380T185 280H211Q211 307 221 325T249 354T291 365Q328 365 343 343T358 280Z" />
<glyph unicode="i" horiz-adv-x="276" d="M50 633Q50 597 76 574T138 551Q175 551 200 574T226 633Q226 669 201 691T138 714Q102 714 76 692T50 633ZM65 460V0H211V460H65Z" />
<glyph unicode="j" horiz-adv-x="272" d="M45 633Q45 597 70 574T133 551Q169 551 194 574T220 633Q220 669 195 691T133 714Q96 714 71 692T45 633ZM-33 -77L-94 -188Q-82 -199 -66 -211T-25 -231T33 -239Q91 -239 129 -218T187 -160T207 -72V460H61V-34Q61 -58
56 -73T40 -95T13 -103Q-1 -103 -12 -96T-33 -77Z" />
<glyph unicode="k" horiz-adv-x="577" d="M58 780V0H203V780H58ZM370 460L173 270L393 0H570L354 270L550 460H370Z" />
<glyph unicode="l" horiz-adv-x="270" d="M59 780V0H211V780H59Z" />
<glyph unicode="m" horiz-adv-x="820" d="M761 296Q761 352 747 391T702 450T616 471Q569 471 532 451T470 395Q456 432 424 451T338 471Q291 471 258 450T205 392V460H59V0H205V280Q205 308 213 327T237 355T273 365Q304 365 317 344T331 280V0H483V280Q483 308
491 327T515 355T551 365Q582 365 595 344T609 280V0H761V296Z" />
<glyph unicode="n" horiz-adv-x="575" d="M358 280V0H515V296Q515 379 476 425T351 471Q300 471 266 450T211 391V460H59V0H211V280Q211 307 221 326T249 355T291 365Q327 365 342 343T358 280Z" />
<glyph unicode="o" horiz-adv-x="589" d="M32 230Q32 158 66 104T160 20T295 -10Q370 -10 429 20T523 104T558 230Q558 303 524 357T430 441T295 471Q220 471 160 441T66 357T32 230ZM187 230Q187 266 202 292T241 332T295 346Q324 346 348 332T387 292T402 230Q402
194 388 169T349 129T295 115Q265 115 241 129T202 168T187 230Z" />
<glyph unicode="p" horiz-adv-x="617" d="M209 -220V460H58V-220H209ZM585 230Q585 311 554 365T473 448T366 476Q306 476 263 446T196 360T173 230Q173 156 196 101T262 15T366 -16Q423 -16 472 12T553 95T585 230ZM426 230Q426 194 411 169T371 131T316 118Q290
118 266 130T225 168T209 230Q209 267 225 292T265 329T316 342Q346 342 371 329T411 291T426 230Z" />
<glyph unicode="q" horiz-adv-x="617" d="M408 -220H559V460H408V-220ZM32 230Q32 150 63 95T145 12T251 -16Q312 -16 355 14T421 100T444 230Q444 305 421 360T355 445T251 476Q195 476 145 448T64 366T32 230ZM191 230Q191 266 206 291T246 329T301 342Q327
342 351 330T392 292T408 230Q408 193 392 168T352 131T301 118Q271 118 246 131T206 169T191 230Z" />
<glyph unicode="r" horiz-adv-x="411" d="M208 460H59V0H208V460ZM341 304L406 433Q394 451 371 461T323 471Q285 471 250 446T194 378T172 280L208 227Q208 260 217 283T243 318T282 330Q302 330 315 323T341 304Z" />
<glyph unicode="s" horiz-adv-x="456" d="M84 167L21 67Q52 43 88 24T166 -7T258 -19Q341 -19 386 18T432 130Q432 173 414 199T365 242T298 272Q264 285 241 293T205 312T192 337Q192 350 202 358T234 366Q265 366 302 349T368 304L422 402Q395 422 365 437T300
461T225 470Q175 470 137 455T76 411T53 340Q53 296 72 268T120 224T183 195Q220 184 241 174T272 154T281 128Q281 112 270 102T236 92Q220 92 198 98T148 121T84 167Z" />
<glyph unicode="t" horiz-adv-x="318" d="M5 460V335H313V460H5ZM86 620V0H231V620H86Z" />
<glyph unicode="u" horiz-adv-x="575" d="M217 180V460H59V164Q59 82 98 36T224 -11Q275 -11 309 10T364 69V0H515V460H364V180Q364 153 354 134T327 105T284 95Q247 95 232 117T217 180Z" />
<glyph unicode="v" horiz-adv-x="527" d="M-3 460L263 -54L530 460H369L263 205L158 460H-3Z" />
<glyph unicode="w" horiz-adv-x="761" d="M-7 460L230 -29L379 245L531 -29L768 460H610L514 224L378 495L247 224L151 460H-7Z" />
<glyph unicode="x" horiz-adv-x="532" d="M354 460L268 339L184 460H10L189 236L0 0H174L268 134L364 0H532L346 236L522 460H354Z" />
<glyph unicode="y" horiz-adv-x="521" d="M530 460H375L228 92L306 91L157 460H-9L190 37L78 -220H230L530 460Z" />
<glyph unicode="z" horiz-adv-x="522" d="M257 323L15 0H475V137H277L507 460H57V323H257Z" />
<glyph unicode="{" horiz-adv-x="398" d="M265 610Q265 630 278 645T313 660H348V780H257Q216 780 180 766T121 721T98 640V455Q98 398 84 376T38 345V235Q70 228 84 205T98 125V-60Q98 -109 120 -140T179 -185T257 -200H348V-80H313Q291 -80 278 -65T265 -30V90Q265
123 262 160T246 228T203 280T121 300V280Q174 280 203 300T245 351T262 420T265 490V610Z" />
<glyph unicode="|" horiz-adv-x="352" d="M100 785V-215H252V785H100Z" />
<glyph unicode="}" horiz-adv-x="398" d="M136 -30Q136 -49 124 -64T88 -80H53V-200H144Q185 -200 221 -186T280 -140T303 -60V125Q303 182 318 205T364 235V345Q333 353 318 375T303 455V640Q303 690 281 720T222 765T144 780H53V660H88Q111 660 123 645T136
610V490Q136 457 139 420T156 352T198 300T280 280V300Q228 300 199 280T156 229T140 160T136 90V-30Z" />
<glyph unicode="~" horiz-adv-x="575" d="M156 164Q154 170 152 176T150 192Q150 208 159 222T193 237Q206 237 219 233T246 222T276 203Q313 179 341 166T400 153Q442 153 467 167T512 206Q530 228 535 253T541 302Q541 310 540 317T537 330L416 335Q419 328
421 320T423 302Q423 286 415 275T390 263Q377 263 360 272T319 297Q295 313 275 324T236 340T194 346Q144 346 115 330T65 287Q47 265 41 242T34 193Q34 180 37 169L156 164Z" />
<glyph unicode="&#xa0;" horiz-adv-x="300" />
<glyph unicode="&#xa1;" horiz-adv-x="343" d="M265 -229L233 239H111L78 -229H265ZM266 409Q266 447 240 471T172 495Q131 495 105 471T78 409Q78 371 104 347T172 323Q213 323 239 347T266 409Z" />
<glyph unicode="&#xa2;" horiz-adv-x="580" d="M237 38L227 -112H356L347 38H237ZM205 230Q205 266 222 292T268 334T328 350Q375 350 409 330T463 280V430Q439 448 401 459T316 470Q240 470 180 440T85 357T50 230Q50 158 84 104T179 20T316 -10Q363 -10 401
1T463 30V180Q443 151 409 131T328 110Q296 110 268 124T223 164T205 230ZM227 578L237 428H347L356 578H227Z" />
<glyph unicode="&#xa3;" horiz-adv-x="611" d="M67 370V270H446V370H67ZM434 467L571 517Q569 550 552 583T504 645T429 692T327 710Q262 710 207 688T119 623T85 521Q85 486 95 461T121 415T152 376T178 336T189 286Q189 236 175 190T131 98T52 0H539V139H191L140
50Q168 58 201 78T265 127T315 193T335 270Q335 304 326 329T304 373T276 411T253 449T243 495Q243 524 256 542T289 568T333 576Q361 576 380 567T410 542T427 507T434 467Z" />
<glyph unicode="&#xa4;" horiz-adv-x="577" d="M23 503L124 404L185 465L86 565L23 503ZM86 35L185 135L124 196L23 97L86 35ZM454 404L553 503L492 565L392 465L454 404ZM392 135L492 35L553 97L454 196L392 135ZM51 300Q51 231 82 177T168 91T289 60Q357 60
410 91T495 176T527 300Q527 370 496 424T411 509T289 540Q222 540 168 509T83 424T51 300ZM188 300Q188 331 201 354T236 390T289 403Q318 403 341 391T377 355T390 300Q390 269 377 246T341 210T289 197Q259 197 237 209T201 245T188 300Z" />
<glyph unicode="&#xa5;" horiz-adv-x="669" d="M45 265H620V365H45V265ZM45 115H620V215H45V115ZM471 700L333 437L197 700H3L248 284V0H421V287L664 700H471Z" />
<glyph unicode="&#xa6;" horiz-adv-x="352" d="M100 695V430H252V695H100ZM252 270H100V5H252V270Z" />
<glyph unicode="&#xa7;" horiz-adv-x="576" d="M400 549L472 648Q458 669 429 686T363 713T284 724Q240 724 198 708T127 659T99 578Q99 547 110 524T138 485T177 456T221 436Q248 426 276 415T323 388T343 344Q343 324 332 309T304 284T268 271V229Q309 229 346
237T414 264T462 311T480 378Q480 415 462 443T413 490T344 519Q323 525 305 530T273 540T251 552T243 569Q243 578 249 584T266 595T294 599Q310 599 329 593T367 576T400 549ZM128 173L55 76Q78 48 110 26T187 -9T285 -22Q322 -22 358 -14T422 14T467 62T484
130Q484 170 466 198T419 245T357 278Q338 286 316 293T273 309T240 332T227 369Q227 390 237 403T265 425T303 442V480Q260 480 221 471T151 443T102 397T84 334Q84 296 106 269T163 223T235 194Q263 187 285 180T320 162T333 137Q333 126 327 119T309 107T278
102Q259 102 233 109T180 133T128 173Z" />
<glyph unicode="&#xa8;" horiz-adv-x="511" d="M289 632Q289 596 315 573T377 550Q414 550 439 573T465 632Q465 668 440 691T377 714Q341 714 315 691T289 632ZM46 632Q46 596 71 573T134 550Q170 550 196 573T222 632Q222 668 196 691T134 714Q97 714 72 691T46 632Z" />
<glyph unicode="&#xa9;" horiz-adv-x="800" d="M289 350Q289 389 305 416T351 458T415 473Q459 473 489 457T540 418V527Q515 547 485 558T409 570Q341 570 290 542T208 465T178 350Q178 285 208 236T289 158T409 130Q455 130 485 141T540 173V282Q520 260 490
244T415 227Q380 227 351 241T306 284T289 350ZM95 350Q95 417 118 473T182 572T279 637T400 660Q465 660 520 637T617 572T682 474T705 350Q705 283 682 227T618 128T521 63T400 40Q335 40 280 63T183 128T118 226T95 350ZM40 350Q40 272 67 206T143 92T258 17T400
-10Q477 -10 542 16T656 91T732 206T760 350Q760 428 733 494T657 608T543 683T400 710Q324 710 258 684T144 609T68 494T40 350Z" />
<glyph unicode="&#xaa;" horiz-adv-x="270" d="M94 530Q94 544 105 553T134 562Q154 562 168 557T194 543V579Q187 587 165 595T117 603Q75 603 47 583T18 528Q18 493 41 474T101 455Q137 455 161 473T186 525L178 553Q178 525 162 515T127 505Q111 505 103 511T94
530ZM64 625Q72 630 92 637T137 645Q156 645 167 636T178 611V460H250V631Q250 667 220 686T144 705Q113 705 86 697T38 679L64 625Z" />
<glyph unicode="&#xab;" horiz-adv-x="541" d="M352 259L502 445L409 509L231 255L409 1L502 65L352 259ZM149 259L299 445L205 509L28 255L205 1L299 65L149 259Z" />
<glyph unicode="&#xac;" horiz-adv-x="650" d="M65 272H479V175H585V403H65V272Z" />
<glyph unicode="&#xad;" horiz-adv-x="210" d="M5 200H205V275H5V200Z" />
<glyph unicode="&#xae;" horiz-adv-x="800" d="M377 328L470 150H589L470 328H377ZM253 570V150H355V570H253ZM317 484L399 485Q430 485 447 472T465 433Q465 406 448 393T399 380H317V302H407Q487 302 528 340T570 439Q570 495 529 532T407 570H317V484ZM95 350Q95
417 118 473T182 572T279 637T400 660Q465 660 520 637T617 572T682 474T705 350Q705 283 682 227T618 128T521 63T400 40Q335 40 280 63T183 128T118 226T95 350ZM40 350Q40 272 67 206T143 92T258 17T400 -10Q477 -10 542 16T656 91T732 206T760 350Q760 428
733 494T657 608T543 683T400 710Q324 710 258 684T144 609T68 494T40 350Z" />
<glyph unicode="&#xaf;" horiz-adv-x="532" d="M80 572H452V703H80V572Z" />
<glyph unicode="&#xb0;" horiz-adv-x="297" d="M17 597Q17 543 54 509T148 474Q204 474 242 508T280 597Q280 652 242 686T148 720Q91 720 54 686T17 597ZM91 597Q91 624 107 640T148 656Q172 656 188 640T205 597Q205 570 189 555T148 539Q123 539 107 554T91 597Z" />
<glyph unicode="&#xb1;" horiz-adv-x="634" d="M65 6H569V136H65V6ZM65 333H569V468H65V333ZM240 620V181H393V620H240Z" />
<glyph unicode="&#xb2;" horiz-adv-x="408" d="M25 282H381V375H213L310 462Q338 486 354 514T371 575Q371 608 353 639T301 690T213 711Q159 711 122 689T65 629T45 547H145Q145 581 163 602T210 624Q230 624 242 617T260 597T266 570Q266 545 252 524T212 476L25 282Z" />
<glyph unicode="&#xb3;" horiz-adv-x="365" d="M154 483Q204 483 244 495T308 531T332 592Q332 640 294 674T184 708Q117 708 77 671T36 577H129Q129 600 144 613T184 627Q208 627 220 616T232 586Q232 571 222 558T195 537T154 529V483ZM180 270Q257 270 300
305T344 395Q344 437 320 463T253 502T154 515V464Q185 464 204 457T234 436T244 404Q244 377 227 365T183 352Q157 352 138 367T118 413H18Q18 376 37 344T92 291T180 270Z" />
<glyph unicode="&#xb4;" horiz-adv-x="375" d="M319 654L203 706L53 546L139 504L319 654Z" />
<glyph unicode="&#xb5;" horiz-adv-x="575" d="M217 460H59V-320H205V15Q224 4 239 0T271 -4Q301 -4 324 12T364 53V0H515V460H364V205Q364 178 354 159T327 130T284 120Q247 120 232 142T217 205V460Z" />
<glyph unicode="&#xb6;" horiz-adv-x="671" d="M288 270V-220H420V607H479V-220H611V700H288Q226 700 174 675T91 603T60 485Q60 416 91 368T174 295T288 270Z" />
<glyph unicode="&#xb7;" horiz-adv-x="322" d="M67 268Q67 230 94 203T161 176Q203 176 229 203T255 268Q255 306 229 333T161 360Q121 360 94 333T67 268Z" />
<glyph unicode="&#xb8;" horiz-adv-x="393" d="M184 71L96 -124Q122 -113 146 -110T178 -107Q201 -107 220 -113T239 -140Q239 -158 225 -166T184 -175Q170 -175 148 -169T106 -149L60 -218Q96 -240 129 -248T204 -257Q236 -257 266 -245T315 -209T335 -148Q335
-115 321 -94T285 -62T244 -51Q234 -51 225 -51T207 -54L294 67L184 71Z" />
<glyph unicode="&#xb9;" horiz-adv-x="482" d="M133 572L238 599V274H335V702L133 661V572Z" />
<glyph unicode="&#xba;" horiz-adv-x="278" d="M19 580Q19 526 56 493T150 460Q206 460 244 493T282 580Q282 635 244 667T150 700Q93 700 56 668T19 580ZM96 580Q96 607 111 622T150 638Q172 638 188 623T204 580Q204 553 188 538T150 523Q127 523 112 538T96 580Z" />
<glyph unicode="&#xbb;" horiz-adv-x="541" d="M189 251L39 65L132 1L310 255L132 509L39 445L189 251ZM392 251L242 65L336 1L513 255L336 509L242 445L392 251Z" />
<glyph unicode="&#xbc;" horiz-adv-x="822" d="M630 700L110 0H206L726 700H630ZM24 572L128 599V274H226V702L24 661V572ZM407 75H792V161H685L675 148H490L407 75ZM509 105L632 273V103L621 97V0H726V420H651L407 75L509 105Z" />
<glyph unicode="&#xbd;" horiz-adv-x="894" d="M630 700L110 0H206L726 700H630ZM24 572L128 599V274H226V702L24 661V572ZM505 2H861V95H693L791 182Q818 206 834 234T851 295Q851 328 834 359T781 410T694 431Q640 431 602 409T545 349T526 267H625Q625 301
643 322T691 344Q710 344 722 337T741 317T747 290Q747 265 733 244T693 196L505 2Z" />
<glyph unicode="&#xbe;" horiz-adv-x="879" d="M694 700L174 0H270L790 700H694ZM162 483Q212 483 252 495T316 531T340 592Q340 640 302 674T192 708Q126 708 85 671T44 577H137Q137 600 152 613T192 627Q216 627 228 616T240 586Q240 571 230 558T203 537T162
529V483ZM188 270Q265 270 308 305T352 395Q352 437 328 463T261 502T162 515V464Q193 464 213 457T242 436T252 404Q252 377 235 365T191 352Q165 352 146 367T126 413H26Q26 376 45 344T100 291T188 270ZM464 75H850V161H743L733 148H547L464 75ZM567 105L690
273V103L679 97V0H784V420H709L464 75L567 105Z" />
<glyph unicode="&#xbf;" horiz-adv-x="627" d="M206 200Q206 226 225 254T284 301T383 321H415L395 499H273L268 415Q215 406 166 379T85 307T54 200Q54 148 75 108T132 39T214 -4T309 -19Q369 -19 416 -4T504 41T579 111L477 195Q449 153 407 131T319 108Q283
108 258 119T220 150T206 200ZM427 641Q427 675 401 699T333 724Q292 724 266 700T239 641Q239 608 265 583T333 558Q375 558 401 583T427 641Z" />
<glyph unicode="&#xc0;" horiz-adv-x="735" d="M184 135H554L543 264H196L184 135ZM367 443L466 216L460 173L544 0H736L367 744L-1 0H190L277 180L269 217L367 443ZM206 954L386 804L472 847L322 1007L206 954Z" />
<glyph unicode="&#xc1;" horiz-adv-x="735" d="M184 135H554L543 264H196L184 135ZM367 443L466 216L460 173L544 0H736L367 744L-1 0H190L277 180L269 217L367 443ZM525 954L410 1007L260 847L345 804L525 954Z" />
<glyph unicode="&#xc2;" horiz-adv-x="735" d="M184 135H554L543 264H196L184 135ZM367 443L466 216L460 173L544 0H736L367 744L-1 0H190L277 180L269 217L367 443ZM367 875L459 789L565 860L367 1000L170 860L276 789L367 875Z" />
<glyph unicode="&#xc3;" horiz-adv-x="735" d="M184 135H554L543 264H196L184 135ZM367 443L466 216L460 173L544 0H736L367 744L-1 0H190L277 180L269 217L367 443ZM171 862L243 800Q243 808 246 820T260 841T290 851Q315 851 336 838T379 812T429 798Q461 798
488 811T535 845T563 884L492 958Q477 934 462 920T427 905Q406 905 391 913T363 931T332 949T291 957Q259 957 234 944T192 909T171 862Z" />
<glyph unicode="&#xc4;" horiz-adv-x="735" d="M184 135H554L543 264H196L184 135ZM367 443L466 216L460 173L544 0H736L367 744L-1 0H190L277 180L269 217L367 443ZM420 830Q420 794 445 771T508 748Q544 748 570 771T596 830Q596 866 570 889T508 912Q471 912
446 889T420 830ZM133 836Q133 801 158 778T221 755Q257 755 283 778T309 836Q309 872 283 895T221 918Q184 918 159 895T133 836Z" />
<glyph unicode="&#xc5;" horiz-adv-x="735" d="M184 135H554L543 264H196L184 135ZM367 443L466 216L460 173L544 0H736L367 744L-1 0H190L277 180L269 217L367 443ZM242 800Q242 749 278 717T367 685Q419 685 455 717T492 800Q492 852 456 884T367 916Q315 916
279 884T242 800ZM321 800Q321 823 334 836T367 849Q386 849 399 836T413 800Q413 778 400 766T367 753Q348 753 335 765T321 800Z" />
<glyph unicode="&#xc6;" horiz-adv-x="1084" d="M270 151H576V306H276L270 151ZM438 700L14 0H227L600 660L438 700ZM630 0H1014V139H630V0ZM638 561H1014V700H438L638 561ZM630 300H994V436H630V300ZM549 700V0H730V700H549Z" />
<glyph unicode="&#xc7;" horiz-adv-x="701" d="M218 350Q218 415 247 461T323 531T428 555Q478 555 516 543T584 509T637 463V645Q595 678 545 697T418 716Q334 716 263 690T141 615T62 499T34 350Q34 268 62 201T141 85T263 10T418 -16Q495 -16 545 3T637 55V237Q614
213 584 192T516 158T428 145Q371 145 324 169T247 239T218 350ZM358 48L270 -146Q296 -135 321 -133T353 -130Q376 -130 394 -136T413 -162Q413 -180 399 -188T359 -197Q344 -197 322 -192T280 -172L235 -241Q270 -263 303 -271T379 -280Q410 -280 440 -268T490
-232T510 -171Q510 -138 496 -117T460 -85T418 -74Q408 -74 399 -74T382 -77L468 45L358 48Z" />
<glyph unicode="&#xc8;" horiz-adv-x="603" d="M186 0H539V139H186V0ZM186 561H539V700H186V561ZM186 300H519V436H186V300ZM74 700V0H236V700H74ZM145 932L325 782L410 825L260 985L145 932Z" />
<glyph unicode="&#xc9;" horiz-adv-x="603" d="M186 0H539V139H186V0ZM186 561H539V700H186V561ZM186 300H519V436H186V300ZM74 700V0H236V700H74ZM465 932L349 985L199 825L285 782L465 932Z" />
<glyph unicode="&#xca;" horiz-adv-x="603" d="M186 0H539V139H186V0ZM186 561H539V700H186V561ZM186 300H519V436H186V300ZM74 700V0H236V700H74ZM310 862L401 776L507 847L310 987L113 847L219 776L310 862Z" />
<glyph unicode="&#xcb;" horiz-adv-x="603" d="M186 0H539V139H186V0ZM186 561H539V700H186V561ZM186 300H519V436H186V300ZM74 700V0H236V700H74ZM344 866Q344 830 370 807T432 784Q469 784 494 807T520 866Q520 902 495 924T432 947Q396 947 370 925T344 866ZM101
866Q101 830 126 807T189 784Q225 784 251 807T277 866Q277 902 251 924T189 947Q152 947 127 925T101 866Z" />
<glyph unicode="&#xcc;" horiz-adv-x="320" d="M74 700V0H246V700H74ZM-8 932L172 782L258 825L108 985L-8 932Z" />
<glyph unicode="&#xcd;" horiz-adv-x="320" d="M74 700V0H246V700H74ZM312 932L197 985L47 825L132 782L312 932Z" />
<glyph unicode="&#xce;" horiz-adv-x="320" d="M74 700V0H246V700H74ZM160 862L251 776L357 847L160 987L-37 847L69 776L160 862Z" />
<glyph unicode="&#xcf;" horiz-adv-x="320" d="M74 700V0H246V700H74ZM194 858Q194 822 219 799T282 776Q318 776 344 799T370 858Q370 894 344 917T282 940Q245 940 220 917T194 858ZM-49 858Q-49 822 -24 799T38 776Q75 776 100 799T126 858Q126 894 101 917T38
940Q2 940 -23 917T-49 858Z" />
<glyph unicode="&#xd0;" horiz-adv-x="733" d="M6 303H355V402H6V303ZM74 700V0H248V700H74ZM324 0Q439 0 523 43T653 164T699 350Q699 458 653 536T523 657T324 700H186V550H318Q358 550 395 540T461 507T507 446T524 350Q524 293 507 255T462 193T396 160T318
150H186V0H324Z" />
<glyph unicode="&#xd1;" horiz-adv-x="794" d="M557 700V306L74 735V0H236V394L720 -35V700H557ZM172 833L243 771Q243 779 247 791T261 812T290 822Q315 822 336 809T380 782T430 769Q461 769 488 782T536 816T564 854L493 928Q478 904 462 890T427 875Q406 875
391 883T363 901T333 919T291 927Q260 927 235 914T193 879T172 833Z" />
<glyph unicode="&#xd2;" horiz-adv-x="821" d="M213 350Q213 412 237 459T306 534T411 561Q472 561 516 534T584 460T608 350Q608 288 584 241T515 166T411 139Q351 139 307 166T238 240T213 350ZM34 350Q34 269 61 201T139 83T259 6T411 -22Q493 -22 562 5T681
83T759 201T787 350Q787 431 759 498T680 614T561 689T411 716Q331 716 262 690T142 614T63 498T34 350ZM263 932L443 782L528 825L378 985L263 932Z" />
<glyph unicode="&#xd3;" horiz-adv-x="821" d="M213 350Q213 412 237 459T306 534T411 561Q472 561 516 534T584 460T608 350Q608 288 584 241T515 166T411 139Q351 139 307 166T238 240T213 350ZM34 350Q34 269 61 201T139 83T259 6T411 -22Q493 -22 562 5T681
83T759 201T787 350Q787 431 759 498T680 614T561 689T411 716Q331 716 262 690T142 614T63 498T34 350ZM574 932L459 985L309 825L394 782L574 932Z" />
<glyph unicode="&#xd4;" horiz-adv-x="821" d="M213 350Q213 412 237 459T306 534T411 561Q472 561 516 534T584 460T608 350Q608 288 584 241T515 166T411 139Q351 139 307 166T238 240T213 350ZM34 350Q34 269 61 201T139 83T259 6T411 -22Q493 -22 562 5T681
83T759 201T787 350Q787 431 759 498T680 614T561 689T411 716Q331 716 262 690T142 614T63 498T34 350ZM420 862L511 776L617 847L420 987L223 847L328 776L420 862Z" />
<glyph unicode="&#xd5;" horiz-adv-x="821" d="M213 350Q213 412 237 459T306 534T411 561Q472 561 516 534T584 460T608 350Q608 288 584 241T515 166T411 139Q351 139 307 166T238 240T213 350ZM34 350Q34 269 61 201T139 83T259 6T411 -22Q493 -22 562 5T681
83T759 201T787 350Q787 431 759 498T680 614T561 689T411 716Q331 716 262 690T142 614T63 498T34 350ZM221 839L292 777Q292 785 296 797T310 818T339 828Q364 828 385 815T429 788T479 775Q510 775 537 788T585 822T613 860L542 934Q527 910 512 896T477 881Q455
881 441 889T413 907T382 925T340 933Q309 933 284 920T242 885T221 839Z" />
<glyph unicode="&#xd6;" horiz-adv-x="821" d="M213 350Q213 412 237 459T306 534T411 561Q472 561 516 534T584 460T608 350Q608 288 584 241T515 166T411 139Q351 139 307 166T238 240T213 350ZM34 350Q34 269 61 201T139 83T259 6T411 -22Q493 -22 562 5T681
83T759 201T787 350Q787 431 759 498T680 614T561 689T411 716Q331 716 262 690T142 614T63 498T34 350ZM444 858Q444 822 470 799T532 776Q569 776 594 799T620 858Q620 894 595 917T532 940Q496 940 470 917T444 858ZM201 858Q201 822 226 799T289 776Q325 776
351 799T377 858Q377 894 351 917T289 940Q252 940 227 917T201 858Z" />
<glyph unicode="&#xd7;" horiz-adv-x="596" d="M140 3L298 166L456 3L550 97L387 255L550 413L456 507L298 344L140 507L46 413L209 255L46 97L140 3Z" />
<glyph unicode="&#xd8;" horiz-adv-x="790" d="M213 350Q213 413 237 460T306 534T411 561Q470 561 514 535T583 461T608 350Q608 287 584 240T515 166T411 139Q351 139 307 165T238 239T213 350ZM34 350Q34 269 62 201T141 83T261 6T411 -22Q492 -22 560 5T680
83T759 201T787 350Q787 431 759 498T680 614T561 689T411 716Q330 716 261 690T141 614T62 498T34 350ZM697 756L49 -4L120 -56L769 704L697 756Z" />
<glyph unicode="&#xd9;" horiz-adv-x="701" d="M69 700V230Q69 164 90 115T150 35T240 -13T350 -29Q409 -29 460 -13T550 34T610 115T632 230V700H463V242Q463 189 435 156T350 123Q294 123 266 156T238 242V700H69ZM189 926L369 776L455 819L305 979L189 926Z" />
<glyph unicode="&#xda;" horiz-adv-x="701" d="M69 700V230Q69 164 90 115T150 35T240 -13T350 -29Q409 -29 460 -13T550 34T610 115T632 230V700H463V242Q463 189 435 156T350 123Q294 123 266 156T238 242V700H69ZM511 926L396 979L246 819L331 776L511 926Z" />
<glyph unicode="&#xdb;" horiz-adv-x="701" d="M69 700V230Q69 164 90 115T150 35T240 -13T350 -29Q409 -29 460 -13T550 34T610 115T632 230V700H463V242Q463 189 435 156T350 123Q294 123 266 156T238 242V700H69ZM350 862L442 776L548 847L350 987L153 847L259
776L350 862Z" />
<glyph unicode="&#xdc;" horiz-adv-x="701" d="M69 700V230Q69 164 90 115T150 35T240 -13T350 -29Q409 -29 460 -13T550 34T610 115T632 230V700H463V242Q463 189 435 156T350 123Q294 123 266 156T238 242V700H69ZM403 858Q403 822 428 799T491 776Q527 776
553 799T579 858Q579 894 553 917T491 940Q454 940 429 917T403 858ZM122 858Q122 822 148 799T210 776Q247 776 272 799T298 858Q298 894 273 917T210 940Q174 940 148 917T122 858Z" />
<glyph unicode="&#xdd;" horiz-adv-x="660" d="M491 926L376 979L226 819L311 776L491 926ZM467 700L330 437L193 700H-1L244 284V0H416V285L661 700H467Z" />
<glyph unicode="&#xde;" horiz-adv-x="612" d="M80 700V0H227V700H80ZM174 446H310Q349 446 376 437T417 407T432 353Q432 319 418 299T376 270T310 260H174V128H310Q400 128 460 154T552 232T583 353Q583 424 552 474T461 552T310 579H174V446Z" />
<glyph unicode="&#xdf;" horiz-adv-x="603" d="M373 -12Q417 -12 458 4T532 48T584 113T603 193Q603 229 593 254T565 296T528 327T492 350T464 373T453 401Q453 418 462 433T484 465T510 500T532 547T541 611Q541 671 509 713T422 776T300 797Q219 797 163 769T76
686T46 553L47 -2H198L197 551Q197 590 208 614T242 650T295 662Q321 662 341 654T372 628T384 582Q384 556 375 535T353 496T326 462T303 427T294 386Q294 363 305 346T333 316T370 290T407 265T435 234T446 192Q446 169 435 151T405 121T360 110Q345 110 327
114T293 126T263 143L232 28Q249 17 272 8T320 -7T373 -12Z" />
<glyph unicode="&#xe0;" horiz-adv-x="544" d="M176 137Q176 156 185 169T213 189T258 197Q297 197 324 188T378 159V230Q368 241 345 252T290 271T223 279Q165 279 120 261T50 210T24 128Q24 85 44 54T103 7T191 -10Q239 -10 277 6T338 54T361 130L345 186Q345
149 331 128T294 98T242 89Q223 89 208 94T185 110T176 137ZM117 318Q128 325 150 334T201 351T264 358Q302 358 323 341T345 294V0H490V324Q490 372 463 405T387 455T276 473Q214 473 160 456T66 420L117 318ZM104 683L284 533L369 576L219 736L104 683Z" />
<glyph unicode="&#xe1;" horiz-adv-x="544" d="M176 137Q176 156 185 169T213 189T258 197Q297 197 324 188T378 159V230Q368 241 345 252T290 271T223 279Q165 279 120 261T50 210T24 128Q24 85 44 54T103 7T191 -10Q239 -10 277 6T338 54T361 130L345 186Q345
149 331 128T294 98T242 89Q223 89 208 94T185 110T176 137ZM117 318Q128 325 150 334T201 351T264 358Q302 358 323 341T345 294V0H490V324Q490 372 463 405T387 455T276 473Q214 473 160 456T66 420L117 318ZM448 683L333 736L183 576L268 533L448 683Z" />
<glyph unicode="&#xe2;" horiz-adv-x="544" d="M176 137Q176 156 185 169T213 189T258 197Q297 197 324 188T378 159V230Q368 241 345 252T290 271T223 279Q165 279 120 261T50 210T24 128Q24 85 44 54T103 7T191 -10Q239 -10 277 6T338 54T361 130L345 186Q345
149 331 128T294 98T242 89Q223 89 208 94T185 110T176 137ZM117 318Q128 325 150 334T201 351T264 358Q302 358 323 341T345 294V0H490V324Q490 372 463 405T387 455T276 473Q214 473 160 456T66 420L117 318ZM276 619L367 533L473 604L276 744L79 604L185 533L276
619Z" />
<glyph unicode="&#xe3;" horiz-adv-x="544" d="M176 137Q176 156 185 169T213 189T258 197Q297 197 324 188T378 159V230Q368 241 345 252T290 271T223 279Q165 279 120 261T50 210T24 128Q24 85 44 54T103 7T191 -10Q239 -10 277 6T338 54T361 130L345 186Q345
149 331 128T294 98T242 89Q223 89 208 94T185 110T176 137ZM117 318Q128 325 150 334T201 351T264 358Q302 358 323 341T345 294V0H490V324Q490 372 463 405T387 455T276 473Q214 473 160 456T66 420L117 318ZM80 599L152 537Q152 545 155 557T169 578T198 588Q223
588 244 575T288 548T338 535Q369 535 396 548T444 582T472 620L401 694Q386 670 371 656T336 641Q315 641 300 649T272 667T241 685T199 693Q168 693 143 680T101 645T80 599Z" />
<glyph unicode="&#xe4;" horiz-adv-x="544" d="M176 137Q176 156 185 169T213 189T258 197Q297 197 324 188T378 159V230Q368 241 345 252T290 271T223 279Q165 279 120 261T50 210T24 128Q24 85 44 54T103 7T191 -10Q239 -10 277 6T338 54T361 130L345 186Q345
149 331 128T294 98T242 89Q223 89 208 94T185 110T176 137ZM117 318Q128 325 150 334T201 351T264 358Q302 358 323 341T345 294V0H490V324Q490 372 463 405T387 455T276 473Q214 473 160 456T66 420L117 318ZM310 615Q310 579 335 556T398 533Q434 533 460 556T486
615Q486 651 460 674T398 697Q361 697 336 674T310 615ZM66 615Q66 579 92 556T154 533Q191 533 216 556T242 615Q242 651 217 674T154 697Q118 697 92 674T66 615Z" />
<glyph unicode="&#xe5;" horiz-adv-x="544" d="M176 137Q176 156 185 169T213 189T258 197Q297 197 324 188T378 159V230Q368 241 345 252T290 271T223 279Q165 279 120 261T50 210T24 128Q24 85 44 54T103 7T191 -10Q239 -10 277 6T338 54T361 130L345 186Q345
149 331 128T294 98T242 89Q223 89 208 94T185 110T176 137ZM117 318Q128 325 150 334T201 351T264 358Q302 358 323 341T345 294V0H490V324Q490 372 463 405T387 455T276 473Q214 473 160 456T66 420L117 318ZM151 649Q151 597 187 565T275 533Q327 533 364 565T401
649Q401 700 364 732T275 764Q223 764 187 732T151 649ZM229 649Q229 671 242 684T275 697Q294 697 308 684T322 649Q322 626 308 614T275 601Q256 601 243 613T229 649Z" />
<glyph unicode="&#xe6;" horiz-adv-x="896" d="M217 -10Q300 -10 354 19T424 103H412Q438 45 488 18T616 -10Q704 -10 764 23T863 126L728 159Q712 130 682 115T613 99Q580 99 557 112T522 151T507 216L487 198H859Q860 202 860 213T861 237Q861 310 835 362T758
442T636 470Q589 470 549 458T477 421T425 360H437Q430 418 390 445T276 473Q225 473 174 460T66 420L117 318Q137 330 162 339T215 353T264 358Q304 358 324 339T345 283V224H415Q351 255 309 267T223 279Q164 279 119 260T49 208T24 128Q24 63 75 27T217 -10ZM242
89Q208 89 192 101T176 137Q176 167 196 182T258 197Q287 197 315 190T366 168L344 195L349 133V186Q346 138 319 114T242 89ZM507 236Q507 279 519 308T554 353T610 369Q639 369 659 357T690 322T701 266Q701 261 701 259T699 250L722 282H487L507 236Z" />
<glyph unicode="&#xe7;" horiz-adv-x="494" d="M186 230Q186 264 202 291T246 334T308 350Q333 350 359 342T407 319T444 282V430Q420 447 384 458T296 470Q220 470 160 440T65 357T30 230Q30 158 64 104T159 20T296 -10Q348 -10 384 1T444 32V179Q430 157 409
142T362 119T308 110Q275 110 247 125T202 166T186 230ZM237 61L150 -134Q176 -123 200 -121T232 -118Q255 -118 273 -124T292 -150Q292 -168 278 -176T238 -185Q223 -185 201 -180T160 -160L114 -228Q149 -251 182 -259T258 -268Q290 -268 319 -256T369 -219T389
-159Q389 -126 375 -104T339 -72T298 -61Q287 -61 278 -61T261 -65L347 57L237 61Z" />
<glyph unicode="&#xe8;" horiz-adv-x="573" d="M117 198H537Q539 210 539 220T539 237Q539 310 511 362T427 442T291 470Q216 470 163 446T78 379T36 279Q34 267 33 255T32 230Q32 161 62 107T151 21T293 -10Q360 -10 406 6T485 53T540 126L405 159Q394 140 378
127T341 106T291 99Q261 99 237 112T199 154T184 230L186 254Q186 291 199 316T234 355T288 369Q315 369 333 359T362 329T377 282H117V198ZM126 684L306 534L391 577L241 737L126 684Z" />
<glyph unicode="&#xe9;" horiz-adv-x="573" d="M117 198H537Q539 210 539 220T539 237Q539 310 511 362T427 442T291 470Q216 470 163 446T78 379T36 279Q34 267 33 255T32 230Q32 161 62 107T151 21T293 -10Q360 -10 406 6T485 53T540 126L405 159Q394 140 378
127T341 106T291 99Q261 99 237 112T199 154T184 230L186 254Q186 291 199 316T234 355T288 369Q315 369 333 359T362 329T377 282H117V198ZM463 684L348 737L198 577L283 534L463 684Z" />
<glyph unicode="&#xea;" horiz-adv-x="573" d="M117 198H537Q539 210 539 220T539 237Q539 310 511 362T427 442T291 470Q216 470 163 446T78 379T36 279Q34 267 33 255T32 230Q32 161 62 107T151 21T293 -10Q360 -10 406 6T485 53T540 126L405 159Q394 140 378
127T341 106T291 99Q261 99 237 112T199 154T184 230L186 254Q186 291 199 316T234 355T288 369Q315 369 333 359T362 329T377 282H117V198ZM291 616L382 531L488 602L291 742L94 602L200 531L291 616Z" />
<glyph unicode="&#xeb;" horiz-adv-x="573" d="M117 198H537Q539 210 539 220T539 237Q539 310 511 362T427 442T291 470Q216 470 163 446T78 379T36 279Q34 267 33 255T32 230Q32 161 62 107T151 21T293 -10Q360 -10 406 6T485 53T540 126L405 159Q394 140 378
127T341 106T291 99Q261 99 237 112T199 154T184 230L186 254Q186 291 199 316T234 355T288 369Q315 369 333 359T362 329T377 282H117V198ZM325 612Q325 577 350 554T413 531Q449 531 475 554T501 612Q501 648 475 671T413 694Q376 694 351 671T325 612ZM81 612Q81
577 107 554T169 531Q206 531 231 554T257 612Q257 648 232 671T169 694Q133 694 107 671T81 612Z" />
<glyph unicode="&#xec;" horiz-adv-x="276" d="M65 460V0H211V460H65ZM-42 688L138 538L223 581L73 741L-42 688Z" />
<glyph unicode="&#xed;" horiz-adv-x="276" d="M65 460V0H211V460H65ZM310 688L194 741L44 581L130 538L310 688Z" />
<glyph unicode="&#xee;" horiz-adv-x="276" d="M65 460V0H211V460H65ZM137 620L229 534L335 605L137 745L-60 605L46 534L137 620Z" />
<glyph unicode="&#xef;" horiz-adv-x="276" d="M65 460V0H211V460H65ZM172 624Q172 588 198 565T260 542Q296 542 322 565T348 624Q348 660 322 682T260 705Q224 705 198 683T172 624ZM-72 624Q-72 588 -46 565T16 542Q53 542 78 565T104 624Q104 660 79 682T16
705Q-20 705 -46 683T-72 624Z" />
<glyph unicode="&#xf0;" horiz-adv-x="626" d="M310 -16Q387 -16 447 18T542 111T577 246Q577 289 564 336T525 433T460 536T368 645T251 760L139 685Q190 647 234 608T315 526T385 439T442 345L485 344Q389 473 261 473Q198 473 151 445T77 365T50 246Q50 169
83 110T176 18T310 -16ZM313 115Q281 115 257 130T220 171T206 230Q206 264 220 290T258 331T313 346Q344 346 368 331T406 290T420 230Q420 197 407 171T369 130T313 115ZM157 507L505 619L488 674L140 562L157 507Z" />
<glyph unicode="&#xf1;" horiz-adv-x="575" d="M211 460H59V0H211V460ZM358 280V0H515V296Q515 381 476 426T351 471Q294 471 257 445T200 374T181 274L211 280Q211 307 221 325T249 354T291 365Q328 365 343 343T358 280ZM92 596L163 534Q163 542 167 554T181
575T210 585Q235 585 256 572T300 546T349 532Q381 532 408 545T456 579T484 618L413 692Q398 668 382 654T347 639Q326 639 311 647T283 665T252 683T211 691Q179 691 154 677T113 642T92 596Z" />
<glyph unicode="&#xf2;" horiz-adv-x="589" d="M32 230Q32 158 66 104T160 20T295 -10Q370 -10 429 20T523 104T558 230Q558 303 524 357T430 441T295 471Q220 471 160 441T66 357T32 230ZM187 230Q187 266 202 292T241 332T295 346Q324 346 348 332T387 292T402
230Q402 194 388 169T349 129T295 115Q265 115 241 129T202 168T187 230ZM135 688L315 538L400 581L250 741L135 688Z" />
<glyph unicode="&#xf3;" horiz-adv-x="589" d="M32 230Q32 158 66 104T160 20T295 -10Q370 -10 429 20T523 104T558 230Q558 303 524 357T430 441T295 471Q220 471 160 441T66 357T32 230ZM187 230Q187 266 202 292T241 332T295 346Q324 346 348 332T387 292T402
230Q402 194 388 169T349 129T295 115Q265 115 241 129T202 168T187 230ZM455 688L339 741L189 581L275 538L455 688Z" />
<glyph unicode="&#xf4;" horiz-adv-x="589" d="M32 230Q32 158 66 104T160 20T295 -10Q370 -10 429 20T523 104T558 230Q558 303 524 357T430 441T295 471Q220 471 160 441T66 357T32 230ZM187 230Q187 266 202 292T241 332T295 346Q324 346 348 332T387 292T402
230Q402 194 388 169T349 129T295 115Q265 115 241 129T202 168T187 230ZM295 624L386 538L492 609L295 749L97 609L203 538L295 624Z" />
<glyph unicode="&#xf5;" horiz-adv-x="589" d="M32 230Q32 158 66 104T160 20T295 -10Q370 -10 429 20T523 104T558 230Q558 303 524 357T430 441T295 471Q220 471 160 441T66 357T32 230ZM187 230Q187 266 202 292T241 332T295 346Q324 346 348 332T387 292T402
230Q402 194 388 169T349 129T295 115Q265 115 241 129T202 168T187 230ZM99 596L170 534Q170 542 174 554T188 575T217 585Q242 585 263 572T307 546T357 532Q388 532 415 545T463 579T491 618L420 692Q405 668 390 654T355 639Q333 639 319 647T291 665T260 683T218
691Q187 691 162 677T120 642T99 596Z" />
<glyph unicode="&#xf6;" horiz-adv-x="589" d="M32 230Q32 158 66 104T160 20T295 -10Q370 -10 429 20T523 104T558 230Q558 303 524 357T430 441T295 471Q220 471 160 441T66 357T32 230ZM187 230Q187 266 202 292T241 332T295 346Q324 346 348 332T387 292T402
230Q402 194 388 169T349 129T295 115Q265 115 241 129T202 168T187 230ZM329 624Q329 588 354 565T416 542Q453 542 478 565T504 624Q504 660 479 682T416 705Q380 705 355 683T329 624ZM85 624Q85 588 111 565T173 542Q210 542 235 565T261 624Q261 660 236 682T173
705Q137 705 111 683T85 624Z" />
<glyph unicode="&#xf7;" horiz-adv-x="640" d="M225 553Q225 515 252 488T319 460Q361 460 387 487T413 553Q413 590 387 617T319 645Q279 645 252 618T225 553ZM225 98Q225 60 252 33T319 6Q361 6 387 33T413 98Q413 136 387 163T319 190Q279 190 252 163T225
98ZM26 259H613V395H26V259Z" />
<glyph unicode="&#xf8;" d="M32 230Q32 155 67 101T161 19T295 -10Q369 -10 428 18T523 101T558 230Q558 306 523 359T429 441T295 470Q221 470 162 442T67 360T32 230ZM175 230Q175 266 191 293T235 336T295 352Q327 352 354 337T398 294T414 230Q414 191 398
164T355 123T295 108Q262 108 235 122T192 164T175 230ZM456 506L66 -18L123 -50L513 474L456 506Z" />
<glyph unicode="&#xf9;" horiz-adv-x="575" d="M364 0H515V460H364V0ZM217 180V460H59V164Q59 79 98 34T224 -11Q281 -11 318 15T375 87T394 186L364 180Q364 153 354 135T327 106T284 95Q247 95 232 117T217 180ZM142 688L322 538L408 581L258 741L142 688Z" />
<glyph unicode="&#xfa;" horiz-adv-x="575" d="M364 0H515V460H364V0ZM217 180V460H59V164Q59 79 98 34T224 -11Q281 -11 318 15T375 87T394 186L364 180Q364 153 354 135T327 106T284 95Q247 95 232 117T217 180ZM432 688L317 741L167 581L252 538L432 688Z" />
<glyph unicode="&#xfb;" horiz-adv-x="575" d="M364 0H515V460H364V0ZM217 180V460H59V164Q59 79 98 34T224 -11Q281 -11 318 15T375 87T394 186L364 180Q364 153 354 135T327 106T284 95Q247 95 232 117T217 180ZM287 624L378 538L484 609L287 749L90 609L195
538L287 624Z" />
<glyph unicode="&#xfc;" horiz-adv-x="575" d="M364 0H515V460H364V0ZM217 180V460H59V164Q59 79 98 34T224 -11Q281 -11 318 15T375 87T394 186L364 180Q364 153 354 135T327 106T284 95Q247 95 232 117T217 180ZM322 620Q322 584 347 561T409 538Q446 538 472
561T498 620Q498 656 472 679T409 702Q373 702 348 679T322 620ZM78 620Q78 584 103 561T166 538Q202 538 228 561T254 620Q254 656 228 679T166 702Q129 702 104 679T78 620Z" />
<glyph unicode="&#xfd;" horiz-adv-x="521" d="M530 460H375L228 92L306 91L157 460H-9L190 37L78 -220H230L530 460ZM421 688L306 741L156 581L241 538L421 688Z" />
<glyph unicode="&#xfe;" horiz-adv-x="617" d="M209 -220V780H58V-220H209ZM585 230Q585 308 554 361T473 442T366 470Q309 470 264 441T193 359T167 230Q167 156 193 102T264 19T366 -10Q423 -10 472 18T553 99T585 230ZM426 230Q426 194 411 168T371 127T316
112Q290 112 266 126T225 166T209 230Q209 267 225 293T265 334T316 348Q346 348 371 334T411 293T426 230Z" />
<glyph unicode="&#xff;" horiz-adv-x="521" d="M530 460H375L228 92L306 91L157 460H-9L190 37L78 -220H230L530 460ZM294 612Q294 577 320 554T382 531Q419 531 444 554T470 612Q470 648 445 671T382 694Q346 694 320 671T294 612ZM51 612Q51 577 76 554T139
531Q175 531 201 554T227 612Q227 648 201 671T139 694Q102 694 77 671T51 612Z" />
<glyph unicode="&#x2013;" horiz-adv-x="783" d="M70 172H707V303H70V172Z" />
<glyph unicode="&#x2014;" horiz-adv-x="940" d="M70 172H867V303H70V172Z" />
<glyph unicode="&#x2018;" horiz-adv-x="331" d="M227 445L281 700H173L70 445H227Z" />
<glyph unicode="&#x2019;" horiz-adv-x="331" d="M104 700L50 445H158L261 700H104Z" />
<glyph unicode="&#x201a;" horiz-adv-x="331" d="M114 80L60 -175H168L271 80H114Z" />
<glyph unicode="&#x201c;" horiz-adv-x="562" d="M227 445L281 700H173L70 445H227ZM458 445L512 700H404L301 445H458Z" />
<glyph unicode="&#x201d;" horiz-adv-x="562" d="M104 700L50 445H158L261 700H104ZM335 700L281 445H389L492 700H335Z" />
<glyph unicode="&#x201e;" horiz-adv-x="562" d="M104 80L50 -175H158L261 80H104ZM335 80L281 -175H389L492 80H335Z" />
<glyph unicode="&#x2022;" horiz-adv-x="300" d="M67 443Q67 405 94 378T161 351Q203 351 229 378T255 443Q255 481 229 508T161 535Q121 535 94 508T67 443Z" />
<glyph unicode="&#x2039;" horiz-adv-x="350" d="M149 259L299 445L205 509L28 255L205 1L299 65L149 259Z" />
<glyph unicode="&#x203a;" horiz-adv-x="350" d="M201 251L51 65L145 1L322 255L145 509L51 445L201 251Z" />
</font>
</defs>
</svg>
