<?xml version="1.0" standalone="no"?>
<!DOCTYPE svg PUBLIC "-//W3C//DTD SVG 1.1//EN" "http://www.w3.org/Graphics/SVG/1.1/DTD/svg11.dtd">
<svg xmlns="http://www.w3.org/2000/svg">
<defs >
<font id="Jost" horiz-adv-x="531" ><font-face
    font-family="Jost"
    units-per-em="1000"
    panose-1="0 0 0 0 0 0 0 0 0 0"
    ascent="1070"
    descent="-375"
    alphabetic="0" />
<glyph unicode=" " horiz-adv-x="301" />
<glyph unicode="!" horiz-adv-x="291" d="M188 700L124 201H184L288 700H188ZM71 40Q71 18 87 2T126 -15Q149 -15 165 1T181 40Q181 63 165 79T126 95Q104 95 88 79T71 40Z" />
<glyph unicode="&quot;" horiz-adv-x="451" d="M216 700L122 401H177L312 700H216ZM390 700L296 401H351L486 700H390Z" />
<glyph unicode="#" horiz-adv-x="587" d="M121 441L255 440H268H455H468L602 441L613 505H131L121 441ZM41 201H523L533 265H406H386H192H177H51L41 201ZM532 700L442 478L436 462L349 246L341 228L248 0H323L609 700H532ZM328 700L46 0H119L212 226L219 244L309
466L316 482L405 700H328Z" />
<glyph unicode="$" horiz-adv-x="563" d="M360 818L337 669H409L433 818H360ZM242 48L217 -111H289L314 48H242ZM491 514L564 559Q553 598 528 632T464 688T374 710Q321 710 273 688T193 628T153 541Q146 486 166 447T221 381T295 338Q331 323 364 304T416 255T428
183Q423 150 405 125T358 85T292 71Q249 71 220 92T172 149T140 226L64 184Q79 130 108 87T180 17T280 -9Q345 -9 395 16T476 86T516 190Q523 246 503 285T447 352T373 396Q346 407 321 419T275 447T245 484T239 534Q244 564 261 585T305 618T368 629Q404 629 427
612T465 569T491 514Z" />
<glyph unicode="%" horiz-adv-x="729" d="M100 551Q94 509 108 473T153 414T230 391Q276 391 314 413T377 471T409 550Q415 592 401 628T356 687T279 710Q233 710 195 688T132 630T100 551ZM170 550Q174 574 188 596T225 632T273 645Q300 644 315 630T337 595T339
550Q335 526 321 504T285 469T236 456Q210 457 194 471T173 506T170 550ZM386 151Q380 109 394 73T439 14T516 -9Q562 -9 600 13T663 71T694 150Q700 192 687 228T642 287T565 310Q519 310 481 288T418 230T386 151ZM456 150Q460 174 474 196T511 232T559 245Q585
244 601 230T623 195T625 150Q621 126 607 104T571 69T522 56Q496 57 480 71T459 106T456 150ZM637 700L82 0H157L715 700H637Z" />
<glyph unicode="&amp;" horiz-adv-x="655" d="M260 384L528 0H618L324 425Q309 447 294 468T269 511T264 556Q268 580 281 599T316 629T363 640Q389 640 405 628T429 597T432 554Q427 526 406 502T355 456T291 417Q265 403 235 388T174 354T117 311T73 256T49
183Q42 126 67 83T140 16T242 -9Q311 -10 370 16T482 84T581 176T671 276L614 315Q577 273 536 229T450 147T355 87T253 65Q216 66 187 81T144 124T134 188Q140 226 161 253T214 300T279 337T342 370Q384 394 420 422T481 482T512 554Q518 596 502 631T452 689T370
711Q323 711 282 692T214 638T181 557Q177 521 190 491T224 434T260 384Z" />
<glyph unicode="&apos;" horiz-adv-x="277" d="M216 700L122 401H177L312 700H216Z" />
<glyph unicode="(" horiz-adv-x="301" d="M301 779Q227 669 181 545T114 290Q96 167 104 43T152 -200H225Q191 -81 188 43T203 290Q224 420 266 543T375 779H301Z" />
<glyph unicode=")" horiz-adv-x="301" d="M56 -199Q130 -89 176 35T242 290Q260 414 253 538T204 781H131Q165 663 168 539T153 290Q133 161 91 38T-19 -199H56Z" />
<glyph unicode="*" horiz-adv-x="575" d="M532 599L343 530L351 482L542 532L532 599ZM462 367L367 520L324 491L401 327L462 367ZM234 328L364 488L328 519L183 370L234 328ZM160 533L336 482L359 529L191 598L160 533ZM346 700L322 506H371L415 700H346Z" />
<glyph unicode="+" horiz-adv-x="597" d="M73 216L545 215L559 295H86L73 216ZM314 500L232 11L314 10L400 500H314Z" />
<glyph unicode="," horiz-adv-x="299" d="M134 109L5 -148L60 -169L210 78L134 109Z" />
<glyph unicode="-" horiz-adv-x="204" d="M12 201H208L221 275H25L12 201Z" />
<glyph unicode="." horiz-adv-x="291" d="M71 40Q71 18 87 2T125 -14Q148 -14 164 2T180 40Q180 63 164 79T125 95Q103 95 87 79T71 40Z" />
<glyph unicode="/" horiz-adv-x="500" d="M498 700L-38 -149H41L580 700H498Z" />
<glyph unicode="0" horiz-adv-x="582" d="M155 350Q162 401 180 451T226 541T291 606T375 630Q412 629 436 612T473 566T492 501T498 426T493 350Q486 299 468 249T422 159T357 94T273 71Q236 71 212 88T175 135T156 200T150 275T155 350ZM71 350Q65 300 67 249T81
152T117 69T177 12T266 -9Q329 -9 382 21T475 102T542 218T577 350Q583 400 581 451T567 549T531 631T471 689T382 710Q319 710 266 680T173 599T106 483T71 350Z" />
<glyph unicode="1" horiz-adv-x="437" d="M145 562L304 607L200 0H284L406 711L161 651L145 562Z" />
<glyph unicode="2" horiz-adv-x="552" d="M2 0H483L496 80L187 81L438 307Q482 348 516 400T558 509Q566 557 546 603T482 680T370 711Q297 711 244 677T157 587T112 461H195Q204 507 225 546T281 608T363 631Q402 631 428 613T465 566T472 506Q468 477 454 451T420
400T376 353L2 0Z" />
<glyph unicode="3" horiz-adv-x="530" d="M282 346Q329 348 371 360T446 395T502 450T531 524Q538 573 520 615T463 683T368 710Q311 710 266 686T191 621T151 527H231Q239 556 257 580T303 619T363 633Q396 633 416 617T443 576T446 521Q440 486 418 460T363
418T289 400L282 346ZM259 -9Q319 -9 370 15T456 83T499 185Q506 235 492 271T447 331T375 367T286 380L278 325Q309 323 336 315T382 291T411 252T415 195Q410 159 389 131T337 87T266 71Q228 71 202 86T164 126T153 185H69Q65 130 86 86T151 17T259 -9Z" />
<glyph unicode="4" horiz-adv-x="566" d="M17 141L535 140L548 215H405H388L167 216L406 506L352 187L350 176L319 0H403L523 700L487 699L17 141Z" />
<glyph unicode="5" horiz-adv-x="547" d="M528 230Q536 291 519 344T461 432T358 466Q331 466 305 459T254 440L332 625H586L599 700H276L131 328Q180 358 223 375T316 390Q361 389 391 367T434 310T441 230Q434 185 410 149T349 92T262 71Q207 71 168 105T109
186L33 138Q62 74 116 33T255 -9Q307 -9 353 8T436 56T497 132T528 230Z" />
<glyph unicode="6" horiz-adv-x="559" d="M146 230Q153 275 178 312T242 372T326 395Q371 395 401 371T444 310T450 230Q443 186 418 149T354 90T270 68Q226 68 196 91T153 151T146 230ZM409 700L130 375Q106 346 89 309T66 230Q58 165 80 111T149 24T264 -9Q332
-9 389 22T483 108T530 230Q537 288 519 339T460 423T361 457Q329 457 302 448T252 418L259 412L518 700H409Z" />
<glyph unicode="7" horiz-adv-x="509" d="M106 620H458L74 0H164L598 700H119L106 620Z" />
<glyph unicode="8" horiz-adv-x="530" d="M141 532Q135 493 144 461T174 406T228 369T302 356Q343 356 379 368T445 404T492 459T517 531Q522 567 513 599T481 656T427 695T356 710Q303 710 257 686T180 622T141 532ZM218 521Q224 552 242 578T289 620T349 635Q381
635 402 619T432 577T436 521Q431 491 411 466T364 426T305 411Q275 412 254 427T224 467T218 521ZM58 191Q52 151 63 115T98 51T159 7T239 -9Q284 -9 325 6T400 48T454 112T483 190Q489 234 478 271T442 334T381 375T302 390Q258 390 217 376T143 336T87 273T58
191ZM139 200Q146 236 170 267T228 317T298 335Q334 335 360 316T398 266T405 200Q399 161 375 131T317 83T246 66Q210 67 184 84T146 132T139 200Z" />
<glyph unicode="9" horiz-adv-x="559" d="M487 470Q480 426 455 389T391 329T307 306Q262 306 232 329T190 390T183 470Q190 515 215 552T279 611T363 633Q408 633 438 610T481 550T487 470ZM224 0L503 325Q527 354 544 391T567 470Q576 536 554 590T484 677T369
710Q302 710 245 679T150 593T103 470Q96 413 114 362T173 278T272 244Q304 243 331 252T381 282L374 289L115 0H224Z" />
<glyph unicode=":" horiz-adv-x="291" d="M71 40Q71 18 87 2T125 -14Q148 -14 164 2T180 40Q180 63 164 79T125 95Q103 95 87 79T71 40ZM136 420Q136 398 152 382T190 366Q213 366 229 382T245 420Q245 443 229 459T190 475Q168 475 152 459T136 420Z" />
<glyph unicode=";" horiz-adv-x="320" d="M165 420Q165 398 181 382T220 366Q243 366 258 382T274 420Q274 443 259 459T220 475Q198 475 182 459T165 420ZM134 109L5 -148L60 -169L210 78L134 109Z" />
<glyph unicode="&lt;" horiz-adv-x="621" d="M209 259L604 418L619 501L83 280L76 236L535 16L548 91L209 259Z" />
<glyph unicode="=" horiz-adv-x="597" d="M61 141L532 140L545 215H73L61 141ZM86 291L558 290L571 365H98L86 291Z" />
<glyph unicode="&gt;" horiz-adv-x="621" d="M446 257L51 98L37 14L572 235L579 280L121 499L107 424L446 257Z" />
<glyph unicode="?" horiz-adv-x="541" d="M462 500Q453 458 423 423T347 368T247 345H223L214 171H273L302 290Q359 297 410 324T497 397T542 500Q548 542 538 580T504 647T444 693T362 710Q282 711 228 678T132 595L191 553Q220 587 258 611T345 635Q388 635
416 618T456 570T462 500ZM168 40Q168 18 183 2T223 -14Q246 -14 261 2T277 40Q277 61 262 78T223 95Q200 95 184 79T168 40Z" />
<glyph unicode="@" horiz-adv-x="747" d="M286 320Q291 357 311 389T360 441T421 460Q446 460 462 448T484 415T488 370Q483 328 461 296T409 247T347 231Q321 232 307 244T288 276T286 320ZM211 318Q206 276 217 241T255 184T321 161Q373 160 416 188T487 263T523
370Q528 406 522 442T493 504T428 530Q379 532 332 503T251 426T211 318ZM61 320Q51 251 62 192T108 87T197 17T329 -9Q403 -10 459 6T565 49L539 107Q490 81 439 68T334 56Q257 57 208 92T139 188T130 320Q141 385 172 444T250 548T358 619T489 645Q548 644 589
623T654 565T685 483T685 390Q682 357 669 325T636 267T597 227T557 217Q543 219 537 225T529 242T529 262Q530 269 532 276T536 289L617 520H542L465 271H472Q466 242 470 215T491 170T541 150Q578 149 613 166T678 217T728 294T754 390Q764 449 752 506T707 609T621
682T494 710Q410 710 337 680T207 595T111 470T61 320Z" />
<glyph unicode="A" horiz-adv-x="640" d="M152 210H512L496 290H193L152 210ZM388 542L455 260L459 240L517 0H608L419 737L-25 0H71L215 246L226 264L388 542Z" />
<glyph unicode="B" horiz-adv-x="542" d="M179 371H291Q348 372 396 389T477 440T518 525Q525 568 515 600T480 655T420 688T342 700H170L50 0H238Q304 0 360 23T454 93T502 205Q509 252 496 286T454 344T385 378T299 390H182L174 344L296 343Q338 343 368 327T412
281T419 210Q412 169 387 139T326 92T245 76L147 75L241 625H335Q383 624 412 596T433 520Q428 488 408 465T358 430T294 417H186L179 371Z" />
<glyph unicode="C" horiz-adv-x="665" d="M160 350Q169 407 196 456T265 544T356 603T461 625Q528 625 578 598T660 521L678 633Q636 673 587 692T470 710Q395 710 328 682T207 604T118 489T71 350Q61 280 76 215T128 100T222 20T353 -10Q424 -10 479 10T583 67L600
178Q554 135 494 105T361 76Q307 76 266 99T199 160T162 248T160 350Z" />
<glyph unicode="D" horiz-adv-x="660" d="M169 700L51 0H133L254 700H169ZM258 0Q335 0 402 26T521 100T608 211T655 350Q666 422 651 485T599 597T504 672T371 700H215L200 615H362Q420 615 463 595T533 538T570 453T571 350Q558 273 516 213T409 119T266 85H110L95
0H258Z" />
<glyph unicode="E" horiz-adv-x="534" d="M97 0H441L454 80H110L97 0ZM203 620H546L560 700H216L203 620ZM155 341H479L493 420H168L155 341ZM169 700L51 0H133L254 700H169Z" />
<glyph unicode="F" horiz-adv-x="485" d="M203 620H508L521 700H216L203 620ZM155 341L450 340L464 420H168L155 341ZM169 700L51 0H133L254 700H169Z" />
<glyph unicode="G" horiz-adv-x="752" d="M412 275H635Q618 236 593 200T535 136T459 92T366 76Q310 76 268 98T199 159T162 247T160 350Q169 407 196 457T265 544T358 603T466 625Q538 625 590 595T669 507L735 560Q698 634 631 672T475 710Q398 710 330 682T207
605T118 491T71 350Q61 279 75 214T128 99T224 19T358 -10Q438 -10 503 20T617 101T697 218T742 355H426L412 275Z" />
<glyph unicode="H" horiz-adv-x="694" d="M155 341H622L635 420H168L155 341ZM625 700L507 0H589L711 700H625ZM169 700L51 0H133L254 700H169Z" />
<glyph unicode="I" horiz-adv-x="238" d="M169 700L51 0H133L254 700H169Z" />
<glyph unicode="J" horiz-adv-x="233" d="M-112 -104L-164 -169Q-148 -188 -120 -203T-55 -219Q-7 -219 29 -200T88 -144T120 -60L249 700H170L41 -50Q36 -90 12 -114T-42 -140Q-66 -141 -83 -131T-112 -104Z" />
<glyph unicode="K" horiz-adv-x="548" d="M169 700L51 0H133L254 700H169ZM517 700L171 373L416 0H515L271 370L624 700H517Z" />
<glyph unicode="L" horiz-adv-x="437" d="M170 700L50 0H401L415 80H148L254 700H170Z" />
<glyph unicode="M" horiz-adv-x="786" d="M227 473L378 64L667 469L637 0H720L766 739L404 230L220 736L10 0H95L227 473Z" />
<glyph unicode="N" horiz-adv-x="752" d="M684 700L594 179L175 734L49 0H134L224 522L642 -34L768 700H684Z" />
<glyph unicode="O" horiz-adv-x="767" d="M160 350Q169 406 196 456T264 544T356 603T466 625Q523 625 565 602T635 540T671 452T673 350Q664 294 637 245T568 157T476 98T366 76Q309 76 267 99T198 160T162 248T160 350ZM71 350Q61 280 75 216T128 101T224 20T358
-10Q435 -10 503 18T625 96T714 211T762 350Q772 421 757 485T704 600T608 680T474 710Q398 710 330 682T207 604T118 489T71 350Z" />
<glyph unicode="P" horiz-adv-x="532" d="M169 700L51 0H133L254 700H169ZM201 620H344Q386 620 416 605T460 560T467 490Q460 449 435 420T374 376T294 360H157L143 280H286Q352 280 408 306T503 379T551 490Q561 552 537 599T464 673T352 700H215L201 620Z" />
<glyph unicode="Q" horiz-adv-x="767" d="M160 350Q169 406 196 456T264 544T356 603T466 625Q523 625 565 602T635 540T671 452T673 350Q664 294 637 245T568 157T476 98T366 76Q309 76 267 99T198 160T162 248T160 350ZM71 350Q61 280 75 216T128 101T224 20T358
-10Q435 -10 503 18T625 96T714 211T762 350Q772 421 757 485T704 600T608 680T475 710Q398 710 330 682T208 604T118 489T71 350ZM394 300L634 0H737L497 300H394Z" />
<glyph unicode="R" horiz-adv-x="543" d="M231 345L407 0H506L322 345H231ZM169 700L51 0H133L254 700H169ZM202 625H345Q387 625 416 608T460 561T467 490Q460 449 435 419T374 372T293 355H156L143 280H286Q352 280 408 306T503 379T551 490Q561 552 537 599T464
673T352 700H215L202 625Z" />
<glyph unicode="S" horiz-adv-x="532" d="M106 212L38 166Q56 120 88 80T165 15T268 -10Q331 -10 384 19T470 99T503 210Q503 266 480 302T421 360T351 397Q318 410 294 424T252 454T227 489T218 530Q218 558 231 580T269 616T333 630Q377 630 405 614T450 573T479
522L552 561Q537 600 510 634T441 689T343 710Q279 710 231 684T157 615T130 519Q130 479 145 449T185 398T235 362T285 337Q321 321 350 305T398 264T416 200Q416 168 399 138T349 89T271 70Q229 70 199 88T147 138T106 212Z" />
<glyph unicode="T" horiz-adv-x="451" d="M87 620H263L156 0H240L347 620H521L535 700H102L87 620Z" />
<glyph unicode="U" horiz-adv-x="608" d="M165 700L85 230Q75 166 95 112T162 24T279 -9Q359 -9 415 23T504 109T548 230L629 700H545L464 230Q457 185 436 149T377 92T286 71Q238 71 210 93T172 151T168 230L249 700H165Z" />
<glyph unicode="V" horiz-adv-x="640" d="M326 158L187 700H96L298 -36L729 700H633L326 158Z" />
<glyph unicode="W" horiz-adv-x="961" d="M690 183L577 737L291 183L193 700H101L254 -37L543 507L662 -37L1044 700H949L690 183Z" />
<glyph unicode="X" horiz-adv-x="539" d="M507 700L322 443L221 700H126L271 369L-10 0H91L301 292L416 0H511L353 365L608 700H507Z" />
<glyph unicode="Y" horiz-adv-x="544" d="M538 700L308 378L189 700H98L256 304L203 0H287L338 300L635 700H538Z" />
<glyph unicode="Z" horiz-adv-x="529" d="M112 620H449L-15 0H464L478 80L141 81L604 700H126L112 620Z" />
<glyph unicode="[" horiz-adv-x="291" d="M267 705L365 706L376 780H200L45 -220H222L234 -145H135L267 705Z" />
<glyph unicode="\" horiz-adv-x="500" d="M106 701L378 0H457L189 700L106 701Z" />
<glyph unicode="]" horiz-adv-x="291" d="M77 -145H-21L-33 -220H144L298 780H122L110 705H208L77 -145Z" />
<glyph unicode="^" horiz-adv-x="495" d="M329 621L407 460H483L360 710H320L112 461H194L329 621Z" />
<glyph unicode="_" horiz-adv-x="485" d="M-50 -132H437L445 -78H-41L-50 -132Z" />
<glyph unicode="`" horiz-adv-x="364" d="M157 661L311 511L358 539L235 700L157 661Z" />
<glyph unicode="a" horiz-adv-x="553" d="M463 460L386 0H459L539 460H463ZM45 230Q36 165 56 111T120 24T230 -9Q276 -9 314 9T382 61T430 137T456 230Q462 277 457 319T433 396T384 450T306 470Q241 471 186 439T93 353T45 230ZM125 230Q133 277 159 315T225
374T308 395Q338 394 360 381T398 344T419 292T420 230Q414 196 398 166T357 114T305 79T246 66Q202 66 173 88T131 148T125 230Z" />
<glyph unicode="b" horiz-adv-x="553" d="M253 780H174L40 0H119L253 780ZM532 230Q541 295 522 349T458 437T348 470Q302 470 264 451T196 399T148 323T122 230Q116 184 121 141T145 64T194 10T272 -10Q337 -10 392 21T485 108T532 230ZM453 230Q446 183 419
146T354 87T270 66Q240 67 218 80T180 116T160 168T158 230Q164 265 180 295T221 347T273 382T332 395Q376 395 405 373T447 313T453 230Z" />
<glyph unicode="c" horiz-adv-x="464" d="M127 230Q134 276 159 313T222 372T307 395Q357 395 394 372T448 311L462 411Q436 440 397 455T313 470Q245 470 188 438T94 351T47 230Q39 166 61 112T130 24T244 -9Q291 -9 333 6T407 49L421 148Q395 115 350 90T251
66Q206 67 176 90T134 150T127 230Z" />
<glyph unicode="d" horiz-adv-x="553" d="M512 780L381 0H458L593 780H512ZM45 230Q36 165 56 111T120 24T230 -9Q276 -9 314 9T382 61T430 137T456 230Q462 277 457 319T433 396T384 450T306 470Q241 471 186 439T93 353T45 230ZM125 230Q133 277 159 315T225
374T308 395Q338 394 360 381T398 344T419 292T420 230Q414 196 398 166T357 114T305 79T246 66Q202 66 173 88T131 148T125 230Z" />
<glyph unicode="e" horiz-adv-x="500" d="M238 -10Q312 -10 368 23T460 107L397 148Q372 112 334 89T248 65Q206 65 179 82T139 132T126 205Q126 244 138 279T174 342T228 384T298 400Q335 400 359 386T395 347T408 285Q408 271 404 258T395 232L426 278H96V210H479Q483
218 486 236T490 269Q490 335 467 379T403 447T303 470Q248 470 202 448T121 389T67 303T47 200Q47 134 71 87T138 15T238 -10Z" />
<glyph unicode="f" horiz-adv-x="278" d="M90 460L76 385H301L315 460H90ZM346 685L399 749Q386 766 366 777T317 790Q273 791 241 771T189 714T162 631L54 0H134L240 620Q244 645 252 665T273 698T304 711Q317 711 327 705T346 685Z" />
<glyph unicode="g" horiz-adv-x="553" d="M10 -30Q4 -88 27 -133T96 -203T207 -229Q273 -229 326 -199T415 -114T461 10L538 460H459L381 10Q374 -39 349 -76T286 -134T208 -154Q166 -154 139 -137T99 -92T89 -30H10ZM45 230Q36 165 56 111T120 24T230 -9Q276
-9 314 9T382 61T430 137T456 230Q462 277 457 319T433 396T384 450T306 470Q241 471 186 439T93 353T45 230ZM125 230Q133 277 159 315T225 374T308 395Q338 394 360 381T398 344T419 292T420 230Q414 196 398 166T357 114T305 79T246 66Q202 66 173 88T131 148T125
230Z" />
<glyph unicode="h" horiz-adv-x="509" d="M258 780H179L45 0H124L258 780ZM380 280L332 0H410L460 290Q466 341 455 381T414 446T334 470Q284 470 245 444T180 374T145 281H172Q180 312 198 338T244 380T307 395Q340 394 357 379T379 338T380 280Z" />
<glyph unicode="i" horiz-adv-x="252" d="M156 650Q156 628 172 612T210 596Q233 596 249 612T265 650Q265 673 249 689T210 705Q188 705 172 689T156 650ZM137 460L61 0H140L218 460H137Z" />
<glyph unicode="j" horiz-adv-x="243" d="M144 650Q144 628 160 612T198 596Q221 596 236 612T252 650Q252 673 237 688T198 704Q176 704 160 689T144 650ZM-65 -114L-117 -178Q-101 -197 -80 -208T-30 -219Q14 -220 45 -199T94 -141T120 -60L208 460H129L41 -50Q39
-73 31 -94T10 -128T-22 -140Q-35 -140 -46 -133T-65 -114Z" />
<glyph unicode="k" horiz-adv-x="427" d="M173 780L41 0H119L254 780H173ZM360 460L136 273L304 0H399L230 264L462 460H360Z" />
<glyph unicode="l" horiz-adv-x="223" d="M178 780L46 0H123L258 780H178Z" />
<glyph unicode="m" horiz-adv-x="757" d="M707 290Q713 338 705 379T669 445T591 470Q542 470 504 446T439 381Q433 408 419 428T381 459T324 470Q296 470 272 461T229 436T193 396L203 460H124L44 0H124L174 285Q179 317 195 341T238 380T298 394Q330 394 344
379T362 337T361 280L313 0H390L439 282Q444 314 460 339T503 379T564 394Q596 394 610 379T628 337T628 280L578 0H658L707 290Z" />
<glyph unicode="n" horiz-adv-x="509" d="M380 280L332 0H410L460 290Q467 338 456 379T415 445T334 470Q288 470 253 450T192 391L203 460H124L44 0H124L174 284Q179 316 197 341T244 380T307 395Q340 395 357 379T379 337T380 280Z" />
<glyph unicode="o" horiz-adv-x="530" d="M52 230Q44 166 66 112T135 24T249 -9Q317 -9 374 23T468 110T515 230Q524 294 502 348T432 436T318 470Q251 470 194 438T99 351T52 230ZM131 230Q138 275 163 312T227 372T311 395Q356 395 386 371T429 310T436 230Q429
186 404 148T340 88T255 66Q210 66 181 89T138 150T131 230Z" />
<glyph unicode="p" horiz-adv-x="553" d="M83 -219L197 460H120L2 -220L83 -219ZM532 230Q541 295 522 349T458 437T348 470Q302 470 264 451T196 399T148 323T122 230Q116 184 121 141T145 64T194 10T272 -10Q337 -10 392 21T485 108T532 230ZM453 230Q446 183
419 146T354 87T270 66Q240 67 218 80T180 116T160 168T158 230Q164 265 180 295T221 347T273 382T332 395Q376 395 405 373T447 313T453 230Z" />
<glyph unicode="q" horiz-adv-x="553" d="M342 -220H421L538 460H459L342 -220ZM45 230Q36 165 56 111T120 24T230 -9Q276 -9 314 9T382 61T430 137T456 230Q462 277 457 319T433 396T384 450T306 470Q241 471 186 439T93 353T45 230ZM125 230Q133 277 159 315T225
374T308 395Q338 394 360 381T398 344T419 292T420 230Q414 196 398 166T357 114T305 79T246 66Q202 66 173 88T131 148T125 230Z" />
<glyph unicode="r" horiz-adv-x="333" d="M203 460H124L44 0H124L203 460ZM324 373L377 437Q359 454 340 462T296 470Q256 470 223 442T167 371T135 281H172Q178 310 188 336T218 379T268 395Q285 395 298 389T324 373Z" />
<glyph unicode="s" horiz-adv-x="391" d="M96 139L31 102Q44 75 69 49T130 7T213 -10Q260 -10 296 9T352 62T373 135Q373 176 356 201T309 244T246 276Q224 286 206 296T176 319T165 351Q165 374 183 388T233 402Q265 402 291 385T337 341L396 381Q375 419 334
444T238 470Q201 470 167 456T110 414T88 341Q88 303 106 279T151 239T204 213Q225 204 246 193T281 165T295 126Q295 99 274 81T219 62Q191 62 168 72T128 100T96 139Z" />
<glyph unicode="t" horiz-adv-x="233" d="M58 460L44 385H269L282 460H58ZM155 620L51 0H128L236 620H155Z" />
<glyph unicode="u" horiz-adv-x="509" d="M154 180L202 460H125L74 170Q67 123 78 82T119 16T200 -9Q246 -9 281 12T342 70L331 0H410L490 460H410L360 176Q355 145 337 120T290 81T227 66Q194 66 177 82T155 124T154 180Z" />
<glyph unicode="v" horiz-adv-x="427" d="M54 460L191 -36L483 460H392L217 138L141 460H54Z" />
<glyph unicode="w" horiz-adv-x="660" d="M57 460L166 -37L352 298L428 -37L709 460H618L454 162L383 497L203 164L144 460H57Z" />
<glyph unicode="x" horiz-adv-x="408" d="M363 460L233 300L150 460H64L182 242L-20 0H72L215 176L304 0H390L267 233L455 460H363Z" />
<glyph unicode="y" horiz-adv-x="427" d="M481 460H390L192 105L224 100L140 460H52L156 68L-18 -219H73L481 460Z" />
<glyph unicode="z" horiz-adv-x="446" d="M328 385L-15 0H386L400 75H143L486 460H95L81 385H328Z" />
<glyph unicode="{" horiz-adv-x="302" d="M258 660Q262 682 276 696T313 710H347L357 780H297Q268 780 242 762T199 713T175 641L143 430Q137 384 122 359T80 320L71 260Q94 244 100 220T101 150L69 -60Q65 -98 73 -130T100 -181T149 -200H207L217 -129H182Q167
-129 158 -123T145 -105T143 -80L170 90Q175 122 177 156T175 221T151 273T92 300L89 281Q130 286 155 305T195 355T218 420T232 490L258 660Z" />
<glyph unicode="|" horiz-adv-x="266" d="M200 785L47 -214H120L273 785H200Z" />
<glyph unicode="}" horiz-adv-x="302" d="M108 -80Q104 -102 90 -116T53 -130H20L9 -199H70Q99 -199 124 -181T168 -132T191 -60L223 150Q229 197 244 222T286 260L295 320Q272 337 266 361T265 430L297 640Q302 679 294 710T266 761T217 780H159L149 710H184Q199
710 208 703T221 686T223 661L196 490Q192 459 189 425T191 360T215 308T274 280L277 300Q237 296 211 276T171 225T148 160T134 90L108 -80Z" />
<glyph unicode="~" horiz-adv-x="558" d="M149 176Q148 182 148 187T149 198Q154 222 170 237T212 253Q225 253 238 249T264 238T290 220Q316 200 342 187T395 173Q422 172 447 184T492 219Q505 235 513 254T523 290Q525 297 525 304T523 318L446 323Q448 316
448 309T447 296Q443 276 430 262T397 248Q382 247 366 256T332 279Q305 301 277 314T219 327Q188 327 160 313T110 275Q97 259 89 241T77 206Q76 199 76 193T77 181L149 176Z" />
<glyph unicode="&#xa0;" horiz-adv-x="301" />
<glyph unicode="&#xa1;" horiz-adv-x="291" d="M127 -245L192 255H132L27 -245H127ZM243 414Q245 435 232 452T198 470Q177 471 158 454T136 416Q134 395 147 379T181 361Q202 360 221 377T243 414Z" />
<glyph unicode="&#xa2;" horiz-adv-x="563" d="M251 38L225 -111H288L314 38H251ZM170 230Q178 275 204 312T269 372T353 395Q403 395 440 372T492 311L508 411Q483 440 444 455T360 470Q292 470 235 438T139 351T90 230Q81 167 102 113T170 25T284 -9Q331 -9
374 6T448 49L463 148Q436 115 391 90T291 66Q246 67 217 90T175 150T170 230ZM343 578L317 429H380L406 578H343Z" />
<glyph unicode="&#xa3;" horiz-adv-x="563" d="M101 370L87 295H438L452 370H101ZM492 480L566 508Q568 541 560 576T533 641T481 691T403 710Q360 710 321 697T251 657T200 596T173 519Q168 476 177 442T200 376T223 315T226 249Q217 200 189 160T120 82T35 0H475L490
80H135L129 51Q161 62 190 81T244 129T285 191T308 264Q313 301 304 332T282 392T261 452T259 520Q265 554 285 578T334 614T394 626Q426 625 445 612T476 578T490 531T492 480Z" />
<glyph unicode="&#xa4;" horiz-adv-x="563" d="M94 505L172 411L227 458L150 553L94 505ZM67 48L173 139L131 190L25 99L67 48ZM480 411L586 501L545 553L438 461L480 411ZM384 143L461 48L516 96L440 190L384 143ZM74 300Q65 237 86 183T154 95T268 61Q336 61
393 93T489 179T538 300Q547 364 526 418T458 506T344 540Q276 540 219 508T123 421T74 300ZM154 300Q162 345 187 382T252 442T337 465Q382 465 411 441T452 380T458 300Q451 255 425 218T360 159T275 136Q230 136 201 159T159 220T154 300Z" />
<glyph unicode="&#xa5;" horiz-adv-x="563" d="M67 291L539 290L551 365H79L67 291ZM41 141L513 140L526 215H53L41 141ZM548 700L317 378L199 700H108L266 306L212 0H298L350 304L644 700H548Z" />
<glyph unicode="&#xa6;" horiz-adv-x="266" d="M188 695L147 456H220L261 695H188ZM184 245H111L70 6H143L184 245Z" />
<glyph unicode="&#xa7;" horiz-adv-x="396" d="M375 580L442 619Q428 661 387 685T293 710Q257 710 222 695T161 654T130 590Q126 563 134 542T158 505T195 477T238 455Q261 445 281 433T314 405T322 363Q319 341 304 323T268 292T223 275L218 241Q253 242 284
249T340 270T382 309T404 370Q409 403 395 428T356 472T301 506Q286 513 269 521T238 540T215 562T209 589Q212 605 223 614T252 629T287 634Q316 634 338 620T375 580ZM92 161L23 124Q28 86 48 56T102 9T178 -9Q224 -9 264 6T330 52T363 130Q367 163 353 188T315
232T260 266Q243 274 226 283T194 303T174 330T171 369Q176 392 190 407T225 433T272 454L277 479Q240 478 209 471T153 450T112 413T91 360Q86 324 100 297T141 249T197 215Q219 205 240 194T273 166T280 124Q277 105 264 92T231 72T190 66Q147 66 123 93T92 161Z"
/>
<glyph unicode="&#xa8;" horiz-adv-x="456" d="M356 661Q354 640 367 624T402 606Q423 605 442 622T464 659Q466 680 453 697T417 715Q397 716 378 699T356 661ZM162 661Q160 640 173 624T208 606Q229 605 248 622T270 659Q272 680 259 697T223 715Q203 716 184
699T162 661Z" />
<glyph unicode="&#xa9;" horiz-adv-x="776" d="M269 350Q276 396 301 433T365 492T448 515Q489 515 518 499T568 453L578 520Q552 543 522 554T451 566Q392 566 342 537T258 459T216 350Q209 293 228 244T290 165T390 135Q432 134 464 146T526 180L535 246Q508
221 472 203T393 186Q348 187 319 210T276 270T269 350ZM130 350Q140 414 170 470T247 569T352 636T476 660Q540 660 589 635T671 566T717 467T721 350Q711 287 681 231T604 132T499 65T375 41Q311 41 261 66T179 135T134 234T130 350ZM75 350Q65 278 82 214T139
99T238 19T373 -10Q450 -10 518 18T640 95T729 209T775 350Q785 422 768 487T712 602T613 681T478 710Q401 710 333 683T210 606T121 491T75 350Z" />
<glyph unicode="&#xaa;" horiz-adv-x="231" d="M123 532Q125 553 146 568T191 583Q211 584 226 577T258 559L262 583Q252 593 235 603T190 613Q154 613 121 591T83 533Q78 500 98 479T149 456Q185 455 210 474T244 524L240 550Q232 524 211 508T162 492Q141 493
131 504T123 532ZM143 646Q156 653 174 662T215 669Q233 668 243 660T255 635L224 461H264L293 635Q296 668 275 686T218 705Q190 706 168 697T129 678L143 646Z" />
<glyph unicode="&#xab;" horiz-adv-x="495" d="M299 259L477 444L434 490L211 258L357 20L412 64L299 259ZM143 259L322 444L278 490L55 258L201 20L257 64L143 259Z" />
<glyph unicode="&#xac;" horiz-adv-x="602" d="M86 300H490L468 176H542L577 375H100L86 300Z" />
<glyph unicode="&#xad;" horiz-adv-x="204" d="M12 201H208L221 275H25L12 201Z" />
<glyph unicode="&#xae;" horiz-adv-x="776" d="M376 358L486 150H547L431 358H376ZM336 570L272 151H322L387 570H336ZM356 525H442Q479 523 500 502T517 444Q512 407 482 386T414 363H331L325 319H410Q469 321 514 354T568 444Q576 500 539 534T446 570H363L356
525ZM130 350Q140 414 170 470T247 569T352 636T476 660Q540 660 589 635T671 566T717 467T721 350Q711 287 681 231T604 132T499 65T375 41Q311 41 261 66T179 135T134 234T130 350ZM75 350Q65 278 82 214T139 99T238 19T373 -10Q450 -10 518 18T640 95T729 210T775
350Q785 422 768 487T712 602T613 681T478 710Q401 710 333 683T210 606T121 491T75 350Z" />
<glyph unicode="&#xaf;" horiz-adv-x="495" d="M153 600H494L506 675H165L153 600Z" />
<glyph unicode="&#xb0;" horiz-adv-x="270" d="M94 601Q87 552 114 517T192 481Q226 481 254 497T302 540T327 600Q332 632 321 659T287 703T229 720Q196 720 167 704T119 661T94 601ZM134 600Q138 622 151 640T185 670T227 682Q260 681 276 657T287 600Q284 578
270 560T237 530T194 519Q161 519 145 544T134 600Z" />
<glyph unicode="&#xb1;" horiz-adv-x="597" d="M47 0H518L531 80H58L47 0ZM100 345H571L584 425H112L100 345ZM334 620L264 151L346 150L420 620H334Z" />
<glyph unicode="&#xb2;" horiz-adv-x="336" d="M45 283H333L341 330L158 331L310 466Q336 491 356 519T383 582Q388 612 378 641T343 689T277 709Q233 710 200 689T145 634T115 559H166Q173 586 187 610T224 648T274 661Q297 660 310 649T329 621T332 586Q328
559 311 537T272 494L45 283Z" />
<glyph unicode="&#xb3;" horiz-adv-x="303" d="M193 488Q230 491 262 503T317 538T345 594Q350 623 340 648T306 690T249 706Q197 707 162 675T116 598L165 597Q173 622 194 642T245 660Q274 659 286 639T294 593Q290 572 277 557T243 532T198 520L193 488ZM177
275Q213 275 244 289T296 330T322 391Q327 421 318 443T291 478T249 499T196 508L190 475Q215 473 235 465T265 441T271 398Q267 366 241 344T180 323Q146 324 130 343T114 391H63Q62 359 74 333T112 291T177 275Z" />
<glyph unicode="&#xb4;" horiz-adv-x="364" d="M377 658L307 700L138 542L180 511L377 658Z" />
<glyph unicode="&#xb5;" horiz-adv-x="509" d="M204 460H123L-8 -319L69 -320L126 10Q140 1 159 -4T200 -9Q243 -9 278 10T340 60L331 0H410L490 460H410L360 176Q355 145 337 120T290 81T227 66Q197 66 179 79T155 116T151 169L204 460Z" />
<glyph unicode="&#xb6;" horiz-adv-x="561" d="M298 271L215 -219H284L429 636H516L370 -219H439L596 700H371Q307 700 252 675T161 601T113 486Q104 422 125 375T192 302T298 271Z" />
<glyph unicode="&#xb7;" horiz-adv-x="291" d="M106 241Q105 227 110 215T126 195T151 186Q165 185 179 192T203 213T214 239Q216 253 210 265T193 286T168 295Q154 296 141 288T118 268T106 241Z" />
<glyph unicode="&#xb8;" horiz-adv-x="340" d="M172 59L62 -107Q77 -99 94 -94T122 -90Q135 -90 145 -94T160 -106T163 -125Q162 -136 154 -145T133 -160T106 -166Q89 -166 79 -159T56 -142L18 -180Q37 -199 55 -209T101 -219Q128 -219 154 -208T198 -176T219
-127Q223 -94 204 -74T158 -52Q157 -52 155 -52T151 -52L233 59H172Z" />
<glyph unicode="&#xb9;" horiz-adv-x="456" d="M225 612L318 638L257 275H308L382 701L233 664L225 612Z" />
<glyph unicode="&#xba;" horiz-adv-x="270" d="M91 581Q84 532 111 497T189 461Q223 461 251 477T299 520T323 580Q328 612 317 639T283 683T225 700Q192 700 163 684T115 641T91 581ZM130 580Q134 602 147 620T181 650T223 662Q256 661 272 637T284 580Q280 558
267 540T234 510T191 499Q158 499 142 524T130 580Z" />
<glyph unicode="&#xbb;" horiz-adv-x="495" d="M229 252L51 67L95 21L318 252L171 490L116 446L229 252ZM385 252L207 67L250 21L473 252L327 490L272 446L385 252Z" />
<glyph unicode="&#xbc;" horiz-adv-x="732" d="M690 699L68 0H133L756 699H690ZM107 612L200 638L139 275H190L263 701L115 664L107 612ZM374 85H685L692 129H606H596L420 128L374 85ZM428 85L607 302L575 112L574 106L556 0H607L678 420L656 419L373 86L428 85Z" />
<glyph unicode="&#xbd;" horiz-adv-x="795" d="M690 699L68 0H133L756 699H690ZM107 612L200 638L139 275H190L263 701L115 664L107 612ZM452 3H740L748 50L565 51L717 186Q743 211 763 239T789 302Q794 332 784 361T749 409T683 429Q639 430 606 409T552 354T522
279H573Q579 306 593 329T630 367T680 380Q703 379 717 368T736 341T739 306Q735 279 718 257T678 214L452 3Z" />
<glyph unicode="&#xbe;" horiz-adv-x="796" d="M755 699L133 0H198L821 699H755ZM198 488Q235 491 267 503T322 538T350 594Q355 623 344 648T310 690T253 706Q201 707 167 675T121 598L170 597Q178 622 199 642T250 660Q279 659 291 639T299 593Q295 572 282
557T248 532T203 520L198 488ZM182 275Q218 275 249 289T301 330T327 391Q332 421 323 443T296 478T254 499T201 508L195 475Q220 473 240 465T270 441T276 398Q272 366 246 344T185 323Q151 324 135 343T119 391H68Q67 359 79 333T117 291T182 275ZM439 85H750L757
129H671H661L485 128L439 85ZM493 85L672 302L640 112L639 106L621 0H672L743 420L721 419L438 86L493 85Z" />
<glyph unicode="&#xbf;" horiz-adv-x="541" d="M144 200Q153 243 183 277T259 333T359 355H384L393 530H333L305 410Q248 404 197 376T110 304T65 201Q59 159 69 121T103 54T163 8T244 -9Q325 -10 378 23T475 106L416 148Q387 114 349 90T261 66Q219 66 191 83T150
131T144 200ZM438 659Q440 680 427 697T392 715Q378 716 365 708T342 688T330 661Q328 640 341 624T375 606Q389 605 403 612T427 633T438 659Z" />
<glyph unicode="&#xc0;" horiz-adv-x="640" d="M152 211L512 210L496 290H193L152 211ZM388 542L455 260L459 240L517 0H608L419 737L-25 0H71L215 246L226 264L388 542ZM328 946L480 795L527 824L407 985L328 946Z" />
<glyph unicode="&#xc1;" horiz-adv-x="640" d="M152 211L512 210L496 290H193L152 211ZM388 542L455 260L459 240L517 0H608L419 737L-25 0H71L215 246L226 264L388 542ZM582 943L513 985L341 827L383 796L582 943Z" />
<glyph unicode="&#xc2;" horiz-adv-x="640" d="M152 211L512 210L496 290H193L152 211ZM388 542L455 260L459 240L517 0H608L419 737L-25 0H71L215 246L226 264L388 542ZM441 850L531 756L585 794L451 935L273 797L317 756L441 850Z" />
<glyph unicode="&#xc3;" horiz-adv-x="640" d="M152 211L512 210L496 290H193L152 211ZM388 542L455 260L459 240L517 0H608L419 737L-25 0H71L215 246L226 264L388 542ZM271 814L319 776Q325 790 337 807T377 826Q398 827 414 816T446 793T486 780Q511 779 532
790T571 817T600 851L560 895Q546 876 530 863T496 848Q473 847 458 858T427 882T384 894Q360 895 338 884T298 854T271 814Z" />
<glyph unicode="&#xc4;" horiz-adv-x="640" d="M152 211L512 210L496 290H193L152 211ZM388 542L455 260L459 240L517 0H608L419 737L-25 0H71L215 246L226 264L388 542ZM482 851Q480 830 493 814T527 796Q548 795 567 812T589 849Q591 870 578 887T544 905Q523
906 504 889T482 851ZM287 851Q285 830 298 814T333 796Q354 795 373 812T395 849Q397 870 384 887T350 905Q329 906 309 889T287 851Z" />
<glyph unicode="&#xc5;" horiz-adv-x="640" d="M152 211L512 210L496 290H193L152 211ZM388 542L455 260L459 240L517 0H608L419 737L-25 0H71L215 246L226 264L388 542ZM330 799Q326 772 336 750T367 713T414 699Q441 699 466 712T508 747T529 797Q533 825 523
847T492 884T445 898Q419 898 394 885T351 849T330 799ZM380 798Q382 812 391 824T414 844T440 851Q458 850 469 835T479 799Q477 778 457 762T419 746Q401 747 390 762T380 798Z" />
<glyph unicode="&#xc6;" horiz-adv-x="932" d="M220 211L512 210L526 290H233L220 211ZM517 700L-22 0H72L576 658L517 700ZM495 0H838L852 80H508L495 0ZM611 620H944L958 700H517L611 620ZM553 341L877 340L891 420H566L553 341ZM567 700L449 0H531L652 700H567Z" />
<glyph unicode="&#xc7;" horiz-adv-x="665" d="M160 350Q169 407 196 456T265 544T356 603T461 625Q528 625 578 598T660 521L678 633Q636 673 587 692T470 710Q395 710 328 682T207 604T118 489T71 350Q61 280 76 215T128 100T222 20T353 -10Q424 -10 479 10T583
67L600 178Q554 135 494 105T361 76Q307 76 266 99T199 160T162 248T160 350ZM350 58L240 -108Q255 -100 272 -95T301 -91Q314 -91 323 -95T338 -107T341 -126Q340 -137 332 -146T311 -161T284 -167Q268 -167 257 -160T234 -143L196 -181Q215 -200 234 -210T279
-220Q306 -220 332 -209T376 -177T397 -128Q401 -95 382 -75T337 -53Q335 -53 333 -53T329 -53L411 58H350Z" />
<glyph unicode="&#xc8;" horiz-adv-x="534" d="M97 0H441L454 80H110L97 0ZM203 621L546 620L560 700H216L203 621ZM155 341L479 340L493 420H168L155 341ZM169 700L51 0H133L254 700H169ZM275 921L427 770L474 799L354 960L275 921Z" />
<glyph unicode="&#xc9;" horiz-adv-x="534" d="M97 0H441L454 80H110L97 0ZM203 621L546 620L560 700H216L203 621ZM155 341L479 340L493 420H168L155 341ZM169 700L51 0H133L254 700H169ZM529 918L460 960L288 802L330 771L529 918Z" />
<glyph unicode="&#xca;" horiz-adv-x="534" d="M97 0H441L454 80H110L97 0ZM203 621L546 620L560 700H216L203 621ZM155 341L479 340L493 420H168L155 341ZM169 700L51 0H133L254 700H169ZM405 865L495 771L549 809L415 950L237 812L281 771L405 865Z" />
<glyph unicode="&#xcb;" horiz-adv-x="534" d="M97 0H441L454 80H110L97 0ZM203 621L546 620L560 700H216L203 621ZM155 341L479 340L493 420H168L155 341ZM169 700L51 0H133L254 700H169ZM442 846Q440 825 453 809T488 791Q508 790 528 807T550 844Q552 865 539
882T504 900Q484 901 464 884T442 846ZM248 846Q246 825 259 809T294 791Q314 790 334 807T356 844Q358 865 345 882T310 900Q289 901 270 884T248 846Z" />
<glyph unicode="&#xcc;" horiz-adv-x="238" d="M169 700L51 0H133L254 700H169ZM122 921L274 770L322 799L201 960L122 921Z" />
<glyph unicode="&#xcd;" horiz-adv-x="238" d="M169 700L51 0H133L254 700H169ZM375 918L308 960L136 802L176 771L375 918Z" />
<glyph unicode="&#xce;" horiz-adv-x="238" d="M169 700L51 0H133L254 700H169ZM242 865L332 771L386 809L252 950L74 812L118 771L242 865Z" />
<glyph unicode="&#xcf;" horiz-adv-x="238" d="M169 700L51 0H133L254 700H169ZM276 826Q274 806 286 789T321 771Q342 770 362 787T384 824Q386 845 373 862T338 880Q317 881 298 864T276 826ZM82 826Q80 806 92 789T127 771Q148 770 168 787T190 824Q192 845
179 862T143 880Q123 881 104 864T82 826Z" />
<glyph unicode="&#xd0;" horiz-adv-x="660" d="M31 311L324 310L336 385H44L31 311ZM169 700L51 0H133L254 700H169ZM258 0Q360 2 444 47T584 171T655 350Q669 446 639 525T540 651T371 700H215L200 615H362Q440 614 490 579T562 484T571 350Q558 273 516 214T409
121T266 85H110L95 0H258Z" />
<glyph unicode="&#xd1;" horiz-adv-x="752" d="M684 700L594 179L175 734L49 0H134L224 522L642 -34L768 700H684ZM316 794L364 756Q370 770 383 787T422 806Q443 807 459 796T491 773T531 760Q556 759 577 770T616 797T645 831L605 875Q591 856 575 843T542 828Q519
827 504 838T472 862T429 874Q405 875 383 864T344 834T316 794Z" />
<glyph unicode="&#xd2;" horiz-adv-x="767" d="M160 350Q169 406 196 456T264 544T356 603T466 625Q523 625 565 602T635 540T671 452T673 350Q664 294 637 245T568 157T476 98T366 76Q309 76 267 99T198 160T162 248T160 350ZM71 350Q61 280 75 216T128 101T224
20T358 -10Q435 -10 503 18T625 96T714 211T762 350Q772 421 757 485T704 600T608 680T474 710Q398 710 330 682T207 604T118 489T71 350ZM396 921L548 770L596 799L475 960L396 921Z" />
<glyph unicode="&#xd3;" horiz-adv-x="767" d="M160 350Q169 406 196 456T264 544T356 603T466 625Q523 625 565 602T635 540T671 452T673 350Q664 294 637 245T568 157T476 98T366 76Q309 76 267 99T198 160T162 248T160 350ZM71 350Q61 280 75 216T128 101T224
20T358 -10Q435 -10 503 18T625 96T714 211T762 350Q772 421 757 485T704 600T608 680T474 710Q398 710 330 682T207 604T118 489T71 350ZM631 918L562 960L390 802L432 771L631 918Z" />
<glyph unicode="&#xd4;" horiz-adv-x="767" d="M160 350Q169 406 196 456T264 544T356 603T466 625Q523 625 565 602T635 540T671 452T673 350Q664 294 637 245T568 157T476 98T366 76Q309 76 267 99T198 160T162 248T160 350ZM71 350Q61 280 75 216T128 101T224
20T358 -10Q435 -10 503 18T625 96T714 211T762 350Q772 421 757 485T704 600T608 680T475 710Q398 710 330 682T208 604T118 489T71 350ZM507 865L597 771L651 809L517 950L339 812L383 771L507 865Z" />
<glyph unicode="&#xd5;" horiz-adv-x="767" d="M160 350Q169 406 196 456T264 544T356 603T466 625Q523 625 565 602T635 540T671 452T673 350Q664 294 637 245T568 157T476 98T366 76Q309 76 267 99T198 160T162 248T160 350ZM71 350Q61 280 75 216T128 101T224
20T358 -10Q435 -10 503 18T625 96T714 211T762 350Q772 421 757 485T704 600T608 680T475 710Q398 710 330 682T208 604T118 489T71 350ZM333 809L381 771Q387 785 400 802T439 821Q460 822 476 811T509 788T549 775Q574 774 595 785T633 812T662 846L622 890Q608
871 592 858T559 843Q536 842 521 853T489 877T446 889Q428 889 402 878T355 849T333 809Z" />
<glyph unicode="&#xd6;" horiz-adv-x="767" d="M160 350Q169 406 196 456T264 544T356 603T466 625Q523 625 565 602T635 540T671 452T673 350Q664 294 637 245T568 157T476 98T366 76Q309 76 267 99T198 160T162 248T160 350ZM71 350Q61 280 75 216T128 101T224
20T358 -10Q435 -10 503 18T625 96T714 211T762 350Q772 421 757 485T704 600T608 680T474 710Q398 710 330 682T207 604T118 489T71 350ZM540 826Q538 805 551 789T586 771Q607 770 626 787T648 824Q650 845 637 862T602 880Q582 881 562 864T540 826ZM346 826Q344
805 357 789T392 771Q413 770 432 787T454 824Q456 845 443 862T408 880Q388 881 368 864T346 826Z" />
<glyph unicode="&#xd7;" horiz-adv-x="578" d="M96 22L299 203L440 22L502 76L355 253L562 429L516 488L312 307L172 488L110 435L257 257L49 81L96 22Z" />
<glyph unicode="&#xd8;" horiz-adv-x="767" d="M160 350Q169 406 196 456T264 544T356 603T466 625Q523 625 565 602T635 540T671 452T673 350Q664 294 637 245T568 157T476 98T366 76Q309 76 267 99T198 160T162 248T160 350ZM71 350Q61 280 75 216T128 101T224
20T358 -10Q435 -10 503 18T625 96T714 211T762 350Q772 421 757 485T704 600T608 680T475 710Q398 710 330 682T208 604T118 489T71 350ZM767 750L9 -8L62 -49L820 709L767 750Z" />
<glyph unicode="&#xd9;" horiz-adv-x="608" d="M165 700L85 230Q76 166 95 112T161 24T278 -9Q350 -9 406 23T500 110T548 230L629 700H545L464 230Q456 186 433 150T372 92T286 71Q238 72 210 94T172 152T168 230L249 700H165ZM307 921L459 770L506 799L386 960L307
921Z" />
<glyph unicode="&#xda;" horiz-adv-x="608" d="M165 700L85 230Q76 166 95 112T161 24T278 -9Q350 -9 406 23T500 110T548 230L629 700H545L464 230Q456 186 433 150T372 92T286 71Q238 72 210 94T172 152T168 230L249 700H165ZM561 918L492 960L320 802L362 771L561
918Z" />
<glyph unicode="&#xdb;" horiz-adv-x="608" d="M165 700L85 230Q76 166 95 112T161 24T278 -9Q350 -9 406 23T500 110T548 230L629 700H545L464 230Q456 186 433 150T372 92T286 71Q238 72 210 94T172 152T168 230L249 700H165ZM427 865L517 771L571 809L437 950L259
812L303 771L427 865Z" />
<glyph unicode="&#xdc;" horiz-adv-x="608" d="M165 700L85 230Q76 166 95 112T161 24T278 -9Q350 -9 406 23T500 110T548 230L629 700H545L464 230Q456 186 433 150T372 92T286 71Q238 72 210 94T172 152T168 230L249 700H165ZM461 826Q459 805 472 789T507 771Q527
770 547 787T569 824Q571 845 558 862T523 880Q502 881 483 864T461 826ZM267 826Q265 805 278 789T312 771Q333 770 353 787T375 824Q377 845 364 862T329 880Q308 881 289 864T267 826Z" />
<glyph unicode="&#xdd;" horiz-adv-x="544" d="M529 918L461 960L289 802L330 771L529 918ZM538 700L308 378L189 700H98L256 304L203 0H287L338 300L635 700H538Z" />
<glyph unicode="&#xde;" horiz-adv-x="534" d="M169 700L51 0H133L254 700H169ZM177 480H320Q362 479 392 464T436 420T443 350Q436 309 411 280T350 236T270 220H133L119 140H262Q328 142 384 167T479 240T527 350Q537 412 513 459T440 532T328 560H191L177 480Z" />
<glyph unicode="&#xdf;" horiz-adv-x="565" d="M342 -12Q397 -12 440 14T510 84T536 182Q536 225 522 253T485 301T441 336T405 366T390 402Q390 427 406 445T446 481T494 520T534 573T550 652Q550 698 528 729T468 777T381 794Q313 794 264 769T185 702T147 608L47
-2H128L227 588Q234 633 253 662T301 706T368 721Q409 721 437 704T466 645Q466 612 450 588T409 543T360 502T319 457T302 402Q302 368 317 345T354 304T399 268T437 228T452 171Q452 142 439 118T402 79T348 64Q319 64 293 78T244 116L195 56Q213 36 235 21T284
-3T342 -12Z" />
<glyph unicode="&#xe0;" horiz-adv-x="553" d="M463 460L386 0H459L539 460H463ZM45 230Q36 165 56 111T120 24T230 -9Q276 -9 314 9T382 61T430 137T456 230Q462 277 457 319T433 396T384 450T306 470Q241 471 186 439T93 353T45 230ZM125 230Q133 277 159 315T225
374T308 395Q338 394 360 381T398 344T419 292T420 230Q414 196 398 166T357 114T305 79T246 66Q202 66 173 88T131 148T125 230ZM198 681L350 530L397 559L277 720L198 681Z" />
<glyph unicode="&#xe1;" horiz-adv-x="553" d="M463 460L386 0L459 1L539 460H463ZM45 230Q36 165 56 111T120 24T230 -9Q276 -9 314 9T382 61T430 137T456 230Q462 277 457 319T433 396T384 450T306 470Q241 471 186 439T93 353T45 230ZM125 230Q133 277 159
315T225 374T308 395Q338 394 360 381T398 344T419 292T420 230Q414 196 398 166T357 114T305 79T246 66Q202 66 173 88T131 148T125 230ZM471 678L403 720L231 562L272 531L471 678Z" />
<glyph unicode="&#xe2;" horiz-adv-x="553" d="M463 460L386 0H459L539 460H463ZM45 230Q36 165 56 111T120 24T230 -9Q276 -9 314 9T382 61T430 137T456 230Q462 277 457 319T433 396T384 450T306 470Q241 471 186 439T93 353T45 230ZM125 230Q133 277 159 315T225
374T308 395Q338 394 360 381T398 344T419 292T420 230Q414 196 398 166T357 114T305 79T246 66Q202 66 173 88T131 148T125 230ZM357 625L447 531L501 569L367 710L189 572L233 531L357 625Z" />
<glyph unicode="&#xe3;" horiz-adv-x="553" d="M463 460L386 0H459L539 460H463ZM45 230Q36 165 56 111T120 24T230 -9Q276 -9 314 9T382 61T430 137T456 230Q462 277 457 319T433 396T384 450T306 470Q241 471 186 439T93 353T45 230ZM125 230Q133 277 159 315T225
374T308 395Q338 394 360 381T398 344T419 292T420 230Q414 196 398 166T357 114T305 79T246 66Q202 66 173 88T131 148T125 230ZM184 569L231 531Q238 545 250 562T290 581Q311 582 326 571T359 548T399 535Q424 534 445 545T483 572T512 606L473 650Q458 631
443 618T409 603Q386 602 371 613T339 637T297 649Q274 649 252 638T212 609T184 569Z" />
<glyph unicode="&#xe4;" horiz-adv-x="553" d="M463 460L386 0H459L539 460H463ZM45 230Q36 165 56 111T120 24T230 -9Q276 -9 314 9T382 61T430 137T456 230Q462 277 457 319T433 396T384 450T306 470Q241 471 186 439T93 353T45 230ZM125 230Q133 277 159 315T225
374T308 395Q338 394 360 381T398 344T419 292T420 230Q414 196 398 166T357 114T305 79T246 66Q202 66 173 88T131 148T125 230ZM391 586Q389 565 402 549T436 531Q457 530 477 547T499 584Q501 605 488 622T453 640Q432 641 413 624T391 586ZM197 586Q195 565
208 549T242 531Q263 530 282 547T304 584Q306 605 293 622T259 640Q238 641 219 624T197 586Z" />
<glyph unicode="&#xe5;" horiz-adv-x="553" d="M463 460L386 0H459L539 460H463ZM45 230Q36 165 56 111T120 24T230 -9Q276 -9 314 9T382 61T430 137T456 230Q462 277 457 319T433 396T384 450T306 470Q241 471 186 439T93 353T45 230ZM125 230Q133 277 159 315T225
374T308 395Q338 394 360 381T398 344T419 292T420 230Q414 196 398 166T357 114T305 79T246 66Q202 66 173 88T131 148T125 230ZM229 630Q226 603 236 581T267 545T314 530Q341 530 365 543T407 579T429 629Q433 656 423 679T392 715T344 729Q318 730 293 717T251
681T229 630ZM279 629Q281 643 290 655T314 674T340 682Q358 682 369 666T379 630Q378 617 368 605T345 585T318 577Q300 577 289 593T279 629Z" />
<glyph unicode="&#xe6;" horiz-adv-x="801" d="M183 -10Q258 -10 306 22T375 110H360Q381 47 423 19T533 -10Q596 -10 655 19T752 107L687 148Q662 106 624 86T538 65Q492 65 465 87T428 147T426 229L404 210H776Q781 221 784 235T787 269Q787 331 765 376T704
445T613 470Q565 470 524 453T453 406T404 341L424 356Q429 412 390 441T283 470Q235 470 190 456T107 413L146 352Q166 367 189 378T236 394T283 400Q322 400 345 378T362 310L349 230H388Q337 262 302 274T226 286Q166 286 120 264T47 204T20 120Q20 66 60 28T183
-10ZM198 61Q148 61 125 76T101 130Q101 160 118 181T164 213T230 225Q265 225 296 217T354 194L346 221V116L354 192Q334 125 296 93T198 61ZM426 239Q439 288 462 324T518 380T596 400Q637 400 660 384T694 337T704 266Q704 254 702 250L726 278H404L426 239Z"
/>
<glyph unicode="&#xe7;" horiz-adv-x="464" d="M120 230Q128 275 154 312T219 372T304 395Q354 395 391 372T443 311L459 411Q433 440 394 455T311 470Q243 470 186 438T90 351T41 230Q31 167 52 113T120 25T234 -9Q281 -9 324 6T398 49L414 148Q387 115 342 90T242
66Q197 67 168 90T126 150T120 230ZM232 58L121 -108Q136 -100 153 -95T182 -91Q195 -91 205 -95T220 -107T223 -126Q222 -137 214 -146T193 -161T166 -167Q149 -167 139 -160T116 -143L77 -181Q97 -200 115 -210T161 -220Q188 -220 213 -209T257 -177T278 -128Q282
-95 264 -75T218 -53Q217 -53 215 -53T211 -53L292 58H232Z" />
<glyph unicode="&#xe8;" horiz-adv-x="500" d="M92 211H476Q478 217 478 222T480 234Q488 298 472 351T414 437T306 470Q246 470 196 445T111 376T57 279Q53 267 50 255T45 230Q37 169 54 115T114 26T220 -9Q274 -9 315 5T389 46T450 106L391 148Q372 126 349
107T298 77T237 66Q191 67 164 89T128 148T125 230L133 260Q142 300 165 331T223 382T299 400Q338 400 360 384T392 340T401 278H103L92 211ZM209 691L362 540L409 569L288 730L209 691Z" />
<glyph unicode="&#xe9;" horiz-adv-x="500" d="M92 211H476Q478 217 478 222T480 234Q488 298 472 351T414 437T306 470Q246 470 196 445T111 376T57 279Q53 267 50 255T45 230Q37 169 54 115T114 26T220 -9Q274 -9 315 5T389 46T450 106L391 148Q372 126 349
107T298 77T237 66Q191 67 164 89T128 148T125 230L133 260Q142 300 165 331T223 382T299 400Q338 400 360 384T392 340T401 278H103L92 211ZM502 688L433 730L262 572L303 541L502 688Z" />
<glyph unicode="&#xea;" horiz-adv-x="500" d="M92 211H476Q478 217 478 222T480 234Q488 298 472 351T414 437T306 470Q246 470 196 445T111 376T57 279Q53 267 50 255T45 230Q37 169 54 115T114 26T220 -9Q274 -9 315 5T389 46T450 106L391 148Q372 126 349
107T298 77T237 66Q191 67 164 89T128 148T125 230L133 260Q142 300 165 331T223 382T299 400Q338 400 360 384T392 340T401 278H103L92 211ZM338 625L428 531L482 569L348 710L170 572L214 531L338 625Z" />
<glyph unicode="&#xeb;" horiz-adv-x="500" d="M92 211H476Q478 217 478 222T480 234Q488 298 472 351T414 437T306 470Q246 470 196 445T111 376T57 279Q53 267 50 255T45 230Q37 169 54 115T114 26T220 -9Q274 -9 315 5T389 46T450 106L391 148Q372 126 349
107T298 77T237 66Q191 67 164 89T128 148T125 230L133 260Q142 300 165 331T223 382T299 400Q338 400 360 384T392 340T401 278H103L92 211ZM371 586Q369 565 382 549T417 531Q438 530 457 547T479 584Q481 605 468 622T433 640Q413 641 393 624T371 586ZM177
586Q175 565 188 549T223 531Q243 530 263 547T285 584Q287 605 274 622T239 640Q219 641 199 624T177 586Z" />
<glyph unicode="&#xec;" horiz-adv-x="252" d="M137 460L61 0H138L218 460H137ZM63 701L215 550L262 579L142 740L63 701Z" />
<glyph unicode="&#xed;" horiz-adv-x="252" d="M137 460L61 0H138L218 460H137ZM375 698L306 740L134 582L176 551L375 698Z" />
<glyph unicode="&#xee;" horiz-adv-x="252" d="M137 460L61 0H138L218 460H137ZM210 635L301 541L354 579L220 720L42 582L86 541L210 635Z" />
<glyph unicode="&#xef;" horiz-adv-x="252" d="M137 460L61 0H138L218 460H137ZM247 616Q245 595 258 579T293 561Q314 560 333 577T355 614Q357 635 344 652T309 670Q289 671 269 654T247 616ZM53 616Q51 595 64 579T99 561Q120 560 139 577T161 614Q163 635
150 652T115 670Q95 671 75 654T53 616Z" />
<glyph unicode="&#xf0;" horiz-adv-x="576" d="M263 -10Q325 -10 373 14T456 78T508 170T526 275Q526 315 517 355T489 438T438 525T363 620T261 725L213 669Q256 632 288 598T346 529T389 460T423 386H464Q421 421 382 439T297 457Q252 457 208 439T129 386T72
306T50 205Q50 140 76 92T151 17T263 -10ZM263 67Q205 67 168 104T131 205Q131 244 146 278T188 339T246 380T313 395Q351 395 380 379T425 332T442 255Q442 220 429 187T393 126T336 83T263 67ZM224 503L504 610L486 657L206 550L224 503Z" />
<glyph unicode="&#xf1;" horiz-adv-x="509" d="M203 460H124L44 0H124L203 460ZM380 280L332 0H410L460 290Q466 341 455 381T414 446T334 470Q283 470 242 444T174 374T136 281H172Q180 312 198 338T244 380T307 395Q340 394 357 379T379 338T380 280ZM164 569L212
531Q218 545 231 562T270 581Q291 582 307 571T339 548T379 535Q404 534 425 545T464 572T493 606L453 650Q439 631 423 618T390 603Q367 602 352 613T320 637T277 649Q253 650 231 639T192 609T164 569Z" />
<glyph unicode="&#xf2;" horiz-adv-x="530" d="M45 230Q36 167 57 113T125 25T239 -9Q307 -9 364 23T460 110T509 230Q519 294 498 348T429 436T315 470Q248 470 190 438T94 351T45 230ZM125 230Q133 275 159 312T224 372T308 395Q354 395 383 371T424 310T429
230Q422 186 396 148T331 88T246 66Q201 66 172 89T131 150T125 230ZM201 701L354 550L401 579L280 740L201 701Z" />
<glyph unicode="&#xf3;" horiz-adv-x="530" d="M45 230Q36 167 57 113T125 25T239 -9Q307 -9 364 23T460 110T509 230Q519 294 498 348T429 436T315 470Q248 470 190 438T94 351T45 230ZM125 230Q133 275 159 312T224 372T308 395Q354 395 383 371T424 310T429
230Q422 186 396 148T331 88T246 66Q201 66 172 89T131 150T125 230ZM513 698L445 740L273 582L315 551L513 698Z" />
<glyph unicode="&#xf4;" horiz-adv-x="530" d="M45 230Q36 167 57 113T125 25T239 -9Q307 -9 364 23T460 110T509 230Q519 294 498 348T429 436T315 470Q248 470 190 438T94 351T45 230ZM125 230Q133 275 159 312T224 372T308 395Q354 395 383 371T424 310T429
230Q422 186 396 148T331 88T246 66Q201 66 172 89T131 150T125 230ZM351 645L441 551L495 589L361 730L183 592L227 551L351 645Z" />
<glyph unicode="&#xf5;" horiz-adv-x="530" d="M45 230Q36 167 57 113T125 25T239 -9Q307 -9 364 23T460 110T509 230Q519 294 498 348T429 436T315 470Q248 470 190 438T94 351T45 230ZM125 230Q133 275 159 312T224 372T308 395Q354 395 383 371T424 310T429
230Q422 186 396 148T331 88T246 66Q201 66 172 89T131 150T125 230ZM174 569L221 531Q228 545 240 562T280 581Q301 582 317 571T349 548T389 535Q414 534 435 545T474 572T503 606L463 650Q448 631 433 618T399 603Q376 602 361 613T329 637T287 649Q269 649
242 638T195 609T174 569Z" />
<glyph unicode="&#xf6;" horiz-adv-x="530" d="M45 230Q36 167 57 113T125 25T239 -9Q307 -9 364 23T460 110T509 230Q519 294 498 348T429 436T315 470Q248 470 190 438T94 351T45 230ZM125 230Q133 275 159 312T224 372T308 395Q354 395 383 371T424 310T429
230Q422 186 396 148T331 88T246 66Q201 66 172 89T131 150T125 230ZM386 616Q384 595 397 579T432 561Q452 560 472 577T494 614Q496 635 483 652T448 670Q428 671 408 654T386 616ZM192 616Q190 595 203 579T238 561Q258 560 278 577T300 614Q302 635 289 652T254
670Q234 671 214 654T192 616Z" />
<glyph unicode="&#xf7;" horiz-adv-x="605" d="M297 451Q296 437 301 425T318 405T343 396Q357 395 370 402T394 423T405 449Q407 463 401 475T384 496T359 505Q345 506 332 498T309 478T297 451ZM232 71Q230 50 243 34T278 16Q292 15 305 22T329 43T340 69Q342
83 336 95T320 116T294 125Q281 126 267 118T244 98T232 71ZM70 226L557 225L570 305H83L70 226Z" />
<glyph unicode="&#xf8;" horiz-adv-x="530" d="M45 230Q36 167 57 113T125 25T239 -9Q307 -9 364 23T460 110T509 230Q519 294 498 348T429 436T315 470Q248 470 190 438T94 351T45 230ZM125 230Q133 275 159 312T224 372T308 395Q354 395 383 371T424 310T429
230Q422 186 396 148T331 88T246 66Q201 66 172 89T131 150T125 230ZM484 499L17 -22L60 -43L527 479L484 499Z" />
<glyph unicode="&#xf9;" horiz-adv-x="509" d="M331 0H410L490 460H410L331 0ZM154 180L202 460H125L74 170Q68 120 79 80T120 15T200 -9Q251 -9 292 17T361 87T399 179H362Q354 149 336 123T290 81T227 66Q194 67 177 82T156 123T154 180ZM230 701L382 550L430
579L309 740L230 701Z" />
<glyph unicode="&#xfa;" horiz-adv-x="509" d="M331 0H410L490 460H410L331 0ZM154 180L202 460H125L74 170Q68 120 79 80T120 15T200 -9Q251 -9 292 17T361 87T399 179H362Q354 149 336 123T290 81T227 66Q194 67 177 82T156 123T154 180ZM464 698L396 740L225
582L265 551L464 698Z" />
<glyph unicode="&#xfb;" horiz-adv-x="509" d="M331 0H410L490 460H410L331 0ZM154 180L202 460H125L74 170Q68 120 79 80T120 15T200 -9Q251 -9 292 17T361 87T399 179H362Q354 149 336 123T290 81T227 66Q194 67 177 82T156 123T154 180ZM340 645L430 551L484
589L350 730L172 592L216 551L340 645Z" />
<glyph unicode="&#xfc;" horiz-adv-x="509" d="M331 0H410L490 460H410L331 0ZM154 180L202 460H125L74 170Q68 120 79 80T120 15T200 -9Q251 -9 292 17T361 87T399 179H362Q354 149 336 123T290 81T227 66Q194 67 177 82T156 123T154 180ZM375 606Q373 586 385
569T419 551Q440 550 460 567T483 604Q485 625 471 642T436 660Q415 661 396 644T375 606ZM181 606Q179 586 191 569T225 551Q246 550 266 567T288 604Q290 625 277 642T242 660Q221 661 202 644T181 606Z" />
<glyph unicode="&#xfd;" horiz-adv-x="427" d="M481 460H390L192 105L224 100L144 460H52L156 68L-18 -219H73L481 460ZM433 698L364 740L193 582L234 551L433 698Z" />
<glyph unicode="&#xfe;" horiz-adv-x="553" d="M83 -219L252 780H174L2 -220L83 -219ZM532 230Q541 295 522 349T458 437T348 470Q302 470 264 451T196 399T148 323T122 230Q116 184 121 141T145 64T194 10T272 -10Q337 -10 392 21T485 108T532 230ZM453 230Q446
183 419 146T354 87T270 66Q240 67 218 80T180 116T160 168T158 230Q164 265 180 295T221 347T273 382T332 395Q376 395 405 373T447 313T453 230Z" />
<glyph unicode="&#xff;" horiz-adv-x="427" d="M481 460H390L192 105L224 100L144 460H52L156 68L-18 -219H73L481 460ZM330 586Q328 565 341 549T375 531Q396 530 415 547T437 584Q439 605 426 622T392 640Q371 641 352 624T330 586ZM136 586Q134 565 147 549T181
531Q202 530 221 547T243 584Q245 605 232 622T198 640Q177 641 158 624T136 586Z" />
<glyph unicode="&#x2013;" horiz-adv-x="718" d="M76 201L659 200L672 275H88L76 201Z" />
<glyph unicode="&#x2014;" horiz-adv-x="864" d="M76 201L805 200L817 275H88L76 201Z" />
<glyph unicode="&#x2018;" horiz-adv-x="267" d="M215 471L312 699H256L118 471H215Z" />
<glyph unicode="&#x2019;" horiz-adv-x="267" d="M198 700L101 471H156L294 700H198Z" />
<glyph unicode="&#x201a;" horiz-adv-x="267" d="M102 80L5 -149H60L198 80H102Z" />
<glyph unicode="&#x201c;" horiz-adv-x="461" d="M215 471L312 699H256L118 471H215ZM409 471L506 699H450L312 471H409Z" />
<glyph unicode="&#x201d;" horiz-adv-x="461" d="M198 700L101 471H156L294 700H198ZM392 700L295 471H351L489 700H392Z" />
<glyph unicode="&#x201e;" horiz-adv-x="461" d="M97 80L0 -149H55L193 80H97ZM291 80L194 -149H250L388 80H291Z" />
<glyph unicode="&#x2022;" horiz-adv-x="291" d="M135 417Q135 402 142 390T162 370T190 362Q205 362 217 369T237 389T244 417Q244 432 237 444T218 464T190 471Q175 471 163 464T143 445T135 417Z" />
<glyph unicode="&#x2039;" horiz-adv-x="340" d="M143 259L322 444L278 490L55 258L201 20L257 64L143 259Z" />
<glyph unicode="&#x203a;" horiz-adv-x="340" d="M229 252L51 67L95 21L318 252L171 490L116 446L229 252Z" />
</font>
</defs>
</svg>
