<?xml version="1.0" standalone="no"?>
<!DOCTYPE svg PUBLIC "-//W3C//DTD SVG 1.1//EN" "http://www.w3.org/Graphics/SVG/1.1/DTD/svg11.dtd">
<svg xmlns="http://www.w3.org/2000/svg">
<defs >
<font id="Jura" horiz-adv-x="1112" ><font-face
    font-family="Jura Light Light"
    units-per-em="2000"
    panose-1="0 0 0 0 0 0 0 0 0 0"
    ascent="1930"
    descent="-436"
    alphabetic="0" />
<glyph unicode=" " horiz-adv-x="460" />
<glyph unicode="!" horiz-adv-x="414" d="M208 322Q166 322 166 364V1340Q166 1382 208 1382Q250 1382 250 1340V364Q250 322 208 322ZM190 0Q140 0 140 52V86Q140 136 190 136H224Q274 136 274 86V52Q274 0 224 0H190Z" />
<glyph unicode="&quot;" horiz-adv-x="544" d="M182 926Q164 926 152 938T140 968V1376Q140 1394 152 1406T182 1418Q200 1418 212 1406T224 1376V968Q224 950 212 938T182 926ZM362 926Q344 926 332 938T320 968V1376Q320 1394 332 1406T362 1418Q380 1418 392
1406T404 1376V968Q404 950 392 938T362 926Z" />
<glyph unicode="#" horiz-adv-x="1130" d="M204 2Q186 2 174 14T162 44Q162 47 162 50T164 56L266 424H102Q84 424 72 436T60 466Q60 484 72 496T102 508H290L378 824H214Q196 824 184 836T172 866Q172 884 184 896T214 908H400L504 1276Q508 1290 518 1299T544
1308Q562 1308 574 1296T586 1266Q586 1263 586 1260T584 1254L488 908H760L864 1276Q868 1290 878 1299T904 1308Q922 1308 934 1296T946 1266Q946 1263 946 1260T944 1254L848 908H1068Q1086 908 1098 896T1110 866Q1110 848 1098 836T1068 824H824L736 508H956Q974
508 986 496T998 466Q998 448 986 436T956 424H714L604 34Q600 21 590 12T564 2Q546 2 534 14T522 44Q522 47 522 50T524 56L626 424H354L244 34Q240 21 230 12T204 2ZM376 508H650L738 824H464L376 508Z" />
<glyph unicode="$" horiz-adv-x="1260" d="M492 0Q320 0 240 80T160 332Q160 353 170 363T202 374Q223 374 233 364T244 332Q244 194 299 139T492 84H768Q906 84 961 139T1016 332Q1016 470 961 525T768 580H522Q357 580 282 664T206 912Q206 1076 281 1151T520
1226H762Q926 1226 1001 1151T1076 914Q1076 893 1066 883T1034 872Q1013 872 1003 882T992 914Q992 1040 941 1091T762 1142H520Q393 1142 342 1091T290 912Q290 785 341 725T522 664H768Q941 664 1020 585T1100 332Q1100 160 1021 80T768 0H492ZM636 -164Q594
-164 594 -122V616L602 634V1378Q602 1420 644 1420Q686 1420 686 1378V626L678 604V-122Q678 -164 636 -164Z" />
<glyph unicode="%" horiz-adv-x="1432" d="M350 616Q221 616 161 676T100 866V1016Q100 1147 160 1206T350 1266H382Q511 1266 571 1206T632 1016V868Q632 738 572 677T382 616H350ZM184 866Q184 773 220 737T350 700H382Q475 700 511 737T548 868V1016Q548 1109
512 1145T382 1182H350Q257 1182 221 1147T184 1016V866ZM1050 0Q921 0 861 60T800 250V400Q800 531 860 590T1050 650H1082Q1211 650 1271 590T1332 400V252Q1332 122 1272 61T1082 0H1050ZM884 250Q884 157 920 121T1050 84H1082Q1175 84 1211 121T1248 252V400Q1248
493 1212 529T1082 566H1050Q957 566 921 531T884 400V250ZM246 2Q228 2 216 14T204 44Q204 52 206 58T212 70L1134 1290Q1146 1308 1168 1308Q1186 1308 1198 1296T1210 1266Q1210 1259 1208 1253T1202 1240L280 20Q268 2 246 2Z" />
<glyph unicode="&amp;" horiz-adv-x="1200" d="M1148 94Q1120 63 1088 90L428 670Q363 727 327 773T275 867T260 976Q260 1126 330 1196T548 1266H598Q736 1266 805 1207T884 1022Q886 1001 875 990T844 978Q823 978 813 988T800 1020Q793 1110 748 1146T598 1182H548Q434
1182 389 1137T344 976Q344 928 355 892T396 820T484 734L1144 154Q1176 125 1148 94ZM524 0Q311 0 216 95T120 404Q120 569 179 663T368 792Q388 798 401 790T418 760Q423 736 415 726T386 710Q289 683 247 611T204 404Q204 286 235 216T336 115T524 84H588Q705
84 775 115T877 217T908 404V516Q908 558 950 558Q992 558 992 516V404Q992 193 896 97T588 0H524Z" />
<glyph unicode="&apos;" horiz-adv-x="364" d="M182 926Q164 926 152 938T140 968V1376Q140 1394 152 1406T182 1418Q200 1418 212 1406T224 1376V968Q224 950 212 938T182 926Z" />
<glyph unicode="(" horiz-adv-x="512" d="M450 -322Q266 -322 183 -220T100 108V878Q100 1114 183 1221T450 1328Q468 1328 480 1316T492 1286Q492 1268 480 1256T450 1244Q353 1244 295 1209T210 1094T184 878V108Q184 -84 244 -161T450 -238Q468 -238 480 -250T492
-280Q492 -298 480 -310T450 -322Z" />
<glyph unicode=")" horiz-adv-x="512" d="M62 -322Q44 -322 32 -310T20 -280Q20 -262 32 -250T62 -238Q208 -238 268 -161T328 108V878Q328 1013 302 1093T218 1209T62 1244Q44 1244 32 1256T20 1286Q20 1304 32 1316T62 1328Q247 1328 329 1221T412 878V108Q412
-117 330 -219T62 -322Z" />
<glyph unicode="*" horiz-adv-x="768" d="M384 704Q342 704 342 746V954L374 934L194 830Q176 820 163 824T138 846Q118 883 152 904L330 1006V970L152 1072Q134 1083 132 1098T138 1130Q149 1150 164 1152T194 1146L374 1042L342 1022V1230Q342 1272 384 1272Q426
1272 426 1230V1024L394 1044L572 1146Q608 1167 630 1130Q651 1094 614 1072L436 970V1006L614 904Q651 882 630 846Q608 809 572 830L394 932L426 952V746Q426 704 384 704Z" />
<glyph unicode="+" horiz-adv-x="1090" d="M468 978Q468 1020 510 1020Q552 1020 552 978V252Q552 210 510 210Q468 210 468 252V978ZM182 612Q140 612 140 654Q140 696 182 696H908Q950 696 950 654Q950 612 908 612H182ZM182 612Q140 612 140 654Q140 696 182
696H908Q950 696 950 654Q950 612 908 612H182Z" />
<glyph unicode="," horiz-adv-x="376" d="M100 -184Q82 -184 69 -173T58 -142L102 93Q107 136 152 136H186Q236 136 236 86V64Q236 44 235 36T230 22L140 -156Q126 -184 100 -184Z" />
<glyph unicode="-" horiz-adv-x="916" d="M182 498Q164 498 152 510T140 540Q140 558 152 570T182 582H734Q752 582 764 570T776 540Q776 522 764 510T734 498H182Z" />
<glyph unicode="." horiz-adv-x="414" d="M190 0Q140 0 140 52V86Q140 136 190 136H224Q274 136 274 86V52Q274 0 224 0H190Z" />
<glyph unicode="/" horiz-adv-x="694" d="M142 -264Q117 -264 107 -248T102 -210L512 1386Q518 1418 552 1418Q579 1418 589 1404T594 1364L182 -232Q176 -264 142 -264Z" />
<glyph unicode="0" horiz-adv-x="1172" d="M526 -6Q313 -6 217 90T120 400V854Q120 1067 217 1162T526 1258H646Q859 1258 955 1162T1052 852V400Q1052 187 956 91T646 -6H526ZM526 78H646Q764 78 834 109T936 211T968 400V852Q968 970 937 1040T835 1142T646
1174H526Q408 1174 338 1143T236 1042T204 854V400Q204 282 235 212T337 110T526 78ZM570 554Q520 554 520 606V640Q520 690 570 690H604Q654 690 654 640V606Q654 554 604 554H570Z" />
<glyph unicode="1" horiz-adv-x="686" d="M444 0Q402 0 402 42V1180L450 1178L234 964Q219 949 204 949T174 964Q147 994 174 1024L400 1244Q419 1266 452 1266Q486 1266 486 1224V42Q486 0 444 0Z" />
<glyph unicode="2" horiz-adv-x="1128" d="M966 0H182Q138 0 138 42Q138 150 165 228T250 368T396 490T608 620Q703 675 769 719T869 813T904 938Q904 1073 851 1127T660 1182H446Q323 1182 268 1137T204 982Q203 961 193 951T162 940Q141 940 130 951T120 984Q129
1130 208 1198T446 1266H660Q831 1266 909 1188T988 938Q988 840 943 773T822 654T650 548Q507 466 416 404T279 269T224 84H966Q1008 84 1008 42Q1008 0 966 0Z" />
<glyph unicode="3" horiz-adv-x="1142" d="M446 2Q277 2 193 74T100 304Q99 325 110 336T142 348Q181 348 184 306Q192 185 251 136T446 86H674Q821 86 879 144T938 348Q938 494 880 552T674 610H478Q436 610 436 652Q436 694 478 694H684Q812 696 859 755T906
938Q906 1073 853 1127T662 1182H468Q345 1182 290 1137T226 982Q223 940 184 940Q163 940 152 951T142 984Q151 1130 230 1198T468 1266H662Q833 1266 911 1188T990 938Q990 731 832 658Q931 621 976 545T1022 348Q1022 168 939 85T674 2H446Z" />
<glyph unicode="4" horiz-adv-x="1036" d="M796 0Q754 0 754 42L764 1140L780 1130L166 342L148 362H934Q955 362 965 352T976 320Q976 278 934 278H102Q60 278 60 320Q60 340 78 364L760 1240Q771 1254 782 1260T812 1266Q848 1266 848 1224L838 42Q838 0 796 0Z" />
<glyph unicode="5" horiz-adv-x="1142" d="M466 0Q297 0 213 72T120 302Q119 323 130 334T162 346Q201 346 204 304Q212 183 271 134T466 84H674Q821 84 879 143T938 348V486Q938 632 880 691T674 750H526Q326 750 252 676Q240 664 227 659T196 660L188 662Q152
671 152 708V1224Q152 1266 194 1266H966Q1008 1266 1008 1224Q1008 1182 966 1182H236V772Q336 834 526 834H674Q856 834 939 751T1022 486V348Q1022 167 939 84T674 0H466Z" />
<glyph unicode="6" horiz-adv-x="1144" d="M468 2Q287 2 204 85T120 348V938Q120 1109 198 1187T448 1266H696Q855 1266 934 1198T1022 984Q1024 963 1013 952T982 940Q941 940 938 982Q931 1092 876 1137T696 1182H448Q313 1182 259 1128T204 938V696Q268 832
468 832H676Q858 832 941 749T1024 484V350Q1024 169 941 86T676 2H468ZM468 86H676Q822 86 881 145T940 350V484Q940 630 881 689T676 748H468Q321 748 263 690T204 486V348Q204 203 262 145T468 86Z" />
<glyph unicode="7" horiz-adv-x="914" d="M314 0Q272 0 272 44Q273 181 284 287T326 476T412 629T558 760Q634 813 679 870T746 1001T770 1182H102Q60 1182 60 1224Q60 1266 102 1266H812Q854 1266 854 1224Q854 1091 831 996T753 828T606 692Q533 641 485 587T409
461T370 289T356 44Q356 0 314 0Z" />
<glyph unicode="8" horiz-adv-x="1164" d="M874 656Q1044 586 1044 346Q1044 166 961 83T696 0H468Q287 0 204 83T120 346Q120 588 296 658Q162 734 162 938Q162 1109 240 1187T490 1266H684Q855 1266 933 1188T1012 938Q1012 729 874 656ZM490 1182Q355 1182
301 1128T246 938Q246 802 301 747T492 692L724 694Q799 694 844 720T908 801T928 938Q928 1073 874 1127T684 1182H490ZM696 84Q843 84 901 142T960 346Q960 492 902 550T696 608H468Q321 608 263 550T204 346Q204 201 262 143T468 84H696Z" />
<glyph unicode="9" horiz-adv-x="1144" d="M676 1264Q858 1264 941 1181T1024 918V328Q1024 157 946 79T696 0H448Q289 0 210 68T122 282Q121 303 132 314T162 326Q203 326 206 284Q214 175 269 130T448 84H696Q831 84 885 138T940 328V570Q876 434 676 434H468Q287
434 204 517T120 782V916Q120 1098 203 1181T468 1264H676ZM676 1180H468Q323 1180 264 1121T204 916V782Q204 637 263 578T468 518H676Q823 518 881 576T940 780V918Q940 1064 882 1122T676 1180Z" />
<glyph unicode=":" horiz-adv-x="414" d="M190 0Q140 0 140 52V86Q140 136 190 136H224Q274 136 274 86V52Q274 0 224 0H190ZM190 660Q140 660 140 712V746Q140 796 190 796H224Q274 796 274 746V712Q274 660 224 660H190Z" />
<glyph unicode=";" horiz-adv-x="376" d="M100 -184Q82 -184 69 -173T58 -142L102 93Q107 136 152 136H186Q236 136 236 86V64Q236 44 235 36T230 22L140 -156Q126 -184 100 -184ZM152 660Q102 660 102 712V746Q102 796 152 796H186Q236 796 236 746V712Q236 660
186 660H152Z" />
<glyph unicode="&lt;" horiz-adv-x="1090" d="M880 280Q858 243 822 264L230 598Q200 614 200 652Q200 686 230 702L822 1032Q858 1053 880 1016Q901 980 864 958L290 640V662L864 338Q901 316 880 280Z" />
<glyph unicode="=" horiz-adv-x="1090" d="M182 736Q140 736 140 778Q140 820 182 820H908Q950 820 950 778Q950 736 908 736H182ZM182 736Q140 736 140 778Q140 820 182 820H908Q950 820 950 778Q950 736 908 736H182Z" />
<glyph unicode="&gt;" horiz-adv-x="1090" d="M208 280Q187 316 224 338L798 662V640L224 958Q187 980 208 1016Q230 1053 266 1032L858 702Q888 686 888 652Q888 614 858 598L266 264Q230 243 208 280Z" />
<glyph unicode="?" horiz-adv-x="950" d="M434 262Q392 262 392 304Q392 414 422 480T498 586T588 656Q632 686 668 718T725 800T746 938Q746 1073 692 1127T502 1182H368Q233 1182 179 1128T124 938Q124 896 82 896Q40 896 40 938Q40 1108 119 1187T368 1266H502Q673
1266 751 1188T830 938Q830 828 800 762T725 656T634 586Q590 556 554 525T497 442T476 304Q476 262 434 262ZM420 0Q370 0 370 52V86Q370 136 420 136H454Q504 136 504 86V52Q504 0 454 0H420Z" />
<glyph unicode="@" horiz-adv-x="1426" d="M1234 80Q1140 0 1002 0H452Q298 -1 229 69T160 300V806Q160 967 229 1037T452 1106H972Q1130 1106 1198 1036T1266 804V406Q1266 318 1223 279T1082 240Q1018 240 978 262T918 352Q879 285 818 261T674 236H660Q533
236 474 295T414 480V638Q414 770 472 829T658 888H740Q791 888 831 874T900 810Q902 857 914 872T942 888Q963 888 973 878T984 846V406Q984 355 1001 340T1082 324Q1145 324 1163 339T1182 406V804Q1182 888 1163 935T1099 1002T972 1022H452Q332 1024 288 978T244
806V300Q244 174 288 129T452 84H1002Q1062 84 1101 97T1180 144Q1193 154 1208 154Q1226 154 1238 142T1250 112Q1250 93 1234 80ZM498 480Q498 389 533 355T660 320H674Q790 320 845 359T900 480V636Q900 735 867 769T740 804H658Q567 804 533 770T498 638V480Z"
/>
<glyph unicode="A" horiz-adv-x="1194" d="M66 4Q29 22 44 60L546 1234Q558 1266 594 1266H600Q633 1266 648 1234L1148 60Q1165 22 1126 4Q1088 -12 1072 26L931 358H265L122 26Q106 -12 66 4ZM301 442H895L600 1134L301 442Z" />
<glyph unicode="B" horiz-adv-x="1206" d="M222 0Q180 0 180 42V1224Q180 1266 222 1266H744Q887 1266 959 1195T1032 984V930Q1032 765 926 704Q1106 637 1106 396V334Q1106 169 1022 85T770 0H222ZM264 84H770Q902 84 962 144T1022 334V396Q1022 527 962 585T770
644H264V84ZM264 728H752Q850 728 899 775T948 930V984Q948 1088 900 1135T744 1182H264V728Z" />
<glyph unicode="C" horiz-adv-x="1310" d="M566 0Q353 0 257 96T160 406V860Q160 1075 256 1170T564 1266H806Q989 1266 1076 1190T1170 944Q1172 923 1162 912T1130 900Q1089 900 1086 942Q1080 1077 1017 1129T806 1182H564Q446 1182 376 1151T275 1050T244
860V406Q244 288 275 218T377 116T566 84H806Q953 84 1016 136T1086 324Q1089 366 1130 366Q1151 366 1161 355T1170 322Q1163 153 1076 77T806 0H566Z" />
<glyph unicode="D" horiz-adv-x="1330" d="M222 0Q180 0 180 42V1224Q180 1266 222 1266H704Q949 1266 1059 1156T1170 800V466Q1170 222 1060 111T704 0H222ZM264 84H704Q843 84 927 121T1048 243T1086 466V800Q1086 939 1049 1023T927 1144T704 1182H264V84Z" />
<glyph unicode="E" horiz-adv-x="1094" d="M222 0Q180 0 180 42V1224Q180 1266 222 1266H982Q1024 1266 1024 1224Q1024 1182 982 1182H264V684H746Q788 684 788 642Q788 600 746 600H264V84H982Q1024 84 1024 42Q1024 0 982 0H222Z" />
<glyph unicode="F" horiz-adv-x="980" d="M222 0Q180 0 180 42V1224Q180 1266 222 1266H938Q959 1266 969 1256T980 1224Q980 1182 938 1182H264V684H738Q780 684 780 642Q780 600 738 600H264V42Q264 0 222 0Z" />
<glyph unicode="G" horiz-adv-x="1312" d="M566 0Q353 0 257 96T160 406V860Q160 1075 256 1170T564 1266H806Q989 1266 1076 1190T1170 944Q1172 923 1162 912T1130 900Q1089 900 1086 942Q1080 1077 1017 1129T806 1182H564Q446 1182 376 1151T275 1050T244
860V406Q244 288 275 218T377 116T566 84H806Q912 84 973 110T1061 198T1088 366V502L848 504Q806 504 806 546Q806 588 848 588L1130 586Q1172 586 1172 544V366Q1172 173 1086 87T806 0H566Z" />
<glyph unicode="H" horiz-adv-x="1374" d="M222 0Q201 0 191 10T180 42V1224Q180 1245 190 1255T222 1266Q243 1266 253 1256T264 1224V684H1110V1224Q1110 1245 1120 1255T1152 1266Q1173 1266 1183 1256T1194 1224V42Q1194 21 1184 11T1152 0Q1131 0 1121 10T1110
42V600H264V42Q264 21 254 11T222 0Z" />
<glyph unicode="I" horiz-adv-x="444" d="M222 0Q204 0 192 12T180 42V1226Q180 1244 192 1256T222 1268Q240 1268 252 1256T264 1226V42Q264 24 252 12T222 0Z" />
<glyph unicode="J" horiz-adv-x="998" d="M408 0Q225 0 139 76T44 322Q43 343 53 354T84 366Q125 366 128 324Q134 189 197 137T408 84H462Q568 84 629 110T717 198T744 366V1224Q744 1266 786 1266Q828 1266 828 1224V366Q828 173 742 87T462 0H408Z" />
<glyph unicode="K" horiz-adv-x="1078" d="M222 0Q180 0 180 42V1224Q180 1266 222 1266Q264 1266 264 1224V615L886 1252Q915 1281 944 1252Q975 1224 946 1192L490 726L1026 62Q1053 29 1020 2Q988 -24 962 8L432 666L264 494V42Q264 0 222 0Z" />
<glyph unicode="L" horiz-adv-x="972" d="M222 0Q180 0 180 42V1224Q180 1266 222 1266Q264 1266 264 1224V84H890Q932 84 932 42Q932 0 890 0H222Z" />
<glyph unicode="M" horiz-adv-x="1534" d="M222 0Q180 0 180 42V1224Q180 1266 222 1266Q255 1266 272 1238L778 460L758 458L1264 1238Q1281 1266 1314 1266Q1354 1266 1354 1224V42Q1354 0 1312 0Q1270 0 1270 42V1140L1294 1132L818 400Q801 372 768 372Q735
372 718 400L242 1132L264 1122V42Q264 0 222 0Z" />
<glyph unicode="N" horiz-adv-x="1374" d="M222 0Q180 0 180 42V1224Q180 1266 222 1266Q245 1266 266 1242L1128 136H1110V1224Q1110 1266 1152 1266Q1194 1266 1194 1224V42Q1194 0 1152 0Q1129 0 1108 24L246 1130H264V42Q264 0 222 0Z" />
<glyph unicode="O" horiz-adv-x="1372" d="M566 0Q353 0 257 96T160 406V860Q160 1075 256 1171T564 1266H806Q1019 1266 1115 1170T1212 860V406Q1212 193 1116 97T806 0H566ZM566 84H806Q924 84 994 115T1096 217T1128 406V860Q1128 978 1097 1048T995 1150T806
1182H564Q446 1183 376 1152T275 1050T244 860V406Q244 288 275 218T377 116T566 84Z" />
<glyph unicode="P" horiz-adv-x="1086" d="M222 0Q180 0 180 42V1224Q180 1266 222 1266H690Q857 1266 941 1182T1026 930V870Q1026 704 942 619T690 534H264V42Q264 0 222 0ZM264 618H690Q821 618 881 679T942 870V930Q942 1061 882 1121T690 1182H264V618Z" />
<glyph unicode="Q" horiz-adv-x="1372" d="M1196 4Q1211 -11 1211 -26T1196 -56Q1166 -86 1136 -56L894 190Q879 205 879 220T894 250Q924 280 954 250L1196 4ZM566 0Q353 0 257 96T160 406V860Q160 1075 256 1171T564 1266H806Q1019 1266 1115 1170T1212 860V406Q1212
193 1116 97T806 0H566ZM566 84H806Q924 84 994 115T1096 217T1128 406V860Q1128 978 1097 1048T995 1150T806 1182H564Q446 1183 376 1152T275 1050T244 860V406Q244 288 275 218T377 116T566 84Z" />
<glyph unicode="R" horiz-adv-x="1164" d="M1052 -2Q1034 -12 1020 -9T994 10L660 534H264V42Q264 0 222 0Q180 0 180 42V1224Q180 1266 222 1266H690Q857 1266 941 1182T1026 930V870Q1026 722 959 639T758 538L1064 56Q1088 19 1052 -2ZM264 618H690Q821 618
881 679T942 870V930Q942 1061 882 1121T690 1182H264V618Z" />
<glyph unicode="S" horiz-adv-x="1304" d="M508 2Q327 2 244 85T160 348Q160 366 172 378T202 390Q220 390 232 378T244 348Q244 203 302 145T508 86H796Q943 86 1001 144T1060 348Q1060 494 1002 552T796 610H514Q342 610 263 688T184 938Q184 1109 262 1187T512
1266H806Q977 1266 1055 1188T1134 940Q1134 922 1122 910T1092 898Q1074 898 1062 910T1050 940Q1050 1074 996 1128T806 1182H512Q377 1182 323 1128T268 938Q268 803 323 749T514 694H796Q978 694 1061 611T1144 348Q1144 168 1061 85T796 2H508Z" />
<glyph unicode="T" horiz-adv-x="1104" d="M552 -2Q534 -2 522 10T510 40V1184H72Q54 1184 42 1196T30 1226Q30 1244 42 1256T72 1268H1032Q1050 1268 1062 1256T1074 1226Q1074 1208 1062 1196T1032 1184H594V40Q594 22 582 10T552 -2Z" />
<glyph unicode="U" horiz-adv-x="1392" d="M576 0Q363 0 267 96T170 406V1224Q170 1242 182 1254T212 1266Q230 1266 242 1254T254 1224V406Q254 288 285 218T387 116T576 84H816Q934 84 1004 115T1106 217T1138 406V1224Q1138 1242 1150 1254T1180 1266Q1198
1266 1210 1254T1222 1224V406Q1222 193 1126 97T816 0H576Z" />
<glyph unicode="V" horiz-adv-x="1194" d="M590 0Q562 0 552 26L24 1206Q12 1233 27 1249T62 1266Q90 1266 100 1240L611 97H581L1092 1240Q1102 1266 1130 1266Q1153 1266 1166 1250T1168 1206L640 26Q630 0 602 0H590Z" />
<glyph unicode="W" horiz-adv-x="1681" d="M451 0Q418 0 409 30L21 1210Q15 1228 26 1247T61 1266Q76 1266 86 1259T101 1236L467 124H443L789 1236Q794 1253 808 1260T839 1268Q856 1268 870 1261T889 1236L1235 124H1211L1577 1236Q1582 1251 1592 1258T1617
1266Q1647 1266 1655 1247T1657 1210L1269 30Q1260 0 1225 0H1221Q1186 0 1177 30L827 1152H851L501 30Q495 9 482 5T451 0Z" />
<glyph unicode="X" horiz-adv-x="1118" d="M86 10Q53 34 74 68L488 670L110 1198Q86 1231 120 1256Q154 1281 180 1246L544 736L924 1248Q949 1282 984 1256Q1017 1232 992 1198L598 662L1024 68Q1048 35 1014 10Q981 -14 956 20L540 598L144 22Q120 -14 86 10Z" />
<glyph unicode="Y" horiz-adv-x="1030" d="M513 0Q471 0 471 42V500L27 1200Q5 1234 41 1258Q77 1281 99 1244L513 590L929 1246Q940 1263 954 1266T987 1258Q1023 1237 999 1200L555 500V42Q555 0 513 0Z" />
<glyph unicode="Z" horiz-adv-x="1190" d="M160 0Q114 0 114 42Q114 57 120 68T136 94L968 1202V1182H364Q270 1182 222 1144T164 1022Q163 1001 152 991T120 980Q101 980 90 991T80 1024Q89 1144 161 1205T364 1266H1024Q1066 1266 1066 1224Q1066 1206 1063
1194T1048 1168L214 46V84H826Q921 84 969 122T1026 244Q1028 265 1038 275T1068 286Q1089 286 1100 275T1110 242Q1092 0 826 0H160Z" />
<glyph unicode="[" horiz-adv-x="372" d="M142 -322Q100 -322 100 -280V1286Q100 1328 142 1328H310Q328 1328 340 1316T352 1286Q352 1268 340 1256T310 1244H184V-238H310Q328 -238 340 -250T352 -280Q352 -298 340 -310T310 -322H142Z" />
<glyph unicode="\" horiz-adv-x="694" d="M552 -264Q518 -264 512 -232L100 1364Q96 1390 105 1404T142 1418Q176 1418 182 1386L592 -210Q598 -232 588 -248T552 -264Z" />
<glyph unicode="]" horiz-adv-x="372" d="M230 -322H62Q44 -322 32 -310T20 -280Q20 -262 32 -250T62 -238H188V1244H62Q44 1244 32 1256T20 1286Q20 1304 32 1316T62 1328H230Q272 1328 272 1286V-280Q272 -322 230 -322Z" />
<glyph unicode="^" horiz-adv-x="744" d="M222 864Q218 852 207 844T182 836Q164 836 152 848T140 878Q140 883 141 887T144 894L302 1304Q316 1338 350 1338H394Q428 1338 442 1304L600 894Q602 891 603 887T604 878Q604 860 592 848T562 836Q549 836 538 844T522
864L372 1252L222 864Z" />
<glyph unicode="_" horiz-adv-x="850" d="M142 -84Q100 -84 100 -42Q100 0 142 0H648Q690 0 690 -42Q690 -84 648 -84H142Z" />
<glyph unicode="`" horiz-adv-x="466" d="M350 1046Q318 1017 290 1052L110 1264Q86 1297 116 1324Q148 1353 176 1318L356 1106Q380 1073 350 1046Z" />
<glyph unicode="a" horiz-adv-x="1162" d="M450 0Q299 0 230 69T160 290Q160 442 230 512T450 582H916Q915 723 855 780T650 838H534Q398 838 336 807T262 700Q259 681 250 671T220 660Q199 660 188 671T178 704Q186 818 274 870T534 922H650Q833 922 916 839T1000
572V42Q1000 0 958 0Q916 0 916 42V160Q824 0 562 0H450ZM450 84H562Q667 84 743 108T864 184T916 320V498H450Q335 498 290 453T244 290Q244 175 289 130T450 84Z" />
<glyph unicode="b" horiz-adv-x="1204" d="M222 0Q180 0 180 42V1338Q180 1380 222 1380Q264 1380 264 1338V772Q306 847 391 885T618 924H694Q877 924 960 841T1044 574V350Q1044 167 961 84T694 0H618Q477 0 392 38T264 152V42Q264 0 222 0ZM618 84H694Q841
84 900 143T960 350V574Q960 721 901 780T694 840H618Q455 840 360 786T264 622V296Q266 190 361 137T618 84Z" />
<glyph unicode="c" horiz-adv-x="1122" d="M510 0Q327 0 244 83T160 350V574Q160 757 243 840T510 922H674Q821 922 895 873T982 716Q984 695 973 684T940 672Q921 672 911 682T898 712Q889 781 838 809T674 838H510Q363 840 304 782T244 574V350Q244 203 303
144T510 84H674Q787 84 838 112T898 210Q901 230 911 240T940 250Q961 250 972 239T982 206Q970 100 896 50T674 0H510Z" />
<glyph unicode="d" horiz-adv-x="1186" d="M510 0Q327 0 244 83T160 350V572Q160 755 243 838T510 922H940V1338Q940 1380 982 1380Q1024 1380 1024 1338V42Q1024 0 982 0Q940 0 940 42V152Q898 77 813 39T586 0H510ZM510 84H586Q750 84 845 138T940 302V838H510Q363
838 304 779T244 572V350Q244 203 303 144T510 84Z" />
<glyph unicode="e" horiz-adv-x="1184" d="M244 430V348Q244 203 303 144T510 84H674Q809 84 869 121T938 248Q940 269 950 279T982 290Q1002 290 1013 279T1022 246Q1012 119 927 60T674 0H510Q327 0 244 83T160 348V572Q160 757 243 840T510 922H674Q857 922
940 839T1024 572V472Q1024 430 982 430H244ZM510 838Q363 840 304 781T244 572V514H940V572Q940 719 881 778T674 838H510Z" />
<glyph unicode="f" horiz-adv-x="618" d="M232 0Q190 0 190 42V838H102Q60 838 60 880Q60 922 102 922H190V1036Q190 1216 272 1298T534 1380Q578 1380 578 1338Q578 1296 534 1296Q390 1296 332 1238T274 1036V922H536Q578 922 578 880Q578 838 536 838H274V42Q274
0 232 0Z" />
<glyph unicode="g" horiz-adv-x="1186" d="M406 -400Q289 -400 230 -352T162 -198Q161 -177 172 -166T202 -154Q223 -154 234 -164T246 -196Q252 -265 288 -290T406 -316H778Q871 -316 905 -282T940 -154V150Q897 76 812 38T586 0H510Q327 0 244 83T160 348V572Q160
757 243 839T510 922H674Q781 922 844 894T940 807V880Q940 922 982 922Q1024 922 1024 880V-154Q1024 -281 965 -340T778 -400H406ZM510 84H586Q750 84 845 138T940 302V614Q940 737 876 787T674 838H510Q363 838 304 780T244 572V348Q244 203 303 144T510 84Z"
/>
<glyph unicode="h" horiz-adv-x="1186" d="M222 0Q180 0 180 42V1338Q180 1380 222 1380Q264 1380 264 1338V764Q355 922 618 922H674Q857 922 940 839T1024 572V42Q1024 0 982 0Q940 0 940 42V572Q940 719 881 778T674 838H618Q452 838 363 782T264 606V42Q264 0 222 0Z" />
<glyph unicode="i" horiz-adv-x="444" d="M201 1110Q141 1110 141 1172V1213Q141 1273 201 1273H242Q301 1273 301 1213V1172Q301 1110 242 1110H201ZM222 0Q180 0 180 42V880Q180 922 222 922Q264 922 264 880V42Q264 0 222 0Z" />
<glyph unicode="j" horiz-adv-x="444" d="M201 1110Q141 1110 141 1172V1213Q141 1273 201 1273H242Q301 1273 301 1213V1172Q301 1110 242 1110H201ZM2 -400Q-16 -400 -30 -390T-44 -358Q-44 -337 -30 -327T2 -316Q103 -316 141 -277T180 -138V880Q180 922 222
922Q264 922 264 880V-138Q264 -273 201 -336T2 -400Z" />
<glyph unicode="k" horiz-adv-x="938" d="M222 0Q180 0 180 42V1338Q180 1380 222 1380Q264 1380 264 1338V481L782 926Q812 953 840 922Q868 891 836 862L467 545L884 72Q912 41 880 12Q850 -15 822 16L402 490L264 371V42Q264 0 222 0Z" />
<glyph unicode="l" horiz-adv-x="548" d="M446 0Q308 0 244 63T180 262V1338Q180 1380 222 1380Q264 1380 264 1338V262Q264 160 303 122T444 84Q488 84 488 42Q488 0 446 0Z" />
<glyph unicode="m" horiz-adv-x="1666" d="M1222 924Q1374 924 1439 845T1504 582V40Q1504 -2 1462 -2Q1420 -2 1420 40V582Q1420 720 1375 780T1222 840H1138Q1002 840 943 780T884 582V40Q884 -2 842 -2Q800 -2 800 40V582Q800 720 755 780T602 840H518Q382
840 323 780T264 582V40Q264 -2 222 -2Q180 -2 180 40V880Q180 922 222 922Q264 922 264 880V792Q305 863 364 893T518 924H602Q700 924 761 887T860 765Q900 850 966 887T1138 924H1222Z" />
<glyph unicode="n" horiz-adv-x="1186" d="M222 0Q180 0 180 42V880Q180 922 222 922Q264 922 264 880V764Q355 922 618 922H674Q857 922 940 839T1024 572V42Q1024 0 982 0Q940 0 940 42V572Q940 719 881 778T674 838H618Q452 838 363 782T264 606V42Q264 0 222 0Z" />
<glyph unicode="o" horiz-adv-x="1184" d="M510 0Q327 0 244 83T160 348V572Q160 757 243 840T510 922H674Q857 922 940 839T1024 572V350Q1024 167 941 84T674 0H510ZM244 348Q244 203 303 144T510 84H674Q821 84 880 143T940 350V572Q940 719 881 778T674 838H510Q412
839 354 814T270 730T244 572V348Z" />
<glyph unicode="p" horiz-adv-x="1204" d="M222 -400Q180 -400 180 -358V880Q180 922 222 922Q264 922 264 880V770Q306 845 391 883T618 922H694Q877 922 960 839T1044 572V350Q1044 167 961 84T694 0H264V-358Q264 -400 222 -400ZM264 84H694Q841 84 900 143T960
350V572Q960 719 901 778T694 838H618Q447 838 363 782T264 608V84Z" />
<glyph unicode="q" horiz-adv-x="1186" d="M982 -400Q940 -400 940 -358V0H510Q327 0 244 83T160 350V572Q160 755 243 838T510 922H586Q727 922 812 884T940 770V880Q940 922 982 922Q1024 922 1024 880V-358Q1024 -400 982 -400ZM510 84H940V620Q940 730 845
784T586 838H510Q363 838 304 779T244 572V350Q244 203 303 144T510 84Z" />
<glyph unicode="r" horiz-adv-x="720" d="M222 0Q180 0 180 42V880Q180 922 222 922Q264 922 264 880V701Q314 808 414 865T656 922Q698 922 698 880Q698 838 656 838Q476 838 376 752T264 502V42Q264 0 222 0Z" />
<glyph unicode="s" horiz-adv-x="1082" d="M376 2Q255 2 193 54T120 216Q119 237 130 248T162 260Q182 260 192 250T204 218Q212 145 251 116T376 86H704Q803 86 840 124T878 260Q878 358 841 396T704 434H380Q254 434 194 493T134 678Q134 806 194 865T380 924H694Q918
924 936 724Q939 703 928 692T896 680Q875 680 865 690T852 722Q846 788 810 814T694 840H380Q289 840 254 805T218 678Q218 588 253 553T380 518H704Q838 518 900 456T962 260Q962 127 900 65T704 2H376Z" />
<glyph unicode="t" horiz-adv-x="676" d="M552 0Q372 0 290 82T208 342V838H82Q40 838 40 880Q40 922 82 922H208V1160Q208 1202 250 1202Q292 1202 292 1160V922H550Q592 922 592 880Q592 838 550 838H292V342Q292 198 349 141T552 84Q578 84 587 73T596 42Q596
0 552 0Z" />
<glyph unicode="u" horiz-adv-x="1186" d="M964 922Q1006 922 1006 880V42Q1006 0 964 0Q922 0 922 42V158Q831 0 568 0H512Q329 0 246 83T162 350V880Q162 922 204 922Q246 922 246 880V350Q246 203 305 144T512 84H568Q734 84 823 141T922 316V880Q922 922 964 922Z" />
<glyph unicode="v" horiz-adv-x="984" d="M532 32Q522 11 509 6T478 0Q441 0 426 32L44 864Q28 903 68 918Q106 934 122 896L510 50H450L860 896Q869 916 883 921T916 918Q956 901 938 862L532 32Z" />
<glyph unicode="w" horiz-adv-x="1367" d="M379 0Q338 0 327 34L43 864Q29 906 69 918Q108 930 121 892L411 46H359L637 872Q648 906 685 906Q720 906 731 872L991 46H935L1243 892Q1259 933 1297 918Q1337 903 1323 864L1013 34Q1000 0 961 0Q917 0 907 34L673
774H692L433 34Q426 12 411 6T379 0Z" />
<glyph unicode="x" horiz-adv-x="964" d="M108 12Q75 39 102 72L423 464L120 852Q94 883 126 912Q160 936 186 904L483 524L796 904Q824 939 856 910Q890 883 862 852L535 457L838 70Q866 36 832 12Q799 -15 772 18L476 396L166 18Q139 -16 108 12Z" />
<glyph unicode="y" horiz-adv-x="1166" d="M408 -400Q281 -400 222 -341T162 -152Q162 -110 204 -110Q246 -110 246 -152Q246 -246 281 -281T408 -316H740Q832 -316 867 -281T902 -152V130Q847 60 759 29T548 -2H506Q326 -2 244 80T162 340V882Q162 924 204 924Q246
924 246 882V340Q246 196 303 139T506 82H548Q727 82 814 146T902 340V882Q902 924 944 924Q986 924 986 882V-152Q986 -281 927 -340T740 -400H408Z" />
<glyph unicode="z" horiz-adv-x="1012" d="M160 0Q118 0 118 42Q118 64 136 88L760 856L812 838H334Q253 838 218 813T174 718Q173 697 163 687T132 676Q111 676 100 687T90 720Q99 825 159 873T334 922H824Q866 922 866 880Q866 855 848 832L234 74L192 84H698Q775
84 813 112T858 204Q861 225 871 235T902 246Q923 246 934 235T942 202Q921 0 698 0H160Z" />
<glyph unicode="{" horiz-adv-x="632" d="M570 -322Q398 -322 329 -249T260 8V362L134 410Q100 424 100 458V526Q100 559 132 574L260 624V978Q260 1084 283 1162T367 1284T540 1328Q581 1328 596 1320T612 1288Q612 1263 600 1255T570 1244Q532 1238 492 1238T419
1221T365 1149T344 978V602Q344 569 312 554L184 504V480L310 432Q344 418 344 384V8Q344 -107 365 -156T435 -219T570 -238Q593 -239 602 -252T612 -280Q612 -298 600 -310T570 -322Z" />
<glyph unicode="|" horiz-adv-x="404" d="M244 -240Q244 -282 202 -282Q160 -282 160 -240V1346Q160 1388 202 1388Q244 1388 244 1346V-240Z" />
<glyph unicode="}" horiz-adv-x="632" d="M62 -322Q44 -322 32 -310T20 -280Q20 -265 30 -252T62 -238Q147 -232 196 -219T267 -157T288 8V384Q288 418 322 432L448 480V504L320 554Q288 569 288 602V978Q288 1094 268 1148T214 1220T140 1238T62 1244Q46 1247
33 1255T20 1288Q20 1312 36 1320T92 1328Q204 1328 264 1285T348 1163T372 978V624L500 574Q532 559 532 526V458Q532 424 498 410L372 362V8Q372 -175 304 -248T62 -322Z" />
<glyph unicode="~" horiz-adv-x="1090" d="M216 546Q205 524 180 524Q166 524 155 531T140 552T144 582Q167 632 199 663T274 708T374 722Q444 722 487 704T564 663T631 622T718 604Q775 604 814 626T876 694Q890 722 914 722Q943 722 950 702T946 660Q913 593
856 559T718 524Q652 524 613 542T543 583T475 624T374 642Q333 642 305 633T255 603T216 546Z" />
<glyph unicode="&#xa0;" horiz-adv-x="460" />
<glyph unicode="&#xa1;" horiz-adv-x="414" d="M206 720Q248 720 248 678V-298Q248 -340 206 -340Q164 -340 164 -298V678Q164 720 206 720ZM224 1042Q274 1042 274 990V956Q274 906 224 906H190Q140 906 140 956V990Q140 1042 190 1042H224Z" />
<glyph unicode="&#xa2;" horiz-adv-x="980" d="M462 140Q294 140 217 216T140 458V624Q140 792 218 869T462 944H574Q721 944 790 889T860 714Q860 696 848 684T818 672Q800 672 788 684T776 714Q776 795 733 827T574 860H462Q330 862 277 810T224 624V458Q224
328 276 276T462 224H574Q690 224 733 256T776 370Q776 388 788 400T818 412Q836 412 848 400T860 370Q860 250 791 195T574 140H462ZM518 -42Q476 -42 476 0V1082Q476 1124 518 1124Q560 1124 560 1082V0Q560 -42 518 -42Z" />
<glyph unicode="&#xa3;" horiz-adv-x="1190" d="M100 0V84Q184 84 216 131T248 270V860Q248 1075 344 1170T652 1266H694Q888 1266 974 1180T1060 900Q1060 858 1018 858Q976 858 976 900Q976 1006 950 1067T862 1155T694 1182H652Q534 1182 464 1151T363 1050T332
860V270Q332 209 320 163T280 84H1058Q1100 84 1100 42Q1100 0 1058 0H100ZM122 446Q80 446 80 488Q80 530 122 530H690Q732 530 732 488Q732 446 690 446H122Z" />
<glyph unicode="&#xa4;" horiz-adv-x="1018" d="M142 284Q124 284 112 296T100 326Q100 344 112 356L222 466Q186 513 166 570T146 694Q146 760 166 817T222 920L112 1032Q100 1044 100 1062Q100 1080 112 1092T142 1104Q160 1104 172 1092L282 980Q329 1015 386
1034T508 1054Q573 1054 630 1034T734 978L844 1090Q856 1102 874 1102Q892 1102 904 1090T916 1060Q916 1042 904 1030L794 918Q829 873 848 816T868 694Q868 630 849 573T794 468L906 356Q918 344 918 326Q918 308 906 296T876 284Q858 284 846 296L734 408Q689
372 632 352T508 332Q442 332 385 352T282 408L172 296Q160 284 142 284ZM508 416Q587 416 649 452T748 551T784 694Q784 773 748 835T650 934T508 970Q428 970 365 934T266 836T230 694Q230 614 266 551T365 452T508 416Z" />
<glyph unicode="&#xa5;" horiz-adv-x="1033" d="M553 42Q553 0 511 0Q469 0 469 42V500L29 1200Q5 1237 41 1258Q78 1279 99 1246L525 566H495L933 1246Q955 1281 991 1258Q1028 1234 1003 1200L553 500V42ZM223 474Q205 474 193 486T181 516Q181 534 193 546T223
558H801Q819 558 831 546T843 516Q843 498 831 486T801 474H223ZM223 298Q205 298 193 310T181 340Q181 358 193 370T223 382H801Q819 382 831 370T843 340Q843 322 831 310T801 298H223Z" />
<glyph unicode="&#xa6;" horiz-adv-x="404" d="M244 -240Q244 -258 232 -270T202 -282Q184 -282 172 -270T160 -240V334Q160 352 172 364T202 376Q220 376 232 364T244 334V-240ZM244 778Q244 760 232 748T202 736Q184 736 172 748T160 778V1348Q160 1366 172
1378T202 1390Q220 1390 232 1378T244 1348V778Z" />
<glyph unicode="&#xa7;" horiz-adv-x="1072" d="M892 564Q892 444 830 383T644 322Q626 327 614 329T602 334Q602 352 614 364T644 376Q731 376 769 420T808 564Q808 644 772 687T640 764L442 834Q331 873 280 934T228 1092Q228 1188 286 1237T456 1286H652Q876
1286 876 1060Q876 1039 866 1029T834 1018Q813 1018 803 1028T792 1060Q792 1141 762 1171T652 1202H456Q377 1202 345 1177T312 1092Q312 1025 347 985T470 914L668 844Q788 801 840 737T892 564ZM426 -144Q293 -144 231 -82T168 114Q168 135 178 145T210 156Q231
156 241 146T252 114Q252 17 290 -21T426 -60H654Q752 -60 790 -22T828 114Q828 161 815 190T761 242T642 290L394 370Q264 411 212 474T160 656Q160 779 225 836T426 894L468 882Q468 864 456 852T426 840Q324 840 284 800T244 656Q244 597 259 560T311 497T418
450L666 370Q762 339 815 307T890 229T912 114Q912 -19 850 -81T654 -144H426Z" />
<glyph unicode="&#xa8;" horiz-adv-x="620" d="M190 1098Q140 1098 140 1150V1184Q140 1234 190 1234H224Q274 1234 274 1184V1150Q274 1098 224 1098H190ZM476 1098Q426 1098 426 1150V1184Q426 1234 476 1234H510Q560 1234 560 1184V1150Q560 1098 510 1098H476Z" />
<glyph unicode="&#xa9;" horiz-adv-x="1580" d="M1420 634Q1420 450 1339 307T1116 82T790 0Q606 0 464 82T241 307T160 634Q160 818 241 960T464 1184T790 1266Q974 1266 1116 1185T1339 961T1420 634ZM244 634Q244 474 314 350T507 155T790 84Q950 84 1073 155T1266
350T1336 634Q1336 794 1266 917T1073 1111T790 1182Q630 1182 507 1112T314 918T244 634ZM758 284Q620 284 556 348T492 548V714Q492 854 556 917T758 980H846Q968 980 1026 934T1084 786Q1084 768 1072 756T1042 744Q1024 744 1012 756T1000 786Q1000 848 968
872T846 896H758Q656 896 616 858T576 714V548Q576 448 616 408T758 368H846Q935 368 967 392T1000 478Q1000 496 1012 508T1042 520Q1060 520 1072 508T1084 478Q1084 378 1026 331T846 284H758Z" />
<glyph unicode="&#xaa;" horiz-adv-x="830" d="M310 638Q202 638 151 689T100 848Q100 956 151 1007T310 1058H646Q642 1140 605 1172T480 1204H368Q286 1204 248 1189T200 1136Q196 1117 186 1107T156 1096Q135 1096 124 1107T116 1140Q138 1288 368 1288H480Q609
1288 669 1228T730 1038V680Q730 638 688 638Q646 638 646 680V729Q579 638 420 638H310ZM310 722H420Q521 722 583 751T646 844V974H310Q238 974 211 948T184 848Q184 776 210 749T310 722Z" />
<glyph unicode="&#xab;" horiz-adv-x="1158" d="M958 242Q943 242 930 252L558 558Q521 588 558 618L930 924Q943 934 958 934Q975 934 987 922T1000 892Q1000 882 996 874T984 860L654 588L984 316Q992 310 996 303T1000 284Q1000 266 988 254T958 242ZM578 242Q563
242 550 252L178 558Q141 588 178 618L550 924Q563 934 578 934Q595 934 607 922T620 892Q620 882 616 874T604 860L274 588L604 316Q612 310 616 303T620 284Q620 266 608 254T578 242Z" />
<glyph unicode="&#xac;" horiz-adv-x="1090" d="M960 478Q960 457 950 447T918 436Q897 436 887 446T876 478V668H178Q157 668 147 678T136 710Q136 731 146 741T178 752H918Q960 752 960 710V478Z" />
<glyph unicode="&#xad;" horiz-adv-x="916" d="M182 498Q164 498 152 510T140 540Q140 558 152 570T182 582H734Q752 582 764 570T776 540Q776 522 764 510T734 498H182Z" />
<glyph unicode="&#xae;" horiz-adv-x="1580" d="M1420 630Q1420 446 1339 304T1116 81T790 0Q606 0 464 81T241 304T160 630Q160 814 241 956T464 1179T790 1260Q974 1260 1116 1179T1339 956T1420 630ZM244 630Q244 470 314 347T507 154T790 84Q950 84 1073 154T1266
347T1336 630Q1336 790 1266 913T1073 1106T790 1176Q630 1176 507 1106T314 913T244 630ZM652 348Q652 306 610 306Q568 306 568 348V934Q568 976 610 976H844Q936 976 985 927T1034 786V756Q1034 608 916 574L1028 364Q1047 326 1010 308Q972 289 954 326L828
564H652V348ZM652 648H844Q901 648 925 673T950 756V786Q950 843 926 867T844 892H652V648Z" />
<glyph unicode="&#xaf;" horiz-adv-x="790" d="M142 1168Q100 1168 100 1210Q100 1252 142 1252H648Q690 1252 690 1210Q690 1168 648 1168H142Z" />
<glyph unicode="&#xb0;" horiz-adv-x="550" d="M252 892Q179 892 140 931T100 1044V1188Q100 1262 139 1301T252 1340H298Q372 1340 411 1301T450 1188V1044Q450 971 411 932T298 892H252ZM184 1044Q184 1007 199 992T252 976H298Q336 976 351 991T366 1044V1188Q366
1226 351 1241T298 1256H252Q215 1256 200 1241T184 1188V1044Z" />
<glyph unicode="&#xb1;" horiz-adv-x="1090" d="M466 998Q466 1016 478 1028T508 1040Q526 1040 538 1028T550 998V466Q550 448 538 436T508 424Q490 424 478 436T466 466V998ZM182 692Q140 692 140 734Q140 776 182 776H908Q950 776 950 734Q950 692 908 692H182ZM182
292Q140 292 140 334Q140 376 182 376H908Q950 376 950 334Q950 292 908 292H182Z" />
<glyph unicode="&#xb2;" horiz-adv-x="699" d="M537 638H171Q152 638 141 648T129 680Q129 761 160 810T239 892T337 954Q412 998 447 1022T483 1092Q483 1145 465 1163T393 1182H293Q253 1182 233 1172T207 1132Q203 1113 193 1103T163 1092Q142 1092 130 1103T121
1136Q142 1266 293 1266H393Q567 1266 567 1092Q567 1036 540 1000T470 936T379 882Q313 845 271 813T217 722H537Q579 722 579 680Q579 638 537 638Z" />
<glyph unicode="&#xb3;" horiz-adv-x="651" d="M283 638Q122 638 101 776Q98 797 109 808T141 820Q162 820 172 810T185 780Q191 747 214 735T283 722H387Q446 722 466 742T487 820Q487 879 467 898T387 918H319Q277 918 277 960Q277 1002 319 1002H387Q571 1002
571 820Q571 638 387 638H283ZM381 946V1002Q434 1002 453 1026T473 1092Q473 1145 455 1163T383 1182H285Q243 1182 223 1172T197 1132Q193 1113 184 1103T153 1092Q132 1092 121 1103T113 1136Q131 1266 285 1266H383Q470 1266 513 1224T557 1092Q557 1026 514
991T381 946Z" />
<glyph unicode="&#xb4;" horiz-adv-x="466" d="M116 1046Q86 1073 110 1106L290 1318Q318 1353 350 1324Q380 1297 356 1264L176 1052Q148 1017 116 1046Z" />
<glyph unicode="&#xb5;" horiz-adv-x="1206" d="M1006 226Q1006 157 1027 125T1104 84Q1125 81 1135 72T1146 42Q1146 -3 1102 0Q1030 5 988 43T930 146Q881 76 790 39T568 2H512Q412 2 347 33T246 134V-142Q246 -163 236 -173T204 -184Q162 -184 162 -142V880Q162
922 204 922Q246 922 246 880V352Q246 205 305 146T512 86H568Q732 86 827 140T922 304V880Q922 922 964 922Q1006 922 1006 880V226Z" />
<glyph unicode="&#xb6;" horiz-adv-x="1040" d="M600 -326Q600 -344 588 -356T558 -368Q540 -368 528 -356T516 -326V580H386Q224 580 142 662T60 904V962Q60 1124 142 1206T386 1288H818Q860 1288 860 1246V-326Q860 -344 848 -356T818 -368Q800 -368 788 -356T776
-326V1204H600V-326Z" />
<glyph unicode="&#xb7;" horiz-adv-x="414" d="M190 500Q140 500 140 552V586Q140 636 190 636H224Q274 636 274 586V552Q274 500 224 500H190Z" />
<glyph unicode="&#xb8;" horiz-adv-x="572" d="M266 -400Q100 -400 100 -234Q100 -192 142 -192Q184 -192 184 -234Q184 -282 201 -299T266 -316Q337 -316 362 -290T388 -194Q388 -171 378 -158T336 -122Q317 -109 295 -91T258 -43T242 30Q242 72 284 72Q326 72
326 30Q326 3 337 -13T382 -52Q409 -70 440 -101T472 -194Q472 -300 423 -350T266 -400Z" />
<glyph unicode="&#xb9;" horiz-adv-x="582" d="M380 638Q338 638 338 680V1180L380 1182L234 1036Q204 1006 174 1036Q147 1066 174 1096L328 1244Q340 1256 352 1261T380 1266Q422 1266 422 1224V680Q422 638 380 638Z" />
<glyph unicode="&#xba;" horiz-adv-x="832" d="M350 638Q221 638 161 698T100 888V1038Q100 1169 160 1229T350 1288H482Q611 1288 671 1228T732 1038V890Q732 760 672 699T482 638H350ZM350 722H482Q575 722 611 759T648 890V1038Q648 1131 612 1167T482 1204H350Q257
1206 221 1170T184 1038V888Q184 795 220 759T350 722Z" />
<glyph unicode="&#xbb;" horiz-adv-x="1160" d="M582 242Q566 242 553 254T540 284Q540 295 544 302T556 316L886 588L556 860Q549 866 545 874T540 892Q540 910 553 922T582 934Q597 934 610 924L982 618Q1019 588 982 558L610 252Q597 242 582 242ZM200 242Q184
242 171 254T158 284Q158 295 162 302T174 316L504 588L174 860Q167 866 163 874T158 892Q158 910 171 922T200 934Q215 934 228 924L600 618Q637 588 600 558L228 252Q215 242 200 242Z" />
<glyph unicode="&#xbc;" horiz-adv-x="1422" d="M380 638Q338 638 338 680V1180L380 1182L234 1036Q204 1006 174 1036Q147 1066 174 1096L328 1244Q340 1256 352 1261T380 1266Q422 1266 422 1224V680Q422 638 380 638ZM304 2Q286 2 274 14T262 44Q262 52 264
58T270 70L1192 1290Q1204 1308 1226 1308Q1244 1308 1256 1296T1268 1266Q1268 1259 1266 1253T1260 1240L338 20Q326 2 304 2ZM1120 4Q1078 4 1078 46L1082 526L1124 542L842 176L828 214H1220Q1262 214 1262 172Q1262 130 1220 130H798Q756 130 756 172Q756
199 774 220L1074 606Q1085 621 1096 626T1126 632Q1166 632 1166 590L1162 46Q1162 4 1120 4Z" />
<glyph unicode="&#xbd;" horiz-adv-x="1452" d="M380 638Q338 638 338 680V1180L380 1182L234 1036Q204 1006 174 1036Q147 1066 174 1096L328 1244Q340 1256 352 1261T380 1266Q422 1266 422 1224V680Q422 638 380 638ZM304 2Q286 2 274 14T262 44Q262 52 264
58T270 70L1192 1290Q1204 1308 1226 1308Q1244 1308 1256 1296T1268 1266Q1268 1259 1266 1253T1260 1240L338 20Q326 2 304 2ZM1291 0H925Q906 0 895 10T883 42Q883 123 914 172T993 254T1091 316Q1166 360 1201 384T1237 454Q1237 507 1219 525T1147 544H1047Q1007
544 987 534T961 494Q957 475 947 465T917 454Q896 454 884 465T875 498Q896 628 1047 628H1147Q1321 628 1321 454Q1321 398 1294 362T1224 298T1133 244Q1067 207 1025 175T971 84H1291Q1333 84 1333 42Q1333 0 1291 0Z" />
<glyph unicode="&#xbe;" horiz-adv-x="1488" d="M283 638Q122 638 101 776Q98 797 109 808T141 820Q162 820 172 810T185 780Q191 747 214 735T283 722H387Q446 722 466 742T487 820Q487 879 467 898T387 918H319Q277 918 277 960Q277 1002 319 1002H387Q571 1002
571 820Q571 638 387 638H283ZM381 946V1002Q434 1002 453 1026T473 1092Q473 1145 455 1163T383 1182H285Q243 1182 223 1172T197 1132Q193 1113 184 1103T153 1092Q132 1092 121 1103T113 1136Q131 1266 285 1266H383Q470 1266 513 1224T557 1092Q557 1026 514
991T381 946ZM373 2Q355 2 343 14T331 44Q331 52 333 58T339 70L1261 1290Q1273 1308 1295 1308Q1313 1308 1325 1296T1337 1266Q1337 1259 1335 1253T1329 1240L407 20Q395 2 373 2ZM1186 4Q1144 4 1144 46L1148 526L1190 542L908 176L894 214H1286Q1328 214 1328
172Q1328 130 1286 130H864Q822 130 822 172Q822 199 840 220L1140 606Q1151 621 1162 626T1192 632Q1232 632 1232 590L1228 46Q1228 4 1186 4Z" />
<glyph unicode="&#xbf;" horiz-adv-x="930" d="M516 758Q558 758 558 716Q558 606 528 540T453 434T362 364Q318 334 282 303T225 220T204 82Q204 -53 258 -107T448 -162H582Q717 -162 771 -108T826 82Q826 124 868 124Q910 124 910 82Q910 -87 831 -166T582 -246H448Q277
-246 199 -168T120 82Q120 192 150 258T226 364T316 434Q360 464 396 496T453 578T474 716Q474 758 516 758ZM530 1020Q580 1020 580 968V934Q580 884 530 884H496Q446 884 446 934V968Q446 1020 496 1020H530Z" />
<glyph unicode="&#xc0;" horiz-adv-x="1194" d="M66 4Q29 22 44 60L546 1234Q558 1266 594 1266H600Q633 1266 648 1234L1148 60Q1165 22 1126 4Q1088 -12 1072 26L931 358H265L122 26Q106 -12 66 4ZM301 442H895L600 1134L301 442ZM652 1390Q620 1361 592 1396L412
1608Q388 1641 418 1668Q450 1697 478 1662L658 1450Q682 1417 652 1390Z" />
<glyph unicode="&#xc1;" horiz-adv-x="1194" d="M570 1390Q540 1417 564 1450L744 1662Q772 1697 804 1668Q834 1641 810 1608L630 1396Q602 1361 570 1390ZM66 4Q29 22 44 60L546 1234Q558 1266 594 1266H600Q633 1266 648 1234L1148 60Q1165 22 1126 4Q1088
-12 1072 26L931 358H265L122 26Q106 -12 66 4ZM301 442H895L600 1134L301 442Z" />
<glyph unicode="&#xc2;" horiz-adv-x="1194" d="M66 4Q29 22 44 60L546 1234Q558 1266 594 1266H600Q633 1266 648 1234L1148 60Q1165 22 1126 4Q1088 -12 1072 26L931 358H265L122 26Q106 -12 66 4ZM301 442H895L600 1134L301 442ZM350 1396Q332 1396 320 1408T308
1438Q308 1457 324 1470L526 1640Q550 1658 578 1658H606Q634 1658 658 1640L860 1470Q876 1457 876 1438Q876 1420 864 1408T834 1396Q819 1396 806 1406L604 1574H580L378 1406Q365 1396 350 1396Z" />
<glyph unicode="&#xc3;" horiz-adv-x="1194" d="M66 4Q29 22 44 60L546 1234Q558 1266 594 1266H600Q633 1266 648 1234L1148 60Q1165 22 1126 4Q1088 -12 1072 26L931 358H265L122 26Q106 -12 66 4ZM301 442H895L600 1134L301 442ZM714 1442Q660 1442 627 1467T572
1514Q550 1537 531 1550T478 1564Q442 1564 423 1546T386 1472Q382 1459 371 1451T346 1442Q319 1442 310 1463T306 1498Q333 1578 373 1613T478 1648Q538 1648 574 1622T632 1572Q659 1545 675 1536T714 1526Q749 1526 771 1547T808 1618Q813 1632 822 1640T850
1648Q874 1648 884 1629T888 1594Q861 1521 820 1482T714 1442Z" />
<glyph unicode="&#xc4;" horiz-adv-x="1194" d="M66 4Q29 22 44 60L546 1234Q558 1266 594 1266H600Q633 1266 648 1234L1148 60Q1165 22 1126 4Q1088 -12 1072 26L931 358H265L122 26Q106 -12 66 4ZM301 442H895L600 1134L301 442ZM436 1442Q386 1442 386 1494V1528Q386
1578 436 1578H470Q520 1578 520 1528V1494Q520 1442 470 1442H436ZM722 1442Q672 1442 672 1494V1528Q672 1578 722 1578H756Q806 1578 806 1528V1494Q806 1442 756 1442H722Z" />
<glyph unicode="&#xc5;" horiz-adv-x="1194" d="M66 4Q29 22 44 60L546 1234Q558 1266 594 1266H600Q633 1266 648 1234L1148 60Q1165 22 1126 4Q1088 -12 1072 26L931 358H265L122 26Q106 -12 66 4ZM301 442H895L600 1134L301 442ZM584 1390Q511 1390 472 1429T432
1542Q432 1616 471 1655T584 1694Q658 1694 697 1655T736 1542Q736 1469 697 1430T584 1390ZM584 1474Q622 1474 637 1489T652 1542Q652 1580 637 1595T584 1610Q547 1610 532 1595T516 1542Q516 1505 531 1490T584 1474Z" />
<glyph unicode="&#xc6;" horiz-adv-x="1633" d="M843 0Q801 0 801 42V358L311 360L121 22Q99 -15 63 6Q26 28 47 64L709 1236Q717 1253 729 1259T757 1266H1521Q1563 1266 1563 1224Q1563 1182 1521 1182H885V684H1285Q1327 684 1327 642Q1327 600 1285 600H885V84H1521Q1563
84 1563 42Q1563 0 1521 0H843ZM357 442H801V1182H773L357 442Z" />
<glyph unicode="&#xc7;" horiz-adv-x="1310" d="M566 0Q353 0 257 96T160 406V860Q160 1075 256 1170T564 1266H806Q989 1266 1076 1190T1170 944Q1172 923 1162 912T1130 900Q1089 900 1086 942Q1080 1077 1017 1129T806 1182H564Q446 1182 376 1151T275 1050T244
860V406Q244 288 275 218T377 116T566 84H806Q953 84 1016 136T1086 324Q1089 366 1130 366Q1151 366 1161 355T1170 322Q1163 153 1076 77T806 0H566ZM710 -400Q544 -400 544 -234Q544 -192 586 -192Q628 -192 628 -234Q628 -282 645 -299T710 -316Q781 -316 806
-290T832 -194Q832 -171 822 -158T780 -122Q761 -109 739 -91T702 -43T686 30Q686 72 728 72Q770 72 770 30Q770 3 781 -13T826 -52Q853 -70 884 -101T916 -194Q916 -300 867 -350T710 -400Z" />
<glyph unicode="&#xc8;" horiz-adv-x="1094" d="M222 0Q180 0 180 42V1224Q180 1266 222 1266H982Q1024 1266 1024 1224Q1024 1182 982 1182H264V684H746Q788 684 788 642Q788 600 746 600H264V84H982Q1024 84 1024 42Q1024 0 982 0H222ZM694 1390Q662 1361 634
1396L454 1608Q430 1641 460 1668Q492 1697 520 1662L700 1450Q724 1417 694 1390Z" />
<glyph unicode="&#xc9;" horiz-adv-x="1094" d="M582 1390Q552 1417 576 1450L756 1662Q784 1697 816 1668Q846 1641 822 1608L642 1396Q614 1361 582 1390ZM222 0Q180 0 180 42V1224Q180 1266 222 1266H982Q1024 1266 1024 1224Q1024 1182 982 1182H264V684H746Q788
684 788 642Q788 600 746 600H264V84H982Q1024 84 1024 42Q1024 0 982 0H222Z" />
<glyph unicode="&#xca;" horiz-adv-x="1094" d="M222 0Q180 0 180 42V1224Q180 1266 222 1266H982Q1024 1266 1024 1224Q1024 1182 982 1182H264V684H746Q788 684 788 642Q788 600 746 600H264V84H982Q1024 84 1024 42Q1024 0 982 0H222ZM392 1396Q374 1396 362
1408T350 1438Q350 1457 366 1470L568 1640Q592 1658 620 1658H648Q676 1658 700 1640L902 1470Q918 1457 918 1438Q918 1420 906 1408T876 1396Q861 1396 848 1406L646 1574H622L420 1406Q407 1396 392 1396Z" />
<glyph unicode="&#xcb;" horiz-adv-x="1094" d="M222 0Q180 0 180 42V1224Q180 1266 222 1266H982Q1024 1266 1024 1224Q1024 1182 982 1182H264V684H746Q788 684 788 642Q788 600 746 600H264V84H982Q1024 84 1024 42Q1024 0 982 0H222ZM478 1442Q428 1442 428
1494V1528Q428 1578 478 1578H512Q562 1578 562 1528V1494Q562 1442 512 1442H478ZM764 1442Q714 1442 714 1494V1528Q714 1578 764 1578H798Q848 1578 848 1528V1494Q848 1442 798 1442H764Z" />
<glyph unicode="&#xcc;" horiz-adv-x="444" d="M222 0Q204 0 192 12T180 42V1226Q180 1244 192 1256T222 1268Q240 1268 252 1256T264 1226V42Q264 24 252 12T222 0ZM278 1390Q246 1361 218 1396L38 1608Q14 1641 44 1668Q76 1697 104 1662L284 1450Q308 1417 278 1390Z" />
<glyph unicode="&#xcd;" horiz-adv-x="444" d="M166 1390Q136 1417 160 1450L340 1662Q368 1697 400 1668Q430 1641 406 1608L226 1396Q198 1361 166 1390ZM222 0Q204 0 192 12T180 42V1226Q180 1244 192 1256T222 1268Q240 1268 252 1256T264 1226V42Q264 24
252 12T222 0Z" />
<glyph unicode="&#xce;" horiz-adv-x="444" d="M222 0Q204 0 192 12T180 42V1226Q180 1244 192 1256T222 1268Q240 1268 252 1256T264 1226V42Q264 24 252 12T222 0ZM36 1380Q18 1380 6 1392T-6 1422Q-6 1430 -4 1436T2 1448L158 1656Q178 1682 208 1682H244Q274
1682 294 1656L450 1448Q453 1442 455 1436T458 1422Q458 1404 446 1392T416 1380Q394 1380 382 1398L232 1598H220L70 1398Q58 1380 36 1380Z" />
<glyph unicode="&#xcf;" horiz-adv-x="444" d="M222 0Q204 0 192 12T180 42V1226Q180 1244 192 1256T222 1268Q240 1268 252 1256T264 1226V42Q264 24 252 12T222 0ZM62 1442Q12 1442 12 1494V1528Q12 1578 62 1578H96Q146 1578 146 1528V1494Q146 1442 96 1442H62ZM348
1442Q298 1442 298 1494V1528Q298 1578 348 1578H382Q432 1578 432 1528V1494Q432 1442 382 1442H348Z" />
<glyph unicode="&#xd0;" horiz-adv-x="1330" d="M222 0Q180 0 180 42V1224Q180 1266 222 1266H704Q949 1266 1059 1156T1170 800V466Q1170 222 1060 111T704 0H222ZM264 84H704Q843 84 927 121T1048 243T1086 466V800Q1086 939 1049 1023T927 1144T704 1182H264V84ZM298
600Q256 600 256 642Q256 684 298 684H814Q856 684 856 642Q856 600 814 600H298Z" />
<glyph unicode="&#xd1;" horiz-adv-x="1374" d="M222 0Q180 0 180 42V1224Q180 1266 222 1266Q245 1266 266 1242L1128 136H1110V1224Q1110 1266 1152 1266Q1194 1266 1194 1224V42Q1194 0 1152 0Q1129 0 1108 24L246 1130H264V42Q264 0 222 0ZM824 1442Q770 1442
737 1467T682 1514Q660 1537 641 1550T588 1564Q552 1564 533 1546T496 1472Q492 1459 481 1451T456 1442Q429 1442 420 1463T416 1498Q443 1578 483 1613T588 1648Q648 1648 684 1622T742 1572Q769 1545 785 1536T824 1526Q859 1526 881 1547T918 1618Q923 1632
932 1640T960 1648Q984 1648 994 1629T998 1594Q971 1521 930 1482T824 1442Z" />
<glyph unicode="&#xd2;" horiz-adv-x="1372" d="M566 0Q353 0 257 96T160 406V860Q160 1075 256 1171T564 1266H806Q1019 1266 1115 1170T1212 860V406Q1212 193 1116 97T806 0H566ZM566 84H806Q924 84 994 115T1096 217T1128 406V860Q1128 978 1097 1048T995
1150T806 1182H564Q446 1183 376 1152T275 1050T244 860V406Q244 288 275 218T377 116T566 84ZM742 1390Q710 1361 682 1396L502 1608Q478 1641 508 1668Q540 1697 568 1662L748 1450Q772 1417 742 1390Z" />
<glyph unicode="&#xd3;" horiz-adv-x="1372" d="M630 1390Q600 1417 624 1450L804 1662Q832 1697 864 1668Q894 1641 870 1608L690 1396Q662 1361 630 1390ZM566 0Q353 0 257 96T160 406V860Q160 1075 256 1171T564 1266H806Q1019 1266 1115 1170T1212 860V406Q1212
193 1116 97T806 0H566ZM566 84H806Q924 84 994 115T1096 217T1128 406V860Q1128 978 1097 1048T995 1150T806 1182H564Q446 1183 376 1152T275 1050T244 860V406Q244 288 275 218T377 116T566 84Z" />
<glyph unicode="&#xd4;" horiz-adv-x="1372" d="M566 0Q353 0 257 96T160 406V860Q160 1075 256 1171T564 1266H806Q1019 1266 1115 1170T1212 860V406Q1212 193 1116 97T806 0H566ZM566 84H806Q924 84 994 115T1096 217T1128 406V860Q1128 978 1097 1048T995
1150T806 1182H564Q446 1183 376 1152T275 1050T244 860V406Q244 288 275 218T377 116T566 84ZM440 1396Q422 1396 410 1408T398 1438Q398 1457 414 1470L616 1640Q640 1658 668 1658H696Q724 1658 748 1640L950 1470Q966 1457 966 1438Q966 1420 954 1408T924
1396Q909 1396 896 1406L694 1574H670L468 1406Q455 1396 440 1396Z" />
<glyph unicode="&#xd5;" horiz-adv-x="1372" d="M566 0Q353 0 257 96T160 406V860Q160 1075 256 1171T564 1266H806Q1019 1266 1115 1170T1212 860V406Q1212 193 1116 97T806 0H566ZM566 84H806Q924 84 994 115T1096 217T1128 406V860Q1128 978 1097 1048T995
1150T806 1182H564Q446 1183 376 1152T275 1050T244 860V406Q244 288 275 218T377 116T566 84ZM804 1442Q750 1442 717 1467T662 1514Q640 1537 621 1550T568 1564Q532 1564 513 1546T476 1472Q472 1459 461 1451T436 1442Q409 1442 400 1463T396 1498Q423 1578
463 1613T568 1648Q628 1648 664 1622T722 1572Q749 1545 765 1536T804 1526Q839 1526 861 1547T898 1618Q903 1632 912 1640T940 1648Q964 1648 974 1629T978 1594Q951 1521 910 1482T804 1442Z" />
<glyph unicode="&#xd6;" horiz-adv-x="1372" d="M566 0Q353 0 257 96T160 406V860Q160 1075 256 1171T564 1266H806Q1019 1266 1115 1170T1212 860V406Q1212 193 1116 97T806 0H566ZM566 84H806Q924 84 994 115T1096 217T1128 406V860Q1128 978 1097 1048T995
1150T806 1182H564Q446 1183 376 1152T275 1050T244 860V406Q244 288 275 218T377 116T566 84ZM526 1442Q476 1442 476 1494V1528Q476 1578 526 1578H560Q610 1578 610 1528V1494Q610 1442 560 1442H526ZM812 1442Q762 1442 762 1494V1528Q762 1578 812 1578H846Q896
1578 896 1528V1494Q896 1442 846 1442H812Z" />
<glyph unicode="&#xd7;" horiz-adv-x="1090" d="M747 912Q777 941 806 912Q836 882 806 852L293 339Q263 309 234 339Q204 369 234 398L747 912ZM284 855Q255 885 284 914Q314 944 344 914L857 401Q887 371 857 342Q827 312 798 342L284 855Z" />
<glyph unicode="&#xd8;" horiz-adv-x="1372" d="M566 0Q353 0 257 96T160 406V860Q160 1075 256 1171T564 1266H806Q1019 1266 1115 1170T1212 860V406Q1212 193 1116 97T806 0H566ZM566 84H806Q924 84 994 115T1096 217T1128 406V860Q1128 978 1097 1048T995
1150T806 1182H564Q446 1183 376 1152T275 1050T244 860V406Q244 288 275 218T377 116T566 84ZM246 -90Q210 -69 232 -32L1078 1354Q1099 1390 1136 1368Q1172 1347 1150 1310L304 -76Q283 -112 246 -90Z" />
<glyph unicode="&#xd9;" horiz-adv-x="1392" d="M576 0Q363 0 267 96T170 406V1224Q170 1242 182 1254T212 1266Q230 1266 242 1254T254 1224V406Q254 288 285 218T387 116T576 84H816Q934 84 1004 115T1106 217T1138 406V1224Q1138 1242 1150 1254T1180 1266Q1198
1266 1210 1254T1222 1224V406Q1222 193 1126 97T816 0H576ZM752 1390Q720 1361 692 1396L512 1608Q488 1641 518 1668Q550 1697 578 1662L758 1450Q782 1417 752 1390Z" />
<glyph unicode="&#xda;" horiz-adv-x="1392" d="M640 1390Q610 1417 634 1450L814 1662Q842 1697 874 1668Q904 1641 880 1608L700 1396Q672 1361 640 1390ZM576 0Q363 0 267 96T170 406V1224Q170 1242 182 1254T212 1266Q230 1266 242 1254T254 1224V406Q254
288 285 218T387 116T576 84H816Q934 84 1004 115T1106 217T1138 406V1224Q1138 1242 1150 1254T1180 1266Q1198 1266 1210 1254T1222 1224V406Q1222 193 1126 97T816 0H576Z" />
<glyph unicode="&#xdb;" horiz-adv-x="1392" d="M576 0Q363 0 267 96T170 406V1224Q170 1242 182 1254T212 1266Q230 1266 242 1254T254 1224V406Q254 288 285 218T387 116T576 84H816Q934 84 1004 115T1106 217T1138 406V1224Q1138 1242 1150 1254T1180 1266Q1198
1266 1210 1254T1222 1224V406Q1222 193 1126 97T816 0H576ZM450 1396Q432 1396 420 1408T408 1438Q408 1457 424 1470L626 1640Q650 1658 678 1658H706Q734 1658 758 1640L960 1470Q976 1457 976 1438Q976 1420 964 1408T934 1396Q919 1396 906 1406L704 1574H680L478
1406Q465 1396 450 1396Z" />
<glyph unicode="&#xdc;" horiz-adv-x="1392" d="M576 0Q363 0 267 96T170 406V1224Q170 1242 182 1254T212 1266Q230 1266 242 1254T254 1224V406Q254 288 285 218T387 116T576 84H816Q934 84 1004 115T1106 217T1138 406V1224Q1138 1242 1150 1254T1180 1266Q1198
1266 1210 1254T1222 1224V406Q1222 193 1126 97T816 0H576ZM536 1442Q486 1442 486 1494V1528Q486 1578 536 1578H570Q620 1578 620 1528V1494Q620 1442 570 1442H536ZM822 1442Q772 1442 772 1494V1528Q772 1578 822 1578H856Q906 1578 906 1528V1494Q906 1442
856 1442H822Z" />
<glyph unicode="&#xdd;" horiz-adv-x="1030" d="M461 1390Q431 1417 455 1450L635 1662Q663 1697 695 1668Q725 1641 701 1608L521 1396Q493 1361 461 1390ZM513 0Q471 0 471 42V500L27 1200Q5 1234 41 1258Q77 1281 99 1244L513 590L929 1246Q940 1263 954 1266T987
1258Q1023 1237 999 1200L555 500V42Q555 0 513 0Z" />
<glyph unicode="&#xde;" horiz-adv-x="990" d="M222 0Q180 0 180 42V1224Q180 1266 222 1266Q264 1266 264 1224V1088H594Q761 1088 845 1004T930 752V692Q930 526 846 441T594 356H264V42Q264 0 222 0ZM264 440H594Q725 440 785 501T846 692V752Q846 883 786
943T594 1004H264V440Z" />
<glyph unicode="&#xdf;" horiz-adv-x="1034" d="M222 2Q180 2 180 44V1052Q180 1223 258 1301T508 1380Q678 1380 756 1302T834 1054Q834 964 803 897T706 788Q835 761 894 685T954 466V348Q954 167 872 85T608 2H486Q444 2 444 44Q444 86 486 86H608Q754 86 812
144T870 348V466Q870 612 812 670T608 728H550Q508 728 508 770Q508 811 550 814Q661 822 705 876T750 1054Q750 1188 696 1242T508 1296Q373 1296 319 1242T264 1052V44Q264 2 222 2Z" />
<glyph unicode="&#xe0;" horiz-adv-x="1162" d="M450 0Q299 0 230 69T160 290Q160 442 230 512T450 582H916Q915 723 855 780T650 838H534Q398 838 336 807T262 700Q259 681 250 671T220 660Q199 660 188 671T178 704Q186 818 274 870T534 922H650Q833 922 916
839T1000 572V42Q1000 0 958 0Q916 0 916 42V160Q824 0 562 0H450ZM450 84H562Q667 84 743 108T864 184T916 320V498H450Q335 498 290 453T244 290Q244 175 289 130T450 84ZM644 1046Q612 1017 584 1052L404 1264Q380 1297 410 1324Q442 1353 470 1318L650 1106Q674
1073 644 1046Z" />
<glyph unicode="&#xe1;" horiz-adv-x="1162" d="M532 1046Q502 1073 526 1106L706 1318Q734 1353 766 1324Q796 1297 772 1264L592 1052Q564 1017 532 1046ZM450 0Q299 0 230 69T160 290Q160 442 230 512T450 582H916Q915 723 855 780T650 838H534Q398 838 336
807T262 700Q259 681 250 671T220 660Q199 660 188 671T178 704Q186 818 274 870T534 922H650Q833 922 916 839T1000 572V42Q1000 0 958 0Q916 0 916 42V160Q824 0 562 0H450ZM450 84H562Q667 84 743 108T864 184T916 320V498H450Q335 498 290 453T244 290Q244
175 289 130T450 84Z" />
<glyph unicode="&#xe2;" horiz-adv-x="1162" d="M450 0Q299 0 230 69T160 290Q160 442 230 512T450 582H916Q915 723 855 780T650 838H534Q398 838 336 807T262 700Q259 681 250 671T220 660Q199 660 188 671T178 704Q186 818 274 870T534 922H650Q833 922 916
839T1000 572V42Q1000 0 958 0Q916 0 916 42V160Q824 0 562 0H450ZM450 84H562Q667 84 743 108T864 184T916 320V498H450Q335 498 290 453T244 290Q244 175 289 130T450 84ZM402 1036Q384 1036 372 1048T360 1078Q360 1086 362 1092T368 1104L524 1312Q544 1338
574 1338H610Q640 1338 660 1312L816 1104Q819 1098 821 1092T824 1078Q824 1060 812 1048T782 1036Q760 1036 748 1054L598 1254H586L436 1054Q424 1036 402 1036Z" />
<glyph unicode="&#xe3;" horiz-adv-x="1162" d="M450 0Q299 0 230 69T160 290Q160 442 230 512T450 582H916Q915 723 855 780T650 838H534Q398 838 336 807T262 700Q259 681 250 671T220 660Q199 660 188 671T178 704Q186 818 274 870T534 922H650Q833 922 916
839T1000 572V42Q1000 0 958 0Q916 0 916 42V160Q824 0 562 0H450ZM450 84H562Q667 84 743 108T864 184T916 320V498H450Q335 498 290 453T244 290Q244 175 289 130T450 84ZM706 1098Q652 1098 619 1123T564 1170Q542 1193 523 1206T470 1220Q434 1220 415 1202T378
1128Q374 1115 363 1107T338 1098Q311 1098 302 1119T298 1154Q325 1234 365 1269T470 1304Q530 1304 566 1278T624 1228Q651 1201 667 1192T706 1182Q741 1182 763 1203T800 1274Q805 1288 814 1296T842 1304Q866 1304 876 1285T880 1250Q853 1177 812 1138T706
1098Z" />
<glyph unicode="&#xe4;" horiz-adv-x="1162" d="M450 0Q299 0 230 69T160 290Q160 442 230 512T450 582H916Q915 723 855 780T650 838H534Q398 838 336 807T262 700Q259 681 250 671T220 660Q199 660 188 671T178 704Q186 818 274 870T534 922H650Q833 922 916
839T1000 572V42Q1000 0 958 0Q916 0 916 42V160Q824 0 562 0H450ZM450 84H562Q667 84 743 108T864 184T916 320V498H450Q335 498 290 453T244 290Q244 175 289 130T450 84ZM428 1098Q378 1098 378 1150V1184Q378 1234 428 1234H462Q512 1234 512 1184V1150Q512
1098 462 1098H428ZM714 1098Q664 1098 664 1150V1184Q664 1234 714 1234H748Q798 1234 798 1184V1150Q798 1098 748 1098H714Z" />
<glyph unicode="&#xe5;" horiz-adv-x="1162" d="M450 0Q299 0 230 69T160 290Q160 442 230 512T450 582H916Q915 723 855 780T650 838H534Q398 838 336 807T262 700Q259 681 250 671T220 660Q199 660 188 671T178 704Q186 818 274 870T534 922H650Q833 922 916
839T1000 572V42Q1000 0 958 0Q916 0 916 42V160Q824 0 562 0H450ZM450 84H562Q667 84 743 108T864 184T916 320V498H450Q335 498 290 453T244 290Q244 175 289 130T450 84ZM576 1046Q503 1046 464 1085T424 1198Q424 1272 463 1311T576 1350Q650 1350 689 1311T728
1198Q728 1125 689 1086T576 1046ZM576 1130Q614 1130 629 1145T644 1198Q644 1236 629 1251T576 1266Q539 1266 524 1251T508 1198Q508 1161 523 1146T576 1130Z" />
<glyph unicode="&#xe6;" horiz-adv-x="1840" d="M1216 -2Q977 -2 910 176Q806 2 522 2H450Q299 2 230 71T160 292Q160 444 229 513T450 582H876Q875 725 816 782T610 840H534Q381 840 322 802T262 702Q262 684 250 672T220 660Q202 660 190 672T178 702Q178 810
263 867T534 924H610Q842 924 918 764Q991 925 1218 922H1338Q1515 922 1597 830T1680 540Q1680 498 1638 498H960V352Q960 204 1017 143T1216 82H1338Q1482 82 1539 124T1596 270Q1596 288 1608 300T1638 312Q1656 312 1668 300T1680 270Q1680 128 1598 63T1338
-2H1216ZM450 86H522Q701 86 788 150T876 344V498H450Q335 498 290 453T244 292Q244 177 289 132T450 86ZM960 582H1596Q1589 722 1530 780T1338 838H1218Q1077 840 1020 783T960 582Z" />
<glyph unicode="&#xe7;" horiz-adv-x="1122" d="M510 0Q327 0 244 83T160 350V574Q160 757 243 840T510 922H674Q821 922 895 873T982 716Q984 695 973 684T940 672Q921 672 911 682T898 712Q889 781 838 809T674 838H510Q363 840 304 782T244 574V350Q244 203
303 144T510 84H674Q787 84 838 112T898 210Q901 230 911 240T940 250Q961 250 972 239T982 206Q970 100 896 50T674 0H510ZM618 -400Q452 -400 452 -234Q452 -192 494 -192Q536 -192 536 -234Q536 -282 553 -299T618 -316Q689 -316 714 -290T740 -194Q740 -171
730 -158T688 -122Q669 -109 647 -91T610 -43T594 30Q594 72 636 72Q678 72 678 30Q678 3 689 -13T734 -52Q761 -70 792 -101T824 -194Q824 -300 775 -350T618 -400Z" />
<glyph unicode="&#xe8;" horiz-adv-x="1184" d="M244 430V348Q244 203 303 144T510 84H674Q809 84 869 121T938 248Q940 269 950 279T982 290Q1002 290 1013 279T1022 246Q1012 119 927 60T674 0H510Q327 0 244 83T160 348V572Q160 757 243 840T510 922H674Q857
922 940 839T1024 572V472Q1024 430 982 430H244ZM510 838Q363 840 304 781T244 572V514H940V572Q940 719 881 778T674 838H510ZM664 1046Q632 1017 604 1052L424 1264Q400 1297 430 1324Q462 1353 490 1318L670 1106Q694 1073 664 1046Z" />
<glyph unicode="&#xe9;" horiz-adv-x="1184" d="M552 1046Q522 1073 546 1106L726 1318Q754 1353 786 1324Q816 1297 792 1264L612 1052Q584 1017 552 1046ZM244 430V348Q244 203 303 144T510 84H674Q809 84 869 121T938 248Q940 269 950 279T982 290Q1002 290
1013 279T1022 246Q1012 119 927 60T674 0H510Q327 0 244 83T160 348V572Q160 757 243 840T510 922H674Q857 922 940 839T1024 572V472Q1024 430 982 430H244ZM510 838Q363 840 304 781T244 572V514H940V572Q940 719 881 778T674 838H510Z" />
<glyph unicode="&#xea;" horiz-adv-x="1184" d="M244 430V348Q244 203 303 144T510 84H674Q809 84 869 121T938 248Q940 269 950 279T982 290Q1002 290 1013 279T1022 246Q1012 119 927 60T674 0H510Q327 0 244 83T160 348V572Q160 757 243 840T510 922H674Q857
922 940 839T1024 572V472Q1024 430 982 430H244ZM510 838Q363 840 304 781T244 572V514H940V572Q940 719 881 778T674 838H510ZM422 1036Q404 1036 392 1048T380 1078Q380 1086 382 1092T388 1104L544 1312Q564 1338 594 1338H630Q660 1338 680 1312L836 1104Q839
1098 841 1092T844 1078Q844 1060 832 1048T802 1036Q780 1036 768 1054L618 1254H606L456 1054Q444 1036 422 1036Z" />
<glyph unicode="&#xeb;" horiz-adv-x="1184" d="M244 430V348Q244 203 303 144T510 84H674Q809 84 869 121T938 248Q940 269 950 279T982 290Q1002 290 1013 279T1022 246Q1012 119 927 60T674 0H510Q327 0 244 83T160 348V572Q160 757 243 840T510 922H674Q857
922 940 839T1024 572V472Q1024 430 982 430H244ZM510 838Q363 840 304 781T244 572V514H940V572Q940 719 881 778T674 838H510ZM448 1098Q398 1098 398 1150V1184Q398 1234 448 1234H482Q532 1234 532 1184V1150Q532 1098 482 1098H448ZM734 1098Q684 1098 684
1150V1184Q684 1234 734 1234H768Q818 1234 818 1184V1150Q818 1098 768 1098H734Z" />
<glyph unicode="&#xec;" horiz-adv-x="444" d="M222 0Q180 0 180 42V880Q180 922 222 922Q264 922 264 880V42Q264 0 222 0ZM534 1046Q502 1017 474 1052L294 1264Q270 1297 300 1324Q332 1353 360 1318L540 1106Q564 1073 534 1046Z" />
<glyph unicode="&#xed;" horiz-adv-x="444" d="M166 1046Q136 1073 160 1106L340 1318Q368 1353 400 1324Q430 1297 406 1264L226 1052Q198 1017 166 1046ZM222 0Q180 0 180 42V880Q180 922 222 922Q264 922 264 880V42Q264 0 222 0Z" />
<glyph unicode="&#xee;" horiz-adv-x="444" d="M222 0Q180 0 180 42V880Q180 922 222 922Q264 922 264 880V42Q264 0 222 0ZM292 1036Q274 1036 262 1048T250 1078Q250 1086 252 1092T258 1104L414 1312Q434 1338 464 1338H500Q530 1338 550 1312L706 1104Q709
1098 711 1092T714 1078Q714 1060 702 1048T672 1036Q650 1036 638 1054L488 1254H476L326 1054Q314 1036 292 1036Z" />
<glyph unicode="&#xef;" horiz-adv-x="444" d="M222 0Q180 0 180 42V880Q180 922 222 922Q264 922 264 880V42Q264 0 222 0ZM62 1098Q12 1098 12 1150V1184Q12 1234 62 1234H96Q146 1234 146 1184V1150Q146 1098 96 1098H62ZM348 1098Q298 1098 298 1150V1184Q298
1234 348 1234H382Q432 1234 432 1184V1150Q432 1098 382 1098H348Z" />
<glyph unicode="&#xf0;" horiz-adv-x="1184" d="M510 2Q327 2 244 85T160 350V574Q160 759 243 842T510 924H674Q757 924 822 900T930 826Q920 953 897 1036T837 1166T746 1226L284 1342Q245 1354 254 1394Q264 1436 306 1424L766 1306Q900 1273 960 1113T1024
622V352Q1024 169 941 86T674 2H510ZM510 86H674Q821 86 880 145T940 352V622Q940 705 907 752T813 820T674 840H510Q412 841 354 816T270 732T244 574V350Q244 205 303 146T510 86ZM416 1136Q384 1107 356 1138Q329 1169 358 1198L664 1484Q696 1513 724 1482Q751
1451 722 1422L416 1136Z" />
<glyph unicode="&#xf1;" horiz-adv-x="1186" d="M222 0Q180 0 180 42V880Q180 922 222 922Q264 922 264 880V764Q355 922 618 922H674Q857 922 940 839T1024 572V42Q1024 0 982 0Q940 0 940 42V572Q940 719 881 778T674 838H618Q452 838 363 782T264 606V42Q264
0 222 0ZM762 1098Q708 1098 675 1123T620 1170Q598 1193 579 1206T526 1220Q490 1220 471 1202T434 1128Q430 1115 419 1107T394 1098Q367 1098 358 1119T354 1154Q381 1234 421 1269T526 1304Q586 1304 622 1278T680 1228Q707 1201 723 1192T762 1182Q797 1182
819 1203T856 1274Q861 1288 870 1296T898 1304Q922 1304 932 1285T936 1250Q909 1177 868 1138T762 1098Z" />
<glyph unicode="&#xf2;" horiz-adv-x="1184" d="M510 0Q327 0 244 83T160 348V572Q160 757 243 840T510 922H674Q857 922 940 839T1024 572V350Q1024 167 941 84T674 0H510ZM244 348Q244 203 303 144T510 84H674Q821 84 880 143T940 350V572Q940 719 881 778T674
838H510Q412 839 354 814T270 730T244 572V348ZM648 1046Q616 1017 588 1052L408 1264Q384 1297 414 1324Q446 1353 474 1318L654 1106Q678 1073 648 1046Z" />
<glyph unicode="&#xf3;" horiz-adv-x="1184" d="M536 1046Q506 1073 530 1106L710 1318Q738 1353 770 1324Q800 1297 776 1264L596 1052Q568 1017 536 1046ZM510 0Q327 0 244 83T160 348V572Q160 757 243 840T510 922H674Q857 922 940 839T1024 572V350Q1024 167
941 84T674 0H510ZM244 348Q244 203 303 144T510 84H674Q821 84 880 143T940 350V572Q940 719 881 778T674 838H510Q412 839 354 814T270 730T244 572V348Z" />
<glyph unicode="&#xf4;" horiz-adv-x="1184" d="M510 0Q327 0 244 83T160 348V572Q160 757 243 840T510 922H674Q857 922 940 839T1024 572V350Q1024 167 941 84T674 0H510ZM244 348Q244 203 303 144T510 84H674Q821 84 880 143T940 350V572Q940 719 881 778T674
838H510Q412 839 354 814T270 730T244 572V348ZM406 1036Q388 1036 376 1048T364 1078Q364 1086 366 1092T372 1104L528 1312Q548 1338 578 1338H614Q644 1338 664 1312L820 1104Q823 1098 825 1092T828 1078Q828 1060 816 1048T786 1036Q764 1036 752 1054L602
1254H590L440 1054Q428 1036 406 1036Z" />
<glyph unicode="&#xf5;" horiz-adv-x="1184" d="M510 0Q327 0 244 83T160 348V572Q160 757 243 840T510 922H674Q857 922 940 839T1024 572V350Q1024 167 941 84T674 0H510ZM244 348Q244 203 303 144T510 84H674Q821 84 880 143T940 350V572Q940 719 881 778T674
838H510Q412 839 354 814T270 730T244 572V348ZM710 1098Q656 1098 623 1123T568 1170Q546 1193 527 1206T474 1220Q438 1220 419 1202T382 1128Q378 1115 367 1107T342 1098Q315 1098 306 1119T302 1154Q329 1234 369 1269T474 1304Q534 1304 570 1278T628 1228Q655
1201 671 1192T710 1182Q745 1182 767 1203T804 1274Q809 1288 818 1296T846 1304Q870 1304 880 1285T884 1250Q857 1177 816 1138T710 1098Z" />
<glyph unicode="&#xf6;" horiz-adv-x="1184" d="M510 0Q327 0 244 83T160 348V572Q160 757 243 840T510 922H674Q857 922 940 839T1024 572V350Q1024 167 941 84T674 0H510ZM244 348Q244 203 303 144T510 84H674Q821 84 880 143T940 350V572Q940 719 881 778T674
838H510Q412 839 354 814T270 730T244 572V348ZM432 1098Q382 1098 382 1150V1184Q382 1234 432 1234H466Q516 1234 516 1184V1150Q516 1098 466 1098H432ZM718 1098Q668 1098 668 1150V1184Q668 1234 718 1234H752Q802 1234 802 1184V1150Q802 1098 752 1098H718Z"
/>
<glyph unicode="&#xf7;" horiz-adv-x="1090" d="M182 692Q140 692 140 734Q140 776 182 776H908Q950 776 950 734Q950 692 908 692H182ZM526 334Q476 334 476 386V420Q476 470 526 470H560Q610 470 610 420V386Q610 334 560 334H526ZM526 994Q476 994 476 1046V1080Q476
1130 526 1130H560Q610 1130 610 1080V1046Q610 994 560 994H526Z" />
<glyph unicode="&#xf8;" horiz-adv-x="1184" d="M242 -128Q218 -122 213 -104T220 -64L304 72L312 84L788 864L798 878L878 1012Q894 1039 924 1030Q979 1015 950 966L874 842L864 826L394 56L382 38L290 -110Q274 -137 242 -128ZM510 0Q327 0 244 83T160 348V572Q160
757 243 840T510 922H674Q857 922 940 839T1024 572V350Q1024 167 941 84T674 0H510ZM244 348Q244 203 303 144T510 84H674Q821 84 880 143T940 350V572Q940 719 881 778T674 838H510Q412 839 354 814T270 730T244 572V348Z" />
<glyph unicode="&#xf9;" horiz-adv-x="1186" d="M964 922Q1006 922 1006 880V42Q1006 0 964 0Q922 0 922 42V158Q831 0 568 0H512Q329 0 246 83T162 350V880Q162 922 204 922Q246 922 246 880V350Q246 203 305 144T512 84H568Q734 84 823 141T922 316V880Q922
922 964 922ZM628 1046Q596 1017 568 1052L388 1264Q364 1297 394 1324Q426 1353 454 1318L634 1106Q658 1073 628 1046Z" />
<glyph unicode="&#xfa;" horiz-adv-x="1186" d="M964 922Q1006 922 1006 880V42Q1006 0 964 0Q922 0 922 42V158Q831 0 568 0H512Q329 0 246 83T162 350V880Q162 922 204 922Q246 922 246 880V350Q246 203 305 144T512 84H568Q734 84 823 141T922 316V880Q922
922 964 922ZM516 1046Q486 1073 510 1106L690 1318Q718 1353 750 1324Q780 1297 756 1264L576 1052Q548 1017 516 1046Z" />
<glyph unicode="&#xfb;" horiz-adv-x="1186" d="M964 922Q1006 922 1006 880V42Q1006 0 964 0Q922 0 922 42V158Q831 0 568 0H512Q329 0 246 83T162 350V880Q162 922 204 922Q246 922 246 880V350Q246 203 305 144T512 84H568Q734 84 823 141T922 316V880Q922
922 964 922ZM386 1036Q368 1036 356 1048T344 1078Q344 1086 346 1092T352 1104L508 1312Q528 1338 558 1338H594Q624 1338 644 1312L800 1104Q803 1098 805 1092T808 1078Q808 1060 796 1048T766 1036Q744 1036 732 1054L582 1254H570L420 1054Q408 1036 386
1036Z" />
<glyph unicode="&#xfc;" horiz-adv-x="1186" d="M964 922Q1006 922 1006 880V42Q1006 0 964 0Q922 0 922 42V158Q831 0 568 0H512Q329 0 246 83T162 350V880Q162 922 204 922Q246 922 246 880V350Q246 203 305 144T512 84H568Q734 84 823 141T922 316V880Q922
922 964 922ZM412 1098Q362 1098 362 1150V1184Q362 1234 412 1234H446Q496 1234 496 1184V1150Q496 1098 446 1098H412ZM698 1098Q648 1098 648 1150V1184Q648 1234 698 1234H732Q782 1234 782 1184V1150Q782 1098 732 1098H698Z" />
<glyph unicode="&#xfd;" horiz-adv-x="1166" d="M518 1046Q488 1073 512 1106L692 1318Q720 1353 752 1324Q782 1297 758 1264L578 1052Q550 1017 518 1046ZM408 -400Q281 -400 222 -341T162 -152Q162 -110 204 -110Q246 -110 246 -152Q246 -246 281 -281T408
-316H740Q832 -316 867 -281T902 -152V130Q847 60 759 29T548 -2H506Q326 -2 244 80T162 340V882Q162 924 204 924Q246 924 246 882V340Q246 196 303 139T506 82H548Q727 82 814 146T902 340V882Q902 924 944 924Q986 924 986 882V-152Q986 -281 927 -340T740 -400H408Z"
/>
<glyph unicode="&#xfe;" horiz-adv-x="1204" d="M222 -400Q201 -400 191 -390T180 -358V1246Q180 1267 190 1277T222 1288Q243 1288 253 1278T264 1246V772Q376 924 618 924H694Q877 924 960 841T1044 574V352Q1044 169 961 86T694 2H264V-358Q264 -379 254 -389T222
-400ZM264 86H694Q841 86 900 145T960 352V574Q960 721 901 780T694 840H618Q440 840 352 776T264 582V86Z" />
<glyph unicode="&#xff;" horiz-adv-x="1166" d="M408 -400Q281 -400 222 -341T162 -152Q162 -110 204 -110Q246 -110 246 -152Q246 -246 281 -281T408 -316H740Q832 -316 867 -281T902 -152V130Q847 60 759 29T548 -2H506Q326 -2 244 80T162 340V882Q162 924 204
924Q246 924 246 882V340Q246 196 303 139T506 82H548Q727 82 814 146T902 340V882Q902 924 944 924Q986 924 986 882V-152Q986 -281 927 -340T740 -400H408ZM414 1098Q364 1098 364 1150V1184Q364 1234 414 1234H448Q498 1234 498 1184V1150Q498 1098 448 1098H414ZM700
1098Q650 1098 650 1150V1184Q650 1234 700 1234H734Q784 1234 784 1184V1150Q784 1098 734 1098H700Z" />
<glyph unicode="&#x2013;" horiz-adv-x="1090" d="M182 500Q140 500 140 542Q140 584 182 584H908Q950 584 950 542Q950 500 908 500H182Z" />
<glyph unicode="&#x2014;" horiz-adv-x="1606" d="M182 498Q164 498 152 510T140 540Q140 558 152 570T182 582H1424Q1442 582 1454 570T1466 540Q1466 522 1454 510T1424 498H182Z" />
<glyph unicode="&#x2018;" horiz-adv-x="418" d="M219 1352Q249 1352 257 1330T253 1284L163 1106L87 1140L177 1318Q186 1336 194 1344T219 1352ZM167 1168Q217 1168 217 1116V1082Q217 1032 167 1032H133Q83 1032 83 1082V1116Q83 1168 133 1168H167Z" />
<glyph unicode="&#x2019;" horiz-adv-x="375" d="M99 1026Q69 1026 61 1048T65 1094L155 1272L231 1238L141 1060Q132 1042 124 1034T99 1026ZM151 1210Q101 1210 101 1262V1296Q101 1346 151 1346H185Q235 1346 235 1296V1262Q235 1210 185 1210H151Z" />
<glyph unicode="&#x201a;" horiz-adv-x="375" d="M99 -186Q69 -186 61 -164T65 -118L155 60L231 26L141 -152Q132 -170 124 -178T99 -186ZM151 -2Q101 -2 101 50V84Q101 134 151 134H185Q235 134 235 84V50Q235 -2 185 -2H151Z" />
<glyph unicode="&#x201c;" horiz-adv-x="698" d="M499 1352Q529 1352 537 1330T533 1284L443 1106L367 1140L457 1318Q466 1336 474 1344T499 1352ZM447 1168Q497 1168 497 1116V1082Q497 1032 447 1032H413Q363 1032 363 1082V1116Q363 1168 413 1168H447ZM219
1352Q249 1352 257 1330T253 1284L163 1106L87 1140L177 1318Q186 1336 194 1344T219 1352ZM167 1168Q217 1168 217 1116V1082Q217 1032 167 1032H133Q83 1032 83 1082V1116Q83 1168 133 1168H167Z" />
<glyph unicode="&#x201d;" horiz-adv-x="675" d="M399 1026Q369 1026 361 1048T365 1094L455 1272L531 1238L441 1060Q432 1042 424 1034T399 1026ZM451 1210Q401 1210 401 1262V1296Q401 1346 451 1346H485Q535 1346 535 1296V1262Q535 1210 485 1210H451ZM99
1026Q69 1026 61 1048T65 1094L155 1272L231 1238L141 1060Q132 1042 124 1034T99 1026ZM151 1210Q101 1210 101 1262V1296Q101 1346 151 1346H185Q235 1346 235 1296V1262Q235 1210 185 1210H151Z" />
<glyph unicode="&#x201e;" horiz-adv-x="675" d="M399 -186Q369 -186 361 -164T365 -118L455 60L531 26L441 -152Q432 -170 424 -178T399 -186ZM451 -2Q401 -2 401 50V84Q401 134 451 134H485Q535 134 535 84V50Q535 -2 485 -2H451ZM99 -186Q69 -186 61 -164T65
-118L155 60L231 26L141 -152Q132 -170 124 -178T99 -186ZM151 -2Q101 -2 101 50V84Q101 134 151 134H185Q235 134 235 84V50Q235 -2 185 -2H151Z" />
<glyph unicode="&#x2022;" horiz-adv-x="548" d="M240 364Q140 364 140 468V536Q140 636 240 636H308Q408 636 408 536V468Q408 364 308 364H240Z" />
<glyph unicode="&#x2039;" horiz-adv-x="778" d="M578 242Q563 242 550 252L178 558Q141 588 178 618L550 924Q563 934 578 934Q595 934 607 922T620 892Q620 882 616 874T604 860L274 588L604 316Q612 310 616 303T620 284Q620 266 608 254T578 242Z" />
<glyph unicode="&#x203a;" horiz-adv-x="778" d="M200 242Q184 242 171 254T158 284Q158 295 162 302T174 316L504 588L174 860Q167 866 163 874T158 892Q158 910 171 922T200 934Q215 934 228 924L600 618Q637 588 600 558L228 252Q215 242 200 242Z" />
</font>
</defs>
</svg>
