<?xml version="1.0" standalone="no"?>
<!DOCTYPE svg PUBLIC "-//W3C//DTD SVG 1.1//EN" "http://www.w3.org/Graphics/SVG/1.1/DTD/svg11.dtd">
<svg xmlns="http://www.w3.org/2000/svg">
<defs >
<font id="Jura" horiz-adv-x="1112" ><font-face
    font-family="Jura Light Medium"
    units-per-em="2000"
    panose-1="0 0 0 0 0 0 0 0 0 0"
    ascent="1930"
    descent="-436"
    alphabetic="0" />
<glyph unicode=" " horiz-adv-x="544" />
<glyph unicode="!" horiz-adv-x="477" d="M240 287Q177 287 177 350V1333Q177 1396 240 1396Q303 1396 303 1333V350Q303 287 240 287ZM219 0Q154 0 154 66V108Q154 172 219 172H260Q323 172 323 108V66Q323 0 260 0H219Z" />
<glyph unicode="&quot;" horiz-adv-x="670" d="M210 912Q187 912 171 928T154 968V1376Q154 1400 170 1416T210 1432Q234 1432 250 1416T266 1376V968Q266 945 250 929T210 912ZM460 912Q437 912 421 928T404 968V1376Q404 1400 420 1416T460 1432Q484 1432 500
1416T516 1376V968Q516 945 500 929T460 912Z" />
<glyph unicode="#" horiz-adv-x="1186" d="M232 -12Q209 -12 193 4T176 44Q176 48 176 52T178 60L276 410H130Q107 410 91 426T74 466Q74 490 90 506T130 522H307L388 810H242Q219 810 203 826T186 866Q186 890 202 906T242 922H418L518 1280Q523 1298 538 1310T572
1322Q596 1322 612 1306T628 1266Q628 1263 628 1259T626 1250L534 922H778L878 1280Q883 1298 898 1310T932 1322Q956 1322 972 1306T988 1266Q988 1263 988 1259T986 1250L894 922H1096Q1120 922 1136 906T1152 866Q1152 843 1136 827T1096 810H863L784 522H984Q1008
522 1024 506T1040 466Q1040 443 1024 427T984 410H752L646 30Q641 13 627 1T592 -12Q569 -12 553 4T536 44Q536 48 536 52T538 60L636 410H392L286 30Q281 13 267 1T232 -12ZM424 522H667L748 810H503L424 522Z" />
<glyph unicode="$" horiz-adv-x="1302" d="M513 0Q331 0 246 86T160 353Q160 380 178 398T223 416Q250 416 268 398T286 353Q286 224 335 175T513 126H789Q918 126 967 175T1016 353Q1016 483 967 531T789 580H543Q370 580 288 664T206 920Q206 1093 288 1174T541
1255H783Q955 1255 1036 1174T1118 922Q1118 895 1100 877T1055 859Q1028 859 1010 877T992 922Q992 1040 948 1084T783 1129H541Q422 1129 377 1085T332 920Q332 802 377 754T543 706H789Q970 706 1056 620T1142 353Q1142 173 1056 87T789 0H513ZM654 -172Q598
-172 598 -116V619L608 672V1399Q608 1455 664 1455Q720 1455 720 1399V664L710 615V-116Q710 -172 654 -172Z" />
<glyph unicode="%" horiz-adv-x="1594" d="M382 624Q246 624 180 690T114 893V1043Q114 1181 180 1246T382 1311H414Q551 1311 616 1245T682 1043V895Q682 758 617 691T414 624H382ZM234 893Q234 807 265 776T382 745H414Q500 745 531 776T562 895V1043Q562 1129
531 1159T414 1190H382Q297 1190 266 1160T234 1043V893ZM1180 0Q1044 0 978 66T912 268V418Q912 557 978 621T1180 686H1212Q1349 686 1414 621T1480 418V270Q1480 133 1415 67T1212 0H1180ZM1032 268Q1032 183 1063 152T1180 120H1212Q1298 120 1329 152T1360
270V418Q1360 504 1329 535T1212 566H1180Q1095 566 1064 536T1032 418V268ZM330 -19Q304 -19 286 -1T267 44Q267 55 270 65T279 83L1201 1303Q1221 1329 1252 1329Q1279 1329 1297 1311T1315 1266Q1315 1256 1312 1246T1303 1227L381 7Q362 -19 330 -19Z" />
<glyph unicode="&amp;" horiz-adv-x="1250" d="M1191 70Q1150 23 1102 65L435 655Q367 715 329 763T276 862T260 976Q260 1135 335 1211T569 1287H619Q760 1287 835 1228T925 1044Q929 1012 912 995T864 978Q834 978 819 994T797 1040Q788 1109 748 1135T619 1161H569Q465
1161 426 1123T386 976Q386 932 396 899T435 832T519 749L1186 160Q1234 117 1191 70ZM545 -21Q324 -21 222 81T120 404Q120 567 176 665T351 802Q381 814 403 800T431 756Q438 725 424 708T382 679Q309 652 278 588T246 404Q246 292 274 227T367 133T545 105H609Q721
105 786 133T880 227T908 404V495Q908 558 971 558Q1034 558 1034 495V404Q1034 185 932 82T609 -21H545Z" />
<glyph unicode="&apos;" horiz-adv-x="420" d="M210 912Q187 912 171 928T154 968V1376Q154 1400 170 1416T210 1432Q234 1432 250 1416T266 1376V968Q266 945 250 929T210 912Z" />
<glyph unicode="(" horiz-adv-x="554" d="M478 -336Q288 -336 201 -229T114 108V878Q114 1119 201 1230T478 1342Q502 1342 518 1326T534 1286Q534 1263 518 1247T478 1230Q385 1230 330 1197T251 1087T226 878V108Q226 -78 282 -151T478 -224Q502 -224 518 -240T534
-280Q534 -303 518 -319T478 -336Z" />
<glyph unicode=")" horiz-adv-x="554" d="M76 -336Q53 -336 37 -320T20 -280Q20 -256 36 -240T76 -224Q216 -224 272 -151T328 108V878Q328 1010 304 1087T225 1197T76 1230Q53 1230 37 1246T20 1286Q20 1310 36 1326T76 1342Q267 1342 353 1231T440 878V108Q440
-122 354 -229T76 -336Z" />
<glyph unicode="*" horiz-adv-x="786" d="M393 703Q336 703 336 759V947L385 918L223 824Q200 811 180 816T146 845Q119 894 167 921L330 1015V960L167 1052Q143 1067 139 1088T146 1129Q160 1154 181 1158T223 1149L385 1055L336 1026V1215Q336 1271 393 1271Q448
1271 448 1215V1026L399 1055L562 1149Q609 1176 638 1129Q667 1081 618 1052L455 960V1015L618 921Q667 893 638 845Q609 797 562 824L399 918L448 947V759Q448 703 393 703Z" />
<glyph unicode="+" horiz-adv-x="1154" d="M513 1007Q513 1063 569 1063Q625 1063 625 1007V273Q625 217 569 217Q513 217 513 273V1007ZM210 598Q154 598 154 654Q154 710 210 710H944Q1000 710 1000 654Q1000 598 944 598H210ZM210 598Q154 598 154 654Q154
710 210 710H944Q1000 710 1000 654Q1000 598 944 598H210Z" />
<glyph unicode="," horiz-adv-x="446" d="M129 -219Q102 -219 86 -204T73 -163L123 114Q127 172 188 172H229Q292 172 292 108V72Q292 54 289 42T280 18L182 -183Q163 -219 129 -219Z" />
<glyph unicode="-" horiz-adv-x="972" d="M210 484Q187 484 171 500T154 540Q154 564 170 580T210 596H762Q786 596 802 580T818 540Q818 517 802 501T762 484H210Z" />
<glyph unicode="." horiz-adv-x="477" d="M219 0Q154 0 154 66V108Q154 172 219 172H260Q323 172 323 108V66Q323 0 260 0H219Z" />
<glyph unicode="/" horiz-adv-x="669" d="M150 -285Q114 -285 97 -262T89 -204L499 1390Q513 1439 560 1439Q598 1439 614 1417T621 1358L211 -236Q199 -285 150 -285Z" />
<glyph unicode="0" horiz-adv-x="1270" d="M575 -2Q354 -2 251 101T148 425V883Q148 1105 251 1207T575 1308H695Q917 1308 1019 1206T1122 881V425Q1122 204 1020 101T695 -2H575ZM575 124H695Q808 124 873 153T967 247T996 425V881Q996 994 968 1059T874 1153T695
1182H575Q463 1183 398 1156T303 1062T274 883V425Q274 313 302 248T397 153T575 124ZM615 568Q550 568 550 634V676Q550 740 615 740H656Q719 740 719 676V634Q719 568 656 568H615Z" />
<glyph unicode="1" horiz-adv-x="732" d="M469 0Q406 0 406 63V1148L453 1163L235 953Q215 934 194 932T151 950Q111 992 154 1037L401 1279Q432 1311 479 1311Q532 1311 532 1248V63Q532 0 469 0Z" />
<glyph unicode="2" horiz-adv-x="1139" d="M954 0H188Q123 0 123 63Q123 184 158 270T255 421T399 537T574 643Q677 702 747 747T853 841T889 962Q889 1089 841 1137T666 1185H452Q344 1185 294 1150T233 1026Q229 996 214 980T168 964Q137 964 121 981T106 1030Q121
1174 205 1242T452 1311H666Q846 1311 930 1227T1015 962Q1015 853 963 780T825 649T636 534Q525 470 444 416T314 295T253 126H954Q1017 126 1017 63Q1017 0 954 0Z" />
<glyph unicode="3" horiz-adv-x="1225" d="M480 1Q308 1 219 74T114 302Q112 334 128 351T176 368Q234 368 240 305Q251 206 305 167T480 127H708Q846 127 898 179T951 368Q951 504 899 556T708 609H533Q470 609 470 672Q470 735 533 735H751Q847 736 883 794T919
962Q919 1089 871 1137T696 1185H502Q394 1185 344 1150T283 1026Q276 964 218 964Q187 964 171 981T157 1030Q172 1174 256 1242T502 1311H696Q876 1311 960 1227T1045 962Q1045 766 914 691Q998 650 1037 571T1077 368Q1077 179 988 90T708 1H480Z" />
<glyph unicode="4" horiz-adv-x="1141" d="M835 0Q772 0 772 63L778 1150L819 1169L216 374L200 405L1004 407Q1035 407 1051 390T1067 344Q1067 281 1004 281H137Q74 281 74 344Q74 374 100 410L755 1272Q774 1297 793 1304T840 1311Q904 1311 904 1248L898 63Q898
0 835 0Z" />
<glyph unicode="5" horiz-adv-x="1239" d="M514 0Q342 0 253 73T148 301Q146 333 162 350T210 367Q268 367 274 305Q285 206 339 166T514 126H722Q860 126 912 179T965 369V507Q965 645 913 697T722 750H574Q400 750 330 695Q309 680 291 673T246 674L232 678Q179
693 179 748V1248Q179 1311 242 1311H1021Q1084 1311 1084 1248Q1084 1185 1021 1185H305V827Q406 876 574 876H722Q912 876 1001 787T1091 507V369Q1091 180 1002 90T722 0H514Z" />
<glyph unicode="6" horiz-adv-x="1242" d="M517 1Q327 1 238 90T148 368V962Q148 1142 233 1226T497 1311H745Q907 1311 991 1243T1090 1030Q1094 998 1078 981T1030 964Q972 964 964 1026Q955 1115 905 1150T745 1185H497Q371 1185 323 1137T274 962V758Q345
873 517 873H725Q915 873 1004 784T1094 504V370Q1094 180 1005 91T725 1H517ZM517 127H725Q863 127 915 180T968 370V504Q968 642 915 694T725 747H517Q379 747 327 695T274 506V368Q274 232 326 180T517 127Z" />
<glyph unicode="7" horiz-adv-x="988" d="M353 0Q290 0 291 66Q293 212 307 319T354 507T443 653T585 777Q653 827 696 883T761 1013T787 1185H137Q74 1185 74 1248Q74 1311 137 1311H851Q914 1311 914 1248Q914 1110 889 1006T807 822T658 675Q589 627 543 576T470
458T431 297T417 66Q416 0 353 0Z" />
<glyph unicode="8" horiz-adv-x="1262" d="M945 680Q1114 598 1114 367Q1114 178 1025 89T745 0H517Q327 0 238 89T148 367Q148 603 323 683Q190 771 190 965Q190 1143 275 1227T539 1311H733Q913 1311 997 1227T1082 965Q1082 764 945 680ZM539 1185Q413 1185
365 1137T316 965Q316 834 363 784T524 734H754Q835 734 879 760T939 837T956 965Q956 1089 908 1137T733 1185H539ZM745 126Q883 126 935 178T988 367Q988 504 936 556T745 608H517Q379 608 327 556T274 367Q274 231 326 179T517 126H745Z" />
<glyph unicode="9" horiz-adv-x="1242" d="M725 1310Q916 1310 1005 1221T1094 943V349Q1094 170 1010 85T745 0H497Q336 0 252 69T152 281Q149 314 165 330T212 347Q271 347 278 285Q288 197 338 162T497 126H745Q872 126 920 174T968 349V553Q897 438 725 438H517Q328
438 238 528T148 807V941Q148 1132 238 1221T517 1310H725ZM725 1184H517Q380 1184 327 1131T274 941V807Q274 670 327 617T517 564H725Q863 564 915 617T968 805V943Q968 1080 916 1132T725 1184Z" />
<glyph unicode=":" horiz-adv-x="477" d="M219 0Q154 0 154 66V108Q154 172 219 172H260Q323 172 323 108V66Q323 0 260 0H219ZM219 660Q154 660 154 726V768Q154 832 219 832H260Q323 832 323 768V726Q323 660 260 660H219Z" />
<glyph unicode=";" horiz-adv-x="446" d="M129 -219Q102 -219 86 -204T73 -163L123 114Q127 172 188 172H229Q292 172 292 108V72Q292 54 289 42T280 18L182 -183Q163 -219 129 -219ZM188 660Q123 660 123 726V768Q123 832 188 832H229Q292 832 292 768V726Q292
660 229 660H188Z" />
<glyph unicode="&lt;" horiz-adv-x="1154" d="M921 283Q893 234 842 261L264 586Q224 609 224 656Q224 697 264 719L842 1041Q892 1068 921 1019Q948 969 898 940L345 634V673L899 361Q949 332 921 283Z" />
<glyph unicode="=" horiz-adv-x="1154" d="M210 722Q154 722 154 778Q154 834 210 834H944Q1000 834 1000 778Q1000 722 944 722H210ZM210 722Q154 722 154 778Q154 834 210 834H944Q1000 834 1000 778Q1000 722 944 722H210Z" />
<glyph unicode="&gt;" horiz-adv-x="1154" d="M231 283Q204 332 253 361L807 673V634L254 940Q204 969 231 1019Q261 1068 310 1041L888 719Q928 697 928 656Q928 609 888 586L310 261Q260 234 231 283Z" />
<glyph unicode="?" horiz-adv-x="986" d="M455 297Q392 297 392 360Q392 468 425 533T507 637T599 702Q643 730 676 757T728 825T746 938Q746 1065 698 1113T523 1161H389Q263 1161 215 1113T166 938Q166 875 103 875Q40 875 40 938Q40 1116 126 1201T389 1287H523Q703
1287 787 1203T872 938Q872 830 839 765T758 662T665 596Q621 568 588 542T537 474T518 360Q518 297 455 297ZM436 0Q371 0 371 66V108Q371 172 436 172H477Q540 172 540 108V66Q540 0 477 0H436Z" />
<glyph unicode="@" horiz-adv-x="1454" d="M1258 69Q1160 -14 1016 -14H466Q306 -15 233 60T160 300V806Q160 972 233 1047T466 1120H986Q1150 1120 1222 1046T1294 804V420Q1294 326 1247 283T1096 240Q1034 240 993 261T929 345Q888 281 828 259T688 236H674Q541
236 478 299T414 494V596Q414 734 477 797T672 860H754Q802 860 840 848T907 789Q914 833 927 846T956 860Q980 860 996 844T1012 804V420Q1012 375 1025 364T1096 352Q1154 352 1168 364T1182 420V804Q1182 885 1165 929T1106 990T986 1008H466Q352 1010 312 969T272
806V300Q272 180 312 139T466 98H1016Q1074 98 1111 111T1186 155Q1201 168 1222 168Q1246 168 1262 152T1278 112Q1278 86 1258 69ZM526 494Q526 408 557 378T674 348H688Q799 348 849 384T900 494V594Q900 688 871 718T754 748H672Q586 748 556 719T526 596V494Z"
/>
<glyph unicode="A" horiz-adv-x="1263" d="M105 6Q47 31 70 89L559 1262Q580 1311 630 1311H635Q684 1310 703 1262L1195 89Q1220 31 1161 6Q1103 -17 1079 40L955 337H310L187 40Q164 -18 105 6ZM361 463H902L630 1112L361 463Z" />
<glyph unicode="B" horiz-adv-x="1276" d="M257 0Q194 0 194 63V1248Q194 1311 257 1311H779Q930 1311 1009 1234T1088 1008V954Q1088 804 993 737Q1162 659 1162 420V355Q1162 181 1071 91T805 0H257ZM320 126H805Q928 126 982 180T1036 355V420Q1036 541 983
594T805 647H320V126ZM320 773H801Q887 773 924 819T962 954V1008Q962 1104 920 1144T779 1185H320V773Z" />
<glyph unicode="C" horiz-adv-x="1351" d="M587 0Q366 0 263 103T160 427V884Q160 1107 263 1209T585 1311H827Q1013 1311 1106 1235T1210 989Q1214 958 1198 941T1150 924Q1092 924 1084 987Q1076 1101 1018 1143T827 1185H585Q473 1186 408 1158T315 1064T286
884V427Q286 315 314 249T409 155T587 126H827Q959 126 1017 168T1084 324Q1092 387 1150 387Q1182 387 1198 371T1210 322Q1199 154 1106 77T827 0H587Z" />
<glyph unicode="D" horiz-adv-x="1386" d="M257 0Q194 0 194 63V1248Q194 1311 257 1311H739Q992 1311 1109 1194T1226 824V487Q1226 235 1110 118T739 0H257ZM320 126H739Q873 126 952 160T1065 274T1100 487V824Q1100 957 1066 1036T952 1150T739 1185H320V126Z" />
<glyph unicode="E" horiz-adv-x="1150" d="M257 0Q194 0 194 63V1248Q194 1311 257 1311H996Q1059 1311 1059 1248Q1059 1185 996 1185H320V726H760Q823 726 823 663Q823 600 760 600H320V126H996Q1059 126 1059 63Q1059 0 996 0H257Z" />
<glyph unicode="F" horiz-adv-x="1046" d="M257 0Q194 0 194 63V1248Q194 1311 257 1311H983Q1013 1311 1029 1295T1046 1248Q1046 1185 983 1185H320V726H758Q821 726 821 663Q821 600 758 600H320V63Q320 0 257 0Z" />
<glyph unicode="G" horiz-adv-x="1355" d="M587 0Q366 0 263 103T160 427V884Q160 1107 263 1209T585 1311H827Q1013 1311 1106 1235T1210 989Q1214 958 1198 941T1150 924Q1092 924 1084 987Q1076 1101 1018 1143T827 1185H585Q473 1186 408 1158T315 1064T286
884V427Q286 315 314 249T409 155T587 126H827Q927 126 984 149T1064 230T1088 387V502L890 504Q827 504 827 567Q827 630 890 630L1151 628Q1214 628 1214 565V387Q1214 184 1122 92T827 0H587Z" />
<glyph unicode="H" horiz-adv-x="1471" d="M257 0Q230 0 212 18T194 63V1248Q194 1275 212 1293T257 1311Q284 1311 302 1293T320 1248V727H1151V1248Q1151 1275 1169 1293T1214 1311Q1241 1311 1259 1293T1277 1248V63Q1277 36 1259 18T1214 0Q1187 0 1169 18T1151
63V601H320V63Q320 36 302 18T257 0Z" />
<glyph unicode="I" horiz-adv-x="514" d="M257 0Q227 0 211 16T194 63V1248Q194 1279 210 1295T257 1311Q288 1311 304 1295T320 1248V63Q320 33 304 17T257 0Z" />
<glyph unicode="J" horiz-adv-x="1121" d="M440 0Q255 0 162 77T56 321Q54 353 70 370T117 387Q176 387 182 324Q191 211 249 169T440 126H550Q650 126 707 150T787 230T811 387V1248Q811 1311 874 1311Q937 1311 937 1248V387Q937 185 845 93T550 0H440Z" />
<glyph unicode="K" horiz-adv-x="1126" d="M257 0Q194 0 194 63V1248Q194 1311 257 1311Q320 1311 320 1248V706L886 1288Q930 1334 974 1289Q1021 1246 976 1200L536 748L1054 104Q1093 54 1045 15Q997 -24 957 24L448 656L320 525V63Q320 0 257 0Z" />
<glyph unicode="L" horiz-adv-x="1027" d="M257 0Q194 0 194 63V1248Q194 1311 257 1311Q320 1311 320 1248V126H910Q973 126 973 63Q973 0 910 0H257Z" />
<glyph unicode="M" horiz-adv-x="1604" d="M257 0Q194 0 194 63V1248Q194 1311 257 1311Q301 1311 328 1270L817 526L789 522L1280 1270Q1306 1311 1356 1311Q1410 1311 1410 1248V63Q1410 0 1347 0Q1284 0 1284 63V1122L1322 1109L874 434Q847 393 798 393Q759
393 732 434L284 1109L320 1097V63Q320 0 257 0Z" />
<glyph unicode="N" horiz-adv-x="1444" d="M257 0Q194 0 194 63V1248Q194 1311 257 1311Q290 1311 321 1274L1154 203H1124V1248Q1124 1311 1187 1311Q1250 1311 1250 1248V63Q1250 0 1187 0Q1153 0 1123 37L290 1108H320V63Q320 0 257 0Z" />
<glyph unicode="O" horiz-adv-x="1414" d="M587 0Q366 0 263 103T160 427V885Q160 1108 263 1210T586 1311H827Q1049 1311 1151 1209T1254 884V427Q1254 206 1152 103T827 0H587ZM587 126H827Q940 126 1005 154T1099 249T1128 427V884Q1128 996 1100 1062T1006
1156T827 1185H586Q474 1186 409 1158T315 1064T286 885V427Q286 315 314 249T409 155T587 126Z" />
<glyph unicode="P" horiz-adv-x="1156" d="M257 0Q194 0 194 63V1248Q194 1311 257 1311H725Q900 1311 991 1220T1082 954V894Q1082 720 991 629T725 537H320V63Q320 0 257 0ZM320 663H725Q848 663 902 717T956 894V954Q956 1076 902 1130T725 1185H320V663Z" />
<glyph unicode="Q" horiz-adv-x="1419" d="M1241 -20Q1259 -38 1259 -59T1238 -99Q1199 -137 1158 -98L865 207Q847 226 847 247T866 286Q906 325 947 285L1241 -20ZM587 0Q366 0 263 103T160 427V885Q160 1108 263 1210T586 1311H827Q1049 1311 1151 1209T1254
884V427Q1254 206 1152 103T827 0H587ZM587 126H827Q940 126 1005 154T1099 249T1128 427V884Q1128 996 1100 1062T1006 1156T827 1185H586Q474 1186 409 1158T315 1064T286 885V427Q286 315 314 249T409 155T587 126Z" />
<glyph unicode="R" horiz-adv-x="1207" d="M1066 -3Q1041 -18 1019 -13T980 17L658 537H320V63Q320 0 257 0Q194 0 194 63V1248Q194 1311 257 1311H725Q900 1311 991 1220T1082 954V894Q1082 741 1012 652T804 543L1088 83Q1119 30 1066 -3ZM320 663H725Q848 663
902 717T956 894V954Q956 1076 902 1130T725 1185H320V663Z" />
<glyph unicode="S" horiz-adv-x="1345" d="M528 1Q352 1 263 77T161 315Q159 346 176 363T223 380Q253 380 268 364T288 318Q295 211 349 169T528 127H816Q954 127 1006 179T1059 368Q1059 506 1006 558T816 611H551Q370 611 285 696T200 962Q200 1142 284 1226T549
1311H815Q980 1311 1064 1240T1161 1016Q1164 986 1147 969T1099 951Q1070 951 1054 967T1035 1013Q1027 1110 977 1147T815 1185H549Q421 1185 374 1137T326 962Q326 836 374 787T551 737H816Q1005 737 1095 648T1185 368Q1185 179 1096 90T816 1H528Z" />
<glyph unicode="T" horiz-adv-x="1166" d="M583 -1Q553 -1 537 15T520 62V1185H107Q77 1185 61 1201T44 1248Q44 1278 60 1294T107 1311H1059Q1089 1311 1105 1295T1122 1248Q1122 1218 1106 1202T1059 1185H646V62Q646 33 630 16T583 -1Z" />
<glyph unicode="U" horiz-adv-x="1462" d="M611 0Q390 0 287 103T184 427V1248Q184 1278 200 1294T247 1311Q277 1311 293 1295T310 1248V427Q310 315 338 249T433 155T611 126H851Q964 126 1029 154T1123 249T1152 427V1248Q1152 1278 1168 1294T1215 1311Q1245
1311 1261 1295T1278 1248V427Q1278 206 1176 103T851 0H611Z" />
<glyph unicode="V" horiz-adv-x="1240" d="M612 0Q572 0 552 46L41 1221Q28 1252 39 1274T79 1305Q134 1326 156 1271L645 147H601L1084 1271Q1106 1325 1161 1305Q1190 1296 1201 1274T1199 1221L686 46Q666 0 622 0H612Z" />
<glyph unicode="W" horiz-adv-x="1736" d="M475 0Q431 0 415 51L36 1227Q27 1255 44 1283T96 1312Q116 1312 132 1301T155 1265L501 190H467L795 1260Q803 1287 823 1299T866 1312Q890 1312 911 1300T939 1260L1267 190H1233L1579 1265Q1587 1289 1602 1300T1637
1311Q1674 1311 1691 1285T1698 1227L1319 51Q1303 0 1253 0H1249Q1198 0 1183 51L847 1133H881L544 51Q536 23 520 12T475 0Z" />
<glyph unicode="X" horiz-adv-x="1185" d="M129 14Q79 49 113 102L503 673L121 1209Q87 1259 137 1297Q189 1333 225 1281L586 775L956 1282Q995 1333 1044 1295Q1095 1258 1058 1208L664 666L1066 103Q1102 52 1050 14Q999 -21 963 30L581 564L217 30Q182 -20 129 14Z" />
<glyph unicode="Y" horiz-adv-x="1130" d="M559 0Q496 0 496 63V496L45 1211Q13 1264 65 1299Q119 1333 152 1279L559 631L977 1280Q993 1305 1015 1310T1063 1297Q1118 1264 1082 1211L622 496V63Q622 0 559 0Z" />
<glyph unicode="Z" horiz-adv-x="1284" d="M184 0Q120 0 120 63Q120 78 127 92T147 125L965 1205V1185H396Q317 1185 275 1157T221 1064Q216 1035 201 1020T155 1004Q125 1004 108 1021T94 1070Q111 1188 187 1249T396 1311H1060Q1123 1311 1123 1248Q1123 1231
1118 1216T1098 1182L284 103V126H886Q968 126 1010 154T1062 247Q1069 277 1084 292T1128 307Q1160 307 1177 290T1190 241Q1157 0 886 0H184Z" />
<glyph unicode="[" horiz-adv-x="414" d="M170 -336Q114 -336 114 -280V1286Q114 1342 170 1342H338Q362 1342 378 1326T394 1286Q394 1263 378 1247T338 1230H226V-224H338Q362 -224 378 -240T394 -280Q394 -303 378 -319T338 -336H170Z" />
<glyph unicode="\" horiz-adv-x="669" d="M519 -285Q470 -285 458 -236L48 1358Q39 1395 55 1417T109 1439Q157 1439 170 1390L580 -204Q589 -239 573 -262T519 -285Z" />
<glyph unicode="]" horiz-adv-x="414" d="M244 -336H76Q53 -336 37 -320T20 -280Q20 -256 36 -240T76 -224H188V1230H76Q53 1230 37 1246T20 1286Q20 1310 36 1326T76 1342H244Q300 1342 300 1286V-280Q300 -336 244 -336Z" />
<glyph unicode="^" horiz-adv-x="800" d="M263 858Q258 843 244 833T210 822Q187 822 171 838T154 878Q154 884 155 889T158 900L316 1308Q335 1352 381 1352H419Q465 1352 484 1308L642 900Q644 895 645 890T646 878Q646 855 630 839T590 822Q573 822 559 832T537
858L400 1213L263 858Z" />
<glyph unicode="_" horiz-adv-x="892" d="M163 -126Q100 -126 100 -63Q100 0 163 0H669Q732 0 732 -63Q732 -126 669 -126H163Z" />
<glyph unicode="`" horiz-adv-x="483" d="M360 1046Q315 1008 279 1053L116 1247Q80 1293 123 1328Q167 1366 204 1321L367 1127Q403 1083 360 1046Z" />
<glyph unicode="a" horiz-adv-x="1231" d="M485 0Q326 0 250 76T174 311Q174 471 250 547T485 623H930Q926 746 872 794T685 842H569Q451 842 396 820T324 742Q314 712 300 699T256 685Q225 685 208 702T195 750Q214 864 306 916T569 968H685Q877 968 966 879T1056
597V63Q1056 0 993 0Q930 0 930 63V145Q831 0 597 0H485ZM485 126H597Q687 126 757 145T873 208T930 327V497H485Q378 497 339 458T300 311Q300 204 339 165T485 126Z" />
<glyph unicode="b" horiz-adv-x="1260" d="M257 0Q194 0 194 63V1331Q194 1394 257 1394Q320 1394 320 1331V840Q367 904 449 936T653 969H729Q921 969 1010 880T1100 598V371Q1100 180 1011 90T729 0H653Q531 0 449 33T320 129V63Q320 0 257 0ZM653 126H729Q868
126 921 179T974 371V598Q974 737 921 790T729 843H653Q506 843 413 800T320 665V301Q321 213 414 170T653 126Z" />
<glyph unicode="c" horiz-adv-x="1162" d="M531 0Q340 0 250 90T160 371V599Q160 791 249 880T531 968H695Q843 968 923 919T1021 763Q1027 732 1010 715T959 697Q930 697 916 712T893 755Q881 803 836 822T695 842H531Q393 844 340 792T286 599V371Q286 233 339
180T531 126H695Q790 126 835 145T893 213Q902 242 916 256T960 271Q992 271 1009 254T1021 205Q1003 101 923 51T695 0H531Z" />
<glyph unicode="d" horiz-adv-x="1241" d="M531 0Q340 0 250 90T160 371V597Q160 789 250 878T531 968H940V1331Q940 1394 1003 1394Q1066 1394 1066 1331V63Q1066 0 1003 0Q940 0 940 63V125Q896 64 815 32T607 0H531ZM531 126H607Q755 126 847 170T940 304V842H531Q393
842 340 789T286 597V371Q286 233 339 180T531 126Z" />
<glyph unicode="e" horiz-adv-x="1226" d="M286 434V369Q286 232 339 179T531 126H695Q814 126 868 154T935 251Q942 281 957 296T1002 311Q1033 311 1049 295T1061 246Q1045 121 955 61T695 0H531Q340 0 250 90T160 369V597Q160 791 250 880T531 968H695Q887
968 976 879T1066 597V497Q1066 434 1003 434H286ZM531 842Q393 844 340 791T286 597V560H940V597Q940 736 887 789T695 842H531Z" />
<glyph unicode="f" horiz-adv-x="695" d="M281 0Q218 0 218 63V842H137Q74 842 74 905Q74 968 137 968H218V1029Q218 1218 306 1306T583 1394Q641 1394 641 1331Q641 1268 583 1268Q448 1268 396 1217T344 1029V968H578Q641 968 641 905Q641 842 578 842H344V63Q344
0 281 0Z" />
<glyph unicode="g" horiz-adv-x="1241" d="M427 -400Q308 -400 244 -351T165 -200Q161 -168 177 -151T226 -133Q256 -133 270 -148T291 -195Q300 -240 331 -257T427 -274H799Q883 -274 911 -245T940 -133V136Q892 69 810 35T607 0H531Q340 0 250 90T160 369V597Q160
790 249 879T531 968H695Q784 968 844 944T940 868V905Q940 968 1003 968Q1066 968 1066 905V-133Q1066 -270 1002 -335T799 -400H427ZM531 126H607Q755 126 847 170T940 304V660Q940 762 879 802T695 842H531Q393 842 340 790T286 597V369Q286 233 339 180T531
126Z" />
<glyph unicode="h" horiz-adv-x="1255" d="M257 0Q194 0 194 63V1331Q194 1394 257 1394Q320 1394 320 1331V831Q419 968 653 968H709Q901 968 990 879T1080 597V63Q1080 0 1017 0Q954 0 954 63V597Q954 736 901 789T709 842H653Q510 842 421 800T320 669V63Q320
0 257 0Z" />
<glyph unicode="i" horiz-adv-x="514" d="M233 1144Q155 1144 155 1223V1273Q155 1350 233 1350H282Q357 1350 357 1273V1223Q357 1144 282 1144H233ZM257 0Q194 0 194 63V905Q194 968 257 968Q320 968 320 905V63Q320 0 257 0Z" />
<glyph unicode="j" horiz-adv-x="514" d="M234 1144Q156 1144 156 1223V1273Q156 1350 234 1350H283Q358 1350 358 1273V1223Q358 1144 283 1144H234ZM37 -400Q7 -400 -10 -384T-27 -337Q-27 -306 -10 -290T37 -274Q128 -274 161 -241T194 -117V905Q194 968 257
968Q320 968 320 905V-117Q320 -261 251 -330T37 -400Z" />
<glyph unicode="k" horiz-adv-x="977" d="M257 0Q194 0 194 63V1331Q194 1394 257 1394Q320 1394 320 1331V527L817 954Q864 995 905 948Q947 901 899 859L532 543L915 108Q957 60 910 19Q863 -22 821 25L436 460L320 361V63Q320 0 257 0Z" />
<glyph unicode="l" horiz-adv-x="617" d="M478 0Q333 0 264 69T194 283V1331Q194 1394 257 1394Q320 1394 320 1331V283Q320 192 353 159T477 126Q542 126 542 63Q544 0 478 0Z" />
<glyph unicode="m" horiz-adv-x="1763" d="M1270 969Q1441 969 1514 885T1588 606V62Q1588 -1 1525 -1Q1462 -1 1462 62V606Q1462 732 1418 787T1270 843H1187Q1062 843 1008 788T954 606V62Q954 -1 891 -1Q828 -1 828 62V606Q828 732 784 787T636 843H553Q428
843 374 788T320 606V62Q320 -1 257 -1Q194 -1 194 62V905Q194 968 257 968Q320 968 320 905V838Q367 908 428 938T581 969H636Q747 969 813 934T917 817Q963 899 1026 934T1187 969H1270Z" />
<glyph unicode="n" horiz-adv-x="1255" d="M257 0Q194 0 194 63V905Q194 968 257 968Q320 968 320 905V831Q419 968 653 968H709Q901 968 990 879T1080 597V63Q1080 0 1017 0Q954 0 954 63V597Q954 736 901 789T709 842H653Q510 842 421 800T320 669V63Q320 0 257 0Z" />
<glyph unicode="o" horiz-adv-x="1226" d="M531 0Q340 0 250 90T160 369V597Q160 790 250 879T531 968H695Q887 968 976 879T1066 597V371Q1066 180 977 90T695 0H531ZM286 369Q286 232 339 179T531 126H695Q834 126 887 179T940 371V597Q940 736 887 789T695
842H531Q439 843 386 821T309 745T286 597V369Z" />
<glyph unicode="p" horiz-adv-x="1260" d="M257 -400Q194 -400 194 -337V905Q194 968 257 968Q320 968 320 905V838Q368 902 450 935T653 968H729Q921 968 1010 879T1100 597V371Q1100 180 1011 90T729 0H320V-337Q320 -400 257 -400ZM320 126H729Q868 126 921
179T974 371V597Q974 736 921 789T729 842H653Q505 842 418 799T320 665V126Z" />
<glyph unicode="q" horiz-adv-x="1241" d="M1003 -400Q940 -400 940 -337V0H531Q340 0 250 90T160 371V597Q160 789 250 878T531 968H607Q734 968 815 934T940 836V905Q940 968 1003 968Q1066 968 1066 905V-337Q1066 -400 1003 -400ZM531 126H940V663Q940 754
848 798T607 842H531Q393 842 340 789T286 597V371Q286 233 339 180T531 126Z" />
<glyph unicode="r" horiz-adv-x="787" d="M257 0Q194 0 194 63V905Q194 968 257 968Q320 968 320 905V777Q375 870 471 919T696 968Q759 968 759 905Q759 842 696 842Q520 842 425 767T320 558V63Q320 0 257 0Z" />
<glyph unicode="s" horiz-adv-x="1152" d="M411 1Q287 1 219 53T135 213Q131 245 148 262T197 280Q228 280 242 265T263 218Q273 167 307 147T411 127H739Q828 127 860 159T892 280Q892 369 860 401T739 433H416Q281 433 215 499T148 700Q148 838 214 903T416
969H729Q959 969 989 770Q995 739 978 722T928 704Q898 704 884 719T862 764Q853 809 823 826T729 843H416Q333 843 304 814T274 700Q274 619 304 589T416 559H739Q881 559 949 491T1018 280Q1018 138 950 70T739 1H411Z" />
<glyph unicode="t" horiz-adv-x="757" d="M594 0Q405 0 317 88T229 363V842H117Q54 842 54 905Q54 968 117 968H229V1160Q229 1223 292 1223Q355 1223 355 1160V968H599Q662 968 662 905Q662 842 599 842H355V363Q355 228 407 177T594 126Q627 126 642 111T658
63Q658 0 594 0Z" />
<glyph unicode="u" horiz-adv-x="1255" d="M998 968Q1061 968 1061 905V63Q1061 0 998 0Q935 0 935 63V138Q837 0 602 0H546Q355 0 265 90T175 371V905Q175 968 238 968Q301 968 301 905V371Q301 233 354 180T546 126H602Q745 126 834 168T935 299V905Q935 968 998 968Z" />
<glyph unicode="v" horiz-adv-x="1018" d="M568 47Q557 21 539 11T493 0Q443 0 422 49L61 879Q36 939 95 961Q152 987 177 928L530 117H461L840 930Q853 957 875 965T924 961Q981 935 955 877L568 47Z" />
<glyph unicode="w" horiz-adv-x="1435" d="M410 0Q356 0 340 51L59 884Q39 943 99 963Q158 983 178 923L436 164H403L649 913Q665 963 721 963Q773 963 789 911L1018 167H986L1256 924Q1278 985 1337 963Q1396 942 1375 882L1068 51Q1049 0 995 0Q937 0 922 52L702
766H722L481 51Q472 24 453 12T410 0Z" />
<glyph unicode="x" horiz-adv-x="1015" d="M127 16Q78 55 115 105L424 510L149 864Q110 913 160 952Q210 991 248 941L513 600L783 941Q822 993 872 952Q922 914 883 864L591 498L895 105Q934 55 885 17Q835 -23 796 28L504 406L215 29Q177 -22 127 16Z" />
<glyph unicode="y" horiz-adv-x="1263" d="M442 -400Q306 -400 241 -334T175 -131Q175 -68 238 -68Q301 -68 301 -131Q301 -215 330 -244T442 -274H802Q885 -274 914 -245T943 -131V137Q886 57 802 28T610 -1H540Q351 -1 263 87T175 362V906Q175 969 238 969Q301
969 301 906V362Q301 227 352 176T540 125H610Q782 125 862 184T943 362V906Q943 969 1006 969Q1069 969 1069 906V-131Q1069 -268 1004 -334T802 -400H442Z" />
<glyph unicode="z" horiz-adv-x="1051" d="M189 0Q126 0 126 63Q126 93 153 127L753 871L781 842H353Q288 842 258 826T217 762Q212 732 198 717T153 701Q121 701 104 718T91 767Q106 870 170 919T353 968H843Q906 968 906 905Q906 873 879 839L289 105L257 127L717
126Q779 126 811 144T852 207Q861 237 874 252T918 267Q951 267 968 250T979 201Q947 0 717 0H189Z" />
<glyph unicode="{" horiz-adv-x="674" d="M598 -336Q420 -336 347 -258T274 8V352L158 396Q114 415 114 461V523Q114 569 157 588L274 634V978Q274 1100 302 1180T398 1301T583 1342Q618 1342 636 1328T654 1287Q654 1261 638 1247T598 1230Q549 1227 510 1223T443
1197T401 1124T386 978V605Q386 557 343 540L194 486V498L342 446Q386 430 386 381V8Q386 -95 404 -143T468 -206T598 -224Q624 -224 639 -241T654 -280Q654 -303 638 -319T598 -336Z" />
<glyph unicode="|" horiz-adv-x="446" d="M286 -240Q286 -303 223 -303Q160 -303 160 -240V1347Q160 1410 223 1410Q286 1410 286 1347V-240Z" />
<glyph unicode="}" horiz-adv-x="674" d="M76 -336Q53 -336 37 -320T20 -280Q20 -258 35 -241T76 -224Q160 -221 206 -206T270 -143T288 8V381Q288 430 332 446L480 498V486L331 540Q288 557 288 605V978Q288 1073 274 1124T232 1196T165 1222T76 1230Q54 1232
37 1246T20 1287Q20 1314 38 1328T91 1342Q209 1342 276 1302T372 1181T400 978V634L517 588Q560 569 560 523V461Q560 415 516 396L400 352V8Q400 -180 328 -258T76 -336Z" />
<glyph unicode="~" horiz-adv-x="1154" d="M252 546Q237 525 211 525Q190 525 176 538T159 572T169 610Q209 664 243 694T316 737T403 749Q470 749 515 731T596 690T667 649T747 631Q794 631 828 652T901 725Q920 749 945 749Q979 749 991 720T985 664Q934 593
877 559T747 525Q684 525 643 543T568 584T498 625T403 643Q372 643 350 636T306 609T252 546Z" />
<glyph unicode="&#xa0;" horiz-adv-x="544" />
<glyph unicode="&#xa1;" horiz-adv-x="477" d="M237 755Q300 755 300 692V-291Q300 -354 237 -354Q174 -354 174 -291V692Q174 755 237 755ZM258 1042Q323 1042 323 976V934Q323 870 258 870H217Q154 870 154 934V976Q154 1042 217 1042H258Z" />
<glyph unicode="&#xa2;" horiz-adv-x="1022" d="M483 119Q307 119 224 201T140 458V624Q140 801 223 884T483 965H595Q751 965 826 905T902 714Q902 688 884 670T839 651Q813 651 795 669T776 714Q776 785 740 812T595 839H483Q360 841 313 795T266 624V458Q266
338 312 292T483 245H595Q703 245 739 272T776 370Q776 397 794 415T839 433Q866 433 884 415T902 370Q902 241 827 180T595 119H483ZM539 -56Q483 -56 483 0V1082Q483 1138 539 1138Q595 1138 595 1082V0Q595 -56 539 -56Z" />
<glyph unicode="&#xa3;" horiz-adv-x="1187" d="M94 0V126Q162 126 186 162T210 285V860Q210 1083 313 1185T635 1287H677Q879 1287 971 1196T1064 900Q1064 837 1001 837Q938 837 938 900Q938 1001 915 1057T834 1137T677 1161H635Q524 1161 459 1133T365 1040T336
860V285Q336 237 328 197T302 126H1041Q1104 126 1104 63Q1104 0 1041 0H94ZM94 431Q38 431 38 487Q38 543 94 543H703Q759 543 759 487Q759 431 703 431H94Z" />
<glyph unicode="&#xa4;" horiz-adv-x="1145" d="M219 263Q193 263 175 281T156 326Q156 352 174 371L274 470Q241 518 222 574T203 694Q203 757 222 813T274 916L176 1016Q157 1035 157 1061Q157 1088 175 1106T220 1124Q248 1124 265 1105L363 1006Q411 1039
467 1057T585 1075Q649 1075 705 1057T808 1005L908 1106Q926 1124 952 1124Q979 1124 997 1106T1015 1061Q1015 1035 997 1017L897 916Q931 870 949 814T967 694Q967 632 950 576T898 471L998 370Q1016 352 1016 326Q1016 300 998 282T953 263Q927 263 908 282L809
382Q763 349 706 330T585 311Q522 311 466 329T363 381L264 281Q245 263 219 263ZM585 437Q657 437 715 471T807 563T841 694Q841 766 807 823T715 915T585 949Q514 949 456 915T363 824T329 694Q329 622 363 564T455 471T585 437Z" />
<glyph unicode="&#xa5;" horiz-adv-x="1132" d="M627 63Q627 0 564 0Q501 0 501 63V493L47 1210Q12 1263 66 1297Q118 1332 152 1278L602 560H526L979 1280Q1012 1334 1067 1299Q1118 1264 1086 1211L627 493V63ZM283 440Q260 440 247 453T234 489Q234 513 247
525T283 538H844Q867 538 880 526T893 489Q893 466 880 453T844 440H283ZM283 260Q260 260 247 273T234 309Q234 333 247 345T283 358H844Q867 358 880 346T893 309Q893 286 880 273T844 260H283Z" />
<glyph unicode="&#xa6;" horiz-adv-x="446" d="M286 -240Q286 -266 268 -284T223 -303Q197 -303 179 -285T160 -240V334Q160 361 178 379T223 397Q250 397 268 379T286 334V-240ZM286 778Q286 752 268 734T223 715Q197 715 179 733T160 778V1348Q160 1375 178
1393T223 1411Q250 1411 268 1393T286 1348V778Z" />
<glyph unicode="&#xa7;" horiz-adv-x="1108" d="M928 564Q928 440 861 376T662 311Q637 313 620 319T602 334Q602 360 619 377T662 394Q741 394 774 432T808 564Q808 638 776 676T653 747L455 817Q339 858 284 924T228 1092Q228 1197 291 1250T474 1304H670Q912
1304 912 1060Q912 1034 896 1017T852 1000Q826 1000 809 1017T792 1060Q792 1133 767 1158T670 1184H474Q403 1184 376 1164T348 1092Q348 1031 380 996T494 931L692 861Q818 817 873 748T928 564ZM444 -162Q304 -162 236 -94T168 114Q168 141 185 157T228 174Q255
174 271 158T288 114Q288 25 321 -8T444 -42H672Q763 -42 795 -9T828 114Q828 156 817 182T768 228T655 273L407 353Q272 396 216 464T160 656Q160 784 230 844T444 905L504 882Q504 857 487 840T444 822Q351 822 316 787T280 656Q280 601 293 567T342 511T442
467L690 387Q790 355 846 321T925 237T948 114Q948 -26 881 -94T672 -162H444Z" />
<glyph unicode="&#xa8;" horiz-adv-x="679" d="M177 1130Q112 1130 112 1196V1238Q112 1302 177 1302H218Q281 1302 281 1238V1196Q281 1130 218 1130H177ZM487 1130Q422 1130 422 1196V1238Q422 1302 487 1302H528Q591 1302 591 1238V1196Q591 1130 528 1130H487Z" />
<glyph unicode="&#xa9;" horiz-adv-x="1608" d="M1448 652Q1448 465 1365 320T1137 91T804 7Q617 7 472 90T243 319T160 652Q160 840 243 985T471 1214T804 1297Q992 1297 1137 1214T1365 986T1448 652ZM272 652Q272 496 340 376T528 188T804 119Q961 119 1081
187T1268 376T1336 652Q1336 809 1269 929T1081 1117T804 1185Q648 1185 528 1117T340 929T272 652ZM764 288Q621 288 553 356T484 566V732Q484 877 552 944T764 1012H857Q970 1012 1032 973T1105 850Q1110 824 1095 808T1049 792Q1024 792 1013 806T990 842Q982
875 953 887T857 900H764Q668 900 632 866T596 732V566Q596 471 632 436T764 400H857Q923 400 953 413T990 458Q1000 482 1012 495T1049 509Q1079 509 1095 493T1105 450Q1093 368 1032 328T857 288H764Z" />
<glyph unicode="&#xaa;" horiz-adv-x="889" d="M339 617Q225 617 170 673T114 842Q114 957 170 1012T339 1068H660Q656 1142 624 1169T509 1197H397Q330 1197 295 1188T250 1153Q233 1124 222 1114T187 1104Q158 1104 142 1120T133 1165Q167 1312 397 1312H509Q645
1312 710 1247T775 1046V674Q775 617 717 617Q660 617 660 674V710Q597 617 449 617H339ZM339 732H449Q542 732 601 754T660 826V953H339Q274 953 252 931T229 842Q229 777 251 755T339 732Z" />
<glyph unicode="&#xab;" horiz-adv-x="1260" d="M1031 228Q1010 228 995 241L623 548Q574 588 623 628L995 935Q1010 948 1031 948Q1054 948 1070 932T1087 892Q1087 879 1081 869T1065 849L749 588L1065 327Q1075 319 1081 309T1087 284Q1087 261 1071 245T1031
228ZM606 228Q585 228 570 241L198 548Q149 588 198 628L570 935Q585 948 606 948Q629 948 645 932T662 892Q662 879 656 869T640 849L324 588L640 327Q650 319 656 309T662 284Q662 261 646 245T606 228Z" />
<glyph unicode="&#xac;" horiz-adv-x="1154" d="M1001 475Q1001 452 986 437T947 422Q924 422 909 437T894 475V653H209Q186 653 171 668T156 706Q156 730 171 744T209 759H947Q1001 759 1001 706V475Z" />
<glyph unicode="&#xad;" horiz-adv-x="972" d="M210 484Q187 484 171 500T154 540Q154 564 170 580T210 596H762Q786 596 802 580T818 540Q818 517 802 501T762 484H210Z" />
<glyph unicode="&#xae;" horiz-adv-x="1608" d="M1448 651Q1448 464 1365 319T1137 90T804 7Q617 7 472 90T243 318T160 651Q160 839 243 984T471 1212T804 1295Q992 1295 1137 1212T1365 984T1448 651ZM272 651Q272 495 340 375T528 187T804 119Q961 119 1081
187T1268 375T1336 651Q1336 808 1269 928T1081 1115T804 1183Q648 1183 528 1116T340 928T272 651ZM683 369Q683 313 627 313Q571 313 571 369V955Q571 1011 627 1011H833Q931 1011 984 958T1037 807V777Q1037 632 927 588L1034 395Q1061 344 1010 319Q962 295
934 343L810 571H683V369ZM683 683H833Q884 683 904 704T925 777V807Q925 858 905 878T833 899H683V683Z" />
<glyph unicode="&#xaf;" horiz-adv-x="832" d="M163 1147Q100 1147 100 1210Q100 1273 163 1273H669Q732 1273 732 1210Q732 1147 669 1147H163Z" />
<glyph unicode="&#xb0;" horiz-adv-x="564" d="M259 885Q183 885 142 926T100 1044V1188Q100 1265 141 1306T259 1347H305Q382 1347 423 1306T464 1188V1044Q464 968 423 927T305 885H259ZM198 1044Q198 1010 211 997T259 983H305Q340 983 353 996T366 1044V1188Q366
1223 353 1236T305 1249H259Q225 1249 212 1236T198 1188V1044Z" />
<glyph unicode="&#xb1;" horiz-adv-x="1154" d="M512 984Q512 1011 527 1025T568 1040Q595 1040 609 1026T624 984V446Q624 420 610 405T568 390Q542 390 527 405T512 446V984ZM210 664Q154 664 154 720Q154 776 210 776H944Q1000 776 1000 720Q1000 664 944 664H210ZM210
229Q154 229 154 285Q154 341 210 341H944Q1000 341 1000 285Q1000 229 944 229H210Z" />
<glyph unicode="&#xb2;" horiz-adv-x="723" d="M548 617H182Q155 617 138 632T121 677Q121 767 154 823T237 914T337 980Q413 1026 444 1049T475 1113Q475 1159 462 1172T403 1185H303Q273 1185 256 1180T231 1157Q214 1128 202 1116T165 1104Q135 1104 118 1121T107
1168Q138 1305 303 1305H403Q595 1305 595 1113Q595 1049 567 1008T493 937T400 878Q340 843 302 814T249 737H548Q609 737 609 677Q609 617 548 617Z" />
<glyph unicode="&#xb3;" horiz-adv-x="741" d="M317 620Q144 620 115 762Q109 793 125 809T172 826Q200 826 210 815T237 772Q245 754 263 747T317 740H425Q480 740 496 757T513 826Q513 881 497 896T425 912H370Q310 912 310 973Q310 1033 370 1033H425Q633 1033
633 826Q633 620 425 620H317ZM419 967V1033Q465 1033 482 1054T499 1109Q499 1159 484 1173T421 1188H320Q290 1188 274 1183T251 1161Q237 1138 226 1124T187 1109Q153 1109 137 1126T127 1172Q154 1308 320 1308H421Q520 1308 569 1260T619 1123Q619 1052 570
1011T419 967Z" />
<glyph unicode="&#xb4;" horiz-adv-x="480" d="M120 1046Q78 1083 113 1127L276 1321Q313 1366 357 1328Q400 1293 364 1247L201 1053Q166 1008 120 1046Z" />
<glyph unicode="&#xb5;" horiz-adv-x="1306" d="M1061 246Q1061 178 1082 154T1167 126Q1201 126 1216 112T1231 63Q1231 -1 1166 0Q1088 2 1038 38T958 133Q907 70 818 35T602 -1H546Q462 -1 401 28T301 120V-107Q301 -143 285 -163T238 -184Q175 -184 175 -121V905Q175
968 238 968Q301 968 301 905V370Q301 232 354 179T546 125H602Q750 125 842 168T935 304V905Q935 968 998 968Q1061 968 1061 905V246Z" />
<glyph unicode="&#xb6;" horiz-adv-x="1096" d="M642 -326Q642 -349 626 -365T586 -382Q563 -382 547 -366T530 -326V566H414Q247 566 161 652T74 904V962Q74 1130 160 1216T414 1302H846Q902 1302 902 1246V-326Q902 -349 886 -365T846 -382Q823 -382 807 -366T790
-326V1190H642V-326Z" />
<glyph unicode="&#xb7;" horiz-adv-x="477" d="M219 500Q154 500 154 566V608Q154 672 219 672H260Q323 672 323 608V566Q323 500 260 500H219Z" />
<glyph unicode="&#xb8;" horiz-adv-x="600" d="M280 -414Q100 -414 100 -234Q100 -178 156 -178Q212 -178 212 -234Q212 -276 225 -289T280 -302Q345 -302 366 -281T388 -194Q388 -175 380 -164T342 -133Q324 -121 301 -101T260 -50T242 30Q242 86 298 86Q354
86 354 30Q354 8 363 -5T404 -41Q431 -59 465 -93T500 -194Q500 -305 446 -359T280 -414Z" />
<glyph unicode="&#xb9;" horiz-adv-x="598" d="M375 617Q312 617 312 680V1134L348 1143L242 1038Q198 994 153 1039Q110 1086 154 1128L309 1279Q330 1299 346 1305T387 1311Q438 1311 438 1262V680Q438 617 375 617Z" />
<glyph unicode="&#xba;" horiz-adv-x="846" d="M357 617Q220 617 153 684T86 888V1023Q86 1162 153 1228T357 1294H489Q627 1294 693 1228T760 1023V890Q760 752 694 685T489 617H357ZM357 743H489Q574 743 604 773T634 890V1023Q634 1107 604 1137T489 1168H357Q273
1169 243 1140T212 1023V888Q212 804 242 774T357 743Z" />
<glyph unicode="&#xbb;" horiz-adv-x="1258" d="M652 228Q630 228 613 244T596 284Q596 298 602 308T618 327L934 588L618 849Q609 858 603 868T596 892Q596 916 613 932T652 948Q674 948 688 935L1060 628Q1110 588 1060 548L688 241Q674 228 652 228ZM229 228Q207
228 190 244T173 284Q173 298 179 308T195 327L511 588L195 849Q186 858 180 868T173 892Q173 916 190 932T229 948Q251 948 265 935L637 628Q687 588 637 548L265 241Q251 228 229 228Z" />
<glyph unicode="&#xbc;" horiz-adv-x="1530" d="M375 617Q312 617 312 680V1134L348 1143L242 1038Q198 994 153 1039Q110 1086 154 1128L309 1279Q330 1299 346 1305T387 1311Q438 1311 438 1262V680Q438 617 375 617ZM327 -19Q301 -19 283 -1T264 44Q264 55
267 65T276 83L1198 1303Q1218 1329 1249 1329Q1276 1329 1294 1311T1312 1266Q1312 1256 1309 1246T1300 1227L378 7Q359 -19 327 -19ZM1242 4Q1182 4 1182 64L1186 565L1235 557L942 196L929 257H1366Q1426 257 1426 196Q1426 136 1366 136H892Q832 136 832 196Q832
227 857 259L1179 661Q1195 680 1211 689T1252 698Q1306 698 1306 638L1302 64Q1302 4 1242 4Z" />
<glyph unicode="&#xbd;" horiz-adv-x="1563" d="M375 617Q312 617 312 680V1134L348 1143L242 1038Q198 994 153 1039Q110 1086 154 1128L309 1279Q330 1299 346 1305T387 1311Q438 1311 438 1262V680Q438 617 375 617ZM327 -19Q301 -19 283 -1T264 44Q264 55
267 65T276 83L1198 1303Q1218 1329 1249 1329Q1276 1329 1294 1311T1312 1266Q1312 1256 1309 1246T1300 1227L378 7Q359 -19 327 -19ZM1382 0H1016Q989 0 972 15T955 60Q955 150 988 206T1071 297T1171 363Q1247 409 1278 432T1309 496Q1309 542 1296 555T1237
568H1137Q1107 568 1090 563T1065 540Q1048 511 1036 499T999 487Q969 487 952 504T941 551Q972 688 1137 688H1237Q1429 688 1429 496Q1429 432 1401 391T1327 320T1234 261Q1174 226 1136 197T1083 120H1382Q1443 120 1443 60Q1443 0 1382 0Z" />
<glyph unicode="&#xbe;" horiz-adv-x="1673" d="M317 620Q144 620 115 762Q109 793 125 809T172 826Q200 826 210 815T237 772Q245 754 263 747T317 740H425Q480 740 496 757T513 826Q513 881 497 896T425 912H370Q310 912 310 973Q310 1033 370 1033H425Q633
1033 633 826Q633 620 425 620H317ZM419 967V1033Q465 1033 482 1054T499 1109Q499 1159 484 1173T421 1188H320Q290 1188 274 1183T251 1161Q237 1138 226 1124T187 1109Q153 1109 137 1126T127 1172Q154 1308 320 1308H421Q520 1308 569 1260T619 1123Q619 1052
570 1011T419 967ZM470 -19Q444 -19 426 -1T407 44Q407 55 410 65T419 83L1341 1303Q1361 1329 1392 1329Q1419 1329 1437 1311T1455 1266Q1455 1256 1452 1246T1443 1227L521 7Q502 -19 470 -19ZM1385 4Q1325 4 1325 64L1329 565L1378 557L1085 196L1072 257H1509Q1569
257 1569 196Q1569 136 1509 136H1035Q975 136 975 196Q975 227 1000 259L1322 661Q1338 680 1354 689T1395 698Q1449 698 1449 638L1445 64Q1445 4 1385 4Z" />
<glyph unicode="&#xbf;" horiz-adv-x="979" d="M537 723Q600 723 600 660Q600 552 567 487T486 384T393 318Q349 290 316 264T265 196T246 82Q246 -44 294 -92T469 -141H603Q730 -141 778 -92T826 82Q826 145 889 145Q952 145 952 82Q952 -95 867 -181T603 -267H469Q290
-267 205 -182T120 82Q120 190 153 255T235 359T327 424Q371 452 404 479T456 547T474 660Q474 723 537 723ZM556 1020Q621 1020 621 954V912Q621 848 556 848H515Q452 848 452 912V954Q452 1020 515 1020H556Z" />
<glyph unicode="&#xc0;" horiz-adv-x="1263" d="M105 6Q47 31 70 89L559 1262Q580 1311 630 1311H635Q684 1310 703 1262L1195 89Q1220 31 1161 6Q1103 -17 1079 40L955 337H310L187 40Q164 -18 105 6ZM361 463H902L630 1112L361 463ZM704 1417Q659 1379 623 1424L460
1618Q424 1664 467 1699Q511 1737 548 1692L711 1498Q747 1454 704 1417Z" />
<glyph unicode="&#xc1;" horiz-adv-x="1263" d="M613 1417Q571 1454 606 1498L769 1692Q806 1737 850 1699Q893 1664 857 1618L694 1424Q659 1379 613 1417ZM105 6Q47 31 70 89L559 1262Q580 1311 630 1311H635Q684 1310 703 1262L1195 89Q1220 31 1161 6Q1103
-17 1079 40L955 337H310L187 40Q164 -18 105 6ZM361 463H902L630 1112L361 463Z" />
<glyph unicode="&#xc2;" horiz-adv-x="1263" d="M105 6Q47 31 70 89L559 1262Q580 1311 630 1311H635Q684 1310 703 1262L1195 89Q1220 31 1161 6Q1103 -17 1079 40L955 337H310L187 40Q164 -18 105 6ZM361 463H902L630 1112L361 463ZM388 1417Q364 1417 347 1434T329
1476Q329 1507 355 1525L548 1686Q581 1713 621 1713H638Q678 1713 711 1686L905 1525Q931 1506 931 1476Q931 1452 914 1435T872 1417Q849 1417 830 1434L636 1595H623L430 1434Q412 1417 388 1417Z" />
<glyph unicode="&#xc3;" horiz-adv-x="1263" d="M105 6Q47 31 70 89L559 1262Q580 1311 630 1311H635Q684 1310 703 1262L1195 89Q1220 31 1161 6Q1103 -17 1079 40L955 337H310L187 40Q164 -18 105 6ZM361 463H902L630 1112L361 463ZM763 1455Q703 1455 667 1482T609
1532Q586 1557 569 1568T526 1579Q487 1579 470 1557T440 1502Q432 1481 417 1469T374 1464Q341 1471 335 1493T336 1535Q363 1610 409 1649T525 1688Q589 1688 626 1660T687 1608Q714 1582 728 1574T762 1565Q794 1565 810 1582T839 1636Q849 1659 862 1671T904
1677Q939 1671 944 1648T944 1608Q919 1535 875 1495T763 1455Z" />
<glyph unicode="&#xc4;" horiz-adv-x="1263" d="M105 6Q47 31 70 89L559 1262Q580 1311 630 1311H635Q684 1310 703 1262L1195 89Q1220 31 1161 6Q1103 -17 1079 40L955 337H310L187 40Q164 -18 105 6ZM361 463H902L630 1112L361 463ZM458 1473Q393 1473 393 1539V1581Q393
1645 458 1645H499Q562 1645 562 1581V1539Q562 1473 499 1473H458ZM768 1473Q703 1473 703 1539V1581Q703 1645 768 1645H809Q872 1645 872 1581V1539Q872 1473 809 1473H768Z" />
<glyph unicode="&#xc5;" horiz-adv-x="1263" d="M105 6Q47 31 70 89L559 1262Q580 1311 630 1311H635Q684 1310 703 1262L1195 89Q1220 31 1161 6Q1103 -17 1079 40L955 337H310L187 40Q164 -18 105 6ZM361 463H902L630 1112L361 463ZM628 1424Q557 1424 516 1464T475
1577Q475 1650 516 1690T628 1730Q701 1730 741 1690T782 1577Q782 1505 742 1465T628 1424ZM628 1523Q662 1523 672 1533T682 1577Q682 1611 672 1621T628 1631Q595 1631 585 1621T574 1577Q574 1544 584 1534T628 1523Z" />
<glyph unicode="&#xc6;" horiz-adv-x="1677" d="M893 0Q830 0 830 63V337L357 338L185 35Q152 -22 99 10Q44 43 75 96L738 1267Q751 1290 769 1300T813 1311H1523Q1586 1311 1586 1248Q1586 1185 1523 1185H956V726H1287Q1350 726 1350 663Q1350 600 1287 600H956V126H1523Q1586
126 1586 63Q1586 0 1523 0H893ZM428 463H830V1166H819L428 463Z" />
<glyph unicode="&#xc7;" horiz-adv-x="1351" d="M587 0Q366 0 263 103T160 427V884Q160 1107 263 1209T585 1311H827Q1013 1311 1106 1235T1210 989Q1214 958 1198 941T1150 924Q1092 924 1084 987Q1076 1101 1018 1143T827 1185H585Q473 1186 408 1158T315 1064T286
884V427Q286 315 314 249T409 155T587 126H827Q959 126 1017 168T1084 324Q1092 387 1150 387Q1182 387 1198 371T1210 322Q1199 154 1106 77T827 0H587ZM744 -414Q564 -414 564 -234Q564 -178 620 -178Q676 -178 676 -234Q676 -276 689 -289T744 -302Q809 -302
830 -281T852 -194Q852 -175 844 -164T806 -133Q788 -121 765 -101T724 -50T706 30Q706 86 762 86Q818 86 818 30Q818 8 827 -5T868 -41Q895 -59 929 -93T964 -194Q964 -305 910 -359T744 -414Z" />
<glyph unicode="&#xc8;" horiz-adv-x="1150" d="M257 0Q194 0 194 63V1248Q194 1311 257 1311H996Q1059 1311 1059 1248Q1059 1185 996 1185H320V726H760Q823 726 823 663Q823 600 760 600H320V126H996Q1059 126 1059 63Q1059 0 996 0H257ZM731 1417Q686 1379
650 1424L487 1618Q451 1664 494 1699Q538 1737 575 1692L738 1498Q774 1454 731 1417Z" />
<glyph unicode="&#xc9;" horiz-adv-x="1150" d="M609 1435Q567 1472 602 1516L765 1710Q802 1755 846 1717Q889 1682 853 1636L690 1442Q655 1397 609 1435ZM257 0Q194 0 194 63V1248Q194 1311 257 1311H996Q1059 1311 1059 1248Q1059 1185 996 1185H320V726H760Q823
726 823 663Q823 600 760 600H320V126H996Q1059 126 1059 63Q1059 0 996 0H257Z" />
<glyph unicode="&#xca;" horiz-adv-x="1150" d="M257 0Q194 0 194 63V1248Q194 1311 257 1311H996Q1059 1311 1059 1248Q1059 1185 996 1185H320V726H760Q823 726 823 663Q823 600 760 600H320V126H996Q1059 126 1059 63Q1059 0 996 0H257ZM415 1417Q391 1417
374 1434T356 1476Q356 1507 382 1525L575 1686Q608 1713 648 1713H665Q705 1713 738 1686L932 1525Q958 1506 958 1476Q958 1452 941 1435T899 1417Q876 1417 857 1434L663 1595H650L457 1434Q439 1417 415 1417Z" />
<glyph unicode="&#xcb;" horiz-adv-x="1150" d="M257 0Q194 0 194 63V1248Q194 1311 257 1311H996Q1059 1311 1059 1248Q1059 1185 996 1185H320V726H760Q823 726 823 663Q823 600 760 600H320V126H996Q1059 126 1059 63Q1059 0 996 0H257ZM485 1473Q420 1473
420 1539V1581Q420 1645 485 1645H526Q589 1645 589 1581V1539Q589 1473 526 1473H485ZM795 1473Q730 1473 730 1539V1581Q730 1645 795 1645H836Q899 1645 899 1581V1539Q899 1473 836 1473H795Z" />
<glyph unicode="&#xcc;" horiz-adv-x="514" d="M257 0Q227 0 211 16T194 63V1248Q194 1279 210 1295T257 1311Q288 1311 304 1295T320 1248V63Q320 33 304 17T257 0ZM329 1417Q284 1379 248 1424L85 1618Q49 1664 92 1699Q136 1737 173 1692L336 1498Q372 1454 329 1417Z" />
<glyph unicode="&#xcd;" horiz-adv-x="514" d="M207 1435Q165 1472 200 1516L363 1710Q400 1755 444 1717Q487 1682 451 1636L288 1442Q253 1397 207 1435ZM257 0Q227 0 211 16T194 63V1248Q194 1279 210 1295T257 1311Q288 1311 304 1295T320 1248V63Q320 33
304 17T257 0Z" />
<glyph unicode="&#xce;" horiz-adv-x="514" d="M257 0Q227 0 211 16T194 63V1248Q194 1279 210 1295T257 1311Q288 1311 304 1295T320 1248V63Q320 33 304 17T257 0ZM70 1421Q47 1421 31 1437T14 1477Q14 1488 18 1497T28 1514L179 1691Q207 1723 248 1723H272Q314
1723 341 1691L492 1514Q499 1506 502 1497T506 1477Q506 1454 490 1438T450 1421Q423 1421 408 1440L269 1611H251L112 1440Q96 1421 70 1421Z" />
<glyph unicode="&#xcf;" horiz-adv-x="514" d="M257 0Q227 0 211 16T194 63V1248Q194 1279 210 1295T257 1311Q288 1311 304 1295T320 1248V63Q320 33 304 17T257 0ZM83 1473Q18 1473 18 1539V1581Q18 1645 83 1645H124Q187 1645 187 1581V1539Q187 1473 124 1473H83ZM393
1473Q328 1473 328 1539V1581Q328 1645 393 1645H434Q497 1645 497 1581V1539Q497 1473 434 1473H393Z" />
<glyph unicode="&#xd0;" horiz-adv-x="1386" d="M257 0Q194 0 194 63V1248Q194 1311 257 1311H739Q992 1311 1109 1194T1226 824V487Q1226 235 1110 118T739 0H257ZM320 126H739Q873 126 952 160T1065 274T1100 487V824Q1100 957 1066 1036T952 1150T739 1185H320V126ZM339
603Q283 603 283 659Q283 715 339 715H859Q915 715 915 659Q915 603 859 603H339Z" />
<glyph unicode="&#xd1;" horiz-adv-x="1444" d="M257 0Q194 0 194 63V1248Q194 1311 257 1311Q290 1311 321 1274L1154 203H1124V1248Q1124 1311 1187 1311Q1250 1311 1250 1248V63Q1250 0 1187 0Q1153 0 1123 37L290 1108H320V63Q320 0 257 0ZM859 1455Q799 1455
763 1482T705 1532Q682 1557 665 1568T622 1579Q583 1579 566 1557T536 1502Q528 1481 513 1469T470 1464Q437 1471 431 1493T432 1535Q459 1610 505 1649T621 1688Q685 1688 722 1660T783 1608Q810 1582 824 1574T858 1565Q890 1565 906 1582T935 1636Q945 1659
958 1671T1000 1677Q1035 1671 1040 1648T1040 1608Q1015 1535 971 1495T859 1455Z" />
<glyph unicode="&#xd2;" horiz-adv-x="1414" d="M587 0Q366 0 263 103T160 427V885Q160 1108 263 1210T586 1311H827Q1049 1311 1151 1209T1254 884V427Q1254 206 1152 103T827 0H587ZM587 126H827Q940 126 1005 154T1099 249T1128 427V884Q1128 996 1100 1062T1006
1156T827 1185H586Q474 1186 409 1158T315 1064T286 885V427Q286 315 314 249T409 155T587 126ZM779 1417Q734 1379 698 1424L535 1618Q499 1664 542 1699Q586 1737 623 1692L786 1498Q822 1454 779 1417Z" />
<glyph unicode="&#xd3;" horiz-adv-x="1414" d="M657 1435Q615 1472 650 1516L813 1710Q850 1755 894 1717Q937 1682 901 1636L738 1442Q703 1397 657 1435ZM587 0Q366 0 263 103T160 427V885Q160 1108 263 1210T586 1311H827Q1049 1311 1151 1209T1254 884V427Q1254
206 1152 103T827 0H587ZM587 126H827Q940 126 1005 154T1099 249T1128 427V884Q1128 996 1100 1062T1006 1156T827 1185H586Q474 1186 409 1158T315 1064T286 885V427Q286 315 314 249T409 155T587 126Z" />
<glyph unicode="&#xd4;" horiz-adv-x="1414" d="M587 0Q366 0 263 103T160 427V885Q160 1108 263 1210T586 1311H827Q1049 1311 1151 1209T1254 884V427Q1254 206 1152 103T827 0H587ZM587 126H827Q940 126 1005 154T1099 249T1128 427V884Q1128 996 1100 1062T1006
1156T827 1185H586Q474 1186 409 1158T315 1064T286 885V427Q286 315 314 249T409 155T587 126ZM463 1417Q439 1417 422 1434T404 1476Q404 1507 430 1525L623 1686Q656 1713 696 1713H713Q753 1713 786 1686L980 1525Q1006 1506 1006 1476Q1006 1452 989 1435T947
1417Q924 1417 905 1434L711 1595H698L505 1434Q487 1417 463 1417Z" />
<glyph unicode="&#xd5;" horiz-adv-x="1414" d="M587 0Q366 0 263 103T160 427V885Q160 1108 263 1210T586 1311H827Q1049 1311 1151 1209T1254 884V427Q1254 206 1152 103T827 0H587ZM587 126H827Q940 126 1005 154T1099 249T1128 427V884Q1128 996 1100 1062T1006
1156T827 1185H586Q474 1186 409 1158T315 1064T286 885V427Q286 315 314 249T409 155T587 126ZM838 1455Q778 1455 742 1482T684 1532Q661 1557 644 1568T601 1579Q562 1579 545 1557T515 1502Q507 1481 492 1469T449 1464Q416 1471 410 1493T411 1535Q438 1610
484 1649T600 1688Q664 1688 701 1660T762 1608Q789 1582 803 1574T837 1565Q869 1565 885 1582T914 1636Q924 1659 937 1671T979 1677Q1014 1671 1019 1648T1019 1608Q994 1535 950 1495T838 1455Z" />
<glyph unicode="&#xd6;" horiz-adv-x="1414" d="M587 0Q366 0 263 103T160 427V885Q160 1108 263 1210T586 1311H827Q1049 1311 1151 1209T1254 884V427Q1254 206 1152 103T827 0H587ZM587 126H827Q940 126 1005 154T1099 249T1128 427V884Q1128 996 1100 1062T1006
1156T827 1185H586Q474 1186 409 1158T315 1064T286 885V427Q286 315 314 249T409 155T587 126ZM533 1473Q468 1473 468 1539V1581Q468 1645 533 1645H574Q637 1645 637 1581V1539Q637 1473 574 1473H533ZM843 1473Q778 1473 778 1539V1581Q778 1645 843 1645H884Q947
1645 947 1581V1539Q947 1473 884 1473H843Z" />
<glyph unicode="&#xd7;" horiz-adv-x="1154" d="M790 941Q830 980 869 941Q909 901 869 862L351 343Q311 303 272 343Q232 383 272 422L790 941ZM286 866Q247 906 286 945Q326 985 366 945L885 427Q924 387 885 348Q845 308 806 348L286 866Z" />
<glyph unicode="&#xd8;" horiz-adv-x="1414" d="M587 0Q366 0 263 103T160 427V885Q160 1108 263 1210T586 1311H827Q1049 1311 1151 1209T1254 884V427Q1254 206 1152 103T827 0H587ZM587 126H827Q940 126 1005 154T1099 249T1128 427V884Q1128 996 1100 1062T1006
1156T827 1185H586Q474 1186 409 1158T315 1064T286 885V427Q286 315 314 249T409 155T587 126ZM251 -68Q200 -36 230 15L1058 1370Q1090 1422 1141 1390Q1192 1359 1160 1307L334 -48Q302 -99 251 -68Z" />
<glyph unicode="&#xd9;" horiz-adv-x="1462" d="M611 0Q390 0 287 103T184 427V1248Q184 1278 200 1294T247 1311Q277 1311 293 1295T310 1248V427Q310 315 338 249T433 155T611 126H851Q964 126 1029 154T1123 249T1152 427V1248Q1152 1278 1168 1294T1215 1311Q1245
1311 1261 1295T1278 1248V427Q1278 206 1176 103T851 0H611ZM803 1417Q758 1379 722 1424L559 1618Q523 1664 566 1699Q610 1737 647 1692L810 1498Q846 1454 803 1417Z" />
<glyph unicode="&#xda;" horiz-adv-x="1462" d="M681 1435Q639 1472 674 1516L837 1710Q874 1755 918 1717Q961 1682 925 1636L762 1442Q727 1397 681 1435ZM611 0Q390 0 287 103T184 427V1248Q184 1278 200 1294T247 1311Q277 1311 293 1295T310 1248V427Q310
315 338 249T433 155T611 126H851Q964 126 1029 154T1123 249T1152 427V1248Q1152 1278 1168 1294T1215 1311Q1245 1311 1261 1295T1278 1248V427Q1278 206 1176 103T851 0H611Z" />
<glyph unicode="&#xdb;" horiz-adv-x="1462" d="M611 0Q390 0 287 103T184 427V1248Q184 1278 200 1294T247 1311Q277 1311 293 1295T310 1248V427Q310 315 338 249T433 155T611 126H851Q964 126 1029 154T1123 249T1152 427V1248Q1152 1278 1168 1294T1215 1311Q1245
1311 1261 1295T1278 1248V427Q1278 206 1176 103T851 0H611ZM487 1417Q463 1417 446 1434T428 1476Q428 1507 454 1525L647 1686Q680 1713 720 1713H737Q777 1713 810 1686L1004 1525Q1030 1506 1030 1476Q1030 1452 1013 1435T971 1417Q948 1417 929 1434L735
1595H722L529 1434Q511 1417 487 1417Z" />
<glyph unicode="&#xdc;" horiz-adv-x="1462" d="M611 0Q390 0 287 103T184 427V1248Q184 1278 200 1294T247 1311Q277 1311 293 1295T310 1248V427Q310 315 338 249T433 155T611 126H851Q964 126 1029 154T1123 249T1152 427V1248Q1152 1278 1168 1294T1215 1311Q1245
1311 1261 1295T1278 1248V427Q1278 206 1176 103T851 0H611ZM557 1473Q492 1473 492 1539V1581Q492 1645 557 1645H598Q661 1645 661 1581V1539Q661 1473 598 1473H557ZM867 1473Q802 1473 802 1539V1581Q802 1645 867 1645H908Q971 1645 971 1581V1539Q971 1473
908 1473H867Z" />
<glyph unicode="&#xdd;" horiz-adv-x="1130" d="M515 1435Q473 1472 508 1516L671 1710Q708 1755 752 1717Q795 1682 759 1636L596 1442Q561 1397 515 1435ZM559 0Q496 0 496 63V496L45 1211Q13 1264 65 1299Q119 1333 152 1279L559 631L977 1280Q993 1305 1015
1310T1063 1297Q1118 1264 1082 1211L622 496V63Q622 0 559 0Z" />
<glyph unicode="&#xde;" horiz-adv-x="1060" d="M257 0Q194 0 194 63V1248Q194 1311 257 1311Q320 1311 320 1248V1119H629Q804 1119 895 1028T986 762V702Q986 528 895 437T629 345H320V63Q320 0 257 0ZM320 471H629Q752 471 806 525T860 702V762Q860 885 806
939T629 993H320V471Z" />
<glyph unicode="&#xdf;" horiz-adv-x="1104" d="M257 1Q194 1 194 64V1045Q194 1225 279 1309T543 1394Q721 1394 805 1310T890 1047Q890 966 860 899T751 789Q891 759 950 679T1010 459V368Q1010 178 922 90T643 1H521Q458 1 458 64Q458 127 521 127H643Q781
127 832 179T884 368V459Q884 597 833 648T643 700H606Q543 700 543 764Q543 823 605 829Q695 839 729 889T764 1047Q764 1173 717 1220T543 1268Q417 1268 369 1220T320 1045V64Q320 1 257 1Z" />
<glyph unicode="&#xe0;" horiz-adv-x="1231" d="M485 0Q326 0 250 76T174 311Q174 471 250 547T485 623H930Q926 746 872 794T685 842H569Q451 842 396 820T324 742Q314 712 300 699T256 685Q225 685 208 702T195 750Q214 864 306 916T569 968H685Q877 968 966
879T1056 597V63Q1056 0 993 0Q930 0 930 63V145Q831 0 597 0H485ZM485 126H597Q687 126 757 145T873 208T930 327V497H485Q378 497 339 458T300 311Q300 204 339 165T485 126ZM687 1074Q642 1036 606 1081L443 1275Q407 1321 450 1356Q494 1394 531 1349L694 1155Q730
1111 687 1074Z" />
<glyph unicode="&#xe1;" horiz-adv-x="1231" d="M565 1092Q523 1129 558 1173L721 1367Q758 1412 802 1374Q845 1339 809 1293L646 1099Q611 1054 565 1092ZM485 0Q326 0 250 76T174 311Q174 471 250 547T485 623H930Q926 746 872 794T685 842H569Q451 842 396
820T324 742Q314 712 300 699T256 685Q225 685 208 702T195 750Q214 864 306 916T569 968H685Q877 968 966 879T1056 597V63Q1056 0 993 0Q930 0 930 63V145Q831 0 597 0H485ZM485 126H597Q687 126 757 145T873 208T930 327V497H485Q378 497 339 458T300 311Q300
204 339 165T485 126Z" />
<glyph unicode="&#xe2;" horiz-adv-x="1231" d="M485 0Q326 0 250 76T174 311Q174 471 250 547T485 623H930Q926 746 872 794T685 842H569Q451 842 396 820T324 742Q314 712 300 699T256 685Q225 685 208 702T195 750Q214 864 306 916T569 968H685Q877 968 966
879T1056 597V63Q1056 0 993 0Q930 0 930 63V145Q831 0 597 0H485ZM485 126H597Q687 126 757 145T873 208T930 327V497H485Q378 497 339 458T300 311Q300 204 339 165T485 126ZM428 1078Q405 1078 389 1094T372 1134Q372 1145 376 1154T386 1171L537 1348Q565 1380
606 1380H630Q672 1380 699 1348L850 1171Q857 1163 860 1154T864 1134Q864 1111 848 1095T808 1078Q781 1078 766 1097L627 1268H609L470 1097Q454 1078 428 1078Z" />
<glyph unicode="&#xe3;" horiz-adv-x="1231" d="M485 0Q326 0 250 76T174 311Q174 471 250 547T485 623H930Q926 746 872 794T685 842H569Q451 842 396 820T324 742Q314 712 300 699T256 685Q225 685 208 702T195 750Q214 864 306 916T569 968H685Q877 968 966
879T1056 597V63Q1056 0 993 0Q930 0 930 63V145Q831 0 597 0H485ZM485 126H597Q687 126 757 145T873 208T930 327V497H485Q378 497 339 458T300 311Q300 204 339 165T485 126ZM746 1112Q686 1112 650 1139T592 1189Q569 1214 552 1225T509 1236Q470 1236 453 1214T423
1159Q415 1138 400 1126T357 1121Q324 1128 318 1150T319 1192Q346 1267 392 1306T508 1345Q572 1345 609 1317T670 1265Q697 1239 711 1231T745 1222Q777 1222 793 1239T822 1293Q832 1316 845 1328T887 1334Q922 1328 927 1305T927 1265Q902 1192 858 1152T746
1112Z" />
<glyph unicode="&#xe4;" horiz-adv-x="1231" d="M485 0Q326 0 250 76T174 311Q174 471 250 547T485 623H930Q926 746 872 794T685 842H569Q451 842 396 820T324 742Q314 712 300 699T256 685Q225 685 208 702T195 750Q214 864 306 916T569 968H685Q877 968 966
879T1056 597V63Q1056 0 993 0Q930 0 930 63V145Q831 0 597 0H485ZM485 126H597Q687 126 757 145T873 208T930 327V497H485Q378 497 339 458T300 311Q300 204 339 165T485 126ZM441 1130Q376 1130 376 1196V1238Q376 1302 441 1302H482Q545 1302 545 1238V1196Q545
1130 482 1130H441ZM751 1130Q686 1130 686 1196V1238Q686 1302 751 1302H792Q855 1302 855 1238V1196Q855 1130 792 1130H751Z" />
<glyph unicode="&#xe5;" horiz-adv-x="1231" d="M485 0Q326 0 250 76T174 311Q174 471 250 547T485 623H930Q926 746 872 794T685 842H569Q451 842 396 820T324 742Q314 712 300 699T256 685Q225 685 208 702T195 750Q214 864 306 916T569 968H685Q877 968 966
879T1056 597V63Q1056 0 993 0Q930 0 930 63V145Q831 0 597 0H485ZM485 126H597Q687 126 757 145T873 208T930 327V497H485Q378 497 339 458T300 311Q300 204 339 165T485 126ZM611 1081Q540 1081 499 1121T458 1234Q458 1307 499 1347T611 1387Q684 1387 724 1347T765
1234Q765 1162 725 1122T611 1081ZM611 1180Q645 1180 655 1190T665 1234Q665 1268 655 1278T611 1288Q578 1288 568 1278T557 1234Q557 1201 567 1191T611 1180Z" />
<glyph unicode="&#xe6;" horiz-adv-x="1896" d="M1251 -23Q1024 -23 941 152Q827 -19 557 -19H485Q326 -19 250 57T174 292Q174 445 250 519T485 593H890Q885 723 831 771T645 819H569Q428 819 375 792T317 717Q314 691 298 673T254 654Q228 654 210 672T191 717Q191
824 287 884T569 945H645Q866 945 953 788Q1037 946 1253 943H1373Q1560 943 1648 844T1736 530Q1736 467 1672 467H1016V352Q1016 212 1068 158T1251 103H1373Q1510 103 1560 138T1610 265Q1610 292 1628 310T1673 328Q1700 328 1718 310T1736 265Q1736 113 1648
45T1373 -23H1251ZM485 107H557Q729 107 809 166T890 344V467H485Q378 467 339 430T300 292Q300 185 339 146T485 107ZM1017 593H1607Q1598 720 1544 768T1373 817H1253Q1127 819 1075 771T1017 593Z" />
<glyph unicode="&#xe7;" horiz-adv-x="1162" d="M531 0Q340 0 250 90T160 371V599Q160 791 249 880T531 968H695Q843 968 923 919T1021 763Q1027 732 1010 715T959 697Q930 697 916 712T893 755Q881 803 836 822T695 842H531Q393 844 340 792T286 599V371Q286
233 339 180T531 126H695Q790 126 835 145T893 213Q902 242 916 256T960 271Q992 271 1009 254T1021 205Q1003 101 923 51T695 0H531ZM652 -414Q472 -414 472 -234Q472 -178 528 -178Q584 -178 584 -234Q584 -276 597 -289T652 -302Q717 -302 738 -281T760 -194Q760
-175 752 -164T714 -133Q696 -121 673 -101T632 -50T614 30Q614 86 670 86Q726 86 726 30Q726 8 735 -5T776 -41Q803 -59 837 -93T872 -194Q872 -305 818 -359T652 -414Z" />
<glyph unicode="&#xe8;" horiz-adv-x="1226" d="M286 434V369Q286 232 339 179T531 126H695Q814 126 868 154T935 251Q942 281 957 296T1002 311Q1033 311 1049 295T1061 246Q1045 121 955 61T695 0H531Q340 0 250 90T160 369V597Q160 791 250 880T531 968H695Q887
968 976 879T1066 597V497Q1066 434 1003 434H286ZM531 842Q393 844 340 791T286 597V560H940V597Q940 736 887 789T695 842H531ZM694 1074Q649 1036 613 1081L450 1275Q414 1321 457 1356Q501 1394 538 1349L701 1155Q737 1111 694 1074Z" />
<glyph unicode="&#xe9;" horiz-adv-x="1226" d="M572 1092Q530 1129 565 1173L728 1367Q765 1412 809 1374Q852 1339 816 1293L653 1099Q618 1054 572 1092ZM286 434V369Q286 232 339 179T531 126H695Q814 126 868 154T935 251Q942 281 957 296T1002 311Q1033
311 1049 295T1061 246Q1045 121 955 61T695 0H531Q340 0 250 90T160 369V597Q160 791 250 880T531 968H695Q887 968 976 879T1066 597V497Q1066 434 1003 434H286ZM531 842Q393 844 340 791T286 597V560H940V597Q940 736 887 789T695 842H531Z" />
<glyph unicode="&#xea;" horiz-adv-x="1226" d="M286 434V369Q286 232 339 179T531 126H695Q814 126 868 154T935 251Q942 281 957 296T1002 311Q1033 311 1049 295T1061 246Q1045 121 955 61T695 0H531Q340 0 250 90T160 369V597Q160 791 250 880T531 968H695Q887
968 976 879T1066 597V497Q1066 434 1003 434H286ZM531 842Q393 844 340 791T286 597V560H940V597Q940 736 887 789T695 842H531ZM435 1078Q412 1078 396 1094T379 1134Q379 1145 383 1154T393 1171L544 1348Q572 1380 613 1380H637Q679 1380 706 1348L857 1171Q864
1163 867 1154T871 1134Q871 1111 855 1095T815 1078Q788 1078 773 1097L634 1268H616L477 1097Q461 1078 435 1078Z" />
<glyph unicode="&#xeb;" horiz-adv-x="1226" d="M286 434V369Q286 232 339 179T531 126H695Q814 126 868 154T935 251Q942 281 957 296T1002 311Q1033 311 1049 295T1061 246Q1045 121 955 61T695 0H531Q340 0 250 90T160 369V597Q160 791 250 880T531 968H695Q887
968 976 879T1066 597V497Q1066 434 1003 434H286ZM531 842Q393 844 340 791T286 597V560H940V597Q940 736 887 789T695 842H531ZM448 1130Q383 1130 383 1196V1238Q383 1302 448 1302H489Q552 1302 552 1238V1196Q552 1130 489 1130H448ZM758 1130Q693 1130 693
1196V1238Q693 1302 758 1302H799Q862 1302 862 1238V1196Q862 1130 799 1130H758Z" />
<glyph unicode="&#xec;" horiz-adv-x="514" d="M257 0Q194 0 194 63V905Q194 968 257 968Q320 968 320 905V63Q320 0 257 0ZM584 1074Q539 1036 503 1081L340 1275Q304 1321 347 1356Q391 1394 428 1349L591 1155Q627 1111 584 1074Z" />
<glyph unicode="&#xed;" horiz-adv-x="514" d="M206 1092Q164 1129 199 1173L362 1367Q399 1412 443 1374Q486 1339 450 1293L287 1099Q252 1054 206 1092ZM257 0Q194 0 194 63V905Q194 968 257 968Q320 968 320 905V63Q320 0 257 0Z" />
<glyph unicode="&#xee;" horiz-adv-x="514" d="M257 0Q194 0 194 63V905Q194 968 257 968Q320 968 320 905V63Q320 0 257 0ZM325 1078Q302 1078 286 1094T269 1134Q269 1145 273 1154T283 1171L434 1348Q462 1380 503 1380H527Q569 1380 596 1348L747 1171Q754
1163 757 1154T761 1134Q761 1111 745 1095T705 1078Q678 1078 663 1097L524 1268H506L367 1097Q351 1078 325 1078Z" />
<glyph unicode="&#xef;" horiz-adv-x="514" d="M257 0Q194 0 194 63V905Q194 968 257 968Q320 968 320 905V63Q320 0 257 0ZM82 1130Q17 1130 17 1196V1238Q17 1302 82 1302H123Q186 1302 186 1238V1196Q186 1130 123 1130H82ZM392 1130Q327 1130 327 1196V1238Q327
1302 392 1302H433Q496 1302 496 1238V1196Q496 1130 433 1130H392Z" />
<glyph unicode="&#xf0;" horiz-adv-x="1226" d="M531 1Q340 1 250 90T160 370V598Q160 791 250 880T531 969H695Q768 969 826 946T927 876Q917 989 896 1057T841 1159T761 1205L297 1322Q236 1339 251 1400Q267 1462 328 1445L793 1327Q934 1294 997 1135T1066
650V372Q1066 180 977 91T695 1H531ZM531 127H695Q834 127 887 180T940 372V612Q940 700 915 750T836 822T695 843H531Q439 843 386 821T309 746T286 598V370Q286 233 339 180T531 127ZM468 1126Q426 1086 387 1128Q348 1171 389 1209L689 1491Q731 1532 770 1489Q809
1447 768 1408L468 1126Z" />
<glyph unicode="&#xf1;" horiz-adv-x="1255" d="M257 0Q194 0 194 63V905Q194 968 257 968Q320 968 320 905V831Q419 968 653 968H709Q901 968 990 879T1080 597V63Q1080 0 1017 0Q954 0 954 63V597Q954 736 901 789T709 842H653Q510 842 421 800T320 669V63Q320
0 257 0ZM810 1112Q750 1112 714 1139T656 1189Q633 1214 616 1225T573 1236Q534 1236 517 1214T487 1159Q479 1138 464 1126T421 1121Q388 1128 382 1150T383 1192Q410 1267 456 1306T572 1345Q636 1345 673 1317T734 1265Q761 1239 775 1231T809 1222Q841 1222
857 1239T886 1293Q896 1316 909 1328T951 1334Q986 1328 991 1305T991 1265Q966 1192 922 1152T810 1112Z" />
<glyph unicode="&#xf2;" horiz-adv-x="1226" d="M531 0Q340 0 250 90T160 369V597Q160 790 250 879T531 968H695Q887 968 976 879T1066 597V371Q1066 180 977 90T695 0H531ZM286 369Q286 232 339 179T531 126H695Q834 126 887 179T940 371V597Q940 736 887 789T695
842H531Q439 843 386 821T309 745T286 597V369ZM685 1074Q640 1036 604 1081L441 1275Q405 1321 448 1356Q492 1394 529 1349L692 1155Q728 1111 685 1074Z" />
<glyph unicode="&#xf3;" horiz-adv-x="1226" d="M563 1092Q521 1129 556 1173L719 1367Q756 1412 800 1374Q843 1339 807 1293L644 1099Q609 1054 563 1092ZM531 0Q340 0 250 90T160 369V597Q160 790 250 879T531 968H695Q887 968 976 879T1066 597V371Q1066 180
977 90T695 0H531ZM286 369Q286 232 339 179T531 126H695Q834 126 887 179T940 371V597Q940 736 887 789T695 842H531Q439 843 386 821T309 745T286 597V369Z" />
<glyph unicode="&#xf4;" horiz-adv-x="1226" d="M531 0Q340 0 250 90T160 369V597Q160 790 250 879T531 968H695Q887 968 976 879T1066 597V371Q1066 180 977 90T695 0H531ZM286 369Q286 232 339 179T531 126H695Q834 126 887 179T940 371V597Q940 736 887 789T695
842H531Q439 843 386 821T309 745T286 597V369ZM426 1078Q403 1078 387 1094T370 1134Q370 1145 374 1154T384 1171L535 1348Q563 1380 604 1380H628Q670 1380 697 1348L848 1171Q855 1163 858 1154T862 1134Q862 1111 846 1095T806 1078Q779 1078 764 1097L625
1268H607L468 1097Q452 1078 426 1078Z" />
<glyph unicode="&#xf5;" horiz-adv-x="1226" d="M531 0Q340 0 250 90T160 369V597Q160 790 250 879T531 968H695Q887 968 976 879T1066 597V371Q1066 180 977 90T695 0H531ZM286 369Q286 232 339 179T531 126H695Q834 126 887 179T940 371V597Q940 736 887 789T695
842H531Q439 843 386 821T309 745T286 597V369ZM744 1112Q684 1112 648 1139T590 1189Q567 1214 550 1225T507 1236Q468 1236 451 1214T421 1159Q413 1138 398 1126T355 1121Q322 1128 316 1150T317 1192Q344 1267 390 1306T506 1345Q570 1345 607 1317T668 1265Q695
1239 709 1231T743 1222Q775 1222 791 1239T820 1293Q830 1316 843 1328T885 1334Q920 1328 925 1305T925 1265Q900 1192 856 1152T744 1112Z" />
<glyph unicode="&#xf6;" horiz-adv-x="1226" d="M531 0Q340 0 250 90T160 369V597Q160 790 250 879T531 968H695Q887 968 976 879T1066 597V371Q1066 180 977 90T695 0H531ZM286 369Q286 232 339 179T531 126H695Q834 126 887 179T940 371V597Q940 736 887 789T695
842H531Q439 843 386 821T309 745T286 597V369ZM439 1130Q374 1130 374 1196V1238Q374 1302 439 1302H480Q543 1302 543 1238V1196Q543 1130 480 1130H439ZM749 1130Q684 1130 684 1196V1238Q684 1302 749 1302H790Q853 1302 853 1238V1196Q853 1130 790 1130H749Z"
/>
<glyph unicode="&#xf7;" horiz-adv-x="1154" d="M210 676Q154 676 154 732Q154 788 210 788H944Q1000 788 1000 732Q1000 676 944 676H210ZM555 316Q490 316 490 382V424Q490 488 555 488H596Q659 488 659 424V382Q659 316 596 316H555ZM555 976Q490 976 490 1042V1084Q490
1148 555 1148H596Q659 1148 659 1084V1042Q659 976 596 976H555Z" />
<glyph unicode="&#xf8;" horiz-adv-x="1226" d="M238 -125Q212 -111 207 -90T216 -44L301 93L320 113L801 889L811 910L888 1037Q917 1083 963 1057Q1018 1029 985 976L913 859L893 834L425 78L409 49L314 -104Q286 -151 238 -125ZM531 0Q340 0 250 90T160 369V597Q160
790 250 879T531 968H695Q887 968 976 879T1066 597V371Q1066 180 977 90T695 0H531ZM286 369Q286 232 339 179T531 126H695Q834 126 887 179T940 371V597Q940 736 887 789T695 842H531Q439 843 386 821T309 745T286 597V369Z" />
<glyph unicode="&#xf9;" horiz-adv-x="1255" d="M998 968Q1061 968 1061 905V63Q1061 0 998 0Q935 0 935 63V138Q837 0 602 0H546Q355 0 265 90T175 371V905Q175 968 238 968Q301 968 301 905V371Q301 233 354 180T546 126H602Q745 126 834 168T935 299V905Q935
968 998 968ZM686 1074Q641 1036 605 1081L442 1275Q406 1321 449 1356Q493 1394 530 1349L693 1155Q729 1111 686 1074Z" />
<glyph unicode="&#xfa;" horiz-adv-x="1255" d="M998 968Q1061 968 1061 905V63Q1061 0 998 0Q935 0 935 63V138Q837 0 602 0H546Q355 0 265 90T175 371V905Q175 968 238 968Q301 968 301 905V371Q301 233 354 180T546 126H602Q745 126 834 168T935 299V905Q935
968 998 968ZM564 1092Q522 1129 557 1173L720 1367Q757 1412 801 1374Q844 1339 808 1293L645 1099Q610 1054 564 1092Z" />
<glyph unicode="&#xfb;" horiz-adv-x="1255" d="M998 968Q1061 968 1061 905V63Q1061 0 998 0Q935 0 935 63V138Q837 0 602 0H546Q355 0 265 90T175 371V905Q175 968 238 968Q301 968 301 905V371Q301 233 354 180T546 126H602Q745 126 834 168T935 299V905Q935
968 998 968ZM427 1078Q404 1078 388 1094T371 1134Q371 1145 375 1154T385 1171L536 1348Q564 1380 605 1380H629Q671 1380 698 1348L849 1171Q856 1163 859 1154T863 1134Q863 1111 847 1095T807 1078Q780 1078 765 1097L626 1268H608L469 1097Q453 1078 427
1078Z" />
<glyph unicode="&#xfc;" horiz-adv-x="1255" d="M998 968Q1061 968 1061 905V63Q1061 0 998 0Q935 0 935 63V138Q837 0 602 0H546Q355 0 265 90T175 371V905Q175 968 238 968Q301 968 301 905V371Q301 233 354 180T546 126H602Q745 126 834 168T935 299V905Q935
968 998 968ZM440 1130Q375 1130 375 1196V1238Q375 1302 440 1302H481Q544 1302 544 1238V1196Q544 1130 481 1130H440ZM750 1130Q685 1130 685 1196V1238Q685 1302 750 1302H791Q854 1302 854 1238V1196Q854 1130 791 1130H750Z" />
<glyph unicode="&#xfd;" horiz-adv-x="1263" d="M572 1092Q530 1129 565 1173L728 1367Q765 1412 809 1374Q852 1339 816 1293L653 1099Q618 1054 572 1092ZM442 -400Q306 -400 241 -334T175 -131Q175 -68 238 -68Q301 -68 301 -131Q301 -215 330 -244T442 -274H802Q885
-274 914 -245T943 -131V137Q886 57 802 28T610 -1H540Q351 -1 263 87T175 362V906Q175 969 238 969Q301 969 301 906V362Q301 227 352 176T540 125H610Q782 125 862 184T943 362V906Q943 969 1006 969Q1069 969 1069 906V-131Q1069 -268 1004 -334T802 -400H442Z"
/>
<glyph unicode="&#xfe;" horiz-adv-x="1260" d="M257 -400Q224 -400 209 -385T194 -337V1267Q194 1301 209 1315T257 1330Q291 1330 305 1316T320 1267V822Q437 966 653 966H729Q921 966 1010 877T1100 595V373Q1100 182 1011 92T729 2H320V-337Q320 -370 306
-385T257 -400ZM320 128H729Q868 128 921 181T974 373V595Q974 734 921 787T729 840H653Q483 840 402 782T320 603V128Z" />
<glyph unicode="&#xff;" horiz-adv-x="1263" d="M442 -400Q306 -400 241 -334T175 -131Q175 -68 238 -68Q301 -68 301 -131Q301 -215 330 -244T442 -274H802Q885 -274 914 -245T943 -131V137Q886 57 802 28T610 -1H540Q351 -1 263 87T175 362V906Q175 969 238
969Q301 969 301 906V362Q301 227 352 176T540 125H610Q782 125 862 184T943 362V906Q943 969 1006 969Q1069 969 1069 906V-131Q1069 -268 1004 -334T802 -400H442ZM448 1130Q383 1130 383 1196V1238Q383 1302 448 1302H489Q552 1302 552 1238V1196Q552 1130 489
1130H448ZM758 1130Q693 1130 693 1196V1238Q693 1302 758 1302H799Q862 1302 862 1238V1196Q862 1130 799 1130H758Z" />
<glyph unicode="&#x2013;" horiz-adv-x="1154" d="M210 486Q154 486 154 542Q154 598 210 598H944Q1000 598 1000 542Q1000 486 944 486H210Z" />
<glyph unicode="&#x2014;" horiz-adv-x="1656" d="M210 483Q187 483 171 499T154 539Q154 563 170 579T210 595H1446Q1470 595 1486 579T1502 539Q1502 516 1486 500T1446 483H210Z" />
<glyph unicode="&#x2018;" horiz-adv-x="480" d="M271 1391Q302 1391 319 1369T322 1311L225 1085L121 1129L218 1354Q226 1372 239 1381T271 1391ZM221 1167Q286 1167 286 1101V1059Q286 995 221 995H180Q117 995 117 1059V1101Q117 1167 180 1167H221Z" />
<glyph unicode="&#x2019;" horiz-adv-x="438" d="M130 987Q100 987 82 1010T79 1067L176 1293L280 1249L183 1024Q176 1006 163 997T130 987ZM180 1211Q115 1211 115 1277V1319Q115 1383 180 1383H221Q284 1383 284 1319V1277Q284 1211 221 1211H180Z" />
<glyph unicode="&#x201a;" horiz-adv-x="438" d="M130 -225Q100 -225 82 -202T79 -145L176 81L280 37L183 -188Q176 -206 163 -215T130 -225ZM180 -1Q115 -1 115 65V107Q115 171 180 171H221Q284 171 284 107V65Q284 -1 221 -1H180Z" />
<glyph unicode="&#x201c;" horiz-adv-x="760" d="M551 1391Q582 1391 599 1369T602 1311L505 1085L401 1129L498 1354Q506 1372 519 1381T551 1391ZM501 1167Q566 1167 566 1101V1059Q566 995 501 995H460Q397 995 397 1059V1101Q397 1167 460 1167H501ZM271 1391Q302
1391 319 1369T322 1311L225 1085L121 1129L218 1354Q226 1372 239 1381T271 1391ZM221 1167Q286 1167 286 1101V1059Q286 995 221 995H180Q117 995 117 1059V1101Q117 1167 180 1167H221Z" />
<glyph unicode="&#x201d;" horiz-adv-x="738" d="M430 987Q400 987 382 1010T379 1067L476 1293L580 1249L483 1024Q476 1006 463 997T430 987ZM480 1211Q415 1211 415 1277V1319Q415 1383 480 1383H521Q584 1383 584 1319V1277Q584 1211 521 1211H480ZM130 987Q100
987 82 1010T79 1067L176 1293L280 1249L183 1024Q176 1006 163 997T130 987ZM180 1211Q115 1211 115 1277V1319Q115 1383 180 1383H221Q284 1383 284 1319V1277Q284 1211 221 1211H180Z" />
<glyph unicode="&#x201e;" horiz-adv-x="738" d="M430 -225Q400 -225 382 -202T379 -145L476 81L580 37L483 -188Q476 -206 463 -215T430 -225ZM480 -1Q415 -1 415 65V107Q415 171 480 171H521Q584 171 584 107V65Q584 -1 521 -1H480ZM130 -225Q100 -225 82 -202T79
-145L176 81L280 37L183 -188Q176 -206 163 -215T130 -225ZM180 -1Q115 -1 115 65V107Q115 171 180 171H221Q284 171 284 107V65Q284 -1 221 -1H180Z" />
<glyph unicode="&#x2022;" horiz-adv-x="646" d="M284 364Q154 364 154 496V580Q154 708 284 708H366Q492 708 492 580V496Q492 364 366 364H284Z" />
<glyph unicode="&#x2039;" horiz-adv-x="835" d="M606 228Q585 228 570 241L198 548Q149 588 198 628L570 935Q585 948 606 948Q629 948 645 932T662 892Q662 879 656 869T640 849L324 588L640 327Q650 319 656 309T662 284Q662 261 646 245T606 228Z" />
<glyph unicode="&#x203a;" horiz-adv-x="835" d="M229 228Q207 228 190 244T173 284Q173 298 179 308T195 327L511 588L195 849Q186 858 180 868T173 892Q173 916 190 932T229 948Q251 948 265 935L637 628Q687 588 637 548L265 241Q251 228 229 228Z" />
</font>
</defs>
</svg>
