<?xml version="1.0" standalone="no"?>
<!DOCTYPE svg PUBLIC "-//W3C//DTD SVG 1.1//EN" "http://www.w3.org/Graphics/SVG/1.1/DTD/svg11.dtd">
<svg xmlns="http://www.w3.org/2000/svg">
<defs >
<font id="Kalam" horiz-adv-x="554" ><font-face
    font-family="Kalam"
    units-per-em="1000"
    panose-1="2 0 0 0 0 0 0 0 0 0"
    ascent="1063"
    descent="-531"
    alphabetic="0" />
<glyph unicode=" " horiz-adv-x="385" />
<glyph unicode="!" horiz-adv-x="478" d="M106 128T129 154T175 181T228 127T259 46Q259 33 243 17T210 1Q180 1 143 38T106 101ZM209 794Q209 823 240 823T322 779T374 715Q374 649 328 443T247 236Q220 236 194 264T167 322Q165 333 175 386T197 551T209 794Z" />
<glyph unicode="&quot;" horiz-adv-x="484" d="M344 867Q344 882 360 882T409 858T442 823Q442 763 423 646T375 528Q363 528 345 543T326 574Q326 576 335 680T344 867ZM135 867Q135 882 151 882T199 858T232 823Q232 762 214 645T165 528Q153 528 135 543T117
574Q117 576 126 680T135 867Z" />
<glyph unicode="#" horiz-adv-x="780" d="M427 583Q491 587 517 587Q533 669 533 719Q533 748 563 748Q590 748 631 715T672 645Q672 628 663 589H669Q740 589 751 580T765 565T767 550Q767 511 637 491Q620 429 583 300H624Q670 300 693 294T719 282T723 261Q723
218 555 197Q527 97 504 47T455 -4Q437 -4 426 21T413 81Q406 96 426 183Q350 174 310 167Q285 77 269 37T232 -4Q210 -4 195 28T178 104Q174 111 180 148Q115 138 106 138Q89 137 76 164T62 218Q62 257 212 278Q241 391 253 442Q161 427 146 427T118 453T104 507Q104
549 281 570Q298 665 298 719Q300 748 328 748T397 715T438 645Q438 627 427 583ZM345 291Q408 297 452 297Q478 400 494 475Q469 472 394 462Q383 421 345 291Z" />
<glyph unicode="$" horiz-adv-x="592" d="M210 128Q241 255 252 308Q174 360 130 403T86 485T95 560T118 613Q148 649 220 685T360 740Q399 844 429 844Q462 842 460 788Q460 766 454 743Q479 727 495 689T511 619T490 588Q483 588 468 593T440 598T412 596Q382
490 358 401Q532 283 533 174Q534 95 446 45T251 -14Q228 -88 209 -88Q196 -87 186 -74T175 -51T180 -12Q113 1 72 49T31 154T58 212Q88 212 119 170Q131 154 153 141T201 128H210ZM218 506Q218 493 283 450Q289 477 309 565Q218 526 218 506ZM398 183Q398 210
322 262Q301 184 289 132Q398 143 398 183Z" />
<glyph unicode="%" horiz-adv-x="991" d="M776 409Q816 409 846 374T889 300T902 230Q902 147 840 73T696 -1Q647 -1 614 54T580 175T640 325T776 409ZM699 180Q699 119 724 119Q738 119 762 150T787 223Q787 257 779 272T766 287Q747 287 723 248T699 180ZM756
794Q777 794 800 752T818 685T791 630T745 566Q631 419 551 310Q369 69 332 29T286 -9Q264 -4 248 15T235 53T264 111T335 218T420 337Q558 526 610 597Q558 570 499 557T403 551Q406 533 406 519Q406 435 344 361T199 287Q150 287 117 342T83 463T144 613T280
697Q305 697 318 689T340 675Q362 662 380 657Q418 648 480 667T595 716Q741 794 756 794ZM203 468Q203 407 228 407Q242 407 266 438T291 512Q291 547 282 561T269 576Q251 576 227 537T203 468Z" />
<glyph unicode="&amp;" horiz-adv-x="786" d="M491 157Q555 111 614 111T694 105T714 79Q714 46 681 28T588 9Q493 9 395 96Q230 -3 148 -3Q101 -3 52 49T3 139Q3 172 62 228Q112 276 154 311T201 351T210 358Q166 458 165 537T225 671T381 726Q462 726 496 651Q513
612 513 575Q513 479 354 331Q371 295 400 252Q435 275 510 327Q644 421 660 421Q709 421 709 367Q709 340 647 281T491 157ZM373 552Q371 605 339 605Q322 605 312 584Q292 545 312 451Q373 514 373 552ZM146 117Q185 117 307 192Q292 211 266 251Q162 161 151
146T140 124T146 117Z" />
<glyph unicode="&apos;" horiz-adv-x="220" d="M149 867Q149 882 165 882T220 858T258 823Q258 802 245 729T208 588T167 528Q155 528 137 543T119 574Q119 577 134 683T149 867Z" />
<glyph unicode="(" horiz-adv-x="478" d="M534 888T555 869T576 828T549 779T482 723T394 648T306 551T238 422T211 270T237 143T300 62T375 9T439 -36T465 -77Q465 -100 432 -100Q345 -100 263 -52T127 84T73 273T107 471T194 642T306 772T419 858T503 888Z" />
<glyph unicode=")" horiz-adv-x="530" d="M455 616Q455 491 417 373T321 172T198 24T79 -73T2 -105Q-38 -105 -38 -81Q-38 -52 54 32Q141 114 224 240Q263 300 289 383T315 536T299 646T261 706T215 743T176 776T160 824T181 873T242 893Q322 893 388 806T455 616Z" />
<glyph unicode="*" horiz-adv-x="375" d="M231 694L228 789Q228 806 241 806T275 790T297 765T289 729T280 698Q297 708 327 735T366 762T388 751T402 726T294 662Q305 652 329 638T371 613T389 597Q389 589 380 583T360 577T320 591T271 623Q266 589 255 552T234
515T214 525T203 542T207 567T216 604T223 629Q205 612 170 594T124 576T103 585T92 603Q92 609 115 619T170 643T213 664Q174 680 136 711T97 755T108 768Q132 768 160 760T188 739Q188 732 202 717T231 694Z" />
<glyph unicode="+" horiz-adv-x="600" d="M281 572Q281 604 310 604Q341 604 387 563T433 499T416 398Q479 401 516 401Q633 401 633 372Q633 309 389 282L386 267Q357 144 345 108T315 71Q292 71 262 100T232 158Q232 160 253 271Q181 267 131 267Q100 267 78
296T55 353T86 381Q158 381 251 390L271 391Q281 478 281 572Z" />
<glyph unicode="," horiz-adv-x="262" d="M221 19Q221 -60 160 -142T50 -225Q20 -225 20 -204Q20 -194 41 -164Q104 -76 104 -30Q104 -9 86 7T51 35T33 66T61 113T124 142T189 103T221 19Z" />
<glyph unicode="-" horiz-adv-x="531" d="M497 335Q497 309 436 292Q388 278 326 266T222 242Q134 221 114 221T72 248T50 301Q50 329 166 349T421 369Q497 369 497 335Z" />
<glyph unicode="." horiz-adv-x="237" d="M144 -5Q112 -5 73 34T33 101T58 158T108 187T166 131T198 46Q198 31 180 13T144 -5Z" />
<glyph unicode="/" horiz-adv-x="282" d="M73 -80Q51 -80 23 -45T-5 18T52 198T190 549T284 789T300 835Q305 851 309 852Q318 857 325 857Q345 857 383 809T421 729Q421 699 400 645T361 552Q289 385 252 293Q98 -80 73 -80Z" />
<glyph unicode="0" horiz-adv-x="513" d="M376 521Q376 616 349 616Q332 616 304 581T248 492T200 366T180 230Q180 134 212 134Q239 134 278 200T346 360T376 521ZM394 122T335 68T208 13T87 84T33 239T62 418T136 585T237 702T347 747Q426 747 472 691T518 531Q518
460 495 371T433 202Z" />
<glyph unicode="1" horiz-adv-x="302" d="M297 648Q297 585 279 507T245 367T217 249T196 157T176 84Q154 13 128 13Q105 13 76 42T46 96T68 206T112 431T135 722Q135 751 164 751T245 709T297 648Z" />
<glyph unicode="2" horiz-adv-x="583" d="M181 149Q360 182 452 182T545 142Q545 104 387 60T143 16Q108 16 58 61T8 141Q8 164 136 269Q189 313 242 361T332 461T370 552T332 593Q303 593 281 572T246 529T227 507Q201 507 162 535T122 585Q122 642 182 693T328
745T463 693T512 559Q512 450 419 340T181 149Z" />
<glyph unicode="3" horiz-adv-x="547" d="M153 355V359Q153 371 164 379Q177 395 215 423T286 475T347 534T374 600Q374 612 365 612Q332 612 271 580T193 547T139 582T102 635Q102 663 149 689T256 730T363 745Q429 745 477 697T526 596T482 487T371 385Q511
354 511 258Q511 197 441 139T270 46T81 12Q-27 12 -27 59Q-27 85 153 138Q220 157 276 190T333 258Q333 277 313 287T268 301Q192 310 169 328Q153 338 153 355Z" />
<glyph unicode="4" horiz-adv-x="545" d="M418 579Q443 579 485 542T528 481Q528 423 457 203T350 -18Q331 -18 308 10T284 59T289 101T299 143T316 199T335 257Q263 232 194 232T86 270T47 372Q47 418 96 512T206 681T291 756T344 731T372 685T279 530T185 373Q185
363 189 360T207 357Q241 357 305 384T374 412Q387 483 387 549Q387 579 418 579Z" />
<glyph unicode="5" horiz-adv-x="506" d="M393 739Q576 739 576 695Q576 676 545 662Q508 644 456 632T372 613T322 602T287 560T269 502T288 458T336 413T392 367Q459 310 459 251Q459 160 370 85T194 9T48 55T-13 161Q-13 180 -6 194T13 208T44 190Q103 134
149 134T248 172T302 248Q302 282 235 327Q207 346 180 368T133 424T113 506T161 639T249 732T393 739Z" />
<glyph unicode="6" horiz-adv-x="542" d="M376 433T444 389T512 289T462 168T331 61T176 17T57 63T13 176T59 343T167 529T289 679T380 742T442 726T474 689Q474 677 449 644T371 547T287 444Q376 433 444 389ZM188 146Q251 146 301 188T351 278Q351 303 317 325T224
357Q154 251 154 189Q154 146 188 146Z" />
<glyph unicode="7" horiz-adv-x="472" d="M334 608L175 594Q150 594 118 637T85 703Q85 741 300 741Q420 741 436 726Q459 705 479 664T500 587Q500 567 479 527T445 466T411 407T370 338T319 247T267 149T224 73Q182 0 160 0T115 28T92 87T135 200T230 360Q369
571 369 598Q369 608 334 608Z" />
<glyph unicode="8" horiz-adv-x="590" d="M593 597Q593 504 426 358Q506 276 506 197Q506 128 413 72T226 15Q183 15 127 57T70 147Q70 235 226 365Q179 401 153 423T102 477T78 536T87 595T113 627Q124 627 135 618T163 589T190 559T219 532T250 506T290 474T325
446Q389 497 422 531T456 593T422 621Q377 621 323 591T250 561T205 580T179 619Q179 669 247 707T423 745Q501 745 547 708T593 597ZM366 221Q366 245 330 279Q236 206 218 180Q209 169 209 162T221 144T239 134Q276 134 321 160T366 221Z" />
<glyph unicode="9" horiz-adv-x="506" d="M499 495Q499 465 474 429Q444 356 433 322T397 193T354 47T318 -3Q273 -3 273 111Q273 187 299 296Q256 279 221 279Q174 279 120 335T66 436Q66 508 105 583T204 706T325 755T418 708T450 602Q450 568 445 547Q487 539
495 508Q499 503 499 495ZM329 509L333 577Q333 595 326 611T311 628Q287 628 237 556T187 435Q187 420 200 407T233 394T277 410T317 442T357 487Q329 493 329 509Z" />
<glyph unicode=":" horiz-adv-x="246" d="M241 319T229 303T193 286T131 345T92 436T109 502T144 537Q182 537 211 463T241 354ZM197 24T184 7T148 -10T86 49T47 140T64 206T99 241Q137 241 167 167T197 47Q197 24 184 7Z" />
<glyph unicode=";" horiz-adv-x="306" d="M222 26Q222 -53 161 -135T51 -218Q21 -218 21 -197Q21 -187 42 -158Q105 -69 105 -23Q105 8 70 29T34 70T62 120T125 149T190 110T222 26ZM223 286Q196 286 158 345T120 436T137 502T171 537Q198 537 221 497T257 413T269
345T256 303T223 286Z" />
<glyph unicode="&lt;" horiz-adv-x="475" d="M435 606Q460 606 480 576T501 527T475 494Q395 457 284 387T172 298T211 247T299 186Q426 107 426 77T381 46T247 86T85 183T10 280Q10 300 19 334T40 378Q104 436 240 521T435 606Z" />
<glyph unicode="=" horiz-adv-x="672" d="M482 313Q589 313 589 283T521 226T337 185T120 170Q102 170 82 202T62 255Q62 271 240 292T482 313ZM416 488Q517 488 569 480T621 444Q621 398 394 377Q238 362 162 362Q144 362 124 394T104 447Q104 488 416 488Z" />
<glyph unicode="&gt;" horiz-adv-x="616" d="M129 581Q129 607 152 607Q242 607 347 546T526 410Q568 368 568 341Q568 303 529 266T384 162T227 71T135 47T93 82Q93 107 144 149T258 228Q422 326 422 347Q422 362 344 411T217 476Q195 483 162 522T129 581Z" />
<glyph unicode="?" horiz-adv-x="608" d="M281 1Q251 1 214 38T177 101T200 154T246 181T299 127T330 46Q330 33 314 17T281 1ZM230 709T285 755T410 802T526 760T573 645Q573 601 548 558T491 485Q398 401 375 353Q347 291 338 275Q322 246 302 246Q266 246 266
341Q266 377 284 412T328 473T380 525Q442 585 442 628Q442 644 430 653T398 663T364 651T349 614T334 583Q310 571 299 571T259 601T230 650Q230 709 285 755Z" />
<glyph unicode="@" horiz-adv-x="1078" d="M662 767Q809 767 906 677T1004 436Q1004 362 971 292T889 176T787 101T693 73Q620 73 600 155Q505 62 447 62Q405 62 355 109T305 203T345 326T455 467T596 532Q639 532 692 486T745 386Q745 362 728 331Q752 307 752
286T745 239T737 211T740 209T757 218T789 247T825 292T855 353T867 428Q867 528 811 581T663 634T483 590T334 477T235 323T197 150T239 12T369 -37T542 -16T634 5Q657 5 657 -21Q657 -58 610 -92T500 -146T386 -165Q253 -165 150 -71T47 156Q47 328 158 487Q280
662 457 730Q555 767 662 767ZM439 182Q468 182 540 237T626 360Q627 365 633 371Q618 406 603 406Q569 406 526 362T455 268T427 201T439 182Z" />
<glyph unicode="A" horiz-adv-x="630" d="M509 388Q549 388 566 381T584 353Q584 326 497 298Q499 222 499 153T488 49T453 14T416 38T394 119T376 267Q274 244 229 230Q151 14 125 14Q104 14 70 42T35 100Q35 117 74 206Q57 217 45 237T32 277Q32 310 131 340Q139
360 147 385T190 505T245 662Q254 692 307 718T391 744Q426 744 453 647T492 388H509ZM278 371Q308 375 365 381Q362 410 356 480T346 581Q329 525 278 371Z" />
<glyph unicode="B" horiz-adv-x="624" d="M565 260Q565 198 497 138T331 43T145 7Q107 7 56 53T5 130Q5 147 12 157T30 167T74 151T126 134T161 137Q136 147 111 172T86 220Q86 230 119 365T154 597Q136 614 122 638T107 675Q107 703 151 720T261 737Q401 737
485 700T570 582Q570 531 527 478T414 381L424 378Q484 362 524 331T565 260ZM388 609Q357 609 242 587Q278 547 278 521T261 423Q277 435 318 458T369 488T398 511Q432 538 432 573T388 609ZM439 264Q439 284 382 298T286 313Q265 313 241 344Q196 159 187 141Q271
159 355 196T439 264Z" />
<glyph unicode="C" horiz-adv-x="617" d="M439 747Q467 747 500 698T533 616T520 584Q514 584 495 588T461 592Q411 592 344 528T230 375T182 221Q182 189 192 175T228 160Q297 160 368 181T485 223T537 245T550 234T557 206Q557 172 503 126T373 46T234 13T104
88T35 231Q35 326 96 447T253 658T439 747Z" />
<glyph unicode="D" horiz-adv-x="666" d="M110 747Q188 747 280 715T452 631T585 506T639 358Q639 302 549 219T339 74T144 13Q127 13 90 57T52 123Q52 164 106 351T174 609Q138 633 114 666T90 723T110 747ZM495 386Q495 418 436 470T299 558Q293 483 214 237Q210
224 202 195T189 155Q287 188 391 266T495 386Z" />
<glyph unicode="E" horiz-adv-x="551" d="M248 433Q301 433 362 438T437 444T460 437T469 420Q469 376 386 350T209 320Q170 199 170 167Q170 150 187 150Q301 150 422 180Q463 191 469 191Q488 191 488 164Q488 128 435 94T302 40T145 20Q99 20 62 54T25 135T76
369T131 651Q130 654 130 663Q130 677 134 685Q145 713 195 720T375 728Q591 728 591 680Q591 649 538 637Q502 629 439 622Q342 611 266 590Q266 522 242 433H248Z" />
<glyph unicode="F" horiz-adv-x="542" d="M157 716T210 725T370 734T535 717T592 667Q592 652 581 646T561 636T538 629T511 624T480 619T446 616T409 612T367 607T267 592V591Q267 555 236 400Q249 399 283 399T374 404T447 410T477 401T489 381Q489 354 457
333T377 300Q281 276 208 274Q178 147 172 119T158 64Q145 13 134 13Q113 13 77 60T41 130Q41 170 90 384T143 653V661Q143 674 146 683Q157 716 210 725Z" />
<glyph unicode="G" horiz-adv-x="597" d="M277 361T325 374T429 387T514 342T544 242T498 53T417 -82Q403 -82 394 -74T384 -52Q384 20 424 154Q377 94 322 57T208 20T85 71T21 183Q21 291 85 422T247 647T432 740Q462 740 494 693T527 607Q527 589 514 589Q512
589 495 593T453 597Q386 597 316 529T202 360T158 172Q158 146 192 146Q239 146 307 188T413 282Q391 281 360 281T303 300T277 340Z" />
<glyph unicode="H" horiz-adv-x="651" d="M147 13Q126 13 88 60T50 133T80 288Q56 312 56 348Q56 368 104 388Q167 644 167 712Q167 745 196 745Q220 745 258 697T297 607Q297 580 261 427Q347 442 432 445Q480 646 480 712Q480 745 509 745Q533 745 571 697T610
607Q610 586 571 435Q621 423 621 396Q621 365 547 347Q511 209 500 165T484 98T472 54Q461 13 451 13Q427 13 394 51T360 127Q360 149 402 322Q287 303 225 287Q194 168 184 122T168 54Q157 13 147 13Z" />
<glyph unicode="I" horiz-adv-x="309" d="M118 13T84 54T50 115T99 393T151 712Q153 745 182 745Q206 745 246 697T286 607Q286 589 259 472T222 308T205 225T194 167Q166 39 150 20Q144 13 138 13Q118 13 84 54Z" />
<glyph unicode="J" horiz-adv-x="486" d="M13 206Q13 233 18 244T38 255T77 227T131 171T192 143Q215 143 238 207T287 371T320 506Q336 585 343 602Q316 596 254 588T170 579T136 592T123 623Q123 659 199 688T352 728T458 740Q514 740 514 704Q514 689 478 579T434
435Q380 206 353 139Q311 34 245 17Q229 13 213 13Q142 13 78 81T13 206Z" />
<glyph unicode="K" horiz-adv-x="602" d="M119 13H117Q95 13 62 53T29 124T87 398T146 705Q146 745 175 745Q199 745 233 698T267 607Q267 581 241 474Q323 583 395 656T493 730T547 708T574 669T523 604T397 482T281 344Q281 267 370 189Q397 166 442 142T512
100T538 64Q538 13 466 13T311 71T187 227Q161 153 155 120T147 75T142 58T138 43T134 31T130 22Q124 13 119 13Z" />
<glyph unicode="L" horiz-adv-x="546" d="M218 760Q243 760 279 727T315 659Q315 563 216 287Q182 190 182 152Q182 147 184 146T221 145T317 155T417 176T463 186Q488 186 488 154Q488 91 393 53T171 14Q122 14 82 50T41 131T115 415T189 727Q189 760 218 760Z" />
<glyph unicode="M" horiz-adv-x="756" d="M179 745Q198 745 253 705T309 644Q309 609 332 529T385 384Q415 419 486 513T607 663T680 718T730 691T756 637T748 568T731 489T704 389T677 290T657 212T642 147T630 98T618 59T607 34Q596 13 576 13T537 52T517 135Q517
241 578 416Q561 394 529 352T482 290T443 244Q402 199 363 199Q311 199 289 240Q278 261 260 334T233 436Q220 333 198 249T169 139T150 76Q130 13 114 13Q96 13 65 60T33 135T91 405T150 712Q150 745 179 745Z" />
<glyph unicode="N" horiz-adv-x="631" d="M524 750Q553 750 588 720T624 671Q624 608 595 453T519 155T436 13Q421 13 397 29T365 68T334 162Q281 325 234 432Q227 402 216 347T197 261T180 185T163 114T146 62Q130 13 116 13Q96 13 64 49T32 112T89 391T152 707Q155
745 175 745Q192 745 218 725T264 677T335 491T416 266Q455 382 488 616Q501 709 505 729T524 750Z" />
<glyph unicode="O" horiz-adv-x="619" d="M379 237T422 315T465 466T447 577T397 616T314 559T221 408T179 230Q179 187 191 161T221 134Q263 134 321 185ZM222 13Q148 13 90 85T32 230Q32 322 67 418T154 585T270 701T386 747Q483 747 545 665T607 479T555 271T412
89T222 13Z" />
<glyph unicode="P" horiz-adv-x="549" d="M109 18Q86 18 54 56T22 119T46 218Q120 448 125 621Q91 657 91 678Q91 711 169 740T319 770Q439 770 508 714T578 571Q578 460 470 370T196 247Q149 78 135 48T109 18ZM436 568Q436 600 413 620T351 641T243 604Q263
569 263 541Q263 486 234 378Q324 414 380 464T436 568Z" />
<glyph unicode="Q" horiz-adv-x="659" d="M486 747T565 663T644 478T596 271T470 94Q478 71 491 36T511 -18T526 -62Q540 -107 540 -130T532 -163T503 -172Q443 -172 364 29Q321 13 279 13Q201 13 117 87T32 230Q32 322 67 418T154 585T270 701T386 747Q486 747
565 663ZM398 616H395Q377 602 377 587Q377 421 423 246Q502 358 502 461Q502 533 468 574T398 616ZM254 462V474Q179 347 179 230Q179 191 216 163T276 134T323 148Q293 243 274 333T254 462Z" />
<glyph unicode="R" horiz-adv-x="601" d="M567 49Q567 8 510 8Q432 8 347 89T225 258Q209 210 203 193T185 139T167 84T152 46Q137 8 123 8Q100 8 68 46T35 109T58 198Q126 397 136 561Q117 576 102 603T87 648Q87 678 164 711T343 744T513 696T581 571Q581 514
548 462T475 380T402 326T368 295Q368 271 384 250T429 200T479 152T513 119T540 92Q567 66 567 49ZM427 561Q427 603 345 603Q306 603 252 581Q277 543 277 511Q277 453 261 383Q272 391 302 411T348 444T386 477Q427 516 427 561Z" />
<glyph unicode="S" horiz-adv-x="552" d="M499 220Q499 135 418 74T233 13T66 64T2 171T33 226Q57 226 83 202T141 154T215 130T308 164T360 221T304 298T191 409T134 498T145 567T174 618Q228 671 313 709T464 748Q502 748 527 716T552 648Q552 634 530 626T465
608T378 582Q276 544 276 518Q276 506 311 475T387 409T464 322T499 220Z" />
<glyph unicode="T" horiz-adv-x="544" d="M245 603Q137 597 127 597Q103 597 79 626T55 688Q55 737 340 737Q486 737 555 707T624 634Q624 621 609 610T571 598T487 601T376 605Q380 593 380 577T369 514T336 384T290 182T256 41T237 18Q216 18 185 56T153 119T194
317T245 603Z" />
<glyph unicode="U" horiz-adv-x="595" d="M170 747Q195 747 233 711T272 641T236 462T200 264T213 180T251 151T309 186T372 278T423 413T444 559T438 668T431 717Q431 748 457 748Q489 748 539 694T590 566T564 395T494 212T383 69T245 12T117 86T60 237T80 415T120
598T140 713T170 747Z" />
<glyph unicode="V" horiz-adv-x="532" d="M512 745Q540 745 568 725T597 685T590 643T566 586T533 519T489 434T442 340T398 243T357 152T323 82Q288 14 255 14Q240 14 214 36T178 80Q149 157 101 401T53 695T80 745Q114 745 150 716T206 639Q214 619 221 555T239
395T262 231Q363 505 421 625T512 745Z" />
<glyph unicode="W" horiz-adv-x="785" d="M153 13Q133 13 96 44T58 107Q58 180 79 359T100 703Q100 745 126 745Q162 745 212 705T263 625Q263 611 230 455T192 203Q240 300 305 365T413 430Q443 430 452 297Q456 247 468 206T501 164Q540 164 570 247T601 420Q601
613 495 613Q464 613 438 645T411 702Q411 747 466 747Q540 747 595 720T682 644Q744 549 744 410Q744 316 711 225T620 73T495 13Q373 13 356 220L325 176Q215 13 153 13Z" />
<glyph unicode="X" horiz-adv-x="585" d="M534 736Q553 736 585 701T618 640Q618 629 608 621T581 602T551 576Q429 425 369 346Q393 303 437 228T500 117T519 61T504 27T468 12Q415 12 286 228Q220 130 171 72T92 13T30 35T-1 77Q-1 88 4 93Q18 107 22 113Q108
211 213 361Q156 471 119 566T82 704T100 747Q142 747 188 730T235 689Q235 617 297 484Q396 638 445 687T534 736Z" />
<glyph unicode="Y" horiz-adv-x="561" d="M302 404Q320 404 365 490T458 661T528 747Q562 747 584 716T607 642Q607 612 555 527T423 315T300 101Q287 73 258 43T202 13Q162 13 162 77Q162 115 238 254Q250 276 255 287Q211 304 175 343T118 431Q74 534 74 631Q74
691 87 719T143 747Q165 747 176 717T196 629T221 529T262 445T302 404Z" />
<glyph unicode="Z" horiz-adv-x="646" d="M511 679T537 632T563 550T527 464T438 368T335 281T247 208T210 166Q210 151 225 151Q274 151 362 163T493 176Q560 176 560 141Q560 110 491 79T333 31T173 13Q124 13 87 65T49 158T109 263T242 383T374 487T435 550Q435
596 312 596Q270 596 241 591T202 585Q175 585 147 622T119 685Q119 711 178 724Q210 731 259 731Q367 731 479 690Q511 679 537 632Z" />
<glyph unicode="[" horiz-adv-x="463" d="M253 757Q253 786 263 797T306 814T423 819Q598 819 598 771Q598 740 556 728Q534 723 486 716Q413 705 391 696Q388 581 276 256Q218 86 218 55Q218 49 239 49T324 57T398 65Q423 65 423 35T339 -38T201 -82T106 -49T65
21T109 201T201 508T253 749V757Z" />
<glyph unicode="\" horiz-adv-x="600" d="M426 350T483 198T541 18T513 -45T463 -80Q438 -80 284 293Q247 385 203 488T142 630Q115 699 115 730T153 809T211 857Q229 857 234 842Q258 769 342 560Z" />
<glyph unicode="]" horiz-adv-x="521" d="M498 714V702Q496 600 471 471T433 282T399 129T374 17Q361 -37 328 -57T226 -78T90 -44T22 33Q22 63 61 63Q85 63 124 58T192 53T222 68Q222 71 234 115T262 225T296 366Q336 549 336 649H318L204 644Q131 644 131 676Q131
715 186 741T322 768T445 760T496 722Q498 716 498 714Z" />
<glyph unicode="^" horiz-adv-x="422" d="M423 551Q423 528 398 528Q354 528 236 733Q183 679 145 592Q134 567 128 554Q113 523 90 523T41 541T15 575Q15 613 52 687T139 821T216 882Q258 882 308 849Q317 842 324 824T346 760T392 643T423 551Z" />
<glyph unicode="_" horiz-adv-x="619" d="M590 29Q590 2 523 -9T358 -25T237 -33T163 -40T83 -46Q64 -46 44 -18T24 38Q24 80 311 80Q496 80 551 62Q590 51 590 29Z" />
<glyph unicode="`" horiz-adv-x="258" d="M10 793Q10 822 32 848T77 875Q95 875 117 853Q125 845 142 827T190 779T234 731T248 695T236 664T211 650T187 656T155 678T119 702T93 718T75 730T59 739T44 749T33 758T23 767T16 776Q10 784 10 793Z" />
<glyph unicode="a" horiz-adv-x="510" d="M450 296Q468 280 468 267T456 213T440 150T434 114T430 94T427 75T423 58T419 43T413 30T406 20Q400 12 386 12T352 40T321 108Q227 12 163 12Q120 12 70 59T20 154T63 290T180 453T328 528Q370 528 425 479T480 390T450
296ZM159 138Q199 138 265 192T348 330Q349 342 365 344Q362 401 346 401Q306 401 257 349T176 238T144 151Q144 143 146 141T159 138Z" />
<glyph unicode="b" horiz-adv-x="567" d="M413 527Q459 527 500 476T542 379T521 271T465 151T377 53T267 13T136 68Q116 12 103 12Q82 12 50 47T18 104T51 248Q150 614 150 778Q150 808 179 808Q202 808 241 765T280 683Q280 594 229 406Q343 527 413 527ZM251
128Q306 128 363 214T421 383Q421 389 419 390T405 392Q350 392 288 326T177 161Q219 128 251 128Z" />
<glyph unicode="c" horiz-adv-x="489" d="M25 169Q25 239 69 323T184 467T325 527Q360 527 397 482T434 400Q434 374 410 374Q398 374 377 385T334 396T272 359T200 269T168 186T179 147T235 138T316 146T370 162T402 171Q430 171 430 147Q430 103 353 58T199
12Q150 12 88 66T25 169Z" />
<glyph unicode="d" horiz-adv-x="539" d="M452 808Q476 808 515 765T554 683Q554 664 519 525T477 357Q397 12 360 12Q339 12 313 37T287 86Q287 91 288 94Q188 12 145 12T61 58T20 143T30 227T63 326T113 423T182 498T266 528Q330 528 371 463Q425 700 423 778Q423
808 452 808ZM157 139Q182 139 241 182T330 291Q329 299 329 326T311 377T278 401Q248 401 221 369T177 293Q143 200 143 152Q143 144 145 142T157 139Z" />
<glyph unicode="e" horiz-adv-x="488" d="M473 292T407 253T270 214T155 224Q146 197 146 170T155 132T200 120Q275 120 328 134T384 148Q425 148 425 121Q425 82 361 47T212 12T76 65T25 190T67 342T174 474T301 528T419 466T473 341Q473 292 407 253ZM357 367T336
386T297 405T249 379T194 310Q203 309 220 309Q357 309 357 357Q357 367 336 386Z" />
<glyph unicode="f" horiz-adv-x="435" d="M408 631T399 650T378 669T353 651T328 592Q309 528 290 443Q366 447 404 447T462 436T481 408Q481 377 425 360T263 327Q213 118 193 66T149 13Q130 13 105 44T79 92T86 130Q117 217 133 298Q103 290 80 290T33 311T10
364Q10 400 154 426Q183 618 235 704T385 791Q432 791 471 745T510 636Q510 595 497 572T463 548T430 567T413 608Z" />
<glyph unicode="g" horiz-adv-x="481" d="M420 312Q435 295 435 271T415 212Q390 152 371 63T334 -79T294 -171T235 -234T150 -259Q83 -259 30 -215T-23 -140T-6 -83T25 -57T53 -73T78 -107T109 -142T151 -158T193 -128T222 -63Q247 19 253 54Q185 12 143 12T60
58T20 146T42 250T100 375T190 483T300 528Q337 528 363 510T401 460Q422 406 422 338Q422 328 420 312ZM143 151Q143 138 154 138Q183 138 248 191T335 296V315Q335 380 323 394Q317 401 307 401Q259 401 201 300T143 151Z" />
<glyph unicode="h" horiz-adv-x="563" d="M150 766Q150 808 183 808Q210 808 245 763T280 686T267 596T241 490T200 354T163 230Q228 362 300 445T422 528Q453 528 493 474T533 376T517 249T461 89T379 12Q346 12 346 59Q346 93 366 170Q395 285 395 310T387 335Q329
335 217 142Q179 76 154 44T105 12T50 49T17 106T25 167T51 281T109 549T150 766Z" />
<glyph unicode="i" horiz-adv-x="260" d="M123 679T146 706T192 734T246 680T277 602T261 564T228 551Q199 551 161 589T123 653ZM138 528Q173 528 200 488T228 411Q228 392 194 275T125 52Q113 13 76 13Q54 13 38 29T21 72T46 204T85 384T110 493T138 528Z" />
<glyph unicode="j" horiz-adv-x="260" d="M-91 -149Q-59 -149 -24 -41T52 236T106 451T130 513T153 528Q183 528 212 489T242 407Q242 389 108 -71Q80 -167 24 -211T-106 -256Q-158 -256 -209 -213T-260 -137Q-260 -114 -243 -86T-209 -57T-158 -98Q-149 -109
-147 -112Q-117 -149 -91 -149ZM198 734T221 734T274 680T305 594Q305 578 289 565T257 551Q227 551 189 589T151 653T174 706Z" />
<glyph unicode="k" horiz-adv-x="493" d="M118 12Q95 12 61 49T26 108Q26 114 59 227T126 499T160 777Q160 808 188 808Q212 808 251 765T291 683Q291 628 252 475T173 234Q186 251 208 279T245 326T279 370T314 412T345 449T374 482T400 506Q424 528 437 528Q462
528 492 495T522 436Q522 426 480 390T395 310T352 232T372 165T417 115T461 81T482 51Q482 12 429 12Q366 12 262 118L238 142Q148 12 118 12Z" />
<glyph unicode="l" horiz-adv-x="266" d="M190 808T228 764T266 680T254 538T229 374Q146 12 113 12Q91 12 59 47T26 106Q26 108 53 210T107 472T135 779Q135 808 166 808Q190 808 228 764Z" />
<glyph unicode="m" horiz-adv-x="819" d="M698 528Q737 528 763 476T789 381T773 254T721 91T644 12Q611 12 611 57T637 204T663 338T653 370Q632 370 603 324T534 201T483 102T467 67T452 40Q420 -13 367 40Q340 67 340 89Q340 93 356 165T373 331Q373 370 364
370Q352 370 336 346T287 259T230 155Q146 12 102 12Q80 12 48 49T15 105T37 199T66 358T78 489T102 536Q140 536 175 505T211 447Q211 388 168 241Q238 408 286 467Q337 528 384 528Q410 528 448 480T487 391T486 318Q517 396 580 462T698 528Z" />
<glyph unicode="n" d="M393 528Q445 528 484 482T524 382Q524 297 497 205T437 62T371 12T337 59Q337 95 370 204Q395 294 395 333T385 372Q372 372 360 359T339 336T321 311T303 283T284 251T265 219T247 186Q154 12 101 12Q80 12 48 48T16 102Q16 113 30 149T51
205T62 247T70 294T74 334T78 378Q87 508 93 522T108 536Q146 536 181 505T216 447Q216 385 184 269Q249 383 302 455T393 528Z" />
<glyph unicode="o" horiz-adv-x="456" d="M220 138T260 211T300 348T282 436Q239 411 197 331T154 191T166 114Q220 138 260 211ZM20 305T97 417T251 529T379 476T431 347T395 193T294 64T155 12Q100 12 60 61T20 180Q20 305 97 417Z" />
<glyph unicode="p" horiz-adv-x="538" d="M388 527Q425 527 467 461T510 329Q510 289 476 234T391 131T272 48T143 14H131Q68 -248 42 -248Q21 -248 -2 -213T-26 -155T3 -14Q89 336 89 514Q89 544 118 544Q142 544 179 517T225 447Q310 527 388 527ZM240 148T309
219T379 342T350 394Q308 394 261 346Q242 326 219 287T179 196L162 133Q240 148 309 219Z" />
<glyph unicode="q" horiz-adv-x="519" d="M349 -64Q396 -42 420 -42T458 -57T472 -86T456 -113T405 -149T333 -200T275 -242T237 -256T201 -227T181 -174T260 49Q205 12 163 12T75 62T28 154T54 257T123 379T224 484T335 528T432 481T476 393Q476 365 450 365Q439
365 412 385T369 406Q325 406 270 353T179 239T143 151Q143 142 146 140T161 138Q200 139 266 196T352 337Q356 354 376 354T438 327T479 284T461 221T408 86T349 -64Z" />
<glyph unicode="r" horiz-adv-x="362" d="M80 359L74 472Q74 528 109 528Q129 528 148 513T178 466Q212 496 252 514T324 533Q397 533 397 498Q397 480 391 472T381 459T369 449T356 439Q333 424 323 418Q278 390 246 351T198 241Q171 126 146 70T89 13T42 43T26
99T45 179T72 270T80 359Z" />
<glyph unicode="s" horiz-adv-x="467" d="M344 527Q382 527 419 482T456 401Q456 377 435 377Q423 377 400 386T354 396T285 380T239 338Q239 328 266 309T325 270T384 215T411 138T351 54T209 12T69 49T11 125T43 164Q56 164 74 154Q124 125 198 125T273 145T245
189T183 235T121 286T92 346Q92 400 190 463T344 527Z" />
<glyph unicode="t" horiz-adv-x="451" d="M276 382T261 334T223 212T200 135T216 130T295 152T368 175Q393 175 393 141T326 60T186 12Q154 12 110 47T66 118Q66 148 96 244T138 377Q99 366 79 366T37 393T15 446Q15 478 170 500Q189 593 189 661Q189 691 219
691Q245 691 285 660T326 598T313 512Q361 514 386 514Q461 514 461 480Q461 458 418 443T284 409Q276 382 261 334Z" />
<glyph unicode="u" horiz-adv-x="486" d="M376 503Q384 528 408 528T463 487T495 416Q495 405 449 269T378 54Q364 12 331 12Q311 12 298 26T284 72T296 160Q193 12 132 12Q100 12 55 53T10 134Q10 230 64 379T167 528Q196 528 218 502T241 445Q241 433 216 378Q140
213 140 145Q140 139 145 139Q160 139 201 186T294 322T376 503Z" />
<glyph unicode="v" horiz-adv-x="422" d="M375 528Q401 528 425 510T450 471Q450 435 391 304T281 93T202 13Q187 13 159 33T122 73Q98 131 64 287T30 486T58 528Q92 528 128 501Q188 455 195 378Q198 342 200 290T209 199Q233 245 268 335T328 477T375 528Z" />
<glyph unicode="w" horiz-adv-x="710" d="M653 528T686 509T720 469T686 327T580 110T472 13Q458 13 430 33T390 78Q369 119 369 318Q326 178 271 96T182 13Q167 13 139 33T102 73Q80 127 60 279T40 487Q40 528 68 528Q106 528 146 482T186 410Q186 265 189 179Q229
240 261 331T314 475T356 528Q400 528 443 486T486 399Q486 379 480 316T473 221T477 168Q510 201 534 265T570 386Q598 528 625 528Z" />
<glyph unicode="x" horiz-adv-x="474" d="M404 49Q404 12 371 12Q317 12 229 144Q115 12 76 12Q49 12 25 38T0 85Q0 90 21 110Q104 189 160 259Q117 337 87 408T57 494T58 515Q61 528 76 528Q118 528 164 512T211 473Q211 438 241 371Q302 457 340 493T403 529T458
500T489 448Q489 437 480 427T453 404T419 373T309 242L338 191Q404 75 404 49Z" />
<glyph unicode="y" horiz-adv-x="520" d="M398 503Q404 528 431 528T486 494T515 417Q515 392 497 338T472 261T450 199T425 126T394 36T358 -68Q327 -158 283 -207T167 -256T40 -219T-16 -143Q-16 -120 4 -92T39 -64T77 -87T126 -134T170 -158Q183 -158 191 -146T205
-125T217 -99T228 -68T240 -31T252 10Q269 64 281 106Q248 63 213 38T149 12T76 56T32 154T55 298T114 458T176 528Q207 528 234 502T262 451T238 372T188 254T163 145Q163 139 168 139Q181 139 223 187T317 325T398 503Z" />
<glyph unicode="z" horiz-adv-x="480" d="M173 139L391 147Q412 147 428 138T444 109Q444 62 355 37T134 11Q86 11 43 54T0 124T51 194T162 271T274 339T325 383T271 394T183 388T128 382T80 416T53 471Q53 499 103 513T216 528T351 511Q384 502 414 460T445 395Q445
353 402 307T306 229T211 173T167 142Q167 139 173 139Z" />
<glyph unicode="{" horiz-adv-x="462" d="M156 426Q198 426 198 469Q198 489 185 519Q145 611 145 695T201 829T347 880Q409 880 456 834T504 732Q504 713 480 679T437 645Q421 645 418 665Q415 683 415 720Q415 760 364 760Q276 760 276 649Q277 585 298 524T320
441Q320 398 290 363T209 320V309Q209 271 184 199T159 72Q159 38 184 24T255 10T319 0T338 -37T304 -90T226 -115Q145 -115 86 -59T27 70T58 222T90 348Q90 354 78 372Q53 404 53 434Q53 443 57 454T70 465T121 440Q149 426 156 426Z" />
<glyph unicode="|" horiz-adv-x="456" d="M187 -166Q166 -166 131 -128T95 -74T173 366T251 845Q251 875 281 875Q305 875 347 831T389 750Q389 732 382 698T371 640T356 571T342 504T298 279Q211 -166 187 -166Z" />
<glyph unicode="}" horiz-adv-x="626" d="M379 395L444 399Q476 399 476 383Q476 345 433 321Q385 288 375 138Q371 79 361 23T317 -71T220 -108T113 -75T70 -1Q70 27 91 27Q109 27 134 9T203 -10Q233 -10 239 43T252 182T284 315Q216 349 216 416Q216 449 245
492T308 569T372 644T401 712T383 756T337 772T291 759T261 730Q231 687 213 687T169 719T144 770Q144 804 206 842T336 880T473 826T541 724T510 630T442 551Q343 465 343 427Q343 412 353 404T379 395Z" />
<glyph unicode="~" horiz-adv-x="586" d="M72 270Q72 325 123 382T229 440Q286 440 319 405Q333 390 344 374Q373 333 389 326Q403 333 417 359T450 405T496 426Q538 426 538 374T492 263T406 205T325 241T254 336Q231 326 215 306T192 266T170 233T131 218Q72
218 72 270Z" />
<glyph unicode="&#xa0;" horiz-adv-x="385" />
<glyph unicode="&#xa1;" horiz-adv-x="425" d="M358 469T335 443T289 416T236 470T205 551Q205 564 221 580T254 596Q284 596 321 559T358 496ZM255 -197Q255 -226 224 -226T142 -182T90 -118Q90 -52 136 154T217 361Q244 361 270 333T297 275Q299 264 289 211T267
46T255 -197Z" />
<glyph unicode="&#xa2;" horiz-adv-x="545" d="M490 402Q490 375 466 375Q452 375 400 404Q377 328 329 167Q362 171 395 179T443 187Q470 187 470 159T417 97T294 47Q274 -16 260 -42T230 -68T203 -58T193 -32T205 38Q152 48 89 101T25 198Q25 265 73 348T196
492T337 552Q346 552 355 549Q393 628 418 628Q452 628 452 582Q452 564 431 501Q490 449 490 402ZM168 208Q168 167 234 163Q267 302 305 416Q258 389 213 321T168 208Z" />
<glyph unicode="&#xa3;" horiz-adv-x="732" d="M539 500L543 546Q543 586 512 586Q491 586 474 555T431 431Q455 430 517 430Q615 430 615 396Q614 343 401 322L375 222Q368 193 347 154Q389 117 427 117T501 141T565 191T615 216T654 194T671 140Q671 91 589
44T445 -4Q362 -4 282 70Q216 11 139 11Q106 11 56 67T6 183Q6 224 42 263T132 302T237 264Q243 283 250 313H240Q189 313 167 322T144 359T162 417T195 449Q236 449 281 442Q321 592 375 664T520 736Q571 736 608 682T646 566Q646 538 613 506T557 474Q539 474
539 500ZM149 116Q167 116 195 164Q169 193 152 193Q123 193 123 162Q123 151 132 134T149 116Z" />
<glyph unicode="&#xa4;" horiz-adv-x="600" d="M498 392Q518 357 518 315Q518 230 461 173Q505 92 505 72Q505 35 472 35Q432 35 364 120Q340 114 305 114T233 128Q146 34 117 34T62 60T37 107Q37 112 76 150T137 212Q118 248 118 302T159 406Q143 431 120 460T83
507T69 533T70 547Q73 560 88 560Q133 560 177 548T235 512Q236 510 247 496T265 473Q295 481 323 481T378 475Q411 512 446 536T501 560T551 531T582 482T558 443T498 392ZM290 394T262 367T234 297T256 234T318 213T386 243T414 308Q411 344 391 369T330 394Z"
/>
<glyph unicode="&#xa5;" horiz-adv-x="615" d="M62 373Q60 400 206 411Q97 624 97 672T124 720Q160 720 196 691T253 615Q293 520 332 448Q370 491 409 561T473 675T512 720Q540 720 566 701T592 659Q592 615 459 418Q485 417 555 409T625 367Q625 329 385 309Q384
294 379 266Q461 271 504 271Q616 271 616 239Q616 199 361 155Q352 112 349 74T343 22Q339 -3 328 -3Q307 -3 268 28T228 87Q228 93 232 135Q128 120 76 119Q57 119 36 151T15 204Q15 232 244 255Q244 266 245 279T247 297Q138 284 121 284T83 317T62 373Z" />
<glyph unicode="&#xa6;" horiz-adv-x="455" d="M274 430T239 468T203 522T227 664T251 845Q251 875 280 875Q304 875 346 831T389 749T353 571T295 430ZM166 -166T131 -128T95 -74T119 68T143 249Q143 279 172 279Q196 279 238 235T280 153T244 -25T187 -166Z" />
<glyph unicode="&#xa7;" horiz-adv-x="529" d="M386 694Q353 694 327 669T301 614Q301 597 332 565T402 500T472 411T504 300T459 199T345 131Q381 85 381 27T328 -82T176 -134Q104 -134 49 -90T-6 -14T11 52T44 87Q58 87 67 75T86 49T101 29Q136 -18 172 -18T226
-3T245 36T226 83T180 129T125 177T78 236T59 316T104 413T217 504Q168 560 168 605Q168 679 252 747T402 815Q452 815 491 775T531 672Q531 628 518 605T485 581T449 598T427 638Q409 694 386 694ZM312 210T340 240T368 312T301 420Q196 365 196 309Q196 270 232
234Q246 220 271 200Q312 210 340 240Z" />
<glyph unicode="&#xa8;" horiz-adv-x="335" d="M188 760T209 785T250 810T298 761T325 695T310 663T279 648Q252 648 220 680T188 736ZM10 760T31 785T72 810T120 761T147 695T132 663T101 648Q74 648 42 680T10 736Z" />
<glyph unicode="&#xa9;" horiz-adv-x="708" d="M672 404Q672 256 567 158T306 60Q188 60 123 130T58 309Q58 445 168 552T415 660Q532 660 602 588T672 404ZM302 134Q430 134 503 206T576 410Q576 487 535 536T430 585T304 552T197 451T152 300T192 176T302 134ZM461
445L433 449Q399 449 352 395T304 296Q304 277 321 277Q368 277 420 293L471 309Q478 309 483 303T488 288Q488 264 430 232T332 200T256 234T220 298Q220 366 287 446T423 527Q440 527 458 503T476 462T461 445Z" />
<glyph unicode="&#xaa;" horiz-adv-x="536" d="M439 583Q439 569 427 540Q430 532 430 528T425 483T419 414Q419 337 403 337T370 353T343 396Q286 337 227 337Q194 337 156 371T117 432T130 503T166 592T229 673T310 707T396 666T439 583ZM291 453T317 491T354
584Q344 612 316 612Q283 612 249 543T215 445Q215 433 220 429T236 424T269 438Z" />
<glyph unicode="&#xab;" horiz-adv-x="426" d="M560 475Q578 475 605 453T632 414Q632 393 601 390Q412 369 412 324Q412 299 492 264Q522 251 547 234T572 201Q569 174 534 174Q468 174 385 228T301 334Q301 346 315 367T357 406T452 449T560 475ZM87 429T150
465T238 501T290 484T318 452Q318 431 289 422Q212 398 167 372T121 331Q121 309 168 284T263 238T310 202Q310 171 264 171Q203 171 109 223T15 321Q15 337 26 362T48 395Q87 429 150 465Z" />
<glyph unicode="&#xac;" horiz-adv-x="496" d="M418 379L155 370Q120 370 90 410T60 476T83 503H412Q505 503 559 492Q588 486 608 448T628 372T592 261T503 127T410 67Q382 67 382 92Q382 101 410 152Q495 309 495 368Q495 379 418 379Z" />
<glyph unicode="&#xad;" horiz-adv-x="600" d="M497 335Q497 309 436 292Q388 278 326 266T222 242Q134 221 114 221T72 248T50 301Q50 329 166 349T421 369Q497 369 497 335Z" />
<glyph unicode="&#xae;" horiz-adv-x="671" d="M105 552T188 632T366 713T513 659T566 521Q566 410 487 337T291 263Q203 263 154 315T105 450Q105 552 188 632ZM288 319Q384 319 439 373T494 525Q494 583 463 620T385 657Q308 657 242 596T176 439Q176 381 206
350T288 319ZM272 381T261 393T249 412T262 463T279 545Q271 551 264 561T256 577Q256 586 282 597T332 608Q422 608 422 554Q422 521 376 486Q360 475 360 471Q360 458 372 447T398 424Q423 403 423 395Q423 381 402 381T354 405T311 456Q288 381 280 381ZM369
544T369 551T352 558T322 553Q328 546 328 534T324 505Q331 508 337 513T349 523T357 529T363 536Q369 544 369 551Z" />
<glyph unicode="&#xaf;" horiz-adv-x="377" d="M367 648Q367 629 336 620T241 601T144 584Q84 572 65 572T28 595T10 637Q10 664 79 671T288 678Q367 678 367 648Z" />
<glyph unicode="&#xb0;" horiz-adv-x="421" d="M269 480T290 510T312 567Q312 620 278 620Q251 620 230 589T208 533T217 494T242 480Q269 480 290 510ZM89 505Q89 586 155 656T307 726Q364 726 399 691T434 600Q434 519 367 450T216 380Q158 380 124 415T89 505Z" />
<glyph unicode="&#xb1;" horiz-adv-x="600" d="M343 637Q343 650 350 656T369 663Q397 663 441 626T485 571Q485 545 476 494Q552 498 561 498Q660 498 660 463Q660 410 454 381Q411 189 381 189Q359 189 330 215T301 266Q301 274 319 368Q256 364 214 364Q186
364 161 398T136 458Q136 480 163 480Q225 480 335 485Q343 557 343 637ZM110 143L497 164Q609 164 609 133T514 78Q354 39 158 39Q128 39 104 66T80 118T110 143Z" />
<glyph unicode="&#xb2;" horiz-adv-x="335" d="M241 630Q221 630 206 609T189 587Q178 587 156 603T133 628Q133 658 164 685T242 712T311 686T334 610T281 498T178 413Q244 430 297 430T351 406Q351 385 271 364T147 342Q128 342 102 365T76 407Q76 418 121 455T211
537T257 611Q257 630 241 630Z" />
<glyph unicode="&#xb3;" horiz-adv-x="300" d="M127 518V523Q129 540 183 581T237 641Q237 644 228 644T188 625T150 606T123 625T105 653Q105 673 151 692T231 711T289 688T313 642T290 590T233 537Q305 516 305 471T235 388T103 351T41 372Q41 381 85 398T175
435T220 471Q220 485 198 488T152 495T127 518Z" />
<glyph unicode="&#xb4;" horiz-adv-x="266" d="M33 650T22 664T10 698T22 736T58 775T101 812T129 836T149 853T166 866Q181 874 192 874Q216 874 236 847T256 797T253 766T237 747T213 732T174 713T130 690T96 670Q66 650 50 650Z" />
<glyph unicode="&#xb5;" horiz-adv-x="439" d="M337 503Q344 528 368 528T425 487T458 417Q458 408 441 359Q370 154 340 54Q327 12 292 12Q245 12 245 70Q245 105 257 163Q158 12 94 12Q64 12 45 41Q13 -41 -27 -120T-86 -200Q-110 -200 -136 -184T-162 -155T-146
-107Q-79 40 -49 128T9 321T55 476T94 528T143 510T173 478Q173 448 138 327T103 145Q103 139 106 139Q124 139 170 195T267 339T337 503Z" />
<glyph unicode="&#xb6;" horiz-adv-x="592" d="M262 404Q215 364 183 364T117 400T83 472Q83 562 138 653T279 772Q384 805 509 805Q546 805 565 797Q585 790 607 752T630 684T607 540T565 362Q468 12 438 12Q419 12 395 32T371 68T400 170T469 407T527 711Q475
694 424 687Q425 683 425 666T405 549T361 362Q266 12 235 12Q215 12 191 32T167 69T180 128Q237 312 262 404Z" />
<glyph unicode="&#xb7;" horiz-adv-x="237" d="M144 238Q112 238 73 277T33 344T58 401T108 430T166 374T198 289Q198 274 180 256T144 238Z" />
<glyph unicode="&#xb8;" horiz-adv-x="301" d="M81 -204Q52 -204 31 -191T10 -165T34 -146T100 -132T171 -110Q162 -103 141 -98T104 -88T88 -75Q88 -58 114 -4T144 60Q151 80 191 80T232 56T196 -27Q225 -31 258 -50T291 -91Q290 -134 225 -169T81 -204Z" />
<glyph unicode="&#xb9;" horiz-adv-x="161" d="M106 721T122 721T168 697T198 663Q198 621 183 557T160 461T149 410T138 371Q126 332 113 332T84 348T68 378Q68 379 87 486T106 706Q106 721 122 721Z" />
<glyph unicode="&#xba;" horiz-adv-x="452" d="M287 610T257 560T226 474T247 417Q277 425 311 471T346 562T325 619Q287 610 257 560ZM330 707Q377 707 407 663T437 578Q437 489 380 413T231 336Q194 336 164 374T133 461Q133 558 190 632T330 707Z" />
<glyph unicode="&#xbb;" horiz-adv-x="833" d="M412 454Q412 469 434 485T475 501Q508 501 597 440T687 344Q687 326 676 301T650 264Q589 221 524 196T415 171T371 197Q371 212 423 233T527 280T580 329Q580 340 571 353T528 386T440 423Q412 432 412 454ZM141
393T134 398T127 418T154 453T204 475T281 454T379 401T424 340T368 270T243 203T131 176Q113 176 103 184T92 205Q92 224 147 248T257 297T312 338Q312 355 263 369T177 388Z" />
<glyph unicode="&#xbc;" horiz-adv-x="823" d="M677 319Q694 319 725 293T757 250Q757 203 713 56T636 -92Q619 -92 607 -74T594 -37T626 99Q582 87 531 87T447 113T413 180T448 286T524 401T584 451T623 430T644 393T581 292T518 189Q518 181 521 179T538 177T573
183T617 200T650 214Q656 254 656 299Q656 319 677 319ZM585 796Q607 796 631 765T655 705Q655 685 637 656T605 607T565 551T517 486T455 404T393 322T347 260T309 208Q252 132 238 114T206 75T177 40T153 15Q130 -8 117 -8T86 10T68 47T155 196T386 528T551 761T577
794T585 796ZM189 340T181 328T159 316T127 336T108 375T120 448Q155 604 155 793Q155 813 176 813T235 782T273 738Q273 683 240 547Q234 523 225 482T211 417T197 367Z" />
<glyph unicode="&#xbd;" horiz-adv-x="858" d="M545 72Q633 90 695 90T757 60Q757 32 656 5T496 -23Q472 -23 439 6T406 61Q406 81 522 172Q565 207 601 249T637 317T618 343T585 330T562 302T550 288Q537 288 508 309T479 341Q479 380 518 414T618 448T707 414T736
319T673 181T545 72ZM592 796Q612 796 636 766T661 703Q661 672 607 598Q591 576 578 557T541 507T498 451T447 385T396 318T353 260T314 209T277 160T242 114T210 75T181 40T158 15Q135 -8 123 -8T93 10T74 51T165 204T383 508T564 772Q574 789 579 792T592 796ZM195
340T187 328T165 316T133 336T114 373T126 442Q161 592 161 793Q161 813 182 813T241 782T279 738Q279 683 246 547Q240 523 231 482T217 417T203 367Z" />
<glyph unicode="&#xbe;" horiz-adv-x="962" d="M816 319Q834 319 862 293T891 250Q891 204 847 56T770 -92Q753 -92 743 -75T733 -37T765 99Q722 87 671 87T587 113T553 180T588 286T664 401T723 451T762 430T783 393T721 292T658 189Q658 181 661 179T678 177T712
183T756 200T789 214Q795 254 795 299Q795 319 816 319ZM725 796Q745 796 769 766T794 703Q794 672 740 598Q724 576 711 557T674 507T631 451T580 385T529 318T486 260T447 209T410 160T375 114T343 75T314 40T290 15Q268 -8 256 -8T226 10T207 51T298 204T516
508T697 772Q707 789 712 792T725 796ZM200 555V560Q200 586 276 640Q341 687 341 712Q341 715 337 715Q316 715 275 692T226 668T196 693T173 728Q173 754 231 779T334 804T408 774T438 707Q438 685 409 649T339 582Q428 560 428 497Q428 439 338 391T158 343Q92
343 92 372Q92 384 148 404T261 450T318 497Q318 514 290 518T233 527T200 555Z" />
<glyph unicode="&#xbf;" horiz-adv-x="396" d="M296 596Q326 596 363 559T400 496T377 443T331 416T278 470T247 551Q247 564 263 580T296 596ZM347 -112T292 -158T167 -205T51 -163T4 -48Q4 -4 29 39T86 112Q179 196 202 244Q230 306 239 322Q256 351 275 351Q311
351 311 256Q311 220 293 185T249 124T197 72Q135 12 135 -31Q135 -47 147 -56T179 -66T213 -54T228 -18T243 14Q267 26 278 26T318 -4T347 -53Q347 -112 292 -158Z" />
<glyph unicode="&#xc0;" horiz-adv-x="631" d="M508 388Q548 388 565 381T583 353Q583 326 496 298Q498 222 498 153T487 49T452 14T415 38T393 119T375 267Q273 244 228 230Q150 14 124 14Q103 14 69 42T34 100Q34 117 73 206Q56 217 44 237T31 277Q31 310 130
340Q138 360 146 385T189 505T244 662Q253 692 306 718T390 744Q425 744 452 647T491 388H508ZM277 371Q307 375 364 381Q361 410 355 480T345 581Q328 525 277 371ZM206 933Q206 962 228 988T273 1015Q291 1015 313 993Q321 985 338 967T386 919T430 871T444 835T432
804T407 790T383 796T351 818T315 842T289 858T271 870T255 879T240 889T229 898T219 907T212 916Q206 924 206 933Z" />
<glyph unicode="&#xc1;" horiz-adv-x="631" d="M508 388Q548 388 565 381T583 353Q583 326 496 298Q498 222 498 153T487 49T452 14T415 38T393 119T375 267Q273 244 228 230Q150 14 124 14Q103 14 69 42T34 100Q34 117 73 206Q56 217 44 237T31 277Q31 310 130
340Q138 360 146 385T189 505T244 662Q253 692 306 718T390 744Q425 744 452 647T491 388H508ZM277 371Q307 375 364 381Q361 410 355 480T345 581Q328 525 277 371ZM386 798T377 794T354 790T330 804T318 838T330 876T366 915T409 952T437 976T457 993T474 1006Q489
1014 500 1014Q524 1014 544 987T564 937T561 906T545 887T521 872T482 853T438 830T404 810Z" />
<glyph unicode="&#xc2;" horiz-adv-x="631" d="M508 388Q548 388 565 381T583 353Q583 326 496 298Q498 222 498 153T487 49T452 14T415 38T393 119T375 267Q273 244 228 230Q150 14 124 14Q103 14 69 42T34 100Q34 117 73 206Q56 217 44 237T31 277Q31 310 130
340Q138 360 146 385T189 505T244 662Q253 692 306 718T390 744Q425 744 452 647T491 388H508ZM277 371Q307 375 364 381Q361 410 355 480T345 581Q328 525 277 371ZM287 826T272 816T239 806T209 820T197 855Q197 903 270 945Q281 951 297 961T323 977T344 989Q368
1001 379 1001T400 990T424 957T449 924T484 888T520 847T531 818T522 796T501 787Q474 787 434 815T365 879Q337 865 312 846Z" />
<glyph unicode="&#xc3;" horiz-adv-x="631" d="M508 388Q548 388 565 381T583 353Q583 326 496 298Q498 222 498 153T487 49T452 14T415 38T393 119T375 267Q273 244 228 230Q150 14 124 14Q103 14 69 42T34 100Q34 117 73 206Q56 217 44 237T31 277Q31 310 130
340Q138 360 146 385T189 505T244 662Q253 692 306 718T390 744Q425 744 452 647T491 388H508ZM277 371Q307 375 364 381Q361 410 355 480T345 581Q328 525 277 371ZM270 831T255 813T217 794T179 806T163 842Q163 887 206 936T293 985T361 966T402 923T429 893Q438
898 450 920Q480 974 517 974Q557 974 557 928T518 833T444 783T375 812T315 888Q297 879 284 855Z" />
<glyph unicode="&#xc4;" horiz-adv-x="631" d="M508 388Q548 388 565 381T583 353Q583 326 496 298Q498 222 498 153T487 49T452 14T415 38T393 119T375 267Q273 244 228 230Q150 14 124 14Q103 14 69 42T34 100Q34 117 73 206Q56 217 44 237T31 277Q31 310 130
340Q138 360 146 385T189 505T244 662Q253 692 306 718T390 744Q425 744 452 647T491 388H508ZM277 371Q307 375 364 381Q361 410 355 480T345 581Q328 525 277 371ZM297 799Q270 799 238 831T206 887T227 936T268 961T316 912T343 846T328 814T297 799ZM475 799Q448
799 416 831T384 887T405 936T446 961T494 912T521 846T506 814T475 799Z" />
<glyph unicode="&#xc5;" horiz-adv-x="631" d="M508 388Q548 388 565 381T583 353Q583 326 496 298Q498 222 498 153T487 49T452 14T415 38T393 119T375 267Q273 244 228 230Q150 14 124 14Q103 14 69 42T34 100Q34 117 73 206Q56 217 44 237T31 277Q31 310 130
340Q138 360 146 385T189 505T244 662Q253 692 306 718T390 744Q425 744 452 647T491 388H508ZM277 371Q307 375 364 381Q361 410 355 480T345 581Q328 525 277 371ZM491 856T456 821T376 786T304 816T275 893T310 975T390 1010T462 980T491 903ZM395 934T384 934T365
922T356 894T363 868T381 858T400 870T409 899T402 924Z" />
<glyph unicode="&#xc6;" horiz-adv-x="899" d="M939 665Q939 640 861 627T666 613H616Q621 601 621 594Q621 525 599 439Q647 441 692 441Q818 441 818 396Q818 380 806 372T783 360T757 352T727 345T691 339T652 334Q619 328 565 322Q525 196 525 167Q525 150
542 150Q656 150 776 180Q818 191 824 191Q843 191 843 164Q843 128 790 94T657 40T500 20Q454 20 417 54T380 134T412 297Q297 277 247 271Q148 15 118 15Q97 15 66 43T34 99Q34 117 84 239T150 401Q234 627 265 669T363 723T563 736T761 731T864 715Q939 695
939 665ZM446 424Q474 531 483 606Q407 598 393 584Q361 550 299 403Q382 418 446 424Z" />
<glyph unicode="&#xc7;" horiz-adv-x="629" d="M559 206Q559 156 458 91T263 14Q257 1 241 -27Q270 -31 303 -50T336 -91Q335 -134 270 -169T126 -204Q97 -204 76 -191T55 -165T79 -146T145 -132T216 -110Q207 -103 186 -98T149 -88T133 -73T176 32Q122 61 80
121T37 231Q37 326 98 447T255 658T441 747Q469 747 502 698T535 616T522 584Q516 584 497 588T463 592Q413 592 346 528T232 375T184 221Q184 189 194 175T230 160Q299 160 370 181T487 223T539 245T552 234T559 206Z" />
<glyph unicode="&#xc8;" horiz-adv-x="551" d="M248 433Q301 433 362 438T437 444T460 437T469 420Q469 376 386 350T209 320Q170 199 170 167Q170 150 187 150Q301 150 422 180Q463 191 469 191Q488 191 488 164Q488 128 435 94T302 40T145 20Q99 20 62 54T25
135T76 369T131 651Q130 654 130 663Q130 677 134 685Q145 713 195 720T375 728Q591 728 591 680Q591 649 538 637Q502 629 439 622Q342 611 266 590Q266 522 242 433H248ZM217 933Q217 962 239 988T284 1015Q302 1015 324 993Q332 985 349 967T397 919T441 871T455
835T443 804T418 790T394 796T362 818T326 842T300 858T282 870T266 879T251 889T240 898T230 907T223 916Q217 924 217 933Z" />
<glyph unicode="&#xc9;" horiz-adv-x="551" d="M248 433Q301 433 362 438T437 444T460 437T469 420Q469 376 386 350T209 320Q170 199 170 167Q170 150 187 150Q301 150 422 180Q463 191 469 191Q488 191 488 164Q488 128 435 94T302 40T145 20Q99 20 62 54T25
135T76 369T131 651Q130 654 130 663Q130 677 134 685Q145 713 195 720T375 728Q591 728 591 680Q591 649 538 637Q502 629 439 622Q342 611 266 590Q266 522 242 433H248ZM397 798T388 794T365 790T341 804T329 838T341 876T377 915T420 952T448 976T468 993T485
1006Q500 1014 511 1014Q535 1014 555 987T575 937T572 906T556 887T532 872T493 853T449 830T415 810Z" />
<glyph unicode="&#xca;" horiz-adv-x="551" d="M248 433Q301 433 362 438T437 444T460 437T469 420Q469 376 386 350T209 320Q170 199 170 167Q170 150 187 150Q301 150 422 180Q463 191 469 191Q488 191 488 164Q488 128 435 94T302 40T145 20Q99 20 62 54T25
135T76 369T131 651Q130 654 130 663Q130 677 134 685Q145 713 195 720T375 728Q591 728 591 680Q591 649 538 637Q502 629 439 622Q342 611 266 590Q266 522 242 433H248ZM298 826T283 816T250 806T220 820T208 855Q208 903 281 945Q292 951 308 961T334 977T356
989Q379 1001 390 1001T411 990T435 957T460 924T495 888T531 847T542 818T533 796T512 787Q485 787 445 815T376 879Q348 865 323 846Z" />
<glyph unicode="&#xcb;" horiz-adv-x="551" d="M248 433Q301 433 362 438T437 444T460 437T469 420Q469 376 386 350T209 320Q170 199 170 167Q170 150 187 150Q301 150 422 180Q463 191 469 191Q488 191 488 164Q488 128 435 94T302 40T145 20Q99 20 62 54T25
135T76 369T131 651Q130 654 130 663Q130 677 134 685Q145 713 195 720T375 728Q591 728 591 680Q591 649 538 637Q502 629 439 622Q342 611 266 590Q266 522 242 433H248ZM308 799Q281 799 249 831T217 887T238 936T279 961T327 912T354 846T339 814T308 799ZM486
799Q459 799 427 831T395 887T416 936T457 961T505 912T532 846T517 814T486 799Z" />
<glyph unicode="&#xcc;" horiz-adv-x="309" d="M109 933Q109 962 131 988T176 1015Q194 1015 216 993Q224 985 241 967T289 919T333 871T347 835T335 804T310 790T286 796T254 818T218 842T192 858T174 870T158 879T143 889T132 898T122 907T115 916Q109 924 109
933ZM118 13T84 54T50 115T99 393T151 712Q153 745 182 745Q206 745 246 697T286 607Q286 589 259 472T222 308T205 225T194 167Q166 39 150 20Q144 13 138 13Q118 13 84 54Z" />
<glyph unicode="&#xcd;" horiz-adv-x="309" d="M244 790T233 804T221 838T233 876T269 915T312 952T340 976T360 993T377 1006Q392 1014 403 1014Q427 1014 447 987T467 937T464 906T448 887T424 872T385 853T341 830T306 810Q277 790 261 790ZM118 13T84 54T50
115T99 393T151 712Q153 745 182 745Q206 745 246 697T286 607Q286 589 259 472T222 308T205 225T194 167Q166 39 150 20Q144 13 138 13Q118 13 84 54Z" />
<glyph unicode="&#xce;" horiz-adv-x="309" d="M259 995T267 998T284 1001T303 990T327 957T352 924T387 888T423 847T434 818T425 796T404 787Q377 787 337 815T268 879Q240 865 215 846T175 816T142 806T112 820T100 855Q100 903 173 945Q184 951 200 961T226
977T247 989ZM118 13T84 54T50 115T99 393T151 712Q153 745 182 745Q206 745 246 697T286 607Q286 589 259 472T222 308T205 225T194 167Q166 39 150 20Q144 13 138 13Q118 13 84 54Z" />
<glyph unicode="&#xcf;" horiz-adv-x="309" d="M287 911T308 936T349 961T397 912T424 846T409 814T378 799Q351 799 319 831T287 887ZM109 911T130 936T171 961T219 912T246 846T231 814T200 799Q173 799 141 831T109 887ZM118 13T84 54T50 115T99 393T151 712Q153
745 182 745Q206 745 246 697T286 607Q286 589 259 472T222 308T205 225T194 167Q166 39 150 20Q144 13 138 13Q118 13 84 54Z" />
<glyph unicode="&#xd0;" horiz-adv-x="649" d="M153 754Q231 754 323 722T495 638T628 513T682 365Q682 309 592 226T382 81T187 20Q170 20 133 64T95 130Q95 167 128 283Q108 281 104 281Q67 281 42 303T17 356Q17 398 72 404Q106 407 166 417Q201 535 217 616Q181
640 157 673T133 730T153 754ZM538 393Q538 425 479 477T342 565Q339 523 315 434Q355 434 385 415T415 368Q415 332 349 318Q322 312 276 304Q254 235 245 204T232 162Q330 195 434 273T538 393Z" />
<glyph unicode="&#xd1;" horiz-adv-x="631" d="M213 842Q213 887 256 936T343 985T411 966T452 923T479 893Q488 898 500 920Q530 974 567 974Q607 974 607 928T568 833T494 783T425 812T365 888Q347 879 334 855T305 813T267 794T229 806T213 842ZM524 750Q553
750 588 720T624 671Q624 608 595 453T519 155T436 13Q421 13 397 29T365 68T334 162Q281 325 234 432Q227 402 216 347T197 261T180 185T163 114T146 62Q130 13 116 13Q96 13 64 49T32 112T89 391T152 707Q155 745 175 745Q192 745 218 725T264 677T335 491T416
266Q455 382 488 616Q501 709 505 729T524 750Z" />
<glyph unicode="&#xd2;" horiz-adv-x="619" d="M329 933Q329 962 351 988T396 1015Q414 1015 436 993Q444 985 461 967T509 919T553 871T567 835T555 804T530 790T506 796T474 818T438 842T412 858T394 870T378 879T363 889T352 898T342 907T335 916Q329 924 329
933ZM379 237T422 315T465 466T447 577T397 616T314 559T221 408T179 230Q179 187 191 161T221 134Q263 134 321 185ZM222 13Q148 13 90 85T32 230Q32 322 67 418T154 585T270 701T386 747Q483 747 545 665T607 479T555 271T412 89T222 13Z" />
<glyph unicode="&#xd3;" horiz-adv-x="619" d="M464 790T453 804T441 838T453 876T489 915T532 952T560 976T580 993T597 1006Q612 1014 623 1014Q647 1014 667 987T687 937T684 906T668 887T644 872T605 853T561 830T526 810Q497 790 481 790ZM379 237T422 315T465
466T447 577T397 616T314 559T221 408T179 230Q179 187 191 161T221 134Q263 134 321 185ZM222 13Q148 13 90 85T32 230Q32 322 67 418T154 585T270 701T386 747Q483 747 545 665T607 479T555 271T412 89T222 13Z" />
<glyph unicode="&#xd4;" horiz-adv-x="619" d="M479 995T487 998T504 1001T523 990T547 957T572 924T607 888T643 847T654 818T645 796T624 787Q597 787 557 815T488 879Q460 865 435 846T395 816T362 806T332 820T320 855Q320 903 393 945Q404 951 420 961T446
977T467 989ZM379 237T422 315T465 466T447 577T397 616T314 559T221 408T179 230Q179 187 191 161T221 134Q263 134 321 185ZM222 13Q148 13 90 85T32 230Q32 322 67 418T154 585T270 701T386 747Q483 747 545 665T607 479T555 271T412 89T222 13Z" />
<glyph unicode="&#xd5;" horiz-adv-x="619" d="M286 842Q286 887 329 936T416 985T484 966T525 923T552 893Q561 898 573 920Q603 974 640 974Q680 974 680 928T641 833T567 783T498 812T438 888Q420 879 407 855T378 813T340 794T302 806T286 842ZM379 237T422
315T465 466T447 577T397 616T314 559T221 408T179 230Q179 187 191 161T221 134Q263 134 321 185ZM222 13Q148 13 90 85T32 230Q32 322 67 418T154 585T270 701T386 747Q483 747 545 665T607 479T555 271T412 89T222 13Z" />
<glyph unicode="&#xd6;" horiz-adv-x="619" d="M507 911T528 936T569 961T617 912T644 846T629 814T598 799Q571 799 539 831T507 887ZM329 911T350 936T391 961T439 912T466 846T451 814T420 799Q393 799 361 831T329 887ZM379 237T422 315T465 466T447 577T397
616T314 559T221 408T179 230Q179 187 191 161T221 134Q263 134 321 185ZM222 13Q148 13 90 85T32 230Q32 322 67 418T154 585T270 701T386 747Q483 747 545 665T607 479T555 271T412 89T222 13Z" />
<glyph unicode="&#xd7;" horiz-adv-x="433" d="M496 483Q496 472 434 415Q391 375 320 304Q328 293 343 274T366 243T386 216T404 190T418 168Q430 146 430 135Q430 97 398 97Q343 97 238 221Q143 122 124 110T95 97Q68 97 43 123T18 171Q18 178 33 193T89 246T163
318Q113 389 79 451T45 532T48 556T63 563Q107 563 158 546T209 507Q209 471 246 409Q284 451 299 468T343 514Q393 564 422 564Q441 564 468 535T496 483Z" />
<glyph unicode="&#xd8;" horiz-adv-x="619" d="M622 471Q622 376 570 271T427 89T237 13Q178 13 122 62Q78 11 64 11T41 22T33 47T74 116Q32 176 32 230Q32 322 67 418T154 585T270 701T386 747Q471 747 538 680Q594 738 619 738Q635 738 645 729T656 704Q656
676 613 629L591 605Q622 541 622 471ZM450 583Q428 616 401 616T339 583T269 500T210 381T180 250Q195 269 225 305T324 429T450 583ZM480 461Q480 475 479 482Q347 334 201 156Q218 134 236 134Q278 134 336 185T437 315T480 461Z" />
<glyph unicode="&#xd9;" horiz-adv-x="578" d="M174 933Q174 962 196 988T241 1015Q259 1015 281 993Q289 985 306 967T354 919T398 871T412 835T400 804T375 790T351 796T319 818T283 842T257 858T239 870T223 879T208 889T197 898T187 907T180 916Q174 924 174
933ZM156 747Q181 747 219 711T258 641T222 462T186 264T199 180T237 151T295 186T358 278T409 413T430 559T424 668T417 717Q417 748 443 748Q475 748 525 694T576 566T550 395T480 212T369 69T231 12T103 86T46 237T66 415T106 598T126 713T156 747Z" />
<glyph unicode="&#xda;" horiz-adv-x="578" d="M309 790T298 804T286 838T298 876T334 915T377 952T405 976T425 993T442 1006Q457 1014 468 1014Q492 1014 512 987T532 937T529 906T513 887T489 872T450 853T406 830T372 810Q342 790 326 790ZM156 747Q181 747
219 711T258 641T222 462T186 264T199 180T237 151T295 186T358 278T409 413T430 559T424 668T417 717Q417 748 443 748Q475 748 525 694T576 566T550 395T480 212T369 69T231 12T103 86T46 237T66 415T106 598T126 713T156 747Z" />
<glyph unicode="&#xdb;" horiz-adv-x="578" d="M324 995T332 998T349 1001T368 990T392 957T417 924T452 888T488 847T499 818T490 796T469 787Q442 787 402 815T333 879Q305 865 280 846T240 816T207 806T177 820T165 855Q165 903 238 945Q249 951 265 961T291
977T312 989ZM156 747Q181 747 219 711T258 641T222 462T186 264T199 180T237 151T295 186T358 278T409 413T430 559T424 668T417 717Q417 748 443 748Q475 748 525 694T576 566T550 395T480 212T369 69T231 12T103 86T46 237T66 415T106 598T126 713T156 747Z"
/>
<glyph unicode="&#xdc;" horiz-adv-x="578" d="M352 911T373 936T414 961T462 912T489 846T474 814T443 799Q416 799 384 831T352 887ZM174 911T195 936T236 961T284 912T311 846T296 814T265 799Q238 799 206 831T174 887ZM156 747Q181 747 219 711T258 641T222
462T186 264T199 180T237 151T295 186T358 278T409 413T430 559T424 668T417 717Q417 748 443 748Q475 748 525 694T576 566T550 395T480 212T369 69T231 12T103 86T46 237T66 415T106 598T126 713T156 747Z" />
<glyph unicode="&#xdd;" horiz-adv-x="561" d="M346 790T335 804T323 838T335 876T371 915T414 952T442 976T462 993T479 1006Q494 1014 505 1014Q529 1014 549 987T569 937T566 906T550 887T526 872T487 853T443 830T408 810Q379 790 363 790ZM302 404Q320 404
365 490T458 661T528 747Q562 747 584 716T607 642Q607 612 555 527T423 315T300 101Q287 73 258 43T202 13Q162 13 162 77Q162 115 238 254Q250 276 255 287Q211 304 175 343T118 431Q74 534 74 631Q74 691 87 719T143 747Q165 747 176 717T196 629T221 529T262
445T302 404Z" />
<glyph unicode="&#xde;" horiz-adv-x="535" d="M293 619V617Q319 619 330 619Q395 619 458 553T522 435Q522 356 454 293T277 204Q238 194 190 191Q165 82 152 46T116 10T66 48T40 112T64 240Q139 553 139 718Q139 751 170 751T247 714T293 619ZM390 442Q390 456
366 467T316 479T264 471Q258 447 243 393T221 311Q239 314 264 320Q390 356 390 442Z" />
<glyph unicode="&#xdf;" horiz-adv-x="599" d="M262 127L304 125Q362 125 398 156Q419 174 419 205T401 261T360 300Q302 337 302 370Q302 385 333 407T395 456T427 514T398 570T338 595T287 560T255 458Q165 10 96 10Q75 10 52 35T28 82T46 172T91 338T131 508Q170
724 351 724Q433 724 493 654T554 521Q554 492 539 465T505 420Q456 374 456 359Q456 353 470 340T502 312T533 266T548 194Q548 124 487 68T339 12Q287 12 258 35T228 93T262 127Z" />
<glyph unicode="&#xe0;" horiz-adv-x="518" d="M337 528Q379 528 434 479T489 390T459 296Q477 280 477 267T465 213T449 150T443 114T439 94T436 75T432 58T428 43T422 30T416 20Q409 12 395 12T361 40T330 108Q236 12 172 12Q129 12 79 59T29 154T72 290T189
453T337 528ZM168 138Q208 138 274 192T357 330Q358 342 374 344Q371 401 355 401Q315 401 266 349T185 238T153 151Q153 143 155 141T168 138ZM258 697Q258 726 280 752T325 779Q343 779 365 757Q373 749 390 731T438 683T482 635T496 599T484 568T459 554T435
560T403 582T367 606T341 622T323 634T307 643T292 653T281 662T271 671T264 680Q258 688 258 697Z" />
<glyph unicode="&#xe1;" horiz-adv-x="518" d="M552 778Q576 778 596 751T616 701T613 670T597 651T573 636T534 617T490 594T456 574Q426 554 410 554T382 568T370 602T382 640T418 679T461 716T489 740T509 757T526 770Q541 778 552 778ZM337 528Q379 528 434
479T489 390T459 296Q477 280 477 267T465 213T449 150T443 114T439 94T436 75T432 58T428 43T422 30T416 20Q409 12 395 12T361 40T330 108Q236 12 172 12Q129 12 79 59T29 154T72 290T189 453T337 528ZM168 138Q208 138 274 192T357 330Q358 342 374 344Q371
401 355 401Q315 401 266 349T185 238T153 151Q153 143 155 141T168 138Z" />
<glyph unicode="&#xe2;" horiz-adv-x="518" d="M562 627T572 611T583 582T574 560T553 551Q526 551 486 579T417 643Q389 629 364 610T324 580T291 570T261 584T249 619Q249 667 322 709Q333 715 349 725T375 741T396 753Q419 765 430 765T452 754T476 721T501
688T536 652ZM337 528Q379 528 434 479T489 390T459 296Q477 280 477 267T465 213T449 150T443 114T439 94T436 75T432 58T428 43T422 30T416 20Q409 12 395 12T361 40T330 108Q236 12 172 12Q129 12 79 59T29 154T72 290T189 453T337 528ZM168 138Q208 138 274
192T357 330Q358 342 374 344Q371 401 355 401Q315 401 266 349T185 238T153 151Q153 143 155 141T168 138Z" />
<glyph unicode="&#xe3;" horiz-adv-x="518" d="M569 738Q609 738 609 692T570 597T496 547T427 576T367 652Q349 643 336 619T307 577T269 558T231 570T215 606Q215 651 258 700T345 749T413 730T454 687T481 657Q490 662 502 684Q532 738 569 738ZM337 528Q379
528 434 479T489 390T459 296Q477 280 477 267T465 213T449 150T443 114T439 94T436 75T432 58T428 43T422 30T416 20Q409 12 395 12T361 40T330 108Q236 12 172 12Q129 12 79 59T29 154T72 290T189 453T337 528ZM168 138Q208 138 274 192T357 330Q358 342 374
344Q371 401 355 401Q315 401 266 349T185 238T153 151Q153 143 155 141T168 138Z" />
<glyph unicode="&#xe4;" horiz-adv-x="518" d="M436 675T457 700T498 725T546 676T573 610T558 578T527 563Q500 563 468 595T436 651ZM337 528Q379 528 434 479T489 390T459 296Q477 280 477 267T465 213T449 150T443 114T439 94T436 75T432 58T428 43T422 30T416
20Q409 12 395 12T361 40T330 108Q236 12 172 12Q129 12 79 59T29 154T72 290T189 453T337 528ZM168 138Q208 138 274 192T357 330Q358 342 374 344Q371 401 355 401Q315 401 266 349T185 238T153 151Q153 143 155 141T168 138ZM349 563Q322 563 290 595T258 651T279
700T320 725T368 676T395 610T380 578T349 563Z" />
<glyph unicode="&#xe5;" horiz-adv-x="518" d="M327 704T362 739T442 774T514 744T543 667T508 585T428 550T356 580T327 657ZM408 642T415 632T433 622T452 634T461 663T454 688T436 698T417 686T408 658ZM337 528Q379 528 434 479T489 390T459 296Q477 280 477
267T465 213T449 150T443 114T439 94T436 75T432 58T428 43T422 30T416 20Q409 12 395 12T361 40T330 108Q236 12 172 12Q129 12 79 59T29 154T72 290T189 453T337 528ZM168 138Q208 138 274 192T357 330Q358 342 374 344Q371 401 355 401Q315 401 266 349T185
238T153 151Q153 143 155 141T168 138Z" />
<glyph unicode="&#xe6;" horiz-adv-x="770" d="M359 401Q301 401 227 300T153 151Q153 138 176 138T252 170T339 253Q350 299 380 351Q374 401 359 401ZM663 371T645 388T605 405T554 378T498 309Q507 308 526 308Q663 308 663 357Q663 371 645 388ZM132 12T81
60T29 154T73 289T193 453T341 528Q366 528 401 508T463 459Q535 528 603 528T725 466T779 341Q779 292 713 253T576 214T460 224Q452 195 452 169T461 132T506 120Q581 120 634 134T690 148Q731 148 731 121Q731 82 667 47T527 12Q396 12 346 116Q240 12 176 12Q132
12 81 60Z" />
<glyph unicode="&#xe7;" horiz-adv-x="493" d="M402 171Q430 171 430 147Q430 107 366 65T228 14Q215 -14 206 -28Q235 -32 268 -51T301 -92Q300 -135 235 -170T91 -205Q62 -205 41 -192T20 -166T44 -147T110 -133T181 -111Q172 -104 151 -99T114 -89T98 -76Q98
-58 141 30Q96 53 61 93T25 169Q25 239 69 323T184 467T325 527Q360 527 397 482T434 400Q434 374 410 374Q398 374 377 385T334 396T272 359T200 269T168 186T179 147T235 138T316 146T370 162T402 171Z" />
<glyph unicode="&#xe8;" horiz-adv-x="454" d="M463 292T397 253T260 214T145 224Q136 197 136 170T145 132T190 120Q265 120 318 134T374 148Q415 148 415 121Q415 82 351 47T202 12T66 65T15 190T57 342T164 474T291 528T409 466T463 341Q463 292 397 253ZM347
367T326 386T287 405T239 379T184 310Q193 309 210 309Q347 309 347 357Q347 367 326 386ZM128 697Q128 726 150 752T195 779Q213 779 235 757Q243 749 260 731T308 683T352 635T366 599T354 568T329 554T305 560T273 582T237 606T211 622T193 634T177 643T162
653T151 662T141 671T134 680Q128 688 128 697Z" />
<glyph unicode="&#xe9;" horiz-adv-x="454" d="M422 778Q446 778 466 751T486 701T483 670T467 651T443 636T404 617T360 594T326 574Q296 554 280 554T252 568T240 602T252 640T288 679T331 716T359 740T379 757T396 770Q411 778 422 778ZM100 421T164 474T291
528T409 466T463 341Q463 292 397 253T260 214T145 224Q136 197 136 170T145 132T190 120Q265 120 318 134T374 148Q415 148 415 121Q415 82 351 47T202 12T66 65T15 190T57 342ZM210 309Q347 309 347 357Q347 367 326 386T287 405T239 379T184 310Q193 309 210
309Z" />
<glyph unicode="&#xea;" horiz-adv-x="454" d="M463 292T397 253T260 214T145 224Q136 197 136 170T145 132T190 120Q265 120 318 134T374 148Q415 148 415 121Q415 82 351 47T202 12T66 65T15 190T57 342T164 474T291 528T409 466T463 341Q463 292 397 253ZM347
367T326 386T287 405T239 379T184 310Q193 309 210 309Q347 309 347 357Q347 367 326 386ZM209 590T194 580T161 570T131 584T119 619Q119 667 192 709Q203 715 219 725T245 741T266 753Q289 765 300 765T322 754T346 721T371 688T406 652T442 611T453 582T444
560T423 551Q396 551 356 579T287 643Q259 629 234 610Z" />
<glyph unicode="&#xeb;" horiz-adv-x="454" d="M463 292T397 253T260 214T145 224Q136 197 136 170T145 132T190 120Q265 120 318 134T374 148Q415 148 415 121Q415 82 351 47T202 12T66 65T15 190T57 342T164 474T291 528T409 466T463 341Q463 292 397 253ZM347
367T326 386T287 405T239 379T184 310Q193 309 210 309Q347 309 347 357Q347 367 326 386ZM219 563Q192 563 160 595T128 651T149 700T190 725T238 676T265 610T250 578T219 563ZM397 563Q370 563 338 595T306 651T327 700T368 725T416 676T443 610T428 578T397
563Z" />
<glyph unicode="&#xec;" horiz-adv-x="260" d="M58 697Q58 726 80 752T125 779Q143 779 165 757Q173 749 190 731T238 683T282 635T296 599T284 568T259 554T235 560T203 582T167 606T141 622T123 634T107 643T92 653T81 662T71 671T64 680Q58 688 58 697ZM160
528Q195 528 222 488T250 411Q250 392 216 275T147 52Q135 13 96 13Q74 13 59 29T44 67T50 118T68 200T86 279T99 347T112 413T124 469Q140 528 160 528Z" />
<glyph unicode="&#xed;" horiz-adv-x="260" d="M160 528Q195 528 222 488T250 411Q250 392 216 275T147 52Q135 13 96 13Q74 13 59 29T44 67T50 118T68 200T86 279T99 347T112 413T124 469Q140 528 160 528ZM193 554T182 568T170 602T182 640T218 679T261 716T289
740T309 757T326 770Q341 778 352 778Q376 778 396 751T416 701T413 670T397 651T373 636T334 617T290 594T256 574Q226 554 210 554Z" />
<glyph unicode="&#xee;" horiz-adv-x="260" d="M160 528Q195 528 222 488T250 411Q250 392 216 275T147 52Q135 13 96 13Q74 13 59 29T44 67T50 118T68 200T86 279T99 347T112 413T124 469Q140 528 160 528ZM208 759T216 762T233 765T252 754T276 721T301 688T336
652T372 611T383 582T374 560T353 551Q326 551 286 579T217 643Q189 629 164 610T124 580T91 570T61 584T49 619Q49 667 122 709Q133 715 149 725T175 741T196 753Z" />
<glyph unicode="&#xef;" horiz-adv-x="260" d="M160 528Q195 528 222 488T250 411Q250 392 216 275T147 52Q135 13 96 13Q74 13 59 29T44 67T50 118T68 200T86 279T99 347T112 413T124 469Q140 528 160 528ZM236 675T257 700T298 725T346 676T373 610T358 578T327
563Q300 563 268 595T236 651ZM58 675T79 700T120 725T168 676T195 610T180 578T149 563Q122 563 90 595T58 651Z" />
<glyph unicode="&#xf0;" horiz-adv-x="452" d="M472 636Q472 615 401 580Q443 501 443 405T411 218T311 70T155 12Q99 12 54 62T8 180Q8 301 79 382T233 464Q266 464 300 437Q297 490 280 534Q200 508 168 508T136 532Q136 551 161 563T210 583T236 591T239 592T243
594Q240 598 232 606Q207 633 182 633Q176 633 158 627T132 621Q110 621 110 650T143 704T211 729T288 704T365 634Q432 658 444 658T464 651T472 636ZM173 114Q204 114 250 186T301 354Q283 372 266 372Q234 372 188 318T142 198Q142 170 150 142T173 114Z" />
<glyph unicode="&#xf1;" horiz-adv-x="552" d="M392 528Q444 528 483 482T523 382Q523 297 496 205T436 62T370 12T336 59Q336 95 369 204Q394 294 394 333T384 372Q371 372 359 359T338 336T320 311T302 283T283 251T264 219T246 186Q153 12 100 12Q79 12 47
48T15 102Q15 113 29 149T50 205T61 247T69 294T73 334T77 378Q86 508 92 522T107 536Q145 536 180 505T215 447Q215 385 183 269Q248 383 301 455T392 528ZM225 595T210 577T172 558T134 570T118 606Q118 651 161 700T248 749T316 730T357 687T384 657Q393 662
405 684Q435 738 472 738Q512 738 512 692T473 597T399 547T330 576T270 652Q252 643 239 619Z" />
<glyph unicode="&#xf2;" horiz-adv-x="452" d="M162 697Q162 726 184 752T229 779Q247 779 269 757Q277 749 294 731T342 683T386 635T400 599T388 568T363 554T339 560T307 582T271 606T245 622T227 634T211 643T196 653T185 662T175 671T168 680Q162 688 162
697ZM220 138T260 211T300 348T282 436Q239 411 197 331T154 191T166 114Q220 138 260 211ZM20 305T97 417T251 529T379 476T431 347T395 193T294 64T155 12Q100 12 60 61T20 180Q20 305 97 417Z" />
<glyph unicode="&#xf3;" horiz-adv-x="452" d="M220 138T260 211T300 348T282 436Q239 411 197 331T154 191T166 114Q220 138 260 211ZM20 305T97 417T251 529T379 476T431 347T395 193T294 64T155 12Q100 12 60 61T20 180Q20 305 97 417ZM297 554T286 568T274
602T286 640T322 679T365 716T393 740T413 757T430 770Q445 778 456 778Q480 778 500 751T520 701T517 670T501 651T477 636T438 617T394 594T360 574Q330 554 314 554Z" />
<glyph unicode="&#xf4;" horiz-adv-x="452" d="M220 138T260 211T300 348T282 436Q239 411 197 331T154 191T166 114Q220 138 260 211ZM20 305T97 417T251 529T379 476T431 347T395 193T294 64T155 12Q100 12 60 61T20 180Q20 305 97 417ZM312 759T320 762T337
765T356 754T380 721T405 688T440 652T476 611T487 582T478 560T457 551Q430 551 390 579T321 643Q293 629 268 610T228 580T195 570T165 584T153 619Q153 667 226 709Q237 715 253 725T279 741T300 753Z" />
<glyph unicode="&#xf5;" horiz-adv-x="452" d="M119 606Q119 651 162 700T249 749T317 730T358 687T385 657Q394 662 406 684Q436 738 473 738Q513 738 513 692T474 597T400 547T331 576T271 652Q253 643 240 619T211 577T173 558T135 570T119 606ZM220 138T260
211T300 348T282 436Q239 411 197 331T154 191T166 114Q220 138 260 211ZM20 305T97 417T251 529T379 476T431 347T395 193T294 64T155 12Q100 12 60 61T20 180Q20 305 97 417Z" />
<glyph unicode="&#xf6;" horiz-adv-x="452" d="M220 138T260 211T300 348T282 436Q239 411 197 331T154 191T166 114Q220 138 260 211ZM20 305T97 417T251 529T379 476T431 347T395 193T294 64T155 12Q100 12 60 61T20 180Q20 305 97 417ZM340 675T361 700T402
725T450 676T477 610T462 578T431 563Q404 563 372 595T340 651ZM162 675T183 700T224 725T272 676T299 610T284 578T253 563Q226 563 194 595T162 651Z" />
<glyph unicode="&#xf7;" horiz-adv-x="600" d="M408 439Q376 439 337 478T298 545T322 603T372 632T430 576T462 490Q462 475 444 457T408 439ZM298 38Q267 38 228 77T188 144T213 201T263 230T320 174T353 96T335 56T298 38ZM661 376Q661 344 595 321T428 287Q245
267 95 267Q64 267 42 296T19 353T50 381Q53 381 249 393T553 405T661 376Z" />
<glyph unicode="&#xf8;" horiz-adv-x="452" d="M491 353Q491 278 446 199T327 66T179 12Q141 12 94 46Q50 10 30 10T10 29Q10 41 50 91Q20 134 20 180Q20 256 64 338T179 474T311 529T418 495Q457 529 476 529T504 521T513 499Q513 471 475 429L474 428Q491 391
491 353ZM133 188L349 425Q335 436 320 436Q287 436 243 390T168 284T133 188ZM179 100Q239 100 300 177T381 328Q252 193 163 107Q172 100 179 100Z" />
<glyph unicode="&#xf9;" horiz-adv-x="479" d="M373 503Q381 528 405 528T460 487T492 416Q492 405 446 269T375 54Q361 12 328 12Q308 12 295 26T281 72T293 160Q190 12 129 12Q97 12 52 53T7 134Q7 230 61 379T164 528Q193 528 215 502T238 445Q238 433 213
378Q137 209 137 145Q137 139 142 139Q157 139 198 186T291 322T373 503ZM159 697Q159 726 181 752T226 779Q244 779 266 757Q274 749 291 731T339 683T383 635T397 599T385 568T360 554T336 560T304 582T268 606T242 622T224 634T208 643T193 653T182 662T172
671T165 680Q159 688 159 697Z" />
<glyph unicode="&#xfa;" horiz-adv-x="479" d="M453 778Q477 778 497 751T517 701T514 670T498 651T474 636T435 617T391 594T356 574Q327 554 311 554T283 568T271 602T283 640T319 679T362 716T390 740T410 757T427 770Q442 778 453 778ZM373 503Q381 528 405
528T460 487T492 416Q492 405 446 269T375 54Q361 12 328 12Q308 12 295 26T281 72T293 160Q190 12 129 12Q97 12 52 53T7 134Q7 230 61 379T164 528Q193 528 215 502T238 445Q238 433 213 378Q137 209 137 145Q137 139 142 139Q157 139 198 186T291 322T373 503Z"
/>
<glyph unicode="&#xfb;" horiz-adv-x="479" d="M373 503Q381 528 405 528T460 487T492 416Q492 405 446 269T375 54Q361 12 328 12Q308 12 295 26T281 72T293 160Q190 12 129 12Q97 12 52 53T7 134Q7 230 61 379T164 528Q193 528 215 502T238 445Q238 433 213
378Q137 209 137 145Q137 139 142 139Q157 139 198 186T291 322T373 503ZM240 590T225 580T192 570T162 584T150 619Q150 667 223 709Q234 715 250 725T276 741T298 753Q320 765 331 765T353 754T377 721T402 688T437 652T473 611T484 582T475 560T454 551Q427
551 387 579T318 643Q290 629 265 610Z" />
<glyph unicode="&#xfc;" horiz-adv-x="479" d="M373 503Q381 528 405 528T460 487T492 416Q492 405 446 269T375 54Q361 12 328 12Q308 12 295 26T281 72T293 160Q190 12 129 12Q97 12 52 53T7 134Q7 230 61 379T164 528Q193 528 215 502T238 445Q238 433 213
378Q137 209 137 145Q137 139 142 139Q157 139 198 186T291 322T373 503ZM250 563Q223 563 191 595T159 651T180 700T221 725T269 676T296 610T281 578T250 563ZM428 563Q401 563 369 595T337 651T358 700T399 725T447 676T474 610T459 578T428 563Z" />
<glyph unicode="&#xfd;" horiz-adv-x="520" d="M479 778Q503 778 523 751T543 701T540 670T524 651T500 636T461 617T417 594T382 574Q353 554 337 554T309 568T297 602T309 640T345 679T388 716T416 740T436 757T453 770Q468 778 479 778ZM398 503Q404 528 431
528T486 494T515 417Q515 392 497 338T472 261T450 199T425 126T394 36T358 -68Q327 -158 283 -207T167 -256T40 -219T-16 -143Q-16 -120 4 -92T39 -64T77 -87T126 -134T170 -158Q183 -158 191 -146T205 -125T217 -99T228 -68T240 -31T252 10Q269 64 281 106Q248
63 213 38T149 12T76 56T32 154T55 298T114 458T176 528Q207 528 234 502T262 451T238 372T188 254T163 145Q163 139 168 139Q181 139 223 187T317 325T398 503Z" />
<glyph unicode="&#xfe;" horiz-adv-x="526" d="M302 512T346 512T454 449T518 325T461 206T331 113T204 80Q175 80 150 91Q76 -200 57 -200Q36 -200 5 -165T-27 -109T15 76T101 446T144 777Q144 807 173 807Q197 807 236 764T275 682T244 492Q302 512 346 512ZM196
185Q227 185 274 205T360 261T399 334Q399 358 378 372T332 386T270 372T211 340Q184 228 173 185H196Z" />
<glyph unicode="&#xff;" horiz-adv-x="520" d="M398 503Q404 528 431 528T486 494T515 417Q515 392 497 338T472 261T450 199T425 126T394 36T358 -68Q327 -158 283 -207T167 -256T40 -219T-16 -143Q-16 -120 4 -92T39 -64T77 -87T126 -134T170 -158Q183 -158
191 -146T205 -125T217 -99T228 -68T240 -31T252 10Q269 64 281 106Q248 63 213 38T149 12T76 56T32 154T55 298T114 458T176 528Q207 528 234 502T262 451T238 372T188 254T163 145Q163 139 168 139Q181 139 223 187T317 325T398 503ZM276 563Q249 563 217 595T185
651T206 700T247 725T295 676T322 610T307 578T276 563ZM454 563Q427 563 395 595T363 651T384 700T425 725T473 676T500 610T485 578T454 563Z" />
<glyph unicode="&#x2013;" horiz-adv-x="624" d="M531 393Q606 393 606 360Q606 333 549 316Q467 292 268 256Q230 249 176 235T112 221Q89 221 67 249T44 303T230 361T531 393Z" />
<glyph unicode="&#x2014;" horiz-adv-x="968" d="M79 221T62 247T44 300T141 345T385 371Q635 383 788 383T942 344Q942 311 826 295Q747 284 625 274T446 258T298 242Q118 221 99 221Z" />
<glyph unicode="&#x2018;" horiz-adv-x="352" d="M142 528T109 565T75 665T131 805T235 882T282 842Q282 824 245 773T208 687T235 630T262 588T241 548T194 528Q142 528 109 565Z" />
<glyph unicode="&#x2019;" horiz-adv-x="352" d="M210 882T243 845T277 745T221 605T117 528T70 568Q70 586 107 637T144 723T117 780T90 822T111 862T158 882Q210 882 243 845Z" />
<glyph unicode="&#x201a;" horiz-adv-x="346" d="M271 19Q271 -60 210 -142T100 -225Q70 -225 70 -204Q70 -194 91 -164Q154 -76 154 -30Q154 -9 136 7T101 35T83 66T111 113T174 142T239 103T271 19Z" />
<glyph unicode="&#x201c;" horiz-adv-x="606" d="M396 528T363 565T329 665T385 805T489 882T536 842Q536 824 499 773T462 687T489 630T516 588T495 548T448 528Q396 528 363 565ZM142 528T109 565T75 665T131 805T235 882T282 842Q282 824 245 773T208 687T235
630T262 588T241 548T194 528Q142 528 109 565Z" />
<glyph unicode="&#x201d;" horiz-adv-x="595" d="M210 882T243 845T277 745T221 605T117 528T70 568Q70 586 107 637T144 723T117 780T90 822T111 862T158 882Q210 882 243 845ZM453 882T486 845T520 745T464 605T360 528T313 568Q313 586 350 637T387 723T360
780T333 822T354 862T401 882Q453 882 486 845Z" />
<glyph unicode="&#x201e;" horiz-adv-x="569" d="M524 19Q524 -60 463 -142T353 -225Q323 -225 323 -204Q323 -194 344 -164Q407 -76 407 -30Q407 1 372 22T336 63T364 113T427 142T492 103T524 19ZM241 19Q241 -60 180 -142T70 -225Q40 -225 40 -204Q40 -194
61 -164Q124 -76 124 -30Q124 1 89 22T53 63T81 113T144 142T209 103T241 19Z" />
<glyph unicode="&#x2022;" horiz-adv-x="237" d="M157 240Q119 240 71 288T22 370T52 440T114 476T184 407T224 303Q224 284 202 262T157 240Z" />
<glyph unicode="&#x2039;" horiz-adv-x="609" d="M195 429T258 465T346 501T398 484T426 452Q426 431 397 422Q320 398 275 372T229 331Q229 309 276 284T371 238T418 202Q418 171 372 171Q311 171 217 223T123 321Q123 337 134 362T156 395Q195 429 258 465Z" />
<glyph unicode="&#x203a;" horiz-adv-x="604" d="M180 454Q180 469 202 485T243 501Q275 501 364 440T454 344Q454 326 443 301T417 264Q357 221 292 196T183 171T138 197Q138 212 190 233T294 280T347 329Q347 340 338 353T295 386T208 423Q180 432 180 454Z" />
</font>
</defs>
</svg>
