<?xml version="1.0" standalone="no"?>
<!DOCTYPE svg PUBLIC "-//W3C//DTD SVG 1.1//EN" "http://www.w3.org/Graphics/SVG/1.1/DTD/svg11.dtd">
<svg xmlns="http://www.w3.org/2000/svg">
<defs >
<font id="Karla" horiz-adv-x="978" ><font-face
    font-family="Karla SemiBold"
    units-per-em="2000"
    panose-1="2 11 0 4 3 5 3 3 0 3"
    ascent="1834"
    descent="-504"
    alphabetic="0" />
<glyph unicode=" " horiz-adv-x="449" />
<glyph unicode="!" horiz-adv-x="521" d="M222 416L282 1309H493L387 416H222ZM263 -18Q202 -18 168 25T139 128Q144 189 186 232T290 275Q353 275 388 232T417 128Q411 69 369 26T263 -18Z" />
<glyph unicode="&quot;" horiz-adv-x="654" d="M511 903L531 1369H726L655 903H511ZM165 903L184 1369H379L309 903H165Z" />
<glyph unicode="#" horiz-adv-x="1196" d="M250 65L300 331H132L156 473H326L388 800H218L246 943H415L466 1205H649L599 943H851L901 1205H1084L1033 943H1208L1178 800H1006L944 473H1119L1091 331H918L867 65H684L735 331H483L432 65H250ZM509 473H761L823
800H571L509 473Z" />
<glyph unicode="$" horiz-adv-x="1214" d="M518 -197L533 -21Q419 -9 329 41T191 180T155 399H348Q338 297 392 244T553 178L592 588L512 619Q367 674 294 751T232 964Q246 1107 355 1201T659 1310L674 1462H816L800 1308Q967 1289 1049 1193T1140 943H948Q943
1007 903 1055T783 1118L746 737L892 679Q1019 629 1079 550T1127 342Q1118 254 1066 174T916 39T673 -24L658 -197H518ZM693 175Q796 184 849 234T908 348Q914 409 882 453T786 524L728 548L693 175ZM610 780L642 1122Q550 1116 500 1070T444 961Q439 902 467
867T562 802L610 780Z" />
<glyph unicode="%" horiz-adv-x="1358" d="M474 1313Q572 1313 638 1238T689 1014Q675 865 595 790T418 715Q354 715 302 748T223 848T205 1014Q214 1114 254 1180T352 1279T474 1313ZM460 1174Q418 1174 389 1137T351 1014Q342 928 365 891T431 854Q473 854 503
891T541 1014Q549 1100 526 1137T460 1174ZM193 0L1099 1288H1296L391 0H193ZM1069 573Q1165 573 1231 499T1283 274Q1269 123 1189 49T1012 -26Q915 -26 850 48T798 274Q813 424 893 498T1069 573ZM1055 434Q1013 434 984 397T945 274Q938 188 960 151T1025 114Q1066
114 1097 151T1135 274Q1145 359 1121 396T1055 434Z" />
<glyph unicode="&amp;" horiz-adv-x="1714" d="M633 -26Q502 -26 400 25T242 165T198 364Q211 499 304 576T559 682L533 711Q481 769 451 843T428 999Q436 1086 488 1156T630 1268T841 1309Q958 1309 1037 1268T1155 1157T1184 1002Q1173 881 1091 792T849 634L1069
394Q1134 471 1191 567T1297 772L1422 691Q1373 570 1313 463T1181 270L1234 215Q1261 189 1286 177T1347 164Q1390 164 1425 199T1472 316H1649Q1629 157 1554 66T1348 -26Q1306 -26 1268 -16T1195 15T1124 66T1052 138Q960 60 855 17T633 -26ZM654 169Q729 169
799 194T935 268L661 571Q539 553 480 504T414 376Q405 290 467 230T654 169ZM752 744Q825 778 871 813T940 889T970 977Q974 1041 935 1082T825 1123Q742 1123 694 1077T639 967Q633 919 651 876T711 788L752 744Z" />
<glyph unicode="&apos;" horiz-adv-x="303" d="M157 887L176 1354H372L301 887H157Z" />
<glyph unicode="(" horiz-adv-x="699" d="M643 1494L772 1381Q659 1263 579 1142T451 894T391 630Q379 495 401 368T481 121T631 -118L480 -233Q365 -109 296 30T201 320T189 630Q213 871 325 1090T643 1494Z" />
<glyph unicode=")" horiz-adv-x="699" d="M174 -233L43 -118Q158 0 239 120T367 368T426 630Q439 767 416 894T336 1142T186 1381L338 1494Q508 1309 579 1090T627 630Q612 471 557 320T406 30T174 -233Z" />
<glyph unicode="*" horiz-adv-x="738" d="M309 788L221 884L393 1050L199 1126L261 1257L434 1155L435 1398H571L528 1155L719 1260L758 1127L551 1051L691 884L584 788L467 991L309 788Z" />
<glyph unicode="+" horiz-adv-x="972" d="M480 982H675L638 585H993L975 397H620L583 0H389L426 397H69L87 585H444L480 982Z" />
<glyph unicode="," horiz-adv-x="436" d="M165 -258L29 -178Q89 -146 136 -105T202 -10Q155 -1 124 32T99 119Q104 174 146 213T248 252Q299 252 331 225T378 152T388 53Q382 -4 354 -63T278 -173T165 -258Z" />
<glyph unicode="-" horiz-adv-x="661" d="M126 504L145 692H647L628 504H126Z" />
<glyph unicode="." horiz-adv-x="370" d="M180 -18Q120 -18 85 24T57 129Q63 190 106 232T209 275Q267 275 303 235T334 129Q329 64 284 23T180 -18Z" />
<glyph unicode="/" horiz-adv-x="831" d="M82 -158L696 1483H895L279 -158H82Z" />
<glyph unicode="0" horiz-adv-x="1122" d="M557 -26Q416 -26 317 47T172 269T148 644Q168 870 241 1018T429 1239T684 1313Q825 1313 925 1240T1071 1018T1096 644Q1075 418 1001 269T812 47T557 -26ZM576 173Q707 173 790 294T894 644Q916 872 857 994T665 1117Q535
1117 452 995T349 644Q326 416 385 295T576 173Z" />
<glyph unicode="1" horiz-adv-x="630" d="M432 1295H580L459 0H264L360 1037Q313 1010 265 996T172 982L190 1190Q251 1199 310 1222T432 1295Z" />
<glyph unicode="2" horiz-adv-x="1077" d="M327 242L322 198H987L969 0H110L129 213Q140 322 177 397T277 523T431 612L676 714Q759 749 804 803T855 936Q863 1016 816 1070T674 1124Q582 1124 517 1075T432 931H217Q232 1058 297 1143T463 1270T689 1313Q805
1313 893 1264T1028 1128T1063 926Q1050 776 968 681T736 523L486 420Q408 387 370 347T327 242Z" />
<glyph unicode="3" horiz-adv-x="1106" d="M553 -26Q463 -26 381 1T236 82T142 217T120 402H327Q323 330 352 279T438 200T572 173Q685 173 754 231T833 379Q839 437 817 479T742 546T603 570H454L470 740H593Q701 740 769 791T845 930Q852 1010 805 1063T651
1117Q568 1117 500 1079T402 946H198Q236 1140 363 1226T663 1313Q786 1313 878 1268T1018 1142T1056 955Q1047 856 991 784T834 674Q937 636 995 557T1042 360Q1031 246 967 159T796 23T553 -26Z" />
<glyph unicode="4" horiz-adv-x="1054" d="M632 0L658 292H68L83 456L760 1303H945L868 477H1069L1052 292H851L823 0H632ZM314 456H683L731 978L314 456Z" />
<glyph unicode="5" horiz-adv-x="1040" d="M524 -26Q403 -26 313 21T177 158T141 378H340Q331 275 389 224T542 173Q647 173 718 245T800 426Q810 528 752 581T569 634H226L340 1288H1022L1003 1090H510L453 780Q498 788 549 793T639 798Q821 798 919 703T1000
426Q989 299 926 196T759 34T524 -26Z" />
<glyph unicode="6" horiz-adv-x="1077" d="M568 -27Q424 -27 323 57T174 288T144 621Q164 842 240 996T436 1232T706 1313Q818 1313 899 1267T1023 1137T1061 941H854Q850 1023 812 1070T694 1117Q586 1117 504 1035T377 806T333 459Q357 583 411 654T538 756T689
786Q797 786 875 734T992 590T1020 379Q1008 258 947 167T788 24T568 -27ZM586 173Q677 173 743 231T818 388Q828 490 773 548T627 606Q568 606 517 578T433 501T395 388Q386 289 441 231T586 173Z" />
<glyph unicode="7" horiz-adv-x="883" d="M86 0L724 1079H145L165 1288H972L952 1082L348 0H86Z" />
<glyph unicode="8" horiz-adv-x="1149" d="M570 -26Q425 -26 321 22T165 155T123 346Q135 468 218 544T420 637Q368 666 319 710T241 818T220 964Q230 1070 290 1148T453 1270T698 1313Q823 1313 918 1266T1064 1135T1105 946Q1096 848 1028 770T843 669L857 663Q979
608 1040 536T1090 336Q1080 231 1015 149T837 21T570 -26ZM589 173Q731 173 807 215T889 326Q892 380 861 418T770 482L586 562Q479 554 406 498T326 368Q318 275 394 224T589 173ZM663 749Q755 751 825 801T905 932Q911 1016 849 1066T679 1117Q610 1117 553
1096T461 1038T422 955Q416 901 446 868T536 807L663 749Z" />
<glyph unicode="9" horiz-adv-x="1084" d="M524 -26Q406 -26 317 25T182 169T148 381H351Q344 285 396 229T537 173Q687 173 766 313T868 686Q871 718 872 748T872 812Q845 702 792 634T668 533T515 501Q409 501 331 553T214 697T186 908Q197 1030 258 1121T416
1262T636 1313Q773 1313 875 1232T1029 1006T1062 666Q1041 454 975 299T796 59T524 -26ZM579 681Q636 681 686 709T770 786T810 898Q820 998 763 1056T617 1115Q530 1115 464 1057T387 898Q376 796 432 739T579 681Z" />
<glyph unicode=":" horiz-adv-x="468" d="M291 613Q230 613 197 655T168 760Q174 822 216 864T317 906Q377 906 413 864T443 760Q438 697 395 655T291 613ZM231 24Q167 24 135 68T108 170Q114 232 156 274T258 317Q320 317 355 274T384 170Q379 108 335 66T231 24Z" />
<glyph unicode=";" horiz-adv-x="533" d="M217 -258L82 -178Q141 -146 188 -105T254 -10Q208 -1 177 33T151 119Q156 174 198 213T301 252Q374 252 411 194T440 53Q431 -37 372 -123T217 -258ZM347 622Q288 622 253 663T223 769Q230 830 271 872T373 915Q434 915
470 873T500 769Q495 706 452 664T347 622Z" />
<glyph unicode="&lt;" horiz-adv-x="882" d="M785 1211L898 1046L338 635L820 227L676 62L129 539L148 733L785 1211Z" />
<glyph unicode="=" horiz-adv-x="902" d="M177 389H795L777 201H160L177 389ZM216 800H834L818 613H200L216 800Z" />
<glyph unicode="&gt;" horiz-adv-x="882" d="M214 62L102 227L662 635L180 1046L322 1211L870 733L852 539L214 62Z" />
<glyph unicode="?" horiz-adv-x="922" d="M349 371L357 454Q367 546 391 601T458 693T566 768Q615 797 651 822T709 880T734 961Q739 1034 695 1075T563 1117Q468 1117 410 1069T338 943H135Q160 1109 273 1211T575 1313Q703 1313 788 1266T914 1139T947 959Q942
879 910 824T830 728T724 654Q664 619 627 592T572 530T549 434L544 371H349ZM414 -26Q350 -26 317 17T291 122Q298 183 339 223T444 263Q509 263 540 222T567 121Q562 57 520 16T414 -26Z" />
<glyph unicode="@" horiz-adv-x="1808" d="M972 -417Q771 -417 613 -353T347 -173T192 96T161 427Q179 625 258 787T465 1067T757 1249T1108 1313Q1273 1313 1402 1257T1619 1102T1747 871T1772 588Q1760 453 1715 348T1602 171T1456 61T1297 23Q1216 23 1167
59T1108 159L1102 191Q1061 116 1004 70T854 23Q779 23 716 70T619 199T595 388Q605 493 647 581T755 736T901 840T1066 877Q1183 877 1244 800T1291 566L1264 294Q1259 239 1273 216T1320 192Q1351 192 1390 214T1469 285T1537 408T1576 588Q1591 738 1540 858T1375
1048T1090 1119Q940 1119 813 1065T588 914T430 689T356 413Q337 221 405 74T620 -156T989 -240L972 -417ZM908 198Q974 198 1021 239T1113 362L1133 564Q1139 633 1121 671T1044 710Q992 710 932 672T827 562T772 392Q764 299 803 249T908 198Z" />
<glyph unicode="A" horiz-adv-x="1102" d="M42 0L558 1288H801L1062 0H856L798 290H361L247 0H42ZM425 454H766L651 1030L425 454Z" />
<glyph unicode="B" horiz-adv-x="1154" d="M172 0L293 1288H752Q885 1288 968 1242T1086 1118T1113 947Q1102 839 1040 760T873 650Q939 636 987 596T1059 494T1076 356Q1070 294 1045 231T969 116T835 32T631 0H172ZM382 189H644Q752 189 805 238T867 368Q876
449 829 498T678 548H416L382 189ZM468 1101L434 736H691Q788 736 845 785T910 921Q917 1003 871 1052T727 1101H468Z" />
<glyph unicode="C" horiz-adv-x="1132" d="M584 -26Q430 -26 326 55T174 288T148 648Q168 865 247 1013T446 1237T710 1313Q909 1313 1012 1205T1134 925L923 882Q903 988 844 1052T692 1117Q612 1117 541 1065T421 909T356 648Q343 502 366 395T448 230T602 171Q721
171 795 241T880 423H1089Q1075 280 1009 180T835 27T584 -26Z" />
<glyph unicode="D" horiz-adv-x="1223" d="M291 1288H659Q835 1288 959 1209T1143 985T1185 644Q1166 448 1080 304T854 80T537 0H170L291 1288ZM466 1093L383 194H556Q672 194 762 252T907 412T975 644Q988 774 952 875T835 1034T639 1093H466Z" />
<glyph unicode="E" horiz-adv-x="1043" d="M170 0L291 1288H1029L1010 1101H466L432 738H942L924 552H414L380 189H924L907 0H170Z" />
<glyph unicode="F" horiz-adv-x="974" d="M172 0L293 1288H1016L998 1101H468L434 740H920L902 554H416L366 0H172Z" />
<glyph unicode="G" horiz-adv-x="1203" d="M586 -26Q446 -26 340 56T180 286T146 635Q161 795 215 920T352 1133T538 1266T758 1312Q913 1312 1014 1238T1164 1004L963 949Q922 1032 864 1074T728 1117Q639 1117 558 1059T422 893T353 635Q340 497 369 393T462
231T621 173Q697 173 762 208T870 314T922 487Q925 504 924 519T920 562L969 508L656 517L669 656H1124L1064 0H906Q905 61 905 122T903 244L916 247Q871 118 790 46T586 -26Z" />
<glyph unicode="H" horiz-adv-x="1253" d="M172 0L293 1288H487L434 742H956L1008 1288H1203L1081 0H887L938 554H416L366 0H172Z" />
<glyph unicode="I" horiz-adv-x="537" d="M172 0L293 1288H487L366 0H172Z" />
<glyph unicode="J" horiz-adv-x="781" d="M29 56L50 274Q115 227 180 205T305 183Q388 183 429 236T480 394L564 1288H761L676 394Q661 242 610 150T480 16T302 -26Q224 -26 157 -3T29 56Z" />
<glyph unicode="K" horiz-adv-x="1157" d="M293 1288H489L438 742L960 1288H1228L665 709L1140 0H888L519 558L410 446L368 0H172L293 1288Z" />
<glyph unicode="L" horiz-adv-x="878" d="M172 0L293 1288H487L382 189H868L852 0H172Z" />
<glyph unicode="M" horiz-adv-x="1562" d="M172 0L293 1288H571L831 495L1242 1288H1512L1390 0H1195L1290 1041L1306 1039L861 146H733L447 1070H464L366 0H172Z" />
<glyph unicode="N" horiz-adv-x="1275" d="M168 0L289 1288H503L975 289L937 292L1032 1288H1226L1105 0H905L417 1019L458 1016L362 0H168Z" />
<glyph unicode="O" horiz-adv-x="1213" d="M602 -26Q449 -26 340 48T178 272T148 644Q168 870 248 1018T452 1240T729 1313Q882 1313 992 1238T1155 1015T1187 644Q1165 419 1085 271T880 48T602 -26ZM620 170Q767 170 865 292T985 646Q1007 871 932 995T710 1119Q565
1119 467 995T349 644Q326 413 401 292T620 170Z" />
<glyph unicode="P" horiz-adv-x="1034" d="M166 0L287 1288H687Q817 1288 904 1240T1031 1101T1059 880Q1041 689 923 583T610 476H406L362 0H166ZM424 664H629Q731 664 790 724T858 880Q867 978 820 1039T669 1101H464L424 664Z" />
<glyph unicode="Q" horiz-adv-x="1219" d="M926 -353Q839 -353 771 -302T654 -157L588 -26Q440 -23 334 53T177 276T148 644Q168 870 248 1018T452 1240T729 1313Q882 1313 992 1238T1155 1015T1187 644Q1160 375 1050 214T777 0L807 -59Q831 -102 862 -119T928
-138Q972 -138 1015 -126T1106 -91L1084 -317Q1041 -337 1003 -345T926 -353ZM620 170Q767 170 865 292T985 646Q1007 871 932 995T710 1119Q565 1119 467 995T349 644Q326 413 401 292T620 170Z" />
<glyph unicode="R" horiz-adv-x="1146" d="M172 0L293 1288H715Q920 1288 1020 1181T1103 896Q1088 756 1008 659T789 525L1056 0H804L584 508H412L366 0H172ZM425 654H636Q755 654 823 716T900 877Q909 979 858 1040T696 1101H468L425 654Z" />
<glyph unicode="S" horiz-adv-x="1133" d="M562 -26Q444 -26 348 20T198 161T155 399H348Q340 320 369 271T454 197T579 173Q648 173 703 194T792 253T831 342Q838 411 805 451T695 522L480 619Q349 676 284 752T231 964Q247 1119 366 1216T683 1313Q872 1313
968 1214T1063 943H871Q866 1022 817 1069T664 1117Q568 1117 510 1072T443 958Q438 902 469 868T572 804L812 699Q934 646 996 562T1047 349Q1036 236 976 152T811 21T562 -26Z" />
<glyph unicode="T" horiz-adv-x="944" d="M374 0L478 1101H115L133 1288H1055L1036 1101H672L568 0H374Z" />
<glyph unicode="U" horiz-adv-x="1226" d="M611 -26Q394 -26 284 106T195 481L273 1288H467L389 481Q374 317 442 245T628 173Q747 173 828 245T925 481L1003 1288H1197L1120 481Q1105 319 1039 206T863 33T611 -26Z" />
<glyph unicode="V" horiz-adv-x="1072" d="M156 1288H362L560 270L954 1288H1158L636 0H432L156 1288Z" />
<glyph unicode="W" horiz-adv-x="1705" d="M154 1288H372L537 287L881 1190H1013L1194 283L1576 1288H1794L1272 0H1067L912 751L612 0H409L154 1288Z" />
<glyph unicode="X" horiz-adv-x="1212" d="M68 0L535 640L188 1288H425L681 808L995 1288H1229L775 644L1142 0H899L631 471L305 0H68Z" />
<glyph unicode="Y" horiz-adv-x="1062" d="M427 0L477 531L148 1288H379L596 754L928 1288H1156L671 531L622 0H427Z" />
<glyph unicode="Z" horiz-adv-x="1115" d="M132 0L148 188L860 1087L233 1090L253 1288H1124L1105 1101L395 201L1019 197L1002 0H132Z" />
<glyph unicode="[" horiz-adv-x="618" d="M131 -262L302 1550H725L706 1356H478L343 -67H571L553 -262H131Z" />
<glyph unicode="\" horiz-adv-x="831" d="M782 -156L167 1484H364L981 -156H782Z" />
<glyph unicode="]" horiz-adv-x="580" d="M-2 -262L17 -67H244L393 1356H166L186 1550H610L419 -262H-2Z" />
<glyph unicode="^" horiz-adv-x="911" d="M78 450L495 1197H651L926 450H711L548 941L293 450H78Z" />
<glyph unicode="_" horiz-adv-x="1362" d="M71 -1L88 187H1254L1236 -1H71Z" />
<glyph unicode="`" horiz-adv-x="621" d="M192 1592L282 1779L723 1515L658 1379L192 1592Z" />
<glyph unicode="a" horiz-adv-x="1041" d="M435 -26Q327 -26 257 17T155 130T131 280Q140 374 189 436T322 531T510 564Q574 564 633 553T748 522L758 624Q770 733 734 784T608 835Q555 835 514 818T447 768T417 686H204Q214 797 271 864T416 963T608 994Q792
994 881 902T952 617L894 0H726Q725 35 725 69T724 139Q673 57 603 16T435 -26ZM487 138Q552 138 606 169T695 256T735 384Q689 399 635 409T532 419Q456 419 400 388T338 280Q333 220 373 179T487 138Z" />
<glyph unicode="b" horiz-adv-x="1092" d="M602 -26Q519 -26 455 22T361 168L299 0H172L300 1369H495L444 840Q492 914 560 954T711 994Q808 994 884 941T1004 791T1048 562Q1048 471 1021 369T939 177T799 31T602 -26ZM591 169Q658 169 706 203T787 293T835 414T850
541Q850 659 795 729T652 800Q598 800 546 772T459 691T416 561L405 431Q399 354 421 295T488 203T591 169Z" />
<glyph unicode="c" horiz-adv-x="947" d="M493 -26Q384 -26 297 36T163 214T131 484Q146 648 213 761T380 934T589 994Q670 994 730 965T831 887T893 777T917 652L719 644Q709 712 672 756T568 800Q513 800 462 766T375 663T328 484Q318 382 339 312T405 205T510
169Q592 169 638 214T691 340H888Q879 238 828 155T692 23T493 -26Z" />
<glyph unicode="d" horiz-adv-x="1097" d="M487 -26Q387 -26 307 28T182 182T136 413Q136 523 166 626T252 812T388 945T568 994Q653 994 713 956T808 843L858 1369H1054L924 0H766L756 156Q707 64 636 19T487 -26ZM534 169Q583 169 634 199T722 284T766 417L780
556Q782 565 782 571T782 585Q782 655 757 702T688 775T594 800Q526 800 477 766T396 677T350 558T334 436Q334 314 389 242T534 169Z" />
<glyph unicode="e" horiz-adv-x="947" d="M489 -26Q376 -26 290 36T160 213T131 483Q146 643 211 757T373 932T584 994Q676 994 741 957T845 857T900 714T908 546Q906 518 902 490T890 432H273L322 468Q310 377 325 304T384 190T506 148Q571 148 619 183T686 287H882Q860
193 804 123T667 13T489 -26ZM328 536L289 566H775L726 539Q736 611 727 675T682 780T570 821Q501 821 450 783T368 681T328 536Z" />
<glyph unicode="f" horiz-adv-x="648" d="M153 823L168 968H299L311 1090Q321 1195 363 1259T468 1354T600 1385Q641 1385 685 1379T771 1361L718 1194Q695 1204 671 1210T623 1216Q597 1216 572 1205T529 1166T505 1088L494 968H660L646 823H480L404 0H209L286 823H153Z" />
<glyph unicode="g" horiz-adv-x="1040" d="M443 -499Q308 -499 208 -457T57 -341T14 -177Q22 -93 77 -37T213 34Q164 67 141 112T122 210Q128 279 172 327T283 394Q240 441 219 503T204 644Q215 751 272 829T416 951T604 994Q666 994 719 978T815 932Q830 1007
871 1062T972 1149T1100 1180L1068 972Q993 972 949 943T896 850Q923 808 936 757T943 644Q934 539 877 461T729 339T533 295Q494 295 454 303T379 329Q347 321 322 295T291 228Q286 186 315 160T424 134H729Q862 134 934 78T996 -94Q988 -197 918 -289T726 -440T443
-499ZM451 -328Q556 -328 632 -296T753 -213T801 -108Q805 -65 783 -42T714 -19H395Q313 -19 262 -61T208 -166Q204 -240 270 -284T451 -328ZM557 447Q616 447 657 473T723 544T752 644Q760 734 719 788T593 842Q506 842 455 787T396 644Q388 561 428 504T557 447Z"
/>
<glyph unicode="h" horiz-adv-x="1113" d="M172 0L300 1369H495L441 807Q494 899 569 946T734 994Q840 994 907 941T1003 792T1021 566L968 0H773L825 566Q838 682 794 741T669 800Q604 800 551 763T462 654T411 474L366 0H172Z" />
<glyph unicode="i" horiz-adv-x="576" d="M393 1157Q335 1157 307 1191T282 1284Q287 1341 322 1377T415 1413Q472 1413 501 1378T526 1284Q521 1224 485 1191T393 1157ZM187 0L279 970H473L381 0H187Z" />
<glyph unicode="j" horiz-adv-x="593" d="M407 1157Q353 1157 323 1190T298 1284Q302 1343 339 1378T432 1413Q489 1413 518 1378T541 1284Q537 1226 502 1192T407 1157ZM60 -499Q-7 -499 -65 -482T-182 -434L-158 -247Q-116 -275 -66 -293T30 -311Q99 -311 140
-268T192 -118L294 972H488L384 -120Q372 -258 329 -341T217 -461T60 -499Z" />
<glyph unicode="k" horiz-adv-x="1030" d="M778 0L511 482L402 390L366 0H172L300 1369H495L424 617L821 968H1086L662 608L1014 0H778Z" />
<glyph unicode="l" horiz-adv-x="537" d="M172 0L300 1369H495L366 0H172Z" />
<glyph unicode="m" horiz-adv-x="1701" d="M171 0L263 968H430Q432 925 433 883T435 797Q488 894 564 944T733 994Q843 994 912 937T1007 778Q1062 892 1144 943T1326 994Q1432 994 1499 941T1595 793T1610 566L1558 0H1363L1416 566Q1425 680 1382 740T1257 800Q1189
800 1137 760T1052 642T1008 446L968 0H773L825 566Q837 682 792 741T669 800Q565 800 494 708T406 438L365 0H171Z" />
<glyph unicode="n" horiz-adv-x="1113" d="M171 0L263 968H430L435 797Q488 894 564 944T733 994Q840 994 907 941T1003 793T1020 566L968 0H773L825 566Q837 682 792 741T669 800Q565 800 494 708T406 438L365 0H171Z" />
<glyph unicode="o" horiz-adv-x="1009" d="M504 -26Q384 -26 294 30T160 200T131 482Q147 654 213 767T380 937T599 994Q717 994 806 937T941 767T969 482Q953 314 887 201T721 31T504 -26ZM514 162Q616 162 687 244T773 482Q789 641 740 724T587 807Q484 807
414 725T328 482Q318 379 336 308T400 199T514 162Z" />
<glyph unicode="p" horiz-adv-x="1091" d="M126 -473L263 968H422Q423 934 425 900T428 832Q478 914 548 954T697 994Q800 994 884 934T1014 759T1045 484Q1030 324 963 210T797 35T593 -26Q517 -26 461 2T372 88L320 -473H126ZM585 169Q640 169 697 203T796 308T848
484Q858 584 835 654T763 762T648 800Q592 800 542 772T458 689T418 556L401 391Q395 321 416 272T481 196T585 169Z" />
<glyph unicode="q" horiz-adv-x="1086" d="M932 -499Q793 -459 743 -374T707 -137L732 135Q693 59 632 17T487 -26Q381 -26 295 35T163 210T132 484Q147 645 213 759T376 933T574 994Q656 994 721 950T820 816L878 968H1006L900 -153Q895 -214 901 -248T932 -303T1002
-340L932 -499ZM532 169Q584 169 632 195T714 271T755 391L772 564Q773 641 750 693T685 773T588 800Q523 800 468 763T376 655T329 484Q318 378 346 308T424 204T532 169Z" />
<glyph unicode="r" horiz-adv-x="732" d="M171 0L263 970H457L439 780Q486 885 551 935T694 986Q713 986 733 983T774 971L749 756Q724 763 698 766T647 770Q577 770 527 730T446 614T405 428L365 0H171Z" />
<glyph unicode="s" horiz-adv-x="947" d="M474 -26Q365 -26 282 12T155 121T120 292H303Q296 221 343 183T474 144Q558 144 608 180T665 268Q671 316 638 341T552 385L374 458Q277 496 226 562T185 723Q194 806 244 866T377 960T567 994Q737 994 818 915T892 714H708Q707
767 668 796T559 825Q506 825 469 809T413 768T389 714Q383 670 414 643T494 598L686 518Q779 483 834 423T879 268Q873 193 823 126T685 17T474 -26Z" />
<glyph unicode="t" horiz-adv-x="701" d="M454 -26Q378 -26 320 5T232 100T210 264L266 865L307 826H135L151 968H321L272 923L300 1226H494L466 923L425 968H716L702 826H410L459 865L404 271Q397 206 422 175T503 144Q532 144 565 152T640 177L655 25Q604 2
556 -12T454 -26Z" />
<glyph unicode="u" horiz-adv-x="1118" d="M479 -18Q385 -18 314 20T207 139T184 353L243 970H437L380 374Q371 273 410 222T530 171Q597 171 655 210T751 324T800 506L844 970H1038L948 0H752L769 178Q718 80 644 31T479 -18Z" />
<glyph unicode="v" horiz-adv-x="927" d="M116 968H338L483 218L771 968H993L572 0H355L116 968Z" />
<glyph unicode="w" horiz-adv-x="1349" d="M116 968H319L436 257L675 916H850L964 250L1217 968H1411L1035 0H844L728 604L505 0H314L116 968Z" />
<glyph unicode="x" d="M32 0L415 482L124 970H363L555 646L798 970H1034L652 482L942 0H706L512 325L272 0H32Z" />
<glyph unicode="y" horiz-adv-x="899" d="M188 -499Q128 -499 73 -483T-39 -434L-20 -242Q24 -278 68 -294T160 -311Q205 -311 241 -283T305 -205T357 -95L393 0L132 968H353L508 252L765 968H962L520 -180Q477 -290 427 -360T318 -465T188 -499Z" />
<glyph unicode="z" horiz-adv-x="881" d="M100 0L116 176L641 792H173L192 968H874L856 792L344 176H799L783 0H100Z" />
<glyph unicode="{" horiz-adv-x="684" d="M645 -303Q488 -303 397 -239T271 -64T249 192L265 375Q274 458 265 491T220 524H179L199 739H239Q275 739 291 771T314 889L332 1072Q346 1216 401 1327T561 1502T822 1566L804 1372Q672 1372 606 1297T524 1069L506
878Q497 783 460 724T371 636L370 627Q417 600 443 540T459 384L441 194Q426 42 479 -33T664 -108L645 -303Z" />
<glyph unicode="|" horiz-adv-x="537" d="M148 -244L316 1531H510L342 -244H148Z" />
<glyph unicode="}" horiz-adv-x="760" d="M-40 -303L-22 -108Q110 -108 177 -34T258 195L275 384Q284 480 322 540T411 627V636Q372 659 347 707T321 829Q321 841 321 853T323 878L340 1069Q343 1101 343 1116T344 1142Q342 1258 288 1315T118 1372L137 1566Q276
1566 363 1515T493 1374T536 1166Q536 1143 536 1120T532 1071L516 889Q515 870 514 852T512 818Q512 778 523 759T561 739H604L583 524H543Q508 524 492 492T467 375L450 191Q436 47 381 -64T221 -239T-40 -303Z" />
<glyph unicode="~" horiz-adv-x="1000" d="M244 418L146 480Q188 604 248 674T391 745Q429 745 470 732T576 689Q640 660 675 649T737 637Q811 637 863 749L962 674Q916 552 850 492T703 431Q673 431 631 444T526 487Q461 515 429 527T369 539Q335 539 305 512T244 418Z" />
<glyph unicode="&#xa0;" horiz-adv-x="449" />
<glyph unicode="&#xa1;" horiz-adv-x="521" d="M457 875L397 -18H186L292 875H457ZM416 1309Q477 1309 511 1266T540 1163Q535 1102 493 1059T389 1016Q326 1016 291 1059T262 1163Q268 1222 310 1265T416 1309Z" />
<glyph unicode="&#xa2;" horiz-adv-x="947" d="M474 950L517 1132H705L662 950H474ZM286 -160L330 21H519L475 -160H286ZM437 -26Q328 -26 241 36T107 214T75 484Q90 648 157 761T324 934T533 994Q614 994 674 965T775 887T837 777T861 652L663 644Q653 712 616
756T512 800Q457 800 406 766T319 663T272 484Q262 382 283 312T349 205T454 169Q536 169 582 214T635 340H832Q823 238 772 155T636 23T437 -26Z" />
<glyph unicode="&#xa3;" horiz-adv-x="1067" d="M39 0L57 194H112Q179 194 211 237T252 370L269 555H116L129 701H282L299 882Q313 1023 366 1118T504 1263T700 1313Q843 1313 921 1228T1003 976H813Q810 1045 775 1081T681 1117Q608 1117 557 1061T493 882L476
701H789L776 555H463L447 384Q440 319 421 272T363 194H631Q719 194 762 232T823 353H1033Q1012 187 917 94T614 0H39Z" />
<glyph unicode="&#xa4;" horiz-adv-x="1200" d="M569 214Q452 214 359 272T214 427T172 642Q181 760 245 857T410 1012T630 1070Q749 1070 841 1012T985 857T1028 642Q1019 524 954 427T788 272T569 214ZM186 155L81 270L317 491L424 374L186 155ZM935 153L752
354L875 470L1062 268L935 153ZM584 404Q650 404 706 436T798 523T838 642Q843 710 814 763T732 848T616 880Q549 880 493 847T402 761T362 642Q357 575 386 522T467 436T584 404ZM337 810L142 1019L266 1135L462 925L337 810ZM896 807L787 923L1010 1128L1117
1012L896 807Z" />
<glyph unicode="&#xa5;" horiz-adv-x="1062" d="M923 401H191L203 524H935L923 401ZM899 202H166L180 327H912L899 202ZM427 0L477 531L148 1288H379L596 754L928 1288H1156L671 531L622 0H427Z" />
<glyph unicode="&#xa6;" horiz-adv-x="537" d="M148 -244L222 543H416L342 -244H148ZM242 745L316 1531H510L436 745H242Z" />
<glyph unicode="&#xa7;" horiz-adv-x="968" d="M528 198L529 368Q612 371 661 408T717 497Q723 544 692 569T605 614L426 687Q329 725 279 791T238 953Q246 1036 296 1096T429 1190T619 1223Q790 1223 871 1143T944 943H760Q759 996 720 1025T612 1054Q558 1054
522 1038T465 997T441 943Q436 899 466 872T547 828L738 747Q831 712 886 652T931 497Q925 422 875 355T737 244T528 198ZM448 -216Q338 -216 255 -178T129 -69T94 102H276Q270 31 317 -7T447 -46Q532 -46 582 -10T638 78Q644 126 611 151T526 195L348 268Q250
306 200 372T159 533Q172 657 276 731T541 810L536 641Q456 637 412 603T362 524Q357 480 388 453T468 408L659 328Q752 293 807 233T853 78Q846 3 796 -64T658 -173T448 -216Z" />
<glyph unicode="&#xa8;" horiz-adv-x="661" d="M200 1666Q205 1722 241 1757T329 1792Q381 1792 412 1757T438 1666Q432 1615 395 1580T306 1544Q254 1544 225 1579T200 1666ZM536 1668Q541 1722 578 1758T665 1794Q717 1794 747 1758T772 1668Q768 1616 731 1581T642
1546Q592 1546 562 1581T536 1668Z" />
<glyph unicode="&#xa9;" horiz-adv-x="1409" d="M658 -12Q522 -12 409 39T214 180T95 388T71 644Q85 779 148 898T312 1107T536 1248T796 1299Q931 1299 1044 1248T1239 1107T1358 898T1382 644Q1368 507 1305 389T1142 180T918 39T658 -12ZM670 94Q784 94 887
137T1074 255T1210 430T1276 644Q1288 757 1256 856T1156 1031T993 1149T784 1192Q671 1192 568 1150T380 1032T243 857T178 644Q166 531 198 431T298 256T461 137T670 94ZM681 244Q589 244 526 293T435 432T419 649Q431 780 478 868T598 1002T757 1048Q876 1048
938 983T1012 815L885 790Q874 853 838 892T746 932Q698 932 655 901T583 806T544 649Q535 561 549 497T599 397T692 361Q764 361 808 404T860 514H984Q977 428 937 368T832 276T681 244Z" />
<glyph unicode="&#xaa;" horiz-adv-x="1041" d="M435 -26Q327 -26 257 17T155 130T131 280Q140 374 189 436T322 531T510 564Q574 564 633 553T748 522L758 624Q770 733 734 784T608 835Q555 835 514 818T447 768T417 686H204Q214 797 271 864T416 963T608 994Q792
994 881 902T952 617L894 0H726Q725 35 725 69T724 139Q673 57 603 16T435 -26ZM487 138Q552 138 606 169T695 256T735 384Q689 399 635 409T532 419Q456 419 400 388T338 280Q333 220 373 179T487 138Z" />
<glyph unicode="&#xab;" horiz-adv-x="1242" d="M489 106L137 537L610 967L741 856L331 501L335 567L645 211L489 106ZM1005 106L653 537L1126 967L1257 856L847 501L851 567L1161 211L1005 106Z" />
<glyph unicode="&#xac;" horiz-adv-x="1200" d="M248 662H950L899 296H755L791 552L829 502H226L248 662Z" />
<glyph unicode="&#xad;" horiz-adv-x="1200" d="M126 504L145 692H647L628 504H126Z" />
<glyph unicode="&#xae;" horiz-adv-x="1409" d="M658 -12Q522 -12 409 39T214 180T95 388T71 644Q85 779 148 898T312 1107T536 1248T796 1299Q931 1299 1044 1248T1239 1107T1358 898T1382 644Q1368 507 1305 389T1142 180T918 39T658 -12ZM670 94Q784 94 887
137T1074 255T1210 430T1276 644Q1288 757 1256 856T1156 1031T993 1149T784 1192Q671 1192 568 1150T380 1032T243 857T178 644Q166 531 198 431T298 256T461 137T670 94ZM448 246L523 1045H784Q911 1045 973 978T1024 802Q1015 715 965 655T829 572L995 246H841L703
562H596L567 246H448ZM604 651H735Q810 651 852 689T900 790Q906 854 874 892T773 930H631L604 651Z" />
<glyph unicode="&#xaf;" horiz-adv-x="841" d="M252 1341H923L897 1168H226L252 1341Z" />
<glyph unicode="&#xb0;" horiz-adv-x="701" d="M436 990Q362 990 303 1026T213 1125T187 1263Q194 1338 236 1399T343 1498T483 1535Q559 1535 617 1498T707 1400T733 1263Q726 1187 684 1125T577 1027T436 990ZM447 1114Q508 1114 555 1157T607 1263Q613 1325
574 1367T472 1410Q410 1410 364 1366T311 1263Q306 1201 346 1158T447 1114Z" />
<glyph unicode="&#xb1;" horiz-adv-x="1071" d="M532 1106H726L701 835H982L964 647H682L659 376H464L490 647H208L225 835H507L532 1106ZM158 188H951L927 0H134L158 188Z" />
<glyph unicode="&#xb2;" horiz-adv-x="737" d="M305 654L302 627H711L700 505H172L183 636Q190 703 213 749T275 827T369 882L520 944Q571 966 598 999T630 1081Q635 1130 606 1163T519 1197Q462 1197 422 1167T370 1078H238Q247 1156 287 1208T389 1287T528 1313Q599
1313 653 1283T737 1200T758 1075Q750 983 700 925T557 827L403 763Q355 743 332 718T305 654Z" />
<glyph unicode="&#xb3;" horiz-adv-x="747" d="M434 489Q379 489 328 505T239 555T182 638T168 752H295Q293 708 311 677T364 628T446 611Q516 611 558 647T607 738Q610 774 597 800T551 841T465 856H373L383 960H459Q525 960 567 992T614 1077Q618 1127 589 1159T495
1192Q444 1192 402 1169T341 1087H216Q239 1207 317 1260T502 1313Q578 1313 635 1285T721 1208T744 1093Q738 1032 704 988T607 920Q671 896 706 848T735 727Q728 656 689 603T584 519T434 489Z" />
<glyph unicode="&#xb4;" horiz-adv-x="701" d="M277 1126L239 1261L731 1526L783 1338L277 1126Z" />
<glyph unicode="&#xb5;" horiz-adv-x="1119" d="M480 -18Q386 -18 315 20T208 139T185 353L244 970H438L381 374Q372 273 411 222T531 171Q598 171 656 210T752 324T801 506L845 970H1039L949 0H753L770 178Q719 80 645 31T480 -18ZM112 -400L243 969H436L304 -400H112Z" />
<glyph unicode="&#xb6;" horiz-adv-x="1200" d="M533 476Q318 476 211 582T122 880Q143 1073 274 1179T617 1285H1048L1029 1096H714L649 476H533ZM467 -252L628 1285H785L625 -252H467ZM762 -252L922 1285H1080L919 -252H762Z" />
<glyph unicode="&#xb7;" horiz-adv-x="370" d="M243 432Q183 432 148 474T120 579Q126 640 169 682T272 725Q330 725 366 685T397 579Q392 514 347 473T243 432Z" />
<glyph unicode="&#xb8;" horiz-adv-x="584" d="M11 -364L36 -286Q109 -321 164 -325T250 -312T282 -260Q283 -230 257 -207T187 -167T88 -138L150 72L250 59L194 -133L157 -73Q253 -90 315 -119T408 -188T438 -272Q438 -330 396 -365T287 -411T147 -412T11 -364Z" />
<glyph unicode="&#xb9;" horiz-adv-x="462" d="M345 1295H436L361 498H241L301 1136Q272 1120 243 1111T185 1102L196 1230Q233 1236 270 1250T345 1295Z" />
<glyph unicode="&#xba;" horiz-adv-x="1009" d="M504 -26Q384 -26 294 30T160 200T131 482Q147 654 213 767T380 937T599 994Q717 994 806 937T941 767T969 482Q953 314 887 201T721 31T504 -26ZM514 162Q616 162 687 244T773 482Q789 641 740 724T587 807Q484
807 414 725T328 482Q318 379 336 308T400 199T514 162Z" />
<glyph unicode="&#xbb;" horiz-adv-x="1237" d="M223 106L92 211L501 567L498 507L187 862L343 967L695 537L223 106ZM734 106L603 211L1012 567L1009 507L698 862L854 967L1206 537L734 106Z" />
<glyph unicode="&#xbc;" horiz-adv-x="1765" d="M707 1409H800L724 600H602L663 1248Q633 1231 603 1223T544 1214L556 1344Q594 1349 631 1364T707 1409ZM288 -1L1245 1349H1396L437 -1H288ZM1355 0L1371 183H1002L1012 285L1435 815H1551L1503 298H1628L1618
183H1493L1475 0H1355ZM1157 285H1387L1417 611L1157 285Z" />
<glyph unicode="&#xbd;" horiz-adv-x="1796" d="M707 1409H800L724 600H602L663 1248Q633 1231 603 1223T544 1214L556 1344Q594 1349 631 1364T707 1409ZM276 -1L1233 1349H1384L425 -1H276ZM1224 151L1221 124H1636L1625 0H1088L1100 133Q1109 236 1156 292T1289
382L1442 445Q1494 466 1522 500T1553 584Q1559 635 1530 669T1440 703Q1383 703 1343 673T1290 582H1154Q1164 661 1204 714T1309 794T1450 821Q1522 821 1577 791T1662 706T1684 578Q1675 486 1624 426T1479 327L1319 261Q1273 241 1251 216T1224 151Z" />
<glyph unicode="&#xbe;" horiz-adv-x="1965" d="M501 574Q426 574 361 604T259 694T230 841H360Q356 774 398 736T513 698Q584 698 627 734T676 827Q681 882 647 914T532 947H439L449 1053H526Q593 1053 635 1085T683 1172Q688 1221 658 1254T562 1288Q510 1288
468 1265T407 1182H279Q302 1303 382 1357T570 1411Q685 1411 754 1349T815 1187Q809 1126 774 1081T677 1011Q741 988 777 939T807 815Q800 744 760 690T653 605T501 574ZM489 -1L1446 1349H1597L638 -1H489ZM1555 0L1571 183H1202L1212 285L1635 815H1751L1703
298H1828L1818 183H1693L1675 0H1555ZM1357 285H1587L1617 611L1357 285Z" />
<glyph unicode="&#xbf;" horiz-adv-x="921" d="M644 892L636 809Q626 717 602 662T535 570T427 495Q378 466 342 441T284 383T259 302Q254 229 298 188T430 146Q525 146 583 194T655 320H858Q833 154 720 52T418 -50Q290 -50 205 -3T79 124T46 304Q51 384 83 439T163
535T269 609Q329 644 366 671T421 733T444 829L449 892H644ZM579 1289Q643 1289 676 1246T702 1141Q695 1080 654 1040T549 1000Q484 1000 453 1041T426 1142Q431 1206 473 1247T579 1289Z" />
<glyph unicode="&#xc0;" horiz-adv-x="1102" d="M42 0L558 1288H801L1062 0H856L798 290H361L247 0H42ZM425 454H766L651 1030L425 454ZM892 1404L427 1616L517 1804L958 1539L892 1404Z" />
<glyph unicode="&#xc1;" horiz-adv-x="1102" d="M42 0L558 1288H801L1062 0H856L798 290H361L247 0H42ZM425 454H766L651 1030L425 454ZM548 1446L510 1581L1002 1846L1054 1658L548 1446Z" />
<glyph unicode="&#xc2;" horiz-adv-x="1102" d="M42 0L558 1288H801L1062 0H856L798 290H361L247 0H42ZM425 454H766L651 1030L425 454ZM444 1444L333 1551L723 1871L1056 1551L921 1444L703 1650L444 1444Z" />
<glyph unicode="&#xc3;" horiz-adv-x="1102" d="M42 0L558 1288H801L1062 0H856L798 290H361L247 0H42ZM425 454H766L651 1030L425 454ZM476 1507L404 1559Q438 1678 493 1740T613 1802Q638 1802 664 1792T738 1753Q781 1728 803 1716T847 1703Q874 1703 901 1725T953
1802L1029 1742Q1010 1671 978 1619T907 1537T829 1507Q804 1507 774 1520T692 1564Q648 1590 630 1599T593 1608Q565 1608 536 1587T476 1507Z" />
<glyph unicode="&#xc4;" horiz-adv-x="1102" d="M42 0L558 1288H801L1062 0H856L798 290H361L247 0H42ZM425 454H766L651 1030L425 454ZM539 1542Q486 1542 457 1577T432 1664Q436 1715 471 1752T562 1789Q609 1789 641 1756T670 1668Q665 1610 626 1576T539 1542ZM874
1544Q823 1544 793 1578T768 1665Q772 1715 808 1753T898 1791Q945 1791 976 1758T1004 1669Q999 1608 961 1576T874 1544Z" />
<glyph unicode="&#xc5;" horiz-adv-x="1102" d="M42 0L558 1288H801L1062 0H856L798 290H361L247 0H42ZM425 454H766L651 1030L425 454ZM700 1410Q638 1410 587 1441T505 1523T474 1636Q474 1698 504 1749T586 1831T700 1862Q762 1862 813 1832T895 1750T926 1636Q926
1575 896 1524T814 1441T700 1410ZM700 1553Q735 1553 759 1577T783 1636Q783 1671 759 1695T700 1719Q665 1719 641 1695T617 1636Q617 1601 641 1577T700 1553Z" />
<glyph unicode="&#xc6;" horiz-adv-x="1541" d="M42 0L562 1288H1523L1509 1101H911L993 1158L948 673L874 738H1439L1424 552H859L942 605L896 117L821 189H1424L1406 0H686L718 350L760 324H327L386 352L247 0H42ZM724 408L794 1155L835 1101H645L703 1155L410
413L385 488H773L724 408Z" />
<glyph unicode="&#xc7;" horiz-adv-x="1132" d="M584 -26Q430 -26 326 55T174 288T148 648Q168 865 247 1013T446 1237T710 1313Q909 1313 1012 1205T1134 925L923 882Q903 988 844 1052T692 1117Q612 1117 541 1065T421 909T356 648Q343 502 366 395T448 230T602
171Q721 171 795 241T880 423H1089Q1075 280 1009 180T835 27T584 -26ZM413 -364L438 -286Q511 -321 566 -325T652 -312T684 -260Q685 -230 659 -207T589 -167T490 -138L552 72L652 59L596 -133L559 -73Q655 -90 717 -119T810 -188T840 -272Q840 -330 798 -365T689
-411T549 -412T413 -364Z" />
<glyph unicode="&#xc8;" horiz-adv-x="1043" d="M170 0L291 1288H1029L1010 1101H466L432 738H942L924 552H414L380 189H924L907 0H170ZM863 1404L398 1616L488 1804L929 1539L863 1404Z" />
<glyph unicode="&#xc9;" horiz-adv-x="1043" d="M170 0L291 1288H1029L1010 1101H466L432 738H942L924 552H414L380 189H924L907 0H170ZM519 1446L481 1581L973 1846L1025 1658L519 1446Z" />
<glyph unicode="&#xca;" horiz-adv-x="1043" d="M170 0L291 1288H1029L1010 1101H466L432 738H942L924 552H414L380 189H924L907 0H170ZM415 1444L304 1551L694 1871L1027 1551L892 1444L674 1650L415 1444Z" />
<glyph unicode="&#xcb;" horiz-adv-x="1043" d="M170 0L291 1288H1029L1010 1101H466L432 738H942L924 552H414L380 189H924L907 0H170ZM509 1542Q456 1542 427 1577T402 1664Q406 1715 441 1752T532 1789Q579 1789 611 1756T640 1668Q635 1610 596 1576T509 1542ZM844
1544Q793 1544 763 1578T738 1665Q742 1715 778 1753T868 1791Q915 1791 946 1758T974 1669Q969 1608 931 1576T844 1544Z" />
<glyph unicode="&#xcc;" horiz-adv-x="537" d="M172 0L293 1288H487L366 0H172ZM610 1404L145 1616L235 1804L676 1539L610 1404Z" />
<glyph unicode="&#xcd;" horiz-adv-x="537" d="M172 0L293 1288H487L366 0H172ZM266 1446L228 1581L720 1846L772 1658L266 1446Z" />
<glyph unicode="&#xce;" horiz-adv-x="537" d="M172 0L293 1288H487L366 0H172ZM162 1444L51 1551L441 1871L774 1551L639 1444L421 1650L162 1444Z" />
<glyph unicode="&#xcf;" horiz-adv-x="537" d="M172 0L293 1288H487L366 0H172ZM256 1542Q203 1542 174 1577T149 1664Q153 1715 188 1752T279 1789Q326 1789 358 1756T387 1668Q382 1610 343 1576T256 1542ZM591 1544Q540 1544 510 1578T485 1665Q489 1715 525
1753T615 1791Q662 1791 693 1758T721 1669Q716 1608 678 1576T591 1544Z" />
<glyph unicode="&#xd0;" horiz-adv-x="1223" d="M120 746H678L656 551H96L120 746ZM291 1288H659Q835 1288 959 1209T1143 985T1185 644Q1166 448 1080 304T854 80T537 0H170L291 1288ZM466 1093L383 194H556Q672 194 762 252T907 412T975 644Q988 774 952 875T835
1034T639 1093H466Z" />
<glyph unicode="&#xd1;" horiz-adv-x="1275" d="M168 0L289 1288H503L975 289L937 292L1032 1288H1226L1105 0H905L417 1019L458 1016L362 0H168ZM562 1507L490 1559Q524 1678 579 1740T699 1802Q724 1802 750 1792T824 1753Q867 1728 889 1716T933 1703Q960 1703
987 1725T1039 1802L1115 1742Q1096 1671 1064 1619T993 1537T915 1507Q890 1507 860 1520T778 1564Q734 1590 716 1599T679 1608Q651 1608 622 1587T562 1507Z" />
<glyph unicode="&#xd2;" horiz-adv-x="1213" d="M602 -26Q449 -26 340 48T178 272T148 644Q168 870 248 1018T452 1240T729 1313Q882 1313 992 1238T1155 1015T1187 644Q1165 419 1085 271T880 48T602 -26ZM620 170Q767 170 865 292T985 646Q1007 871 932 995T710
1119Q565 1119 467 995T349 644Q326 413 401 292T620 170ZM947 1404L482 1616L572 1804L1013 1539L947 1404Z" />
<glyph unicode="&#xd3;" horiz-adv-x="1213" d="M602 -26Q449 -26 340 48T178 272T148 644Q168 870 248 1018T452 1240T729 1313Q882 1313 992 1238T1155 1015T1187 644Q1165 419 1085 271T880 48T602 -26ZM620 170Q767 170 865 292T985 646Q1007 871 932 995T710
1119Q565 1119 467 995T349 644Q326 413 401 292T620 170ZM604 1446L566 1581L1058 1846L1110 1658L604 1446Z" />
<glyph unicode="&#xd4;" horiz-adv-x="1213" d="M602 -26Q449 -26 340 48T178 272T148 644Q168 870 248 1018T452 1240T729 1313Q882 1313 992 1238T1155 1015T1187 644Q1165 419 1085 271T880 48T602 -26ZM620 170Q767 170 865 292T985 646Q1007 871 932 995T710
1119Q565 1119 467 995T349 644Q326 413 401 292T620 170ZM500 1444L389 1551L779 1871L1112 1551L977 1444L759 1650L500 1444Z" />
<glyph unicode="&#xd5;" horiz-adv-x="1213" d="M602 -26Q449 -26 340 48T178 272T148 644Q168 870 248 1018T452 1240T729 1313Q882 1313 992 1238T1155 1015T1187 644Q1165 419 1085 271T880 48T602 -26ZM620 170Q767 170 865 292T985 646Q1007 871 932 995T710
1119Q565 1119 467 995T349 644Q326 413 401 292T620 170ZM531 1507L459 1559Q493 1678 548 1740T668 1802Q693 1802 719 1792T793 1753Q836 1728 858 1716T902 1703Q929 1703 956 1725T1008 1802L1084 1742Q1065 1671 1033 1619T962 1537T884 1507Q859 1507 829
1520T747 1564Q703 1590 685 1599T648 1608Q620 1608 591 1587T531 1507Z" />
<glyph unicode="&#xd6;" horiz-adv-x="1213" d="M602 -26Q449 -26 340 48T178 272T148 644Q168 870 248 1018T452 1240T729 1313Q882 1313 992 1238T1155 1015T1187 644Q1165 419 1085 271T880 48T602 -26ZM620 170Q767 170 865 292T985 646Q1007 871 932 995T710
1119Q565 1119 467 995T349 644Q326 413 401 292T620 170ZM594 1542Q541 1542 512 1577T487 1664Q491 1715 526 1752T617 1789Q664 1789 696 1756T725 1668Q720 1610 681 1576T594 1542ZM929 1544Q878 1544 848 1578T823 1665Q827 1715 863 1753T953 1791Q1000
1791 1031 1758T1059 1669Q1054 1608 1016 1576T929 1544Z" />
<glyph unicode="&#xd7;" horiz-adv-x="980" d="M178 107L42 244L382 528L379 466L95 750L243 873L527 589L459 591L800 874L938 736L595 454L600 516L884 232L735 109L452 393L520 391L178 107Z" />
<glyph unicode="&#xd8;" horiz-adv-x="1213" d="M602 -26Q449 -26 340 48T178 272T148 644Q168 870 248 1018T452 1240T729 1313Q882 1313 992 1238T1155 1015T1187 644Q1165 419 1085 271T880 48T602 -26ZM620 170Q767 170 865 292T985 646Q1007 871 932 995T710
1119Q565 1119 467 995T349 644Q326 413 401 292T620 170Z" />
<glyph unicode="&#xd9;" horiz-adv-x="1226" d="M611 -26Q394 -26 284 106T195 481L273 1288H467L389 481Q374 317 442 245T628 173Q747 173 828 245T925 481L1003 1288H1197L1120 481Q1105 319 1039 206T863 33T611 -26ZM955 1404L490 1616L580 1804L1021 1539L955
1404Z" />
<glyph unicode="&#xda;" horiz-adv-x="1226" d="M611 -26Q394 -26 284 106T195 481L273 1288H467L389 481Q374 317 442 245T628 173Q747 173 828 245T925 481L1003 1288H1197L1120 481Q1105 319 1039 206T863 33T611 -26ZM611 1446L573 1581L1065 1846L1117 1658L611
1446Z" />
<glyph unicode="&#xdb;" horiz-adv-x="1226" d="M611 -26Q394 -26 284 106T195 481L273 1288H467L389 481Q374 317 442 245T628 173Q747 173 828 245T925 481L1003 1288H1197L1120 481Q1105 319 1039 206T863 33T611 -26ZM507 1444L396 1551L786 1871L1119 1551L984
1444L766 1650L507 1444Z" />
<glyph unicode="&#xdc;" horiz-adv-x="1226" d="M611 -26Q394 -26 284 106T195 481L273 1288H467L389 481Q374 317 442 245T628 173Q747 173 828 245T925 481L1003 1288H1197L1120 481Q1105 319 1039 206T863 33T611 -26ZM601 1542Q548 1542 519 1577T494 1664Q498
1715 533 1752T624 1789Q671 1789 703 1756T732 1668Q727 1610 688 1576T601 1542ZM936 1544Q885 1544 855 1578T830 1665Q834 1715 870 1753T960 1791Q1007 1791 1038 1758T1066 1669Q1061 1608 1023 1576T936 1544Z" />
<glyph unicode="&#xdd;" horiz-adv-x="1062" d="M427 0L477 531L148 1288H379L596 754L928 1288H1156L671 531L622 0H427ZM528 1446L490 1581L982 1846L1034 1658L528 1446Z" />
<glyph unicode="&#xde;" horiz-adv-x="1034" d="M166 0L287 1288H482L458 1034L417 1079H677Q807 1079 894 1031T1021 892T1049 671Q1031 481 913 374T600 266H351L391 314L362 0H166ZM398 393L353 454H619Q721 454 780 515T848 671Q857 769 809 831T659 893H394L451
960L398 393Z" />
<glyph unicode="&#xdf;" horiz-adv-x="1173" d="M741 -24Q688 -24 630 -11T515 31L538 212Q583 189 629 175T725 161Q774 161 817 179T887 232T914 319Q914 370 888 407T825 474T749 535T685 599T659 680Q659 730 688 769T756 846T823 926T852 1024Q852 1088 806
1131T667 1174Q600 1174 550 1149T469 1065T428 907L340 0H148L241 949Q254 1080 314 1173T469 1315T682 1364Q782 1364 851 1337T962 1266T1024 1169T1043 1064Q1043 992 1014 939T947 845T880 770T851 699Q851 666 876 638T940 581T1017 514T1080 425T1106 300Q1106
207 1060 134T932 19T741 -24Z" />
<glyph unicode="&#xe0;" horiz-adv-x="1041" d="M435 -26Q327 -26 257 17T155 130T131 280Q140 374 189 436T322 531T510 564Q574 564 633 553T748 522L758 624Q770 733 734 784T608 835Q555 835 514 818T447 768T417 686H204Q214 797 271 864T416 963T608 994Q792
994 881 902T952 617L894 0H726Q725 35 725 69T724 139Q673 57 603 16T435 -26ZM487 138Q552 138 606 169T695 256T735 384Q689 399 635 409T532 419Q456 419 400 388T338 280Q333 220 373 179T487 138ZM816 1084L351 1296L441 1484L882 1219L816 1084Z" />
<glyph unicode="&#xe1;" horiz-adv-x="1041" d="M435 -26Q327 -26 257 17T155 130T131 280Q140 374 189 436T322 531T510 564Q574 564 633 553T748 522L758 624Q770 733 734 784T608 835Q555 835 514 818T447 768T417 686H204Q214 797 271 864T416 963T608 994Q792
994 881 902T952 617L894 0H726Q725 35 725 69T724 139Q673 57 603 16T435 -26ZM487 138Q552 138 606 169T695 256T735 384Q689 399 635 409T532 419Q456 419 400 388T338 280Q333 220 373 179T487 138ZM472 1126L434 1261L926 1526L978 1338L472 1126Z" />
<glyph unicode="&#xe2;" horiz-adv-x="1041" d="M435 -26Q327 -26 257 17T155 130T131 280Q140 374 189 436T322 531T510 564Q574 564 633 553T748 522L758 624Q770 733 734 784T608 835Q555 835 514 818T447 768T417 686H204Q214 797 271 864T416 963T608 994Q792
994 881 902T952 617L894 0H726Q725 35 725 69T724 139Q673 57 603 16T435 -26ZM487 138Q552 138 606 169T695 256T735 384Q689 399 635 409T532 419Q456 419 400 388T338 280Q333 220 373 179T487 138ZM369 1124L258 1231L648 1551L981 1231L846 1124L628 1330L369
1124Z" />
<glyph unicode="&#xe3;" horiz-adv-x="1041" d="M435 -26Q327 -26 257 17T155 130T131 280Q140 374 189 436T322 531T510 564Q574 564 633 553T748 522L758 624Q770 733 734 784T608 835Q555 835 514 818T447 768T417 686H204Q214 797 271 864T416 963T608 994Q792
994 881 902T952 617L894 0H726Q725 35 725 69T724 139Q673 57 603 16T435 -26ZM487 138Q552 138 606 169T695 256T735 384Q689 399 635 409T532 419Q456 419 400 388T338 280Q333 220 373 179T487 138ZM400 1187L328 1239Q362 1358 417 1420T537 1482Q562 1482
588 1472T662 1433Q705 1408 727 1396T771 1383Q798 1383 825 1405T877 1482L953 1422Q934 1351 902 1299T831 1217T753 1187Q728 1187 698 1200T616 1244Q572 1270 554 1279T517 1288Q489 1288 460 1267T400 1187Z" />
<glyph unicode="&#xe4;" horiz-adv-x="1041" d="M435 -26Q327 -26 257 17T155 130T131 280Q140 374 189 436T322 531T510 564Q574 564 633 553T748 522L758 624Q770 733 734 784T608 835Q555 835 514 818T447 768T417 686H204Q214 797 271 864T416 963T608 994Q792
994 881 902T952 617L894 0H726Q725 35 725 69T724 139Q673 57 603 16T435 -26ZM487 138Q552 138 606 169T695 256T735 384Q689 399 635 409T532 419Q456 419 400 388T338 280Q333 220 373 179T487 138ZM463 1222Q410 1222 381 1257T356 1344Q360 1395 395 1432T486
1469Q533 1469 565 1436T594 1348Q589 1290 550 1256T463 1222ZM798 1224Q747 1224 717 1258T692 1345Q696 1395 732 1433T822 1471Q869 1471 900 1438T928 1349Q923 1288 885 1256T798 1224Z" />
<glyph unicode="&#xe5;" horiz-adv-x="1041" d="M435 -26Q327 -26 257 17T155 130T131 280Q140 374 189 436T322 531T510 564Q574 564 633 553T748 522L758 624Q770 733 734 784T608 835Q555 835 514 818T447 768T417 686H204Q214 797 271 864T416 963T608 994Q792
994 881 902T952 617L894 0H726Q725 35 725 69T724 139Q673 57 603 16T435 -26ZM487 138Q552 138 606 169T695 256T735 384Q689 399 635 409T532 419Q456 419 400 388T338 280Q333 220 373 179T487 138ZM624 1090Q562 1090 511 1121T429 1203T398 1316Q398 1378
428 1429T510 1511T624 1542Q686 1542 737 1512T819 1430T850 1316Q850 1255 820 1204T738 1121T624 1090ZM624 1233Q659 1233 683 1257T707 1316Q707 1351 683 1375T624 1399Q589 1399 565 1375T541 1316Q541 1281 565 1257T624 1233Z" />
<glyph unicode="&#xe6;" horiz-adv-x="1562" d="M131 280Q139 369 188 432T319 529T508 564Q577 564 641 550T770 512L737 477L752 624Q764 735 729 785T607 835Q557 835 516 818T450 768T419 686H206Q216 798 273 865T418 963T605 994Q727 994 799 945T888 785L863
790Q927 887 1018 940T1211 994Q1298 994 1362 957T1466 857T1520 714T1521 546Q1519 518 1515 490T1503 432H890L940 472Q927 379 941 306T1000 190T1119 148Q1185 148 1233 183T1299 287H1495Q1474 194 1417 123T1280 13T1110 -26Q1029 -26 963 6T851 92T780
216H807Q750 94 644 34T429 -26Q334 -26 264 14T159 123T131 280ZM340 280Q335 220 375 179T486 138Q537 138 581 159T660 218T713 306T733 417L754 377Q705 393 644 406T531 419Q485 419 443 406T373 362T340 280ZM944 530L905 566H1341Q1349 633 1338 691T1290
785T1185 821Q1115 821 1064 782T983 676T944 530Z" />
<glyph unicode="&#xe7;" horiz-adv-x="947" d="M493 -26Q384 -26 297 36T163 214T131 484Q146 648 213 761T380 934T589 994Q670 994 730 965T831 887T893 777T917 652L719 644Q709 712 672 756T568 800Q513 800 462 766T375 663T328 484Q318 382 339 312T405
205T510 169Q592 169 638 214T691 340H888Q879 238 828 155T692 23T493 -26ZM308 -364L333 -286Q406 -321 461 -325T547 -312T579 -260Q580 -230 554 -207T484 -167T385 -138L447 72L547 59L491 -133L454 -73Q550 -90 612 -119T705 -188T735 -272Q735 -330 693
-365T584 -411T444 -412T308 -364Z" />
<glyph unicode="&#xe8;" horiz-adv-x="947" d="M489 -26Q376 -26 290 36T160 213T131 483Q146 643 211 757T373 932T584 994Q676 994 741 957T845 857T900 714T908 546Q906 518 902 490T890 432H273L322 468Q310 377 325 304T384 190T506 148Q571 148 619 183T686
287H882Q860 193 804 123T667 13T489 -26ZM328 536L289 566H775L726 539Q736 611 727 675T682 780T570 821Q501 821 450 783T368 681T328 536ZM770 1084L305 1296L395 1484L836 1219L770 1084Z" />
<glyph unicode="&#xe9;" horiz-adv-x="947" d="M489 -26Q376 -26 290 36T160 213T131 483Q146 643 211 757T373 932T584 994Q676 994 741 957T845 857T900 714T908 546Q906 518 902 490T890 432H273L322 468Q310 377 325 304T384 190T506 148Q571 148 619 183T686
287H882Q860 193 804 123T667 13T489 -26ZM328 536L289 566H775L726 539Q736 611 727 675T682 780T570 821Q501 821 450 783T368 681T328 536ZM426 1126L388 1261L880 1526L932 1338L426 1126Z" />
<glyph unicode="&#xea;" horiz-adv-x="947" d="M489 -26Q376 -26 290 36T160 213T131 483Q146 643 211 757T373 932T584 994Q676 994 741 957T845 857T900 714T908 546Q906 518 902 490T890 432H273L322 468Q310 377 325 304T384 190T506 148Q571 148 619 183T686
287H882Q860 193 804 123T667 13T489 -26ZM328 536L289 566H775L726 539Q736 611 727 675T682 780T570 821Q501 821 450 783T368 681T328 536ZM578 1124L467 1231L857 1551L1190 1231L1055 1124L837 1330L578 1124Z" />
<glyph unicode="&#xeb;" horiz-adv-x="947" d="M489 -26Q376 -26 290 36T160 213T131 483Q146 643 211 757T373 932T584 994Q676 994 741 957T845 857T900 714T908 546Q906 518 902 490T890 432H273L322 468Q310 377 325 304T384 190T506 148Q571 148 619 183T686
287H882Q860 193 804 123T667 13T489 -26ZM328 536L289 566H775L726 539Q736 611 727 675T682 780T570 821Q501 821 450 783T368 681T328 536ZM416 1222Q363 1222 334 1257T309 1344Q313 1395 348 1432T439 1469Q486 1469 518 1436T547 1348Q542 1290 503 1256T416
1222ZM751 1224Q700 1224 670 1258T645 1345Q649 1395 685 1433T775 1471Q822 1471 853 1438T881 1349Q876 1288 838 1256T751 1224Z" />
<glyph unicode="&#xec;" horiz-adv-x="576" d="M187 0L279 970H473L381 0H187ZM840 1084L375 1296L465 1484L906 1219L840 1084Z" />
<glyph unicode="&#xed;" horiz-adv-x="576" d="M187 0L279 970H473L381 0H187ZM496 1126L458 1261L950 1526L1002 1338L496 1126Z" />
<glyph unicode="&#xee;" horiz-adv-x="576" d="M187 0L279 970H473L381 0H187ZM136 1124L25 1231L415 1551L748 1231L613 1124L395 1330L136 1124Z" />
<glyph unicode="&#xef;" horiz-adv-x="576" d="M187 0L279 970H473L381 0H187ZM486 1222Q433 1222 404 1257T379 1344Q383 1395 418 1432T509 1469Q556 1469 588 1436T617 1348Q612 1290 573 1256T486 1222ZM821 1224Q770 1224 740 1258T715 1345Q719 1395 755
1433T845 1471Q892 1471 923 1438T951 1349Q946 1288 908 1256T821 1224Z" />
<glyph unicode="&#xf0;" horiz-adv-x="1076" d="M495 -24Q399 -24 316 18T181 150T129 376Q129 500 170 599T280 767T432 874T596 911Q644 911 695 895T792 840T866 731T894 552L883 555Q897 786 853 962T719 1278T502 1543L679 1636Q814 1495 892 1349T1002 1054T1035
753Q1035 549 988 402T863 160T689 21T495 -24ZM510 139Q594 139 653 193T743 331T774 504Q774 628 722 685T593 743Q519 743 460 694T366 563T331 378Q331 268 376 204T510 139ZM540 1064L475 1187L1070 1522L1138 1399L540 1064Z" />
<glyph unicode="&#xf1;" horiz-adv-x="1113" d="M171 0L263 968H430L435 797Q488 894 564 944T733 994Q840 994 907 941T1003 793T1020 566L968 0H773L825 566Q837 682 792 741T669 800Q565 800 494 708T406 438L365 0H171ZM436 1187L364 1239Q398 1358 453 1420T573
1482Q598 1482 624 1472T698 1433Q741 1408 763 1396T807 1383Q834 1383 861 1405T913 1482L989 1422Q970 1351 938 1299T867 1217T789 1187Q764 1187 734 1200T652 1244Q608 1270 590 1279T553 1288Q525 1288 496 1267T436 1187Z" />
<glyph unicode="&#xf2;" horiz-adv-x="1009" d="M504 -26Q384 -26 294 30T160 200T131 482Q147 654 213 767T380 937T599 994Q717 994 806 937T941 767T969 482Q953 314 887 201T721 31T504 -26ZM514 162Q616 162 687 244T773 482Q789 641 740 724T587 807Q484
807 414 725T328 482Q318 379 336 308T400 199T514 162ZM840 1084L375 1296L465 1484L906 1219L840 1084Z" />
<glyph unicode="&#xf3;" horiz-adv-x="1009" d="M504 -26Q384 -26 294 30T160 200T131 482Q147 654 213 767T380 937T599 994Q717 994 806 937T941 767T969 482Q953 314 887 201T721 31T504 -26ZM514 162Q616 162 687 244T773 482Q789 641 740 724T587 807Q484
807 414 725T328 482Q318 379 336 308T400 199T514 162ZM496 1126L458 1261L950 1526L1002 1338L496 1126Z" />
<glyph unicode="&#xf4;" horiz-adv-x="1009" d="M504 -26Q384 -26 294 30T160 200T131 482Q147 654 213 767T380 937T599 994Q717 994 806 937T941 767T969 482Q953 314 887 201T721 31T504 -26ZM514 162Q616 162 687 244T773 482Q789 641 740 724T587 807Q484
807 414 725T328 482Q318 379 336 308T400 199T514 162ZM392 1124L281 1231L671 1551L1004 1231L869 1124L651 1330L392 1124Z" />
<glyph unicode="&#xf5;" horiz-adv-x="1009" d="M504 -26Q384 -26 294 30T160 200T131 482Q147 654 213 767T380 937T599 994Q717 994 806 937T941 767T969 482Q953 314 887 201T721 31T504 -26ZM514 162Q616 162 687 244T773 482Q789 641 740 724T587 807Q484
807 414 725T328 482Q318 379 336 308T400 199T514 162ZM423 1187L351 1239Q385 1358 440 1420T560 1482Q585 1482 611 1472T685 1433Q728 1408 750 1396T794 1383Q821 1383 848 1405T900 1482L976 1422Q957 1351 925 1299T854 1217T776 1187Q751 1187 721 1200T639
1244Q595 1270 577 1279T540 1288Q512 1288 483 1267T423 1187Z" />
<glyph unicode="&#xf6;" horiz-adv-x="1009" d="M504 -26Q384 -26 294 30T160 200T131 482Q147 654 213 767T380 937T599 994Q717 994 806 937T941 767T969 482Q953 314 887 201T721 31T504 -26ZM514 162Q616 162 687 244T773 482Q789 641 740 724T587 807Q484
807 414 725T328 482Q318 379 336 308T400 199T514 162ZM486 1222Q433 1222 404 1257T379 1344Q383 1395 418 1432T509 1469Q556 1469 588 1436T617 1348Q612 1290 573 1256T486 1222ZM821 1224Q770 1224 740 1258T715 1345Q719 1395 755 1433T845 1471Q892 1471
923 1438T951 1349Q946 1288 908 1256T821 1224Z" />
<glyph unicode="&#xf7;" horiz-adv-x="902" d="M319 623H1113L1089 436H296L319 623ZM494 744Q434 744 399 786T371 891Q377 952 420 994T523 1037Q581 1037 617 997T648 891Q643 826 598 785T494 744ZM384 36Q324 36 289 78T261 183Q267 244 310 286T413 329Q471
329 507 289T538 183Q533 118 488 77T384 36Z" />
<glyph unicode="&#xf8;" horiz-adv-x="1009" d="M504 -26Q384 -26 294 30T160 200T131 482Q147 654 213 767T380 937T599 994Q717 994 806 937T941 767T969 482Q953 314 887 201T721 31T504 -26ZM514 162Q616 162 687 244T773 482Q789 641 740 724T587 807Q484
807 414 725T328 482Q318 379 336 308T400 199T514 162Z" />
<glyph unicode="&#xf9;" horiz-adv-x="1118" d="M479 -18Q385 -18 314 20T207 139T184 353L243 970H437L380 374Q371 273 410 222T530 171Q597 171 655 210T751 324T800 506L844 970H1038L948 0H752L769 178Q718 80 644 31T479 -18ZM855 1084L390 1296L480 1484L921
1219L855 1084Z" />
<glyph unicode="&#xfa;" horiz-adv-x="1118" d="M479 -18Q385 -18 314 20T207 139T184 353L243 970H437L380 374Q371 273 410 222T530 171Q597 171 655 210T751 324T800 506L844 970H1038L948 0H752L769 178Q718 80 644 31T479 -18ZM512 1126L474 1261L966 1526L1018
1338L512 1126Z" />
<glyph unicode="&#xfb;" horiz-adv-x="1118" d="M479 -18Q385 -18 314 20T207 139T184 353L243 970H437L380 374Q371 273 410 222T530 171Q597 171 655 210T751 324T800 506L844 970H1038L948 0H752L769 178Q718 80 644 31T479 -18ZM408 1124L297 1231L687 1551L1020
1231L885 1124L667 1330L408 1124Z" />
<glyph unicode="&#xfc;" horiz-adv-x="1118" d="M479 -18Q385 -18 314 20T207 139T184 353L243 970H437L380 374Q371 273 410 222T530 171Q597 171 655 210T751 324T800 506L844 970H1038L948 0H752L769 178Q718 80 644 31T479 -18ZM502 1222Q449 1222 420 1257T395
1344Q399 1395 434 1432T525 1469Q572 1469 604 1436T633 1348Q628 1290 589 1256T502 1222ZM837 1224Q786 1224 756 1258T731 1345Q735 1395 771 1433T861 1471Q908 1471 939 1438T967 1349Q962 1288 924 1256T837 1224Z" />
<glyph unicode="&#xfd;" horiz-adv-x="899" d="M188 -499Q128 -499 73 -483T-39 -434L-20 -242Q24 -278 68 -294T160 -311Q205 -311 241 -283T305 -205T357 -95L393 0L132 968H353L508 252L765 968H962L520 -180Q477 -290 427 -360T318 -465T188 -499ZM402 1126L364
1261L856 1526L908 1338L402 1126Z" />
<glyph unicode="&#xfe;" horiz-adv-x="1091" d="M126 -473L294 1297H489L442 801H411Q461 899 536 946T697 994Q800 994 884 933T1014 759T1045 484Q1030 324 963 210T797 35T593 -26Q517 -26 461 2T372 88L320 -473H126ZM585 169Q640 169 697 203T796 308T848
484Q858 584 835 654T763 762T648 800Q592 800 542 772T459 690T418 556L402 391Q395 322 416 272T481 196T585 169Z" />
<glyph unicode="&#xff;" horiz-adv-x="899" d="M188 -499Q128 -499 73 -483T-39 -434L-20 -242Q24 -278 68 -294T160 -311Q205 -311 241 -283T305 -205T357 -95L393 0L132 968H353L508 252L765 968H962L520 -180Q477 -290 427 -360T318 -465T188 -499ZM392 1222Q339
1222 310 1257T285 1344Q289 1395 324 1432T415 1469Q462 1469 494 1436T523 1348Q518 1290 479 1256T392 1222ZM727 1224Q676 1224 646 1258T621 1345Q625 1395 661 1433T751 1471Q798 1471 829 1438T857 1349Q852 1288 814 1256T727 1224Z" />
<glyph unicode="&#x2013;" horiz-adv-x="921" d="M147 504L164 692H887L869 504H147Z" />
<glyph unicode="&#x2014;" horiz-adv-x="1362" d="M147 504L164 692H1330L1312 504H147Z" />
<glyph unicode="&#x2018;" horiz-adv-x="462" d="M296 778Q224 778 186 837T157 979Q162 1038 192 1097T273 1206T388 1290L516 1208Q456 1176 409 1135T342 1039Q388 1032 419 1000T444 914Q439 857 398 818T296 778Z" />
<glyph unicode="&#x2019;" horiz-adv-x="462" d="M254 778L127 860Q188 893 234 935T300 1030Q252 1038 222 1071T197 1157Q203 1213 244 1251T347 1290Q394 1290 427 1264T475 1192T484 1090Q479 1030 449 972T368 863T254 778Z" />
<glyph unicode="&#x201a;" horiz-adv-x="474" d="M385 -258L249 -178Q309 -146 356 -105T422 -10Q375 -1 344 32T319 119Q324 174 366 213T468 252Q519 252 551 225T598 152T608 53Q602 -4 574 -63T498 -173T385 -258Z" />
<glyph unicode="&#x201c;" horiz-adv-x="850" d="M670 778Q598 778 560 837T531 979Q536 1038 566 1097T647 1206T762 1290L890 1208Q830 1176 783 1135T716 1039Q762 1032 793 1000T818 914Q813 857 772 818T670 778ZM296 778Q224 778 186 837T157 979Q162 1038
192 1097T273 1206T388 1290L516 1208Q456 1176 409 1135T342 1039Q388 1032 419 1000T444 914Q439 857 398 818T296 778Z" />
<glyph unicode="&#x201d;" horiz-adv-x="856" d="M649 778L522 860Q583 893 629 935T695 1030Q647 1038 617 1071T592 1157Q598 1213 639 1251T742 1290Q789 1290 822 1264T870 1192T879 1090Q874 1030 844 972T763 863T649 778ZM267 778L140 860Q201 893 247
935T313 1030Q265 1038 235 1071T210 1157Q216 1213 257 1251T360 1290Q407 1290 440 1264T488 1192T497 1090Q492 1030 462 972T381 863T267 778Z" />
<glyph unicode="&#x201e;" horiz-adv-x="854" d="M509 -258L373 -178Q433 -146 480 -105T546 -10Q499 -1 468 32T443 119Q448 174 490 213T592 252Q643 252 675 225T722 152T732 53Q726 -4 698 -63T622 -173T509 -258ZM385 -258L249 -178Q309 -146 356 -105T422
-10Q375 -1 344 32T319 119Q324 174 366 213T468 252Q519 252 551 225T598 152T608 53Q602 -4 574 -63T498 -173T385 -258Z" />
<glyph unicode="&#x2022;" horiz-adv-x="564" d="M355 372Q246 372 182 448T131 640Q142 751 220 828T408 906Q514 906 580 833T636 640Q627 522 545 447T355 372Z" />
<glyph unicode="&#x2039;" horiz-adv-x="726" d="M489 106L137 537L610 967L741 856L331 501L335 567L645 211L489 106Z" />
<glyph unicode="&#x203a;" horiz-adv-x="726" d="M223 106L92 211L501 567L498 507L187 862L343 967L695 537L223 106Z" />
</font>
</defs>
</svg>
