<?xml version="1.0" standalone="no"?>
<!DOCTYPE svg PUBLIC "-//W3C//DTD SVG 1.1//EN" "http://www.w3.org/Graphics/SVG/1.1/DTD/svg11.dtd">
<svg xmlns="http://www.w3.org/2000/svg">
<defs >
<font id="Karla" horiz-adv-x="1049" ><font-face
    font-family="Karla"
    units-per-em="2000"
    panose-1="2 11 0 4 3 5 3 3 0 3"
    ascent="1834"
    descent="-504"
    alphabetic="0" />
<glyph unicode=" " horiz-adv-x="506" />
<glyph unicode="!" horiz-adv-x="586" d="M198 438L172 1326H428L400 438H198ZM301 -18Q228 -18 182 26T136 140Q136 206 182 252T301 298Q372 298 420 252T468 140Q468 71 420 27T301 -18Z" />
<glyph unicode="&quot;" horiz-adv-x="765" d="M496 896L466 1372H702L670 896H496ZM94 896L64 1372H300L268 896H94Z" />
<glyph unicode="#" horiz-adv-x="1356" d="M270 66L298 328H114L128 482H314L348 798H162L178 952H364L392 1212H614L586 952H858L886 1212H1106L1080 952H1266L1250 798H1062L1030 482H1218L1202 328H1014L986 66H764L792 328H520L492 66H270ZM536 482H808L842
798H570L536 482Z" />
<glyph unicode="$" horiz-adv-x="1378" d="M708 -28Q593 -28 489 -2T304 76T177 211T130 406H362Q362 328 404 280T526 210T720 188Q811 188 869 210T954 269T982 352Q982 409 945 451T836 518L694 572V776L950 686Q1100 634 1174 554T1248 346Q1248 252 1191
167T1014 27T708 -28ZM606 -202V1474H774V-202H606ZM652 568L506 618Q338 675 247 754T156 970Q156 1128 290 1226T682 1324Q921 1324 1045 1221T1200 940H966Q951 1017 879 1069T678 1122Q546 1122 479 1077T412 962Q412 910 444 878T546 820L652 776V568Z" />
<glyph unicode="%" horiz-adv-x="1529" d="M212 0L1092 1298H1330L452 0H212ZM1150 -22Q1078 -22 1016 11T916 112T878 282Q878 384 916 451T1016 552T1150 586Q1224 586 1287 553T1388 452T1426 282Q1426 180 1388 113T1287 12T1150 -22ZM1150 130Q1194 130 1221
164T1248 282Q1248 365 1221 400T1150 436Q1107 436 1081 401T1054 282Q1054 198 1080 164T1150 130ZM394 718Q322 718 260 751T160 852T122 1022Q122 1123 160 1190T260 1290T394 1324Q468 1324 531 1291T632 1190T670 1022Q670 920 632 853T531 752T394 718ZM394
868Q437 868 464 903T492 1022Q492 1105 465 1139T394 1174Q351 1174 325 1140T298 1022Q298 938 324 903T394 868Z" />
<glyph unicode="&amp;" horiz-adv-x="1930" d="M1512 -28Q1415 -28 1331 14T1152 144L518 718Q455 775 415 849T374 1004Q374 1092 425 1163T574 1277T812 1320Q947 1320 1042 1278T1189 1165T1240 1008Q1240 918 1196 847T1064 719T844 618L720 734Q810 769 867
805T952 884T980 978Q980 1038 934 1077T812 1116Q725 1116 680 1074T634 970Q634 924 657 883T728 798L1342 244Q1379 213 1410 197T1488 180Q1536 180 1570 215T1608 328H1822Q1818 165 1741 69T1512 -28ZM720 -28Q609 -28 512 2T341 86T226 212T184 370Q184
524 309 604T658 702L734 574Q581 561 513 513T444 384Q444 329 477 285T572 213T722 186Q834 186 929 230T1104 354T1251 541T1368 776L1526 688Q1472 528 1393 397T1211 170T986 24T720 -28Z" />
<glyph unicode="&apos;" horiz-adv-x="359" d="M62 1354H298L266 878H92L62 1354Z" />
<glyph unicode="(" horiz-adv-x="799" d="M564 1508L734 1384Q619 1264 543 1144T428 899T390 636Q390 432 476 252T734 -108L564 -236Q349 -45 248 174T146 636Q146 881 247 1100T564 1508Z" />
<glyph unicode=")" horiz-adv-x="799" d="M236 -236L64 -108Q237 71 323 251T410 636Q410 773 372 898T256 1144T64 1384L236 1508Q449 1319 551 1100T654 636Q654 474 609 323T471 31T236 -236Z" />
<glyph unicode="*" horiz-adv-x="818" d="M150 894L322 1056L100 1130L160 1270L358 1170L334 1408H494L470 1170L668 1274L728 1132L510 1058L682 894L564 792L416 994L264 792L150 894Z" />
<glyph unicode="+" horiz-adv-x="1087" d="M426 982H662V594H1052V388H662V0H426V388H36V594H426V982Z" />
<glyph unicode="," horiz-adv-x="506" d="M222 -272L48 -184Q114 -151 165 -108T232 -10Q177 1 138 36T98 128Q98 188 144 229T260 270Q349 270 399 208T450 61Q450 -36 389 -127T222 -272Z" />
<glyph unicode="-" horiz-adv-x="747" d="M92 500V706H654V500H92Z" />
<glyph unicode="." horiz-adv-x="430" d="M48 138Q48 206 94 252T212 298Q284 298 332 252T380 138Q380 71 332 27T212 -18Q140 -18 94 27T48 138Z" />
<glyph unicode="/" horiz-adv-x="943" d="M106 -160L620 1490H862L344 -160H106Z" />
<glyph unicode="0" horiz-adv-x="1265" d="M634 -28Q474 -28 353 46T163 270T94 648Q94 877 162 1027T352 1250T634 1324Q792 1324 913 1251T1103 1027T1172 648Q1172 420 1104 270T914 46T634 -28ZM634 188Q774 188 851 306T928 648Q928 871 851 990T634 1110Q493
1110 416 991T338 648Q338 425 415 307T634 188Z" />
<glyph unicode="1" horiz-adv-x="713" d="M348 1306H526V0H290V1024Q237 1000 186 987T84 974V1200Q152 1207 216 1231T348 1306Z" />
<glyph unicode="2" horiz-adv-x="1210" d="M120 0V222Q120 331 153 407T251 535T416 626L682 728Q769 763 810 814T852 940Q852 1015 798 1066T642 1118Q545 1118 480 1070T404 928H142Q145 1061 211 1149T388 1280T638 1324Q769 1324 875 1275T1043 1137T1106
930Q1106 830 1070 754T959 621T772 520L504 416Q426 386 391 350T356 254V216H1098V0H120Z" />
<glyph unicode="3" horiz-adv-x="1244" d="M626 -28Q523 -28 427 0T255 83T135 219T90 408H338Q342 340 379 291T479 215T626 188Q748 188 817 244T886 386Q886 442 858 482T772 544T624 566H452V752H598Q712 752 777 801T842 934Q842 1009 786 1059T618 1110Q527
1110 456 1073T364 944H116Q130 1077 196 1161T369 1284T608 1324Q749 1324 859 1278T1032 1151T1096 962Q1096 863 1042 790T882 680Q1000 640 1071 561T1142 364Q1142 249 1078 161T897 22T626 -28Z" />
<glyph unicode="4" horiz-adv-x="1190" d="M708 1312H936V490H1162V288H936V0H702V288H44V466L708 1312ZM714 962L324 466H714V962Z" />
<glyph unicode="5" horiz-adv-x="1164" d="M594 -28Q454 -28 347 20T179 162T114 388H354Q354 288 423 238T594 188Q703 188 772 258T842 432Q842 632 574 632H178L238 1298H1016V1082H428L474 1150L436 764L416 786Q464 797 530 802T644 808Q845 808 964 711T1084
432Q1084 303 1023 199T852 33T594 -28Z" />
<glyph unicode="6" horiz-adv-x="1214" d="M644 -28Q481 -28 357 57T164 289T94 626Q94 849 164 1005T360 1242T656 1324Q785 1324 884 1277T1040 1143T1102 942H850Q839 1020 794 1065T664 1110Q510 1110 420 975T330 606Q330 576 331 541T338 474Q354 597 408
667T540 766T702 796Q824 796 917 743T1063 597T1116 384Q1116 261 1057 168T891 24T644 -28ZM644 188Q738 188 805 244T872 394Q872 491 805 546T644 602Q582 602 532 576T451 503T420 394Q420 301 485 245T644 188Z" />
<glyph unicode="7" horiz-adv-x="995" d="M88 0L682 1070H48V1298H960V1072L406 0H88Z" />
<glyph unicode="8" horiz-adv-x="1293" d="M646 -28Q479 -28 356 21T166 156T98 350Q98 442 147 507T281 607T472 642Q514 642 550 635T634 616V558Q549 558 483 533T380 466T342 374Q342 316 383 275T493 211T646 188Q802 188 877 228T952 332Q952 382 916 417T814
478L444 620Q377 646 308 692T190 807T142 970Q142 1078 201 1157T373 1280T646 1324Q788 1324 902 1276T1083 1144T1150 952Q1150 877 1109 813T990 710T802 670Q764 670 732 676T658 696V764Q724 764 780 785T871 845T906 936Q906 989 873 1028T782 1088T646
1110Q573 1110 514 1091T421 1037T386 960Q386 911 420 880T518 822L900 674Q1043 619 1119 547T1196 344Q1196 236 1132 152T944 20T646 -28Z" />
<glyph unicode="9" horiz-adv-x="1220" d="M594 -28Q460 -28 353 24T183 169T120 384H366Q370 294 431 241T586 188Q695 188 762 250T859 426T890 690Q890 720 889 748T882 808Q863 698 810 631T682 533T518 502Q397 502 305 554T159 699T106 912Q106 1036 165
1129T330 1273T574 1324Q690 1324 790 1277T966 1144T1083 937T1126 670Q1126 457 1067 300T890 58T594 -28ZM576 696Q637 696 688 722T771 794T802 900Q802 996 735 1052T574 1108Q481 1108 416 1052T350 900Q350 804 416 750T576 696Z" />
<glyph unicode=":" horiz-adv-x="539" d="M102 172Q102 240 148 286T266 332Q338 332 386 286T434 172Q434 105 386 61T266 16Q194 16 148 61T102 172ZM102 768Q102 836 148 882T266 928Q338 928 386 882T434 768Q434 701 386 657T266 612Q194 612 148 657T102 768Z" />
<glyph unicode=";" horiz-adv-x="616" d="M282 -272L108 -184Q174 -151 225 -108T292 -10Q237 1 198 36T158 128Q158 188 204 229T320 270Q409 270 459 208T510 61Q510 -36 449 -127T282 -272ZM170 768Q170 836 216 882T334 928Q406 928 454 882T502 768Q502 701
454 657T334 612Q262 612 216 657T170 768Z" />
<glyph unicode="&lt;" horiz-adv-x="1004" d="M758 1234L914 1054L260 594V694L914 236L758 56L90 538V750L758 1234Z" />
<glyph unicode="=" horiz-adv-x="1012" d="M158 396H854V192H158V396ZM158 816H854V612H158V816Z" />
<glyph unicode="&gt;" horiz-adv-x="1004" d="M246 56L90 236L742 694V594L90 1054L246 1234L914 750V538L246 56Z" />
<glyph unicode="?" horiz-adv-x="1034" d="M350 388V468Q350 555 370 611T434 705T550 780Q613 812 648 839T696 896T710 964Q710 1027 659 1068T520 1110Q415 1110 359 1064T294 940H48Q59 1114 176 1219T510 1324Q652 1324 755 1276T914 1146T970 962Q970 858
918 786T754 658Q689 625 653 596T601 533T586 446V388H350ZM474 -28Q401 -28 356 17T310 127Q310 195 355 240T473 286Q546 286 594 241T642 128Q642 62 594 17T474 -28Z" />
<glyph unicode="@" horiz-adv-x="2053" d="M1138 -434Q910 -434 726 -369T409 -187T205 88T134 435Q134 628 208 790T414 1072T724 1258T1109 1324Q1302 1324 1457 1268T1723 1109T1893 872T1952 580Q1952 445 1911 340T1801 163T1645 52T1467 14Q1376 14 1315
49T1236 146L1224 178Q1190 110 1132 62T977 14Q884 14 806 61T682 194T636 391Q636 492 674 580T779 736T933 841T1117 880Q1251 880 1328 801T1406 562V300Q1406 245 1423 222T1476 198Q1522 198 1578 239T1674 364T1714 576Q1714 731 1645 852T1443 1042T1119
1112Q953 1112 816 1059T580 909T426 685T372 405Q372 216 461 70T721 -159T1138 -242V-434ZM1017 204Q1087 204 1132 244T1218 360V560Q1218 622 1195 660T1111 698Q1052 698 991 660T889 554T848 394Q848 298 896 251T1017 204Z" />
<glyph unicode="A" horiz-adv-x="1251" d="M44 0L486 1298H782L1206 0H958L868 280H386L294 0H44ZM446 458H812L630 1016L446 458Z" />
<glyph unicode="B" horiz-adv-x="1296" d="M186 0V1298H710Q860 1298 959 1252T1107 1127T1156 954Q1156 844 1095 766T922 656Q995 641 1053 601T1144 500T1178 360Q1178 298 1157 235T1083 119T940 33T712 0H186ZM422 206H706Q819 206 871 251T924 374Q924 451
870 497T706 544H422V206ZM422 1094V750H700Q805 750 859 796T914 924Q914 1001 861 1047T702 1094H422Z" />
<glyph unicode="C" horiz-adv-x="1267" d="M658 -28Q487 -28 361 53T164 287T94 652Q94 872 166 1021T366 1247T658 1324Q885 1324 1012 1214T1176 928L924 882Q893 984 825 1047T658 1110Q571 1110 501 1060T390 907T348 652Q348 508 384 404T490 244T658 188Q785
188 854 255T924 428H1176Q1176 283 1114 182T935 26T658 -28Z" />
<glyph unicode="D" horiz-adv-x="1373" d="M186 1298H606Q804 1298 953 1219T1185 993T1268 648Q1268 451 1185 306T953 80T606 0H186V1298ZM422 1084V212H606Q732 212 823 269T964 424T1014 648Q1014 775 965 873T824 1027T606 1084H422Z" />
<glyph unicode="E" horiz-adv-x="1173" d="M184 0V1298H1018V1094H420V752H982V548H420V206H1018V0H184Z" />
<glyph unicode="F" horiz-adv-x="1093" d="M186 0V1298H1004V1094H422V752H954V550H422V0H186Z" />
<glyph unicode="G" horiz-adv-x="1354" d="M660 -28Q501 -28 373 56T170 290T94 642Q94 801 140 927T270 1142T465 1277T708 1324Q890 1324 1013 1245T1206 996L964 940Q913 1023 847 1066T696 1110Q600 1110 521 1054T395 892T348 642Q348 506 389 404T506 245T680
188Q764 188 830 225T935 333T974 502H1026Q1026 340 988 221T868 37T660 -28ZM1008 0L974 286V510L682 516V666H1200V0H1008Z" />
<glyph unicode="H" horiz-adv-x="1411" d="M186 1298H422V756H988V1298H1224V0H988V550H422V0H186V1298Z" />
<glyph unicode="I" horiz-adv-x="609" d="M186 0V1298H422V0H186Z" />
<glyph unicode="J" horiz-adv-x="887" d="M32 54V290Q112 244 188 223T330 202Q416 202 455 252T494 404V1298H732V404Q732 247 683 152T548 15T350 -28Q262 -28 182 -5T32 54Z" />
<glyph unicode="K" horiz-adv-x="1308" d="M936 1298H1260L404 422V744L936 1298ZM648 762L1296 0H992L484 608L648 762ZM186 1298H424V0H186V1298Z" />
<glyph unicode="L" horiz-adv-x="988" d="M422 1298V206H956V0H186V1298H422Z" />
<glyph unicode="M" horiz-adv-x="1749" d="M186 1298H524L890 504H870L1236 1298H1562V0H1324V1026H1360L956 142H802L400 1022H422V0H186V1298Z" />
<glyph unicode="N" horiz-adv-x="1434" d="M182 1298H440L1030 372H1012V1298H1248V0H1008L380 982H418V0H182V1298Z" />
<glyph unicode="O" horiz-adv-x="1365" d="M682 -28Q509 -28 377 48T169 275T94 650Q94 878 169 1027T376 1250T682 1324Q856 1324 989 1249T1197 1023T1272 650Q1272 423 1197 272T989 47T682 -28ZM682 186Q841 186 934 306T1028 652Q1028 870 935 991T682 1112Q526
1112 432 991T338 650Q338 425 432 306T682 186Z" />
<glyph unicode="P" horiz-adv-x="1161" d="M180 0V1298H638Q857 1298 979 1190T1102 884Q1102 688 980 580T638 472H418V0H180ZM418 678H638Q748 678 804 736T860 884Q860 976 804 1035T638 1094H418V678Z" />
<glyph unicode="Q" horiz-adv-x="1372" d="M682 -28Q509 -28 377 48T169 275T94 650Q94 878 169 1027T376 1250T682 1324Q856 1324 989 1249T1197 1023T1272 650Q1272 423 1197 272T989 47T682 -28ZM1080 -360Q981 -360 897 -307T750 -158L616 44L804 132L920
-48Q949 -90 986 -107T1062 -126Q1112 -126 1158 -114T1256 -80V-324Q1209 -343 1167 -351T1080 -360ZM682 186Q841 186 934 306T1028 652Q1028 870 935 991T682 1112Q526 1112 432 991T338 650Q338 425 432 306T682 186Z" />
<glyph unicode="R" horiz-adv-x="1287" d="M186 0V1298H666Q899 1298 1023 1189T1148 900Q1148 723 1024 615T666 506H422V0H186ZM888 0L544 608H796L1196 0H888ZM422 664H642Q772 664 839 723T906 878Q906 975 845 1034T666 1094H422V664Z" />
<glyph unicode="S" horiz-adv-x="1275" d="M638 -28Q503 -28 390 19T206 162T130 406H362Q362 331 399 283T498 212T636 188Q708 188 764 207T853 261T886 346Q886 411 847 448T720 516L464 618Q314 677 234 755T154 970Q154 1128 279 1226T628 1324Q846 1324
965 1223T1100 940H868Q855 1017 798 1063T628 1110Q528 1110 470 1069T412 964Q412 910 448 879T562 818L846 708Q990 652 1067 567T1144 354Q1144 237 1085 152T913 19T638 -28Z" />
<glyph unicode="T" horiz-adv-x="1063" d="M12 1094V1298H1052V1094H597L650 1148V0H414V1148L467 1094H12Z" />
<glyph unicode="U" horiz-adv-x="1380" d="M166 1298H402V490Q402 330 483 259T692 188Q820 188 901 259T982 490V1298H1218V490Q1218 326 1155 210T975 33T692 -28Q527 -28 410 33T229 210T166 490V1298Z" />
<glyph unicode="V" horiz-adv-x="1205" d="M590 258L922 1298H1170L724 0H476L36 1298H286L614 258H590Z" />
<glyph unicode="W" horiz-adv-x="1893" d="M20 1298H284L598 208H538L848 1212H1008L1330 224H1276L1606 1298H1872L1426 0H1178L924 766H946L692 0H444L20 1298Z" />
<glyph unicode="X" horiz-adv-x="1367" d="M68 0L526 646L66 1298H356L684 830L968 1298H1254L816 650L1298 0H1002L660 462L354 0H68Z" />
<glyph unicode="Y" horiz-adv-x="1173" d="M14 1298H294L604 740H558L880 1298H1158L696 536V0H460V536L14 1298Z" />
<glyph unicode="Z" horiz-adv-x="1257" d="M146 0V204L900 1166V1080L146 1082V1298H1128V1096L420 188L414 218L1128 216V0H146Z" />
<glyph unicode="[" horiz-adv-x="704" d="M186 -282V1580H680V1366H422V-68H680V-282H186Z" />
<glyph unicode="\" horiz-adv-x="943" d="M82 1490L596 -160H838L320 1490H82Z" />
<glyph unicode="]" horiz-adv-x="671" d="M486 -282V1580H-8V1366H250V-68H-8V-282H486Z" />
<glyph unicode="^" horiz-adv-x="1054" d="M40 436L436 1206H626L1022 436H762L486 1026H576L300 436H40Z" />
<glyph unicode="_" horiz-adv-x="1536" d="M110 0V206H1428V0H110Z" />
<glyph unicode="`" horiz-adv-x="720" d="M512 1117L94 1454L251 1582L625 1209L512 1117Z" />
<glyph unicode="a" horiz-adv-x="1170" d="M804 0L774 236V626Q774 728 733 777T592 826Q535 826 493 809T429 761T406 684H148Q148 794 201 863T353 965T592 998Q718 998 812 958T958 833T1010 618V0H804ZM486 -28Q361 -28 278 15T152 130T110 284Q110 376 158
438T296 532T506 564Q585 564 655 552T796 520V382Q741 400 676 410T554 420Q470 420 416 389T362 284Q362 230 406 191T546 152Q619 152 670 184T747 264T774 360H830Q830 255 791 167T676 25T486 -28Z" />
<glyph unicode="b" horiz-adv-x="1228" d="M682 -28Q591 -28 516 23T395 175T350 430H422Q422 357 455 302T540 217T648 186Q717 186 771 224T856 330T888 490Q888 579 857 645T772 749T646 786Q587 786 536 758T454 676T422 546H350Q350 693 392 794T513 946T700
998Q818 998 914 936T1068 759T1126 490Q1126 334 1067 218T906 37T682 -28ZM186 0V1372H422V240L340 0H186Z" />
<glyph unicode="c" horiz-adv-x="1059" d="M554 -28Q432 -28 328 35T159 214T94 486Q94 651 158 765T327 939T554 998Q649 998 721 968T845 886T925 771T962 644L724 638Q708 702 665 744T552 786Q495 786 445 755T364 657T332 486Q332 386 361 320T441 220T552
186Q642 186 683 229T724 346H962Q962 243 915 158T777 23T554 -28Z" />
<glyph unicode="d" horiz-adv-x="1228" d="M544 -28Q422 -28 322 36T162 217T102 490Q102 644 159 758T313 935T528 998Q636 998 715 947T836 794T878 546H804Q804 622 773 675T692 757T582 786Q511 786 457 749T371 646T340 490Q340 398 371 330T456 224T580
186Q636 186 687 216T771 302T804 430H878Q878 277 833 176T711 23T544 -28ZM848 0L804 240V1372H1042V0H848Z" />
<glyph unicode="e" horiz-adv-x="1060" d="M548 -28Q424 -28 321 36T156 215T94 486Q94 646 155 761T320 937T548 998Q664 998 748 952T884 826T954 646T956 440H282V568H789L743 538Q746 585 739 633T710 721T651 785T552 810Q480 810 430 774T354 676T328 536V442Q328
360 352 297T425 198T548 162Q617 162 664 194T724 290H962Q947 196 892 125T748 13T548 -28Z" />
<glyph unicode="f" horiz-adv-x="735" d="M242 0V1088Q242 1193 283 1259T391 1356T538 1388Q587 1388 639 1381T740 1364L694 1182Q669 1191 642 1196T590 1202Q562 1202 537 1192T496 1155T480 1084V0H242ZM98 814V970H658V814H98Z" />
<glyph unicode="g" horiz-adv-x="1164" d="M560 -502Q393 -502 275 -456T93 -336T30 -174Q30 -71 105 -15T294 42L466 -22Q368 -22 315 -59T262 -162Q262 -231 341 -272T560 -314Q661 -314 735 -284T849 -206T890 -104Q890 -68 866 -45T792 -22H466Q368 -22 288
9T160 94T112 214Q112 275 146 319T238 388T370 412L430 334Q401 334 375 323T331 289T314 234Q314 194 348 169T466 144H792Q947 144 1035 87T1124 -88Q1124 -193 1055 -287T860 -442T560 -502ZM572 300Q457 300 362 343T209 465T152 648Q152 755 209 834T361
955T572 998Q684 998 779 956T932 834T990 648Q990 543 932 465T779 344T572 300ZM574 464Q666 464 712 517T758 648Q758 732 712 783T572 834Q482 834 434 783T386 648Q386 570 434 517T574 464ZM916 842L808 904Q808 991 848 1056T956 1158T1106 1194L1094 968Q1007
968 962 938T916 842Z" />
<glyph unicode="h" horiz-adv-x="1246" d="M852 0V568Q852 676 800 731T664 786Q593 786 539 747T453 630T422 434H344Q344 623 391 748T524 936T726 998Q846 998 926 945T1047 794T1088 568V0H852ZM186 0V1372H422V0H186Z" />
<glyph unicode="i" horiz-adv-x="656" d="M324 1148Q255 1148 217 1184T178 1286Q178 1349 216 1386T324 1424Q392 1424 431 1387T470 1286Q470 1221 431 1185T324 1148ZM206 0V974H442V0H206Z" />
<glyph unicode="j" horiz-adv-x="670" d="M336 1148Q269 1148 230 1184T190 1286Q190 1349 229 1386T336 1424Q404 1424 443 1387T482 1286Q482 1221 443 1185T336 1148ZM128 -502Q50 -502 -16 -485T-152 -440L-148 -236Q-97 -261 -41 -278T70 -296Q143 -296 181
-254T220 -112V974H456V-116Q456 -324 370 -413T128 -502Z" />
<glyph unicode="k" horiz-adv-x="1183" d="M186 0V1372H422V0H186ZM390 602L806 970H1126L390 358V602ZM862 0L428 618L652 672L1150 0H862Z" />
<glyph unicode="l" horiz-adv-x="609" d="M186 0V1372H422V0H186Z" />
<glyph unicode="m" horiz-adv-x="1898" d="M1504 0V568Q1504 676 1452 731T1316 786Q1210 786 1149 700T1088 440H990Q990 593 1018 699T1099 871T1223 967T1380 998Q1499 998 1579 945T1701 794T1742 568V0H1504ZM186 0V970H392L418 804Q466 901 545 949T726
998Q846 998 926 945T1047 794T1088 568V0H852V568Q852 676 800 731T664 786Q593 786 539 747T453 630T422 434V0H186Z" />
<glyph unicode="n" horiz-adv-x="1246" d="M852 0V568Q852 676 800 731T664 786Q593 786 539 747T453 630T422 434H344Q344 623 391 748T524 936T726 998Q846 998 926 945T1047 794T1088 568V0H852ZM186 0V970H392L422 778V0H186Z" />
<glyph unicode="o" horiz-adv-x="1132" d="M568 -28Q435 -28 328 29T157 199T94 484Q94 658 157 772T327 942T568 998Q699 998 805 942T975 772T1038 484Q1038 313 975 200T806 29T568 -28ZM560 178Q630 178 684 212T770 315T802 484Q802 638 742 716T576 794Q505
794 450 760T364 656T332 484Q332 332 393 255T560 178Z" />
<glyph unicode="p" horiz-adv-x="1220" d="M672 -28Q565 -28 490 18T376 157T336 392H422Q422 327 452 281T531 211T638 186Q697 186 754 218T850 317T888 486Q888 579 856 646T769 750T642 786Q582 786 532 759T452 681T422 556H336Q336 709 383 806T509 951T682
998Q797 998 898 937T1063 762T1126 486Q1126 324 1062 209T895 33T672 -28ZM186 -474V970H380L422 730V-474H186Z" />
<glyph unicode="q" horiz-adv-x="1220" d="M548 -28Q429 -28 326 33T158 209T94 486Q94 647 157 761T321 937T536 998Q630 998 709 951T836 807T884 556H796Q796 629 767 680T688 759T578 786Q507 786 452 750T364 647T332 486Q332 384 369 318T464 219T582 186Q637
186 686 210T765 281T796 392H842Q842 268 813 174T720 26T548 -28ZM1098 -502Q935 -461 866 -374T796 -132V730L880 970H1032V-150Q1032 -209 1044 -242T1085 -295T1166 -330L1098 -502Z" />
<glyph unicode="r" horiz-adv-x="785" d="M186 0V974H422V0H186ZM364 426Q364 617 407 742T522 927T684 988Q708 988 729 985T772 976L768 740Q742 746 712 750T658 754Q580 754 528 717T449 606T422 426H364Z" />
<glyph unicode="s" horiz-adv-x="1055" d="M548 -28Q408 -28 308 10T153 121T98 296H316Q319 224 373 191T520 158Q571 158 610 173T672 214T694 272Q694 313 665 336T570 380L358 456Q244 497 183 564T122 724Q122 847 233 922T532 998Q718 998 819 917T924 710H702Q697
758 656 786T532 814Q457 814 415 784T372 712Q372 643 490 608L720 522Q832 484 894 424T956 272Q956 195 905 127T761 15T548 -28Z" />
<glyph unicode="t" horiz-adv-x="789" d="M514 -28Q428 -28 357 4T243 102T200 270V1228H436V278Q436 158 550 158Q585 158 620 166T700 190L734 24Q678 2 625 -13T514 -28ZM64 814V970H700V814H64Z" />
<glyph unicode="u" horiz-adv-x="1254" d="M832 974H1068V0H832V974ZM166 974H402V378Q402 283 449 236T578 188Q648 188 705 224T797 332T832 510H896Q896 332 850 215T723 40T536 -18Q432 -18 348 19T215 138T166 354V974Z" />
<glyph unicode="v" horiz-adv-x="1038" d="M24 970H296L528 202H510L742 970H1014L652 0H386L24 970Z" />
<glyph unicode="w" horiz-adv-x="1516" d="M24 970H270L480 234H456L654 918H868L1066 232H1042L1252 970H1488L1168 0H936L738 644H774L580 0H346L24 970Z" />
<glyph unicode="x" horiz-adv-x="1107" d="M32 0L410 484L32 974H322L560 662L786 974H1074L698 484L1074 0H786L544 312L322 0H32Z" />
<glyph unicode="y" horiz-adv-x="1007" d="M38 970H306L564 206H522L744 970H984L612 -176Q555 -348 472 -425T268 -502Q199 -502 134 -487T0 -438V-230Q55 -264 106 -280T210 -296Q257 -296 292 -271T354 -200T398 -94L428 0L38 970Z" />
<glyph unicode="z" horiz-adv-x="990" d="M114 0V192L618 780H114V970H878V780L390 192H878V0H114Z" />
<glyph unicode="{" horiz-adv-x="782" d="M774 -312Q592 -312 478 -247T311 -69T258 192V374Q258 457 245 488T192 520H142V758H192Q231 758 244 789T258 904V1088Q258 1235 311 1347T478 1524T774 1588V1376Q627 1376 560 1305T492 1084V892Q492 796 455 735T360
644V634Q417 605 454 544T492 386V194Q492 44 559 -27T774 -98V-312Z" />
<glyph unicode="|" horiz-adv-x="609" d="M186 -244V1540H422V-244H186Z" />
<glyph unicode="}" horiz-adv-x="782" d="M8 -312Q190 -312 304 -247T471 -69T524 192V374Q524 457 537 488T590 520H640V758H590Q551 758 538 789T524 904V1088Q524 1235 471 1347T304 1524T8 1588V1376Q155 1376 222 1305T290 1084V892Q290 796 327 735T422
644V634Q365 605 328 544T290 386V194Q290 44 223 -27T8 -98V-312Z" />
<glyph unicode="~" horiz-adv-x="1139" d="M240 408L114 476Q149 605 210 680T370 756Q414 756 463 742T586 700Q659 671 698 660T768 648Q807 648 840 676T898 758L1024 678Q984 551 914 488T750 424Q717 424 668 437T546 480Q473 505 436 517T368 530Q329 530
297 502T240 408Z" />
<glyph unicode="&#xa0;" horiz-adv-x="506" />
<glyph unicode="&#xa1;" horiz-adv-x="586" d="M198 866L172 -22H428L400 866H198ZM301 1322Q228 1322 182 1278T136 1164Q136 1098 182 1052T301 1006Q372 1006 420 1052T468 1164Q468 1233 420 1277T301 1322Z" />
<glyph unicode="&#xa2;" horiz-adv-x="1057" d="M452 -216V42H646V-216H452ZM452 940V1174H646V940H452ZM554 -28Q432 -28 328 35T159 214T94 486Q94 651 158 765T327 939T554 998Q649 998 721 968T845 886T925 771T962 644L724 638Q708 702 665 744T552 786Q495
786 445 755T364 657T332 486Q332 386 361 320T441 220T552 186Q642 186 683 229T724 346H962Q962 243 915 158T777 23T554 -28Z" />
<glyph unicode="&#xa3;" horiz-adv-x="1203" d="M108 144V212Q182 212 212 255T242 386V888Q242 1032 293 1129T435 1275T650 1324Q815 1324 912 1236T1034 974H802Q793 1040 753 1075T650 1110Q572 1110 525 1056T478 888V402Q478 270 398 207T108 144ZM44 0V212H678Q777
212 820 250T874 368H1130Q1126 194 1025 97T680 0H44ZM76 562V720H820V562H76Z" />
<glyph unicode="&#xa4;" horiz-adv-x="1200" d="M600 216Q483 216 387 273T234 427T176 640Q176 757 233 853T387 1006T600 1064Q717 1064 813 1007T965 853T1022 640Q1022 523 966 427T813 274T600 216ZM600 426Q659 426 707 455T785 532T814 640Q814 700 785
748T708 825T600 854Q541 854 493 826T415 749T386 640Q386 581 415 533T492 455T600 426ZM848 788L748 888L978 1118L1078 1020L848 788ZM340 800L122 1018L220 1118L438 900L340 800ZM860 480L1078 262L980 162L762 380L860 480ZM340 480L438 380L220 162L122
262L340 480Z" />
<glyph unicode="&#xa5;" horiz-adv-x="1173" d="M460 0V536L14 1298H294L604 740H558L880 1298H1158L696 536V0H460ZM232 170V302H930V170H232ZM232 384V516H930V384H232Z" />
<glyph unicode="&#xa6;" horiz-adv-x="609" d="M186 750V1540H422V750H186ZM186 -244V546H422V-244H186Z" />
<glyph unicode="&#xa7;" horiz-adv-x="1200" d="M629 472Q681 472 720 487T782 528T804 588Q804 627 773 650T679 694L468 770Q355 808 294 876T232 1035Q232 1161 342 1236T636 1312Q831 1312 930 1230T1033 1023H811Q808 1072 765 1100T647 1128Q566 1128 524
1097T482 1024Q482 959 599 922L829 836Q942 797 1003 737T1065 590Q1065 510 1014 441T870 329T657 286L629 472ZM569 738Q494 738 452 706T409 630Q409 565 527 527L757 442Q868 403 930 343T992 195Q992 116 943 47T798 -66T566 -109Q442 -109 344 -71T190 41T135
216H353Q354 144 409 111T547 78Q635 78 683 111T731 193Q731 232 701 255T606 300L395 375Q280 415 220 483T159 644Q159 774 270 846T569 919V738Z" />
<glyph unicode="&#xa8;" horiz-adv-x="854" d="M618 1142Q560 1142 519 1180T478 1275Q478 1332 519 1370T618 1409Q680 1409 720 1371T760 1275Q760 1218 720 1180T618 1142ZM234 1142Q173 1142 134 1180T94 1273Q94 1332 133 1369T234 1407Q296 1407 336 1370T376
1273Q376 1218 336 1180T234 1142Z" />
<glyph unicode="&#xa9;" horiz-adv-x="1421" d="M711 -12Q574 -12 454 39T243 182T100 393T48 650Q48 787 99 907T242 1118T454 1261T711 1312Q847 1312 967 1261T1179 1119T1321 907T1373 650Q1373 513 1322 393T1179 182T968 40T711 -12ZM711 106Q824 106 922
148T1095 265T1212 439T1255 650Q1255 763 1213 861T1096 1035T923 1152T711 1194Q599 1194 500 1152T326 1035T209 862T166 650Q166 538 208 439T326 266T500 149T711 106ZM708 240Q605 240 528 289T409 431T366 653Q366 786 410 876T532 1013T708 1060Q846 1060
923 994T1022 820L870 792Q851 855 810 893T708 931Q656 931 613 901T545 808T519 653Q519 565 541 502T606 405T708 371Q785 371 827 412T870 516H1022Q1022 385 938 313T708 240Z" />
<glyph unicode="&#xaa;" horiz-adv-x="1170" d="M804 0L774 236V626Q774 728 733 777T592 826Q535 826 493 809T429 761T406 684H148Q148 794 201 863T353 965T592 998Q718 998 812 958T958 833T1010 618V0H804ZM486 -28Q361 -28 278 15T152 130T110 284Q110 376
158 438T296 532T506 564Q585 564 655 552T796 520V382Q741 400 676 410T554 420Q470 420 416 389T362 284Q362 230 406 191T546 152Q619 152 670 184T747 264T774 360H830Q830 255 791 167T676 25T486 -28Z" />
<glyph unicode="&#xab;" horiz-adv-x="1245" d="M315 509L667 851L508 971L94 540L508 108L667 228L315 571V509ZM800 509L1152 851L993 971L579 540L993 108L1152 228L800 571V509Z" />
<glyph unicode="&#xac;" horiz-adv-x="1200" d="M219 675H929V297H773V549L821 497H219V675Z" />
<glyph unicode="&#xad;" horiz-adv-x="1200" d="M92 500V706H654V500H92Z" />
<glyph unicode="&#xae;" horiz-adv-x="1421" d="M711 -12Q574 -12 454 39T243 182T100 393T48 650Q48 787 99 907T242 1118T454 1261T711 1312Q847 1312 967 1261T1179 1119T1321 907T1373 650Q1373 513 1322 393T1179 182T968 40T711 -12ZM711 106Q824 106 922
148T1095 265T1212 439T1255 650Q1255 763 1213 861T1096 1035T923 1152T711 1194Q599 1194 500 1152T326 1035T209 862T166 650Q166 538 208 439T326 266T500 149T711 106ZM857 291L660 637H803L1031 291H857ZM457 291V1030H730Q862 1030 933 968T1004 804Q1004
704 933 642T730 580H590V291H457ZM590 669H716Q791 669 828 703T866 791Q866 847 832 881T730 915H590V669Z" />
<glyph unicode="&#xaf;" horiz-adv-x="880" d="M95 1361H786V1168H95V1361Z" />
<glyph unicode="&#xb0;" horiz-adv-x="777" d="M389 970Q306 970 238 1010T129 1120T88 1271Q88 1355 128 1422T237 1530T389 1571Q472 1571 540 1531T648 1423T689 1271Q689 1189 649 1120T540 1011T389 970ZM389 1127Q448 1127 490 1169T532 1271Q532 1330 490
1372T389 1415Q329 1415 287 1373T244 1271Q244 1212 286 1170T389 1127Z" />
<glyph unicode="&#xb1;" horiz-adv-x="1012" d="M414 1098H598V792H876V640H598V336H414V640H136V792H414V1098ZM152 178H862V0H152V178Z" />
<glyph unicode="&#xb2;" horiz-adv-x="819" d="M120 526V660Q120 725 140 771T199 848T299 903L459 965Q511 986 536 1016T561 1092Q561 1137 529 1168T435 1200Q376 1200 337 1171T291 1085H134Q135 1165 175 1218T282 1297T432 1324Q511 1324 575 1294T676 1211T714
1086Q714 1026 692 980T626 900T513 839L352 777Q305 759 284 737T262 679V656H709V526H120Z" />
<glyph unicode="&#xb3;" horiz-adv-x="826" d="M413 509Q351 509 293 526T190 576T117 658T90 772H240Q242 731 264 701T325 655T413 639Q487 639 528 673T570 759Q570 792 553 816T501 854T412 867H308V979H396Q465 979 504 1008T543 1089Q543 1134 510 1164T408
1195Q353 1195 310 1173T255 1095H106Q114 1175 154 1225T258 1300T402 1324Q487 1324 553 1296T658 1219T696 1106Q696 1046 664 1002T567 936Q638 912 681 864T724 745Q724 676 685 623T576 539T413 509Z" />
<glyph unicode="&#xb4;" horiz-adv-x="720" d="M207 1117L94 1209L468 1582L626 1454L207 1117Z" />
<glyph unicode="&#xb5;" horiz-adv-x="1254" d="M832 974H1068V0H832V974ZM166 974H402V378Q402 283 449 236T578 188Q648 188 705 224T797 332T832 510H896Q896 332 850 215T723 40T536 -18Q432 -18 348 19T215 138T166 354V974ZM166 -398V974H402V-398H166Z" />
<glyph unicode="&#xb6;" horiz-adv-x="1200" d="M537 472Q317 472 195 580T72 885Q72 1083 194 1190T537 1298H988V1086H664V472H537ZM543 -252V1298H719V-252H543ZM846 -252V1298H1021V-252H846Z" />
<glyph unicode="&#xb7;" horiz-adv-x="430" d="M48 532Q48 600 94 646T212 692Q284 692 332 646T380 532Q380 465 332 421T212 376Q140 376 94 421T48 532Z" />
<glyph unicode="&#xb8;" horiz-adv-x="628" d="M94 -367L127 -284Q195 -316 247 -320T331 -308T366 -258Q369 -230 347 -209T284 -170T187 -141L265 79L369 64L298 -135L267 -75Q364 -90 424 -120T510 -189T534 -272Q530 -330 485 -365T371 -413T230 -414T94 -367Z" />
<glyph unicode="&#xb9;" horiz-adv-x="537" d="M243 1306H350V519H208V1136Q176 1121 145 1114T84 1106V1242Q125 1246 163 1261T243 1306Z" />
<glyph unicode="&#xba;" horiz-adv-x="1132" d="M568 -28Q435 -28 328 29T157 199T94 484Q94 658 157 772T327 942T568 998Q699 998 805 942T975 772T1038 484Q1038 313 975 200T806 29T568 -28ZM560 178Q630 178 684 212T770 315T802 484Q802 638 742 716T576
794Q505 794 450 760T364 656T332 484Q332 332 393 255T560 178Z" />
<glyph unicode="&#xbb;" horiz-adv-x="1245" d="M930 509L578 851L737 971L1151 540L737 108L578 228L930 571V509ZM446 509L94 851L253 971L667 540L253 108L94 228L446 571V509Z" />
<glyph unicode="&#xbc;" horiz-adv-x="1853" d="M243 1387H350V600H208V1217Q176 1202 146 1195T84 1186V1323Q125 1327 164 1342T243 1387ZM245 -24L1224 1379H1409L428 -24H245ZM1551 790H1687V295H1824V173H1687V0H1547V173H1150V281L1551 790ZM1553 579L1319
281H1553V579Z" />
<glyph unicode="&#xbd;" horiz-adv-x="1925" d="M243 1387H350V600H208V1217Q176 1202 146 1195T84 1186V1323Q125 1327 164 1342T243 1387ZM245 -24L1224 1379H1409L428 -24H245ZM1226 0V134Q1226 232 1270 287T1405 377L1564 439Q1617 459 1642 490T1667 567Q1667
612 1634 643T1541 674Q1481 674 1442 645T1397 559H1240Q1241 639 1281 692T1387 771T1538 798Q1617 798 1681 769T1782 686T1820 561Q1820 470 1771 412T1619 313L1457 251Q1410 233 1389 211T1368 153V130H1815V0H1226Z" />
<glyph unicode="&#xbe;" horiz-adv-x="2140" d="M413 572Q330 572 257 602T137 690T90 834H239Q243 773 290 738T413 702Q486 702 528 736T570 821Q570 872 532 901T412 930H308V1042H396Q465 1042 504 1071T543 1152Q543 1197 510 1227T408 1258Q353 1258 310
1236T255 1158H106Q119 1277 200 1332T402 1387Q530 1387 613 1326T696 1168Q696 1109 663 1065T567 999Q638 974 680 927T723 808Q723 704 638 638T413 572ZM533 -24L1512 1379H1697L716 -24H533ZM1839 790H1975V295H2112V173H1975V0H1835V173H1438V281L1839 790ZM1841
579L1607 281H1841V579Z" />
<glyph unicode="&#xbf;" horiz-adv-x="1034" d="M668 906V826Q668 739 648 683T584 589T468 514Q405 482 370 455T322 398T308 330Q308 267 359 226T498 184Q603 184 659 230T724 354H970Q959 180 842 75T508 -30Q366 -30 263 18T104 148T48 332Q48 436 100 508T264
636Q329 669 365 698T417 761T432 848V906H668ZM544 1322Q617 1322 662 1277T708 1167Q708 1099 663 1054T545 1008Q472 1008 424 1053T376 1166Q376 1232 424 1277T544 1322Z" />
<glyph unicode="&#xc0;" horiz-adv-x="1251" d="M44 0L486 1298H782L1206 0H958L868 280H386L294 0H44ZM446 458H812L630 1016L446 458ZM789 1443L371 1780L528 1908L902 1535L789 1443Z" />
<glyph unicode="&#xc1;" horiz-adv-x="1251" d="M44 0L486 1298H782L1206 0H958L868 280H386L294 0H44ZM446 458H812L630 1016L446 458ZM573 1440L460 1532L834 1905L992 1777L573 1440Z" />
<glyph unicode="&#xc2;" horiz-adv-x="1251" d="M44 0L486 1298H782L1206 0H958L868 280H386L294 0H44ZM446 458H812L630 1016L446 458ZM420 1427L281 1537L637 1842L994 1537L855 1427L595 1661H678L420 1427Z" />
<glyph unicode="&#xc3;" horiz-adv-x="1251" d="M44 0L486 1298H782L1206 0H958L868 280H386L294 0H44ZM446 458H812L630 1016L446 458ZM386 1449L292 1506Q316 1627 372 1694T506 1762Q535 1762 566 1751T652 1712Q703 1686 728 1675T778 1664Q807 1664 835 1687T884
1762L984 1696Q970 1624 939 1569T866 1481T784 1449Q748 1449 713 1463T620 1505Q573 1531 550 1540T506 1549Q474 1549 445 1529T386 1449Z" />
<glyph unicode="&#xc4;" horiz-adv-x="1251" d="M44 0L486 1298H782L1206 0H958L868 280H386L294 0H44ZM446 458H812L630 1016L446 458ZM829 1468Q771 1468 730 1506T689 1601Q689 1658 730 1696T829 1735Q891 1735 931 1697T971 1601Q971 1544 931 1506T829 1468ZM445
1468Q384 1468 345 1506T305 1599Q305 1658 344 1695T445 1733Q507 1733 547 1696T587 1599Q587 1544 547 1506T445 1468Z" />
<glyph unicode="&#xc5;" horiz-adv-x="1251" d="M44 0L486 1298H782L1206 0H958L868 280H386L294 0H44ZM446 458H812L630 1016L446 458ZM639 1402Q574 1402 520 1434T433 1520T401 1640Q401 1705 433 1759T519 1845T639 1878Q704 1878 758 1846T844 1759T877 1640Q877
1575 845 1521T758 1435T639 1402ZM639 1560Q673 1560 696 1583T719 1640Q719 1674 696 1697T639 1721Q605 1721 582 1698T559 1640Q559 1606 582 1583T639 1560Z" />
<glyph unicode="&#xc6;" horiz-adv-x="1766" d="M1611 1298V1094H1021L1061 1130V658L1021 748H1574V544H1021L1061 610V101L1021 207H1611V0H825V362L865 280H346L460 357L317 0H72L591 1298H1611ZM865 458L825 392L824 1127L865 1094H697L790 1183L477 401L411
458H865Z" />
<glyph unicode="&#xc7;" horiz-adv-x="1267" d="M658 -28Q487 -28 361 53T164 287T94 652Q94 872 166 1021T366 1247T658 1324Q885 1324 1012 1214T1176 928L924 882Q893 984 825 1047T658 1110Q571 1110 501 1060T390 907T348 652Q348 508 384 404T490 244T658
188Q785 188 854 255T924 428H1176Q1176 283 1114 182T935 26T658 -28ZM468 -367L501 -284Q569 -316 621 -320T705 -308T740 -258Q743 -230 721 -209T658 -170T561 -141L639 79L743 64L672 -135L641 -75Q738 -90 798 -120T884 -189T908 -272Q904 -330 859 -365T745
-413T604 -414T468 -367Z" />
<glyph unicode="&#xc8;" horiz-adv-x="1173" d="M184 0V1298H1018V1094H420V752H982V548H420V206H1018V0H184ZM737 1443L319 1780L476 1908L850 1535L737 1443Z" />
<glyph unicode="&#xc9;" horiz-adv-x="1173" d="M184 0V1298H1018V1094H420V752H982V548H420V206H1018V0H184ZM522 1440L409 1532L783 1905L941 1777L522 1440Z" />
<glyph unicode="&#xca;" horiz-adv-x="1173" d="M184 0V1298H1018V1094H420V752H982V548H420V206H1018V0H184ZM369 1427L230 1537L586 1842L943 1537L804 1427L544 1661H627L369 1427Z" />
<glyph unicode="&#xcb;" horiz-adv-x="1173" d="M184 0V1298H1018V1094H420V752H982V548H420V206H1018V0H184ZM777 1468Q719 1468 678 1506T637 1601Q637 1658 678 1696T777 1735Q839 1735 879 1697T919 1601Q919 1544 879 1506T777 1468ZM393 1468Q332 1468 293
1506T253 1599Q253 1658 292 1695T393 1733Q455 1733 495 1696T535 1599Q535 1544 495 1506T393 1468Z" />
<glyph unicode="&#xcc;" horiz-adv-x="609" d="M186 0V1298H422V0H186ZM455 1443L37 1780L194 1908L568 1535L455 1443Z" />
<glyph unicode="&#xcd;" horiz-adv-x="609" d="M186 0V1298H422V0H186ZM240 1440L127 1532L501 1905L659 1777L240 1440Z" />
<glyph unicode="&#xce;" horiz-adv-x="609" d="M186 0V1298H422V0H186ZM87 1427L-52 1537L304 1842L661 1537L522 1427L262 1661H345L87 1427Z" />
<glyph unicode="&#xcf;" horiz-adv-x="609" d="M186 0V1298H422V0H186ZM495 1468Q437 1468 396 1506T355 1601Q355 1658 396 1696T495 1735Q557 1735 597 1697T637 1601Q637 1544 597 1506T495 1468ZM111 1468Q50 1468 11 1506T-29 1599Q-29 1658 10 1695T111
1733Q173 1733 213 1696T253 1599Q253 1544 213 1506T111 1468Z" />
<glyph unicode="&#xd0;" horiz-adv-x="1373" d="M44 751H677V547H44V751ZM186 1298H606Q804 1298 953 1219T1185 993T1268 648Q1268 451 1185 306T953 80T606 0H186V1298ZM422 1084V212H606Q732 212 823 269T964 424T1014 648Q1014 775 965 873T824 1027T606 1084H422Z" />
<glyph unicode="&#xd1;" horiz-adv-x="1434" d="M182 1298H440L1030 372H1012V1298H1248V0H1008L380 982H418V0H182V1298ZM465 1449L371 1506Q395 1627 451 1694T585 1762Q614 1762 645 1751T731 1712Q782 1686 807 1675T857 1664Q886 1664 914 1687T963 1762L1063
1696Q1049 1624 1018 1569T945 1481T863 1449Q827 1449 792 1463T699 1505Q652 1531 629 1540T585 1549Q553 1549 524 1529T465 1449Z" />
<glyph unicode="&#xd2;" horiz-adv-x="1365" d="M682 -28Q509 -28 377 48T169 275T94 650Q94 878 169 1027T376 1250T682 1324Q856 1324 989 1249T1197 1023T1272 650Q1272 423 1197 272T989 47T682 -28ZM682 186Q841 186 934 306T1028 652Q1028 870 935 991T682
1112Q526 1112 432 991T338 650Q338 425 432 306T682 186ZM837 1443L419 1780L576 1908L950 1535L837 1443Z" />
<glyph unicode="&#xd3;" horiz-adv-x="1365" d="M682 -28Q509 -28 377 48T169 275T94 650Q94 878 169 1027T376 1250T682 1324Q856 1324 989 1249T1197 1023T1272 650Q1272 423 1197 272T989 47T682 -28ZM682 186Q841 186 934 306T1028 652Q1028 870 935 991T682
1112Q526 1112 432 991T338 650Q338 425 432 306T682 186ZM622 1440L509 1532L883 1905L1041 1777L622 1440Z" />
<glyph unicode="&#xd4;" horiz-adv-x="1365" d="M682 -28Q509 -28 377 48T169 275T94 650Q94 878 169 1027T376 1250T682 1324Q856 1324 989 1249T1197 1023T1272 650Q1272 423 1197 272T989 47T682 -28ZM682 186Q841 186 934 306T1028 652Q1028 870 935 991T682
1112Q526 1112 432 991T338 650Q338 425 432 306T682 186ZM469 1427L330 1537L686 1842L1043 1537L904 1427L644 1661H727L469 1427Z" />
<glyph unicode="&#xd5;" horiz-adv-x="1365" d="M682 -28Q509 -28 377 48T169 275T94 650Q94 878 169 1027T376 1250T682 1324Q856 1324 989 1249T1197 1023T1272 650Q1272 423 1197 272T989 47T682 -28ZM682 186Q841 186 934 306T1028 652Q1028 870 935 991T682
1112Q526 1112 432 991T338 650Q338 425 432 306T682 186ZM434 1449L340 1506Q364 1627 420 1694T554 1762Q583 1762 614 1751T700 1712Q751 1686 776 1675T826 1664Q855 1664 883 1687T932 1762L1032 1696Q1018 1624 987 1569T914 1481T832 1449Q796 1449 761
1463T668 1505Q621 1531 598 1540T554 1549Q522 1549 493 1529T434 1449Z" />
<glyph unicode="&#xd6;" horiz-adv-x="1365" d="M682 -28Q509 -28 377 48T169 275T94 650Q94 878 169 1027T376 1250T682 1324Q856 1324 989 1249T1197 1023T1272 650Q1272 423 1197 272T989 47T682 -28ZM682 186Q841 186 934 306T1028 652Q1028 870 935 991T682
1112Q526 1112 432 991T338 650Q338 425 432 306T682 186ZM877 1468Q819 1468 778 1506T737 1601Q737 1658 778 1696T877 1735Q939 1735 979 1697T1019 1601Q1019 1544 979 1506T877 1468ZM493 1468Q432 1468 393 1506T353 1599Q353 1658 392 1695T493 1733Q555
1733 595 1696T635 1599Q635 1544 595 1506T493 1468Z" />
<glyph unicode="&#xd7;" horiz-adv-x="1088" d="M284 90L118 258L378 518L118 776L284 944L544 684L804 944L972 776L710 518L972 258L804 90L544 350L284 90Z" />
<glyph unicode="&#xd8;" horiz-adv-x="1365" d="M60 0L1081 1299H1280L256 0H60ZM682 -28Q509 -28 376 48T169 275T94 650Q94 878 168 1027T376 1250T682 1324Q856 1324 989 1249T1196 1023T1271 650Q1271 423 1197 272T989 47T682 -28ZM682 186Q841 186 934 306T1027
652Q1027 870 934 991T682 1112Q526 1112 432 991T338 650Q338 425 432 306T682 186Z" />
<glyph unicode="&#xd9;" horiz-adv-x="1380" d="M166 1298H402V490Q402 330 483 259T692 188Q820 188 901 259T982 490V1298H1218V490Q1218 326 1155 210T975 33T692 -28Q527 -28 410 33T229 210T166 490V1298ZM841 1443L423 1780L580 1908L954 1535L841 1443Z" />
<glyph unicode="&#xda;" horiz-adv-x="1380" d="M166 1298H402V490Q402 330 483 259T692 188Q820 188 901 259T982 490V1298H1218V490Q1218 326 1155 210T975 33T692 -28Q527 -28 410 33T229 210T166 490V1298ZM625 1440L512 1532L886 1905L1044 1777L625 1440Z" />
<glyph unicode="&#xdb;" horiz-adv-x="1380" d="M166 1298H402V490Q402 330 483 259T692 188Q820 188 901 259T982 490V1298H1218V490Q1218 326 1155 210T975 33T692 -28Q527 -28 410 33T229 210T166 490V1298ZM472 1427L333 1537L689 1842L1046 1537L907 1427L647
1661H730L472 1427Z" />
<glyph unicode="&#xdc;" horiz-adv-x="1380" d="M166 1298H402V490Q402 330 483 259T692 188Q820 188 901 259T982 490V1298H1218V490Q1218 326 1155 210T975 33T692 -28Q527 -28 410 33T229 210T166 490V1298ZM881 1468Q823 1468 782 1506T741 1601Q741 1658
782 1696T881 1735Q943 1735 983 1697T1023 1601Q1023 1544 983 1506T881 1468ZM497 1468Q436 1468 397 1506T357 1599Q357 1658 396 1695T497 1733Q559 1733 599 1696T639 1599Q639 1544 599 1506T497 1468Z" />
<glyph unicode="&#xdd;" horiz-adv-x="1173" d="M14 1298H294L604 740H558L880 1298H1158L696 536V0H460V536L14 1298ZM522 1440L409 1532L783 1905L941 1777L522 1440Z" />
<glyph unicode="&#xde;" horiz-adv-x="1161" d="M180 0V1298H418V1035L364 1088H638Q857 1088 979 980T1102 674Q1102 478 980 370T638 262H364L418 315V0H180ZM418 415L364 468H638Q748 468 804 526T860 674Q860 766 804 825T638 884H364L418 938V415Z" />
<glyph unicode="&#xdf;" horiz-adv-x="1297" d="M1047 1076Q1047 1003 1021 954T962 870T903 804T877 740Q877 702 909 673T990 614T1085 545T1165 450T1198 311Q1198 207 1144 132T1003 15T818 -26Q761 -26 692 -11T566 32L568 220Q628 180 680 162T785 143Q840
143 874 162T923 213T938 285Q938 349 908 393T835 472T748 538T675 609T645 702Q645 756 673 794T738 867T803 942T831 1039Q831 1113 776 1154T630 1196Q516 1196 471 1127T425 907V0H186V912Q186 1068 240 1172T396 1329T641 1382Q766 1382 857 1344T997 1237T1047
1076Z" />
<glyph unicode="&#xe0;" horiz-adv-x="1170" d="M804 0L774 236V626Q774 728 733 777T592 826Q535 826 493 809T429 761T406 684H148Q148 794 201 863T353 965T592 998Q718 998 812 958T958 833T1010 618V0H804ZM486 -28Q361 -28 278 15T152 130T110 284Q110 376
158 438T296 532T506 564Q585 564 655 552T796 520V382Q741 400 676 410T554 420Q470 420 416 389T362 284Q362 230 406 191T546 152Q619 152 670 184T747 264T774 360H830Q830 255 791 167T676 25T486 -28ZM735 1117L317 1454L474 1582L848 1209L735 1117Z" />
<glyph unicode="&#xe1;" horiz-adv-x="1170" d="M804 0L774 236V626Q774 728 733 777T592 826Q535 826 493 809T429 761T406 684H148Q148 794 201 863T353 965T592 998Q718 998 812 958T958 833T1010 618V0H804ZM486 -28Q361 -28 278 15T152 130T110 284Q110 376
158 438T296 532T506 564Q585 564 655 552T796 520V382Q741 400 676 410T554 420Q470 420 416 389T362 284Q362 230 406 191T546 152Q619 152 670 184T747 264T774 360H830Q830 255 791 167T676 25T486 -28ZM520 1114L407 1206L781 1579L939 1451L520 1114Z" />
<glyph unicode="&#xe2;" horiz-adv-x="1170" d="M804 0L774 236V626Q774 728 733 777T592 826Q535 826 493 809T429 761T406 684H148Q148 794 201 863T353 965T592 998Q718 998 812 958T958 833T1010 618V0H804ZM486 -28Q361 -28 278 15T152 130T110 284Q110 376
158 438T296 532T506 564Q585 564 655 552T796 520V382Q741 400 676 410T554 420Q470 420 416 389T362 284Q362 230 406 191T546 152Q619 152 670 184T747 264T774 360H830Q830 255 791 167T676 25T486 -28ZM367 1101L228 1211L584 1516L941 1211L802 1101L542
1335H625L367 1101Z" />
<glyph unicode="&#xe3;" horiz-adv-x="1170" d="M804 0L774 236V626Q774 728 733 777T592 826Q535 826 493 809T429 761T406 684H148Q148 794 201 863T353 965T592 998Q718 998 812 958T958 833T1010 618V0H804ZM486 -28Q361 -28 278 15T152 130T110 284Q110 376
158 438T296 532T506 564Q585 564 655 552T796 520V382Q741 400 676 410T554 420Q470 420 416 389T362 284Q362 230 406 191T546 152Q619 152 670 184T747 264T774 360H830Q830 255 791 167T676 25T486 -28ZM332 1123L238 1180Q262 1301 318 1368T452 1436Q481
1436 512 1425T598 1386Q649 1360 674 1349T724 1338Q753 1338 781 1361T830 1436L930 1370Q916 1298 885 1243T812 1155T730 1123Q694 1123 659 1137T566 1179Q519 1205 496 1214T452 1223Q420 1223 391 1203T332 1123Z" />
<glyph unicode="&#xe4;" horiz-adv-x="1170" d="M804 0L774 236V626Q774 728 733 777T592 826Q535 826 493 809T429 761T406 684H148Q148 794 201 863T353 965T592 998Q718 998 812 958T958 833T1010 618V0H804ZM486 -28Q361 -28 278 15T152 130T110 284Q110 376
158 438T296 532T506 564Q585 564 655 552T796 520V382Q741 400 676 410T554 420Q470 420 416 389T362 284Q362 230 406 191T546 152Q619 152 670 184T747 264T774 360H830Q830 255 791 167T676 25T486 -28ZM775 1142Q717 1142 676 1180T635 1275Q635 1332 676
1370T775 1409Q837 1409 877 1371T917 1275Q917 1218 877 1180T775 1142ZM391 1142Q330 1142 291 1180T251 1273Q251 1332 290 1369T391 1407Q453 1407 493 1370T533 1273Q533 1218 493 1180T391 1142Z" />
<glyph unicode="&#xe5;" horiz-adv-x="1170" d="M804 0L774 236V626Q774 728 733 777T592 826Q535 826 493 809T429 761T406 684H148Q148 794 201 863T353 965T592 998Q718 998 812 958T958 833T1010 618V0H804ZM486 -28Q361 -28 278 15T152 130T110 284Q110 376
158 438T296 532T506 564Q585 564 655 552T796 520V382Q741 400 676 410T554 420Q470 420 416 389T362 284Q362 230 406 191T546 152Q619 152 670 184T747 264T774 360H830Q830 255 791 167T676 25T486 -28ZM586 1076Q521 1076 467 1108T380 1194T348 1314Q348
1379 380 1433T466 1519T586 1552Q651 1552 705 1520T791 1433T824 1314Q824 1249 792 1195T705 1109T586 1076ZM586 1234Q620 1234 643 1257T666 1314Q666 1348 643 1371T586 1395Q552 1395 529 1372T506 1314Q506 1280 529 1257T586 1234Z" />
<glyph unicode="&#xe6;" horiz-adv-x="1724" d="M791 302H761V626Q761 725 718 775T581 826Q528 826 489 809T428 761T406 684H148Q148 794 200 863T341 965T536 998Q671 998 760 949T893 807T937 584V445L791 302ZM480 -28Q361 -28 279 14T153 127T110 284Q110
376 157 438T291 532T492 564Q566 564 639 552T782 520V382Q728 400 660 410T544 420Q466 420 414 389T362 288Q362 231 403 192T526 152Q601 152 653 183T733 261T761 360H913Q913 266 864 177T719 30T480 -28ZM1224 -28Q1091 -28 987 39T824 224T764 489Q764
637 823 752T985 932T1219 998Q1330 998 1413 951T1548 825T1618 646T1620 440H946V568H1453L1407 538Q1410 585 1403 633T1374 721T1314 785T1215 810Q1144 810 1094 774T1018 676T992 536V442Q992 360 1016 297T1089 198T1213 162Q1279 162 1326 193T1387 290H1626Q1612
196 1555 125T1412 13T1224 -28Z" />
<glyph unicode="&#xe7;" horiz-adv-x="1059" d="M554 -28Q432 -28 328 35T159 214T94 486Q94 651 158 765T327 939T554 998Q649 998 721 968T845 886T925 771T962 644L724 638Q708 702 665 744T552 786Q495 786 445 755T364 657T332 486Q332 386 361 320T441 220T552
186Q642 186 683 229T724 346H962Q962 243 915 158T777 23T554 -28ZM350 -365L383 -282Q451 -314 503 -318T587 -306T622 -256Q625 -228 603 -207T540 -168T443 -139L521 81L625 66L554 -133L523 -73Q620 -88 680 -118T766 -187T790 -270Q786 -328 741 -363T627
-411T486 -412T350 -365Z" />
<glyph unicode="&#xe8;" horiz-adv-x="1060" d="M548 -28Q424 -28 321 36T156 215T94 486Q94 646 155 761T320 937T548 998Q664 998 748 952T884 826T954 646T956 440H282V568H789L743 538Q746 585 739 633T710 721T651 785T552 810Q480 810 430 774T354 676T328
536V442Q328 360 352 297T425 198T548 162Q617 162 664 194T724 290H962Q947 196 892 125T748 13T548 -28ZM681 1117L263 1454L420 1582L794 1209L681 1117Z" />
<glyph unicode="&#xe9;" horiz-adv-x="1060" d="M548 -28Q424 -28 321 36T156 215T94 486Q94 646 155 761T320 937T548 998Q664 998 748 952T884 826T954 646T956 440H282V568H789L743 538Q746 585 739 633T710 721T651 785T552 810Q480 810 430 774T354 676T328
536V442Q328 360 352 297T425 198T548 162Q617 162 664 194T724 290H962Q947 196 892 125T748 13T548 -28ZM466 1114L353 1206L727 1579L885 1451L466 1114Z" />
<glyph unicode="&#xea;" horiz-adv-x="1060" d="M548 -28Q424 -28 321 36T156 215T94 486Q94 646 155 761T320 937T548 998Q664 998 748 952T884 826T954 646T956 440H282V568H789L743 538Q746 585 739 633T710 721T651 785T552 810Q480 810 430 774T354 676T328
536V442Q328 360 352 297T425 198T548 162Q617 162 664 194T724 290H962Q947 196 892 125T748 13T548 -28ZM313 1357L174 1467L530 1772L887 1467L748 1357L488 1591H571L313 1357Z" />
<glyph unicode="&#xeb;" horiz-adv-x="1060" d="M548 -28Q424 -28 321 36T156 215T94 486Q94 646 155 761T320 937T548 998Q664 998 748 952T884 826T954 646T956 440H282V568H789L743 538Q746 585 739 633T710 721T651 785T552 810Q480 810 430 774T354 676T328
536V442Q328 360 352 297T425 198T548 162Q617 162 664 194T724 290H962Q947 196 892 125T748 13T548 -28ZM721 1142Q663 1142 622 1180T581 1275Q581 1332 622 1370T721 1409Q783 1409 823 1371T863 1275Q863 1218 823 1180T721 1142ZM337 1142Q276 1142 237 1180T197
1273Q197 1332 236 1369T337 1407Q399 1407 439 1370T479 1273Q479 1218 439 1180T337 1142Z" />
<glyph unicode="&#xec;" horiz-adv-x="656" d="M206 0V974H442V0H206ZM730 1117L312 1454L469 1582L843 1209L730 1117Z" />
<glyph unicode="&#xed;" horiz-adv-x="656" d="M206 0V974H442V0H206ZM259 1370L146 1462L520 1835L678 1707L259 1370Z" />
<glyph unicode="&#xee;" horiz-adv-x="656" d="M206 0V974H442V0H206ZM362 1357L223 1467L579 1772L936 1467L797 1357L537 1591H620L362 1357Z" />
<glyph unicode="&#xef;" horiz-adv-x="656" d="M206 0V974H442V0H206ZM770 1142Q712 1142 671 1180T630 1275Q630 1332 671 1370T770 1409Q832 1409 872 1371T912 1275Q912 1218 872 1180T770 1142ZM386 1142Q325 1142 286 1180T246 1273Q246 1332 285 1369T386
1407Q448 1407 488 1370T528 1273Q528 1218 488 1180T386 1142Z" />
<glyph unicode="&#xf0;" horiz-adv-x="1134" d="M550 -28Q429 -28 327 36T164 218T102 492Q102 645 159 758T313 935T522 998Q638 998 723 934T854 760T901 516H827Q826 608 789 668T696 757T580 786Q510 786 456 749T371 645T340 488Q340 398 371 330T456 224T582
186Q658 186 710 228T792 340T825 495Q830 647 813 785T746 1049T605 1294T369 1524L567 1657Q698 1538 791 1410T942 1151T1027 890T1054 641Q1054 479 1013 355T900 145T739 16T550 -28ZM419 1112L352 1255L973 1566L1041 1423L419 1112Z" />
<glyph unicode="&#xf1;" horiz-adv-x="1246" d="M852 0V568Q852 676 800 731T664 786Q593 786 539 747T453 630T422 434H344Q344 623 391 748T524 936T726 998Q846 998 926 945T1047 794T1088 568V0H852ZM186 0V970H392L422 778V0H186ZM385 1130L291 1187Q315
1308 371 1375T505 1443Q534 1443 565 1432T651 1393Q702 1367 727 1356T777 1345Q806 1345 834 1368T883 1443L983 1377Q969 1305 938 1250T865 1162T783 1130Q747 1130 712 1144T619 1186Q572 1212 549 1221T505 1230Q473 1230 444 1210T385 1130Z" />
<glyph unicode="&#xf2;" horiz-adv-x="1132" d="M568 -28Q435 -28 328 29T157 199T94 484Q94 658 157 772T327 942T568 998Q699 998 805 942T975 772T1038 484Q1038 313 975 200T806 29T568 -28ZM560 178Q630 178 684 212T770 315T802 484Q802 638 742 716T576
794Q505 794 450 760T364 656T332 484Q332 332 393 255T560 178ZM717 1117L299 1454L456 1582L830 1209L717 1117Z" />
<glyph unicode="&#xf3;" horiz-adv-x="1132" d="M568 -28Q435 -28 328 29T157 199T94 484Q94 658 157 772T327 942T568 998Q699 998 805 942T975 772T1038 484Q1038 313 975 200T806 29T568 -28ZM560 178Q630 178 684 212T770 315T802 484Q802 638 742 716T576
794Q505 794 450 760T364 656T332 484Q332 332 393 255T560 178ZM502 1114L389 1206L763 1579L921 1451L502 1114Z" />
<glyph unicode="&#xf4;" horiz-adv-x="1132" d="M568 -28Q435 -28 328 29T157 199T94 484Q94 658 157 772T327 942T568 998Q699 998 805 942T975 772T1038 484Q1038 313 975 200T806 29T568 -28ZM560 178Q630 178 684 212T770 315T802 484Q802 638 742 716T576
794Q505 794 450 760T364 656T332 484Q332 332 393 255T560 178ZM349 1357L210 1467L566 1772L923 1467L784 1357L524 1591H607L349 1357Z" />
<glyph unicode="&#xf5;" horiz-adv-x="1132" d="M568 -28Q435 -28 328 29T157 199T94 484Q94 658 157 772T327 942T568 998Q699 998 805 942T975 772T1038 484Q1038 313 975 200T806 29T568 -28ZM560 178Q630 178 684 212T770 315T802 484Q802 638 742 716T576
794Q505 794 450 760T364 656T332 484Q332 332 393 255T560 178ZM314 1123L220 1180Q244 1301 300 1368T434 1436Q463 1436 494 1425T580 1386Q631 1360 656 1349T706 1338Q735 1338 763 1361T812 1436L912 1370Q898 1298 867 1243T794 1155T712 1123Q676 1123
641 1137T548 1179Q501 1205 478 1214T434 1223Q402 1223 373 1203T314 1123Z" />
<glyph unicode="&#xf6;" horiz-adv-x="1132" d="M568 -28Q435 -28 328 29T157 199T94 484Q94 658 157 772T327 942T568 998Q699 998 805 942T975 772T1038 484Q1038 313 975 200T806 29T568 -28ZM560 178Q630 178 684 212T770 315T802 484Q802 638 742 716T576
794Q505 794 450 760T364 656T332 484Q332 332 393 255T560 178ZM757 1142Q699 1142 658 1180T617 1275Q617 1332 658 1370T757 1409Q819 1409 859 1371T899 1275Q899 1218 859 1180T757 1142ZM373 1142Q312 1142 273 1180T233 1273Q233 1332 272 1369T373 1407Q435
1407 475 1370T515 1273Q515 1218 475 1180T373 1142Z" />
<glyph unicode="&#xf7;" horiz-adv-x="1041" d="M132 444V652H908V444H132ZM518 78Q460 78 421 115T382 208Q382 264 421 301T518 338Q578 338 618 301T658 208Q658 153 618 116T518 78ZM518 752Q460 752 421 788T382 882Q382 936 421 974T518 1012Q578 1012 618
974T658 882Q658 825 618 789T518 752Z" />
<glyph unicode="&#xf8;" horiz-adv-x="1132" d="M568 -28Q435 -28 328 29T157 199T94 484Q94 658 157 772T327 942T568 998Q699 998 805 942T975 772T1038 484Q1038 313 975 200T806 29T568 -28ZM560 178Q630 178 684 212T770 315T802 484Q802 638 742 716T576
794Q505 794 450 760T364 656T332 484Q332 332 393 255T560 178ZM99 -1L920 982H1140L316 -1H99Z" />
<glyph unicode="&#xf9;" horiz-adv-x="1254" d="M832 974H1068V0H832V974ZM166 974H402V378Q402 283 449 236T578 188Q648 188 705 224T797 332T832 510H896Q896 332 850 215T723 40T536 -18Q432 -18 348 19T215 138T166 354V974ZM794 1117L376 1454L533 1582L907
1209L794 1117Z" />
<glyph unicode="&#xfa;" horiz-adv-x="1254" d="M832 974H1068V0H832V974ZM166 974H402V378Q402 283 449 236T578 188Q648 188 705 224T797 332T832 510H896Q896 332 850 215T723 40T536 -18Q432 -18 348 19T215 138T166 354V974ZM578 1114L465 1206L839 1579L997
1451L578 1114Z" />
<glyph unicode="&#xfb;" horiz-adv-x="1254" d="M832 974H1068V0H832V974ZM166 974H402V378Q402 283 449 236T578 188Q648 188 705 224T797 332T832 510H896Q896 332 850 215T723 40T536 -18Q432 -18 348 19T215 138T166 354V974ZM425 1101L286 1211L642 1516L999
1211L860 1101L600 1335H683L425 1101Z" />
<glyph unicode="&#xfc;" horiz-adv-x="1254" d="M832 974H1068V0H832V974ZM166 974H402V378Q402 283 449 236T578 188Q648 188 705 224T797 332T832 510H896Q896 332 850 215T723 40T536 -18Q432 -18 348 19T215 138T166 354V974ZM834 1142Q776 1142 735 1180T694
1275Q694 1332 735 1370T834 1409Q896 1409 936 1371T976 1275Q976 1218 936 1180T834 1142ZM450 1142Q389 1142 350 1180T310 1273Q310 1332 349 1369T450 1407Q512 1407 552 1370T592 1273Q592 1218 552 1180T450 1142Z" />
<glyph unicode="&#xfd;" horiz-adv-x="1007" d="M38 970H306L564 206H522L744 970H984L612 -176Q555 -348 472 -425T268 -502Q199 -502 134 -487T0 -438V-230Q55 -264 106 -280T210 -296Q257 -296 292 -271T354 -200T398 -94L428 0L38 970ZM439 1114L326 1206L700
1579L858 1451L439 1114Z" />
<glyph unicode="&#xfe;" horiz-adv-x="1200" d="M672 -28Q565 -28 490 18T376 157T336 392H422Q422 327 452 281T531 211T638 186Q697 186 754 218T850 317T888 486Q888 579 856 646T769 750T642 786Q582 786 532 759T452 681T422 556H336Q336 709 383 806T509
951T682 998Q797 998 898 937T1063 762T1126 486Q1126 324 1062 209T895 33T672 -28ZM186 -474V1298H422V-474H186Z" />
<glyph unicode="&#xff;" horiz-adv-x="1007" d="M38 970H306L564 206H522L744 970H984L612 -176Q555 -348 472 -425T268 -502Q199 -502 134 -487T0 -438V-230Q55 -264 106 -280T210 -296Q257 -296 292 -271T354 -200T398 -94L428 0L38 970ZM695 1142Q637 1142
596 1180T555 1275Q555 1332 596 1370T695 1409Q757 1409 797 1371T837 1275Q837 1218 797 1180T695 1142ZM311 1142Q250 1142 211 1180T171 1273Q171 1332 210 1369T311 1407Q373 1407 413 1370T453 1273Q453 1218 413 1180T311 1142Z" />
<glyph unicode="&#x2013;" horiz-adv-x="1050" d="M110 500V706H940V500H110Z" />
<glyph unicode="&#x2014;" horiz-adv-x="1536" d="M110 500V706H1428V500H110Z" />
<glyph unicode="&#x2018;" horiz-adv-x="542" d="M262 758Q205 758 162 788T96 867T72 974Q72 1072 138 1161T310 1304L474 1212Q408 1181 358 1138T288 1038Q345 1030 384 996T424 904Q424 844 379 801T262 758Z" />
<glyph unicode="&#x2019;" horiz-adv-x="542" d="M222 758L58 850Q124 882 175 925T244 1024Q185 1033 147 1068T108 1160Q108 1223 155 1263T272 1304Q331 1304 372 1274T436 1195T458 1088Q458 989 393 902T222 758Z" />
<glyph unicode="&#x201a;" horiz-adv-x="558" d="M246 -272L72 -184Q138 -151 189 -108T256 -10Q201 1 162 36T122 128Q122 188 168 229T284 270Q373 270 423 208T474 61Q474 -36 413 -127T246 -272Z" />
<glyph unicode="&#x201c;" horiz-adv-x="982" d="M686 758Q629 758 586 788T520 867T496 974Q496 1072 562 1161T734 1304L898 1212Q832 1181 782 1138T712 1038Q769 1030 808 996T848 904Q848 844 803 801T686 758ZM262 758Q205 758 162 788T96 867T72 974Q72
1072 138 1161T310 1304L474 1212Q408 1181 358 1138T288 1038Q345 1030 384 996T424 904Q424 844 379 801T262 758Z" />
<glyph unicode="&#x201d;" horiz-adv-x="970" d="M650 758L486 850Q552 882 603 925T672 1024Q613 1033 575 1068T536 1160Q536 1223 583 1263T700 1304Q759 1304 800 1274T864 1195T886 1088Q886 989 821 902T650 758ZM236 758L72 850Q138 882 189 925T258 1024Q199
1033 161 1068T122 1160Q122 1223 169 1263T286 1304Q345 1304 386 1274T450 1195T472 1088Q472 989 407 902T236 758Z" />
<glyph unicode="&#x201e;" horiz-adv-x="1032" d="M720 -272L546 -184Q612 -151 663 -108T730 -10Q675 1 636 36T596 128Q596 188 642 229T758 270Q847 270 897 208T948 61Q948 -36 887 -127T720 -272ZM246 -272L72 -184Q138 -151 189 -108T256 -10Q201 1 162
36T122 128Q122 188 168 229T284 270Q373 270 423 208T474 61Q474 -36 413 -127T246 -272Z" />
<glyph unicode="&#x2022;" horiz-adv-x="649" d="M53 631Q53 755 136 838T351 922Q483 922 570 839T658 631Q658 509 571 428T351 346Q220 346 137 428T53 631Z" />
<glyph unicode="&#x2039;" horiz-adv-x="761" d="M315 509L667 851L508 971L94 540L508 108L667 228L315 571V509Z" />
<glyph unicode="&#x203a;" horiz-adv-x="761" d="M253 108L94 228L445 571V509L94 851L253 971L667 540L253 108Z" />
</font>
</defs>
</svg>
