<?xml version="1.0" standalone="no"?>
<!DOCTYPE svg PUBLIC "-//W3C//DTD SVG 1.1//EN" "http://www.w3.org/Graphics/SVG/1.1/DTD/svg11.dtd">
<svg xmlns="http://www.w3.org/2000/svg">
<defs >
<font id="Karla" horiz-adv-x="978" ><font-face
    font-family="Karla ExtraBold"
    units-per-em="2000"
    panose-1="2 11 0 4 3 5 3 3 0 3"
    ascent="1834"
    descent="-504"
    alphabetic="0" />
<glyph unicode=" " horiz-adv-x="490" />
<glyph unicode="!" horiz-adv-x="562" d="M210 541L256 1417H589L472 541H210ZM288 -18Q199 -18 151 43T110 195Q118 286 179 346T328 406Q419 406 470 345T513 195Q505 109 443 46T288 -18Z" />
<glyph unicode="&quot;" horiz-adv-x="858" d="M616 865L630 1384H918L830 865H616ZM182 865L196 1384H484L396 865H182Z" />
<glyph unicode="#" horiz-adv-x="1330" d="M241 71L288 314H144L177 523H326L376 791H230L272 1007H418L466 1243H745L698 1007H903L951 1243H1232L1185 1007H1342L1292 791H1143L1092 523H1250L1208 314H1055L1007 71H728L775 314H570L522 71H241ZM605 523H811L861
791H656L605 523Z" />
<glyph unicode="$" horiz-adv-x="1362" d="M564 -226L583 -27Q451 -10 347 43T189 194T149 439H450Q440 371 478 333T615 280L638 567L512 616Q361 675 281 763T211 996Q230 1154 358 1257T711 1377L730 1532H930L911 1375Q1104 1345 1194 1229T1298 926H1004Q1003
968 976 1017T888 1083L857 799L1050 717Q1192 657 1247 576T1291 365Q1282 270 1225 183T1057 37T778 -33L760 -226H564ZM810 274Q886 281 918 307T952 374Q958 409 939 439T876 492L830 516L810 274ZM666 856L688 1096Q616 1096 581 1063T542 999Q538 960 556
936T626 880L666 856Z" />
<glyph unicode="%" horiz-adv-x="1460" d="M500 1377Q611 1377 683 1300T739 1058Q722 891 636 812T441 732Q372 732 315 767T227 874T208 1058Q217 1168 261 1238T368 1343T500 1377ZM481 1174Q460 1174 445 1151T424 1058Q415 985 427 959T460 933Q486 933 503
959T526 1058Q532 1128 520 1151T481 1174ZM176 0L1137 1346H1430L476 0H176ZM1165 613Q1270 613 1342 535T1400 295Q1384 124 1298 45T1105 -35Q995 -35 922 44T865 295Q882 457 969 535T1165 613ZM1142 411Q1120 411 1105 387T1085 295Q1078 222 1088 196T1121
170Q1143 170 1161 196T1187 295Q1195 362 1181 386T1142 411Z" />
<glyph unicode="&amp;" horiz-adv-x="1842" d="M695 -35Q556 -35 441 21T262 175T210 396Q220 531 314 610T556 717L527 751Q490 801 460 875T437 1028Q445 1121 502 1199T664 1324T914 1371Q1061 1371 1157 1325T1296 1202T1330 1034Q1316 895 1227 801T989 655L1131
487Q1184 551 1237 627T1337 795L1524 674Q1475 563 1418 470T1298 296L1317 280Q1333 270 1354 264T1397 257Q1437 257 1467 288T1504 386H1766Q1748 199 1658 82T1406 -35Q1366 -35 1321 -25T1232 3T1153 47T1098 103Q1004 36 902 1T695 -35ZM724 268Q771 268
821 277T920 303L701 556Q616 540 582 506T542 420Q537 356 585 312T724 268ZM845 823Q878 834 910 854T966 905T996 980Q998 1026 970 1054T889 1083Q834 1083 799 1055T758 982Q752 945 770 915T816 855L845 823Z" />
<glyph unicode="&apos;" horiz-adv-x="420" d="M186 835L199 1354H488L400 835H186Z" />
<glyph unicode="(" horiz-adv-x="816" d="M681 1570L874 1396Q761 1270 682 1155T558 920T499 662Q487 525 509 407T589 176T739 -62L506 -248Q376 -110 302 34T202 334T192 662Q218 923 332 1146T681 1570Z" />
<glyph unicode=")" horiz-adv-x="816" d="M255 -248L58 -62Q176 62 256 175T382 407T438 662Q452 801 429 920T348 1154T198 1396L431 1570Q623 1369 696 1146T746 662Q730 490 674 334T514 34T255 -248Z" />
<glyph unicode="*" horiz-adv-x="729" d="M324 811L206 942L364 1085L184 1152L264 1330L422 1240L418 1456H600L554 1240L725 1339L779 1156L589 1089L720 942L572 811L470 1006L324 811Z" />
<glyph unicode="+" horiz-adv-x="1018" d="M454 982H748L717 637H1043L1013 345H690L656 0H360L394 345H63L93 637H421L454 982Z" />
<glyph unicode="," horiz-adv-x="550" d="M217 -337L12 -213Q83 -172 144 -123T228 -10Q171 8 131 54T96 171Q103 252 166 309T316 366Q390 366 437 326T504 221T516 82Q507 -1 466 -81T361 -228T217 -337Z" />
<glyph unicode="-" horiz-adv-x="725" d="M147 483L174 773H699L672 483H147Z" />
<glyph unicode="." horiz-adv-x="463" d="M227 -18Q140 -18 88 41T46 194Q56 283 117 344T267 406Q352 406 404 347T450 194Q443 96 377 39T227 -18Z" />
<glyph unicode="/" horiz-adv-x="936" d="M70 -181L705 1523H1012L375 -181H70Z" />
<glyph unicode="0" horiz-adv-x="1224" d="M609 -35Q452 -35 338 41T170 273T139 670Q163 914 246 1070T456 1301T740 1377Q895 1377 1009 1302T1179 1070T1210 670Q1186 430 1102 274T890 41T609 -35ZM634 272Q737 272 811 373T903 670Q920 870 868 974T715 1079Q609
1079 536 975T448 670Q427 475 478 374T634 272Z" />
<glyph unicode="1" horiz-adv-x="697" d="M458 1359H673L546 0H243L334 964Q285 945 241 940T151 938L178 1248Q246 1259 312 1282T458 1359Z" />
<glyph unicode="2" horiz-adv-x="1141" d="M426 312L424 300H1106L1077 0H98L123 265Q136 374 169 454T267 592T437 691L708 795Q780 826 814 866T852 962Q856 1012 825 1052T720 1092Q655 1092 605 1046T534 914H202Q216 1076 294 1178T491 1328T741 1377Q869
1377 971 1325T1128 1178T1168 949Q1157 795 1070 691T794 506L521 399Q467 380 447 362T426 312Z" />
<glyph unicode="3" horiz-adv-x="1187" d="M593 -35Q493 -35 401 -5T237 84T127 231T99 434H423Q425 388 446 352T510 294T618 272Q712 272 770 312T836 419Q840 466 822 494T764 536T667 549H480L502 807H692Q761 807 803 846T851 951Q853 1006 821 1042T701
1079Q624 1079 562 1045T478 934H163Q201 1163 350 1270T713 1377Q858 1377 965 1330T1126 1197T1170 993Q1163 894 1109 818T957 706Q1057 659 1112 578T1156 386Q1145 264 1069 169T869 19T593 -35Z" />
<glyph unicode="4" horiz-adv-x="1147" d="M632 0L658 269H56L77 514L760 1355H1053L979 550H1188L1166 269H956L928 0H632ZM428 514H700L734 885L428 514Z" />
<glyph unicode="5" horiz-adv-x="1086" d="M559 -35Q410 -35 310 21T163 182T124 434H433Q426 348 468 310T586 272Q660 272 720 326T788 461Q796 535 753 573T609 611H191L317 1346H1103L1076 1044H577L538 836Q585 844 640 849T735 854Q910 854 1010 750T1090
461Q1081 325 1009 212T821 32T559 -35Z" />
<glyph unicode="6" horiz-adv-x="1164" d="M626 -33Q466 -33 348 54T173 295T135 650Q157 890 243 1051T462 1295T752 1377Q885 1377 983 1324T1131 1174T1169 944H854Q855 1008 825 1043T738 1079Q646 1079 581 1015T479 833T432 558Q462 668 517 730T642 817T788
842Q908 842 989 786T1108 632T1134 408Q1122 277 1053 178T874 23T626 -33ZM653 272Q717 272 768 314T827 423Q835 499 790 541T679 583Q637 583 598 565T533 512T503 423Q496 357 540 315T653 272Z" />
<glyph unicode="7" horiz-adv-x="956" d="M51 0L668 1027H139L171 1346H1051L1019 1024L450 0H51Z" />
<glyph unicode="8" horiz-adv-x="1234" d="M614 -35Q444 -35 328 18T155 162T108 367Q122 486 210 556T420 640Q364 673 314 723T234 841T211 999Q225 1123 291 1207T471 1334T744 1377Q883 1377 992 1327T1160 1186T1210 978Q1201 886 1134 816T962 721L944 727Q1072
668 1138 593T1192 380Q1182 263 1110 169T913 20T614 -35ZM639 272Q771 272 826 296T886 358Q885 390 870 414T816 459L656 530Q562 533 493 496T419 403Q415 343 480 308T639 272ZM713 834Q778 833 836 865T902 953Q904 1015 854 1047T719 1079Q666 1079 619
1068T544 1036T515 984Q509 956 525 934T582 894L713 834Z" />
<glyph unicode="9" horiz-adv-x="1160" d="M556 -35Q428 -35 326 18T169 169T127 398H436Q433 337 475 305T575 272Q708 272 774 392T859 709Q862 729 863 750T863 791Q828 679 771 617T643 529T498 504Q383 504 302 559T182 711T154 934Q167 1068 235 1167T414
1322T662 1377Q814 1377 931 1290T1109 1048T1152 692Q1130 473 1055 310T855 56T556 -35ZM608 766Q648 766 686 784T753 836T787 921Q794 991 746 1034T634 1077Q573 1077 521 1034T460 921Q451 845 497 806T608 766Z" />
<glyph unicode=":" horiz-adv-x="570" d="M336 526Q245 526 199 588T159 739Q168 838 232 894T377 950Q461 950 513 891T560 739Q553 643 488 585T336 526ZM273 -20Q178 -20 134 45T96 193Q105 291 169 347T314 404Q402 404 453 343T498 193Q491 99 427 40T273 -20Z" />
<glyph unicode=";" horiz-adv-x="652" d="M279 -337L73 -213Q144 -172 205 -123T289 -10Q233 8 192 53T157 171Q164 252 227 309T377 366Q484 366 536 282T576 82Q563 -47 479 -161T279 -337ZM413 552Q325 552 275 612T234 766Q245 860 307 918T453 977Q539 977
591 917T637 766Q630 672 566 612T413 552Z" />
<glyph unicode="&lt;" horiz-adv-x="1007" d="M858 1342L1032 1090L466 685L954 277L732 27L144 533L174 838L858 1342Z" />
<glyph unicode="=" horiz-adv-x="948" d="M180 427H845L815 137H151L180 427ZM225 890H890L864 607H200L225 890Z" />
<glyph unicode="&gt;" horiz-adv-x="1007" d="M272 27L102 277L674 685L180 1090L398 1342L993 838L963 533L272 27Z" />
<glyph unicode="?" horiz-adv-x="968" d="M352 467L360 535Q371 630 396 685T464 775T566 838Q603 856 632 873T680 914T702 976Q707 1020 681 1049T595 1079Q523 1079 473 1036T419 926H118Q144 1130 269 1253T611 1377Q753 1377 849 1325T993 1183T1032 976Q1027
900 1000 846T927 752T817 675Q762 644 725 620T671 568T654 501L655 467H352ZM466 -35Q373 -35 324 28T285 181Q295 270 355 327T506 384Q596 384 644 327T686 181Q679 85 617 25T466 -35Z" />
<glyph unicode="@" horiz-adv-x="2035" d="M1028 -525Q811 -525 641 -453T357 -254T192 37T158 387Q179 614 271 797T510 1109T844 1308T1242 1377Q1427 1377 1572 1316T1816 1147T1958 893T1985 579Q1972 424 1919 308T1788 114T1618 -2T1437 -41Q1344 -41 1284
-7T1201 86L1192 118Q1147 43 1093 1T944 -41Q865 -41 798 13T693 158T668 362Q678 473 724 569T843 737T1005 851T1191 892Q1328 892 1400 804T1455 540L1433 329Q1426 271 1439 249T1478 227Q1496 227 1528 242T1594 295T1656 402T1690 579Q1706 718 1660 831T1503
1013T1215 1081Q1062 1081 930 1029T695 880T528 653T449 363Q434 189 494 50T693 -171T1051 -252L1028 -525ZM1033 230Q1089 230 1126 259T1198 353L1220 538Q1222 571 1212 605T1155 640Q1113 640 1064 607T977 514T930 369Q928 300 956 265T1033 230Z" />
<glyph unicode="A" horiz-adv-x="1236" d="M33 0L567 1346H943L1208 0H888L844 232H434L346 0H33ZM530 475H801L713 960L530 475Z" />
<glyph unicode="B" horiz-adv-x="1221" d="M151 0L278 1346H808Q955 1346 1047 1299T1180 1170T1212 985Q1199 872 1135 796T978 685Q1038 667 1085 630T1156 531T1169 379Q1165 321 1140 256T1060 132T913 37T681 0H151ZM472 288H700Q766 288 805 318T850 403Q854
458 827 491T722 525H495L472 288ZM547 1061L524 815H741Q824 815 859 849T901 938Q906 990 877 1025T767 1061H547Z" />
<glyph unicode="C" horiz-adv-x="1188" d="M610 -35Q451 -35 337 44T169 280T139 671Q163 905 245 1062T454 1298T742 1377Q973 1377 1081 1256T1190 942L873 882Q863 966 827 1021T715 1077Q653 1077 600 1033T510 900T458 671Q446 534 465 445T528 313T637 270Q726
270 775 323T834 452H1153Q1137 295 1069 187T886 22T610 -35Z" />
<glyph unicode="D" horiz-adv-x="1287" d="M276 1346H711Q897 1346 1031 1265T1232 1032T1281 670Q1261 465 1167 315T922 83T587 0H149L276 1346ZM545 1043L479 305H614Q710 305 782 352T900 482T958 670Q969 780 939 864T842 995T679 1043H545Z" />
<glyph unicode="E" horiz-adv-x="1104" d="M149 0L276 1346H1093L1068 1061H545L522 814H1009L980 526H493L470 288H991L969 0H149Z" />
<glyph unicode="F" horiz-adv-x="1032" d="M151 0L278 1346H1072L1044 1061H547L524 810H966L937 528H495L447 0H151Z" />
<glyph unicode="G" horiz-adv-x="1288" d="M607 -35Q453 -35 341 56T173 308T137 675Q154 830 207 959T345 1182T541 1327T784 1379Q985 1379 1099 1278T1243 960L925 899Q906 982 860 1030T737 1079Q669 1079 609 1030T509 890T458 675Q445 549 469 459T543 321T661
272Q727 272 780 300T869 377T922 481Q926 506 928 525T940 577L969 515L688 514L707 723H1226L1157 0H918Q914 59 912 118T904 235L921 238Q876 109 797 37T607 -35Z" />
<glyph unicode="H" horiz-adv-x="1349" d="M151 0L278 1346H574L524 818H979L1029 1346H1322L1198 0H902L950 528H495L447 0H151Z" />
<glyph unicode="I" horiz-adv-x="601" d="M151 0L278 1346H574L447 0H151Z" />
<glyph unicode="J" horiz-adv-x="886" d="M46 44L82 367Q156 322 229 305T357 288Q416 288 450 325T489 452L573 1346H878L790 452Q774 271 713 165T560 12T358 -35Q273 -35 194 -14T46 44Z" />
<glyph unicode="K" horiz-adv-x="1276" d="M278 1346H576L531 870L981 1346H1388L796 738L1300 0H914L571 512L491 425L449 0H151L278 1346Z" />
<glyph unicode="L" horiz-adv-x="948" d="M151 0L278 1346H574L472 288H924L898 0H151Z" />
<glyph unicode="M" horiz-adv-x="1632" d="M151 0L278 1346H702L883 670L1198 1346H1605L1480 0H1180L1267 971L1281 964L925 123H736L526 1016L540 1020L447 0H151Z" />
<glyph unicode="N" horiz-adv-x="1360" d="M147 0L274 1346H584L1012 470L959 473L1041 1346H1337L1210 0H923L471 911L528 908L441 0H147Z" />
<glyph unicode="O" horiz-adv-x="1312" d="M648 -35Q474 -35 352 46T173 286T139 676Q161 915 247 1070T470 1301T781 1377Q958 1377 1080 1298T1260 1063T1295 676Q1273 441 1188 283T965 45T648 -35ZM676 263Q801 263 886 372T988 681Q1006 866 943 973T754
1081Q635 1081 549 973T448 676Q427 480 491 372T676 263Z" />
<glyph unicode="P" horiz-adv-x="1104" d="M143 0L270 1346H737Q879 1346 978 1298T1124 1152T1158 903Q1138 682 1001 569T654 455H485L443 0H143ZM514 745H681Q757 745 801 792T849 903Q856 966 823 1013T709 1061H543L514 745Z" />
<glyph unicode="Q" horiz-adv-x="1306" d="M996 -391Q899 -391 813 -329T677 -160L623 -35Q457 -28 341 54T170 293T139 676Q161 915 247 1070T470 1301T781 1377Q958 1377 1080 1298T1260 1063T1295 676Q1268 415 1165 246T896 9L892 5Q909 -33 944 -49T1021
-68Q1059 -68 1104 -56T1196 -27L1163 -357Q1120 -375 1079 -383T996 -391ZM676 263Q801 263 886 372T988 681Q1006 866 943 973T754 1081Q635 1081 549 973T448 676Q427 480 491 372T676 263Z" />
<glyph unicode="R" horiz-adv-x="1227" d="M151 0L278 1346H755Q980 1346 1099 1231T1202 919Q1185 783 1112 685T920 531L1170 0H781L610 496H491L447 0H151ZM510 712H662Q766 712 823 760T888 883Q893 960 856 1010T728 1061H547L510 712Z" />
<glyph unicode="S" horiz-adv-x="1220" d="M606 -35Q476 -35 368 13T199 166T149 439H450Q442 380 464 343T530 289T631 272Q676 272 715 279T782 306T814 365Q818 412 796 435T712 490L454 616Q330 681 266 766T214 996Q232 1169 369 1273T723 1377Q946 1377
1055 1259T1159 926H865Q858 990 823 1034T696 1079Q630 1079 589 1054T539 990Q537 958 562 935T639 885L905 751Q1039 685 1098 594T1146 378Q1133 240 1065 149T880 11T606 -35Z" />
<glyph unicode="T" horiz-adv-x="1025" d="M362 0L466 1061H112L139 1346H1142L1115 1061H762L658 0H362Z" />
<glyph unicode="U" horiz-adv-x="1319" d="M663 -35Q409 -35 287 119T189 533L267 1346H563L485 533Q472 391 532 332T686 272Q785 272 857 331T942 533L1020 1346H1316L1243 533Q1225 361 1152 233T956 35T663 -35Z" />
<glyph unicode="V" horiz-adv-x="1186" d="M165 1346H485L630 416L963 1346H1272L747 0H432L165 1346Z" />
<glyph unicode="W" horiz-adv-x="1892" d="M175 1346H509L654 429L954 1313H1155L1322 425L1634 1346H1975L1444 0H1131L1005 646L770 0H459L175 1346Z" />
<glyph unicode="X" horiz-adv-x="1323" d="M33 0L518 672L156 1346H524L743 933L989 1346H1348L892 679L1288 0H916L671 409L392 0H33Z" />
<glyph unicode="Y" horiz-adv-x="1208" d="M442 0L494 560L171 1346H521L675 900L940 1346H1290L788 560L736 0H442Z" />
<glyph unicode="Z" horiz-adv-x="1211" d="M132 0L157 278L802 1047L227 1044L259 1346H1205L1178 1072L537 300L1104 302L1081 0H132Z" />
<glyph unicode="[" horiz-adv-x="711" d="M128 -376L328 1722H882L848 1423H594L454 -73H707L678 -376H128Z" />
<glyph unicode="\" horiz-adv-x="936" d="M777 -177L142 1528H447L1084 -177H777Z" />
<glyph unicode="]" horiz-adv-x="714" d="M21 -376L53 -73H306L461 1423H207L239 1722H791L571 -376H21Z" />
<glyph unicode="^" horiz-adv-x="1118" d="M69 371L557 1247H803L1121 371H796L641 856L392 371H69Z" />
<glyph unicode="_" horiz-adv-x="1473" d="M61 0L90 290H1370L1340 0H61Z" />
<glyph unicode="`" horiz-adv-x="729" d="M192 1615L317 1896L842 1634L748 1429L192 1615Z" />
<glyph unicode="a" horiz-adv-x="1105" d="M440 -35Q318 -35 237 10T118 133T91 303Q97 392 146 456T285 555T503 590Q569 590 620 583T725 568L732 633Q740 703 721 743T627 783Q580 783 550 768T503 728T481 674H160Q171 794 232 870T395 983T627 1020Q852 1020
950 918T1031 620L973 0H714Q711 24 709 49T703 99Q650 35 597 0T440 -35ZM541 214Q591 214 622 235T672 289T706 358Q677 366 632 373T549 381Q493 381 452 361T408 303Q406 262 448 238T541 214Z" />
<glyph unicode="b" horiz-adv-x="1171" d="M652 -35Q577 -35 516 15T425 168L337 0H151L279 1384H580L534 896Q581 958 642 989T780 1020Q884 1020 961 966T1081 811T1124 572Q1124 478 1095 373T1008 175T861 24T652 -35ZM635 268Q680 268 715 290T774 349T811
434T824 532Q824 615 785 668T677 721Q643 721 604 708T536 671T505 611L490 428Q488 379 511 343T569 288T635 268Z" />
<glyph unicode="c" horiz-adv-x="988" d="M510 -35Q397 -35 304 31T160 217T125 493Q140 666 212 783T391 960T612 1020Q712 1020 782 982T896 883T957 748T969 606L667 609Q665 649 648 685T581 721Q549 721 515 701T456 632T421 493Q413 406 428 357T473 288T532
268Q597 268 620 299T651 375H946Q935 268 884 175T740 23T510 -35Z" />
<glyph unicode="d" horiz-adv-x="1149" d="M483 -35Q376 -35 292 23T161 187T113 434Q113 566 148 673T246 858T390 978T562 1020Q639 1020 695 989T785 895L832 1384H1133L1000 0H757L735 147Q686 53 620 9T483 -35ZM562 268Q600 268 639 294T706 365T740 469L745
498Q747 507 747 516T747 532Q748 590 732 632T686 697T613 721Q564 721 526 701T463 645T424 565T410 469Q410 379 449 324T562 268Z" />
<glyph unicode="e" horiz-adv-x="988" d="M511 -35Q397 -35 304 33T161 222T125 498Q140 662 212 778T390 957T610 1020Q720 1020 794 974T910 849T965 675T964 478Q959 457 955 442T946 409H363L412 451Q400 385 410 335T452 257T535 229Q568 229 597 246T642
302H938Q917 210 858 134T710 11T511 -35ZM424 564L382 607H743L694 564Q701 609 697 653T667 727T586 757Q542 757 507 734T451 668T424 564Z" />
<glyph unicode="f" horiz-adv-x="706" d="M124 773L147 991H261L271 1067Q282 1186 330 1259T448 1366T592 1400Q644 1400 701 1393T809 1378L727 1127Q708 1132 690 1136T651 1140Q631 1140 613 1132T583 1107T567 1065L561 991H704L681 773H538L471 0H169L242 773H124Z" />
<glyph unicode="g" horiz-adv-x="1086" d="M452 -514Q309 -514 198 -467T27 -339T-20 -160Q-9 -71 53 -16T198 43Q152 84 129 130T110 231Q115 296 156 346T266 420Q215 467 190 528T172 667Q183 777 248 856T410 977T611 1020Q669 1020 720 1008T818 978Q833
1064 883 1126T1001 1222T1135 1256L1100 946Q1027 946 986 927T940 871Q969 829 983 778T993 667Q984 562 920 485T757 366T543 324Q518 324 485 326T419 335Q399 324 383 307T364 263Q361 229 387 211T468 192H714Q873 192 958 137T1031 -59Q1021 -174 949 -278T750
-448T452 -514ZM472 -252Q561 -252 618 -226T704 -160T735 -82Q737 -50 724 -43T691 -36H433Q362 -36 321 -65T277 -140Q274 -202 336 -227T472 -252ZM576 552Q623 552 648 568T683 610T696 667Q701 729 678 762T596 796Q530 796 500 759T466 667Q463 619 485 586T576
552Z" />
<glyph unicode="h" horiz-adv-x="1163" d="M151 0L279 1384H580L528 859Q586 945 655 982T800 1020Q915 1020 982 963T1073 805T1087 575L1035 0H733L785 575Q795 649 767 685T692 721Q658 721 621 704T551 642T498 518L447 0H151Z" />
<glyph unicode="i" horiz-adv-x="652" d="M431 1107Q346 1107 305 1155T268 1293Q276 1380 329 1428T463 1477Q546 1477 588 1428T625 1293Q617 1205 565 1156T431 1107ZM181 0L276 993H572L477 0H181Z" />
<glyph unicode="j" horiz-adv-x="645" d="M422 1107Q341 1107 298 1156T263 1293Q268 1378 321 1427T457 1477Q540 1477 581 1428T614 1293Q609 1204 559 1156T422 1107ZM97 -514Q19 -514 -41 -500T-161 -466L-132 -183Q-97 -198 -46 -212T45 -226Q98 -226 129
-197T169 -86L268 995H564L460 -94Q446 -245 402 -337T281 -472T97 -514Z" />
<glyph unicode="k" horiz-adv-x="1056" d="M769 0L561 436L481 367L447 0H151L279 1384H580L514 704L804 991H1200L787 629L1125 0H769Z" />
<glyph unicode="l" horiz-adv-x="601" d="M151 0L279 1384H580L447 0H151Z" />
<glyph unicode="m" horiz-adv-x="1739" d="M154 0L248 991H506Q510 954 514 920T522 849Q580 938 651 979T802 1020Q909 1020 973 969T1069 834Q1129 938 1210 979T1382 1020Q1498 1020 1563 963T1653 805T1666 575L1614 0H1311L1362 575Q1367 650 1340 685T1267
721Q1222 721 1180 691T1110 594T1075 411L1038 0H735L787 575Q797 648 770 684T695 721Q626 721 565 651T487 412L450 0H154Z" />
<glyph unicode="n" horiz-adv-x="1165" d="M154 0L248 991H506L522 849Q580 938 651 979T802 1020Q917 1020 984 963T1076 805T1090 575L1038 0H735L787 575Q797 648 770 684T695 721Q626 721 565 651T487 412L450 0H154Z" />
<glyph unicode="o" horiz-adv-x="1061" d="M532 -35Q408 -35 310 21T160 195T125 491Q142 676 215 793T398 965T628 1020Q748 1020 846 965T996 794T1031 491Q1013 311 940 195T759 22T532 -35ZM548 255Q607 255 663 308T733 491Q746 626 710 680T614 734Q553
734 494 680T420 491Q411 404 427 352T477 278T548 255Z" />
<glyph unicode="p" horiz-adv-x="1132" d="M105 -479L246 991H489Q493 962 497 934T504 876Q552 953 617 986T754 1020Q861 1020 950 958T1088 778T1121 493Q1106 325 1034 207T859 27T643 -35Q576 -35 529 -20T448 32L401 -479H105ZM617 268Q657 268 702 291T782
364T825 493Q832 562 816 613T762 692T670 721Q624 721 587 701T528 643T501 556L485 397Q481 361 491 332T531 285T617 268Z" />
<glyph unicode="q" horiz-adv-x="1153" d="M978 -514Q809 -470 743 -372T692 -108L711 97Q679 34 633 0T506 -35Q394 -35 301 27T158 207T123 493Q138 660 208 778T379 958T587 1020Q662 1020 726 981T829 851L910 991H1096L990 -136Q986 -184 992 -211T1020 -254T1078
-282L978 -514ZM580 268Q617 268 651 284T709 329T737 397L749 520Q755 583 744 628T702 697T620 721Q563 721 521 693T452 613T418 493Q410 415 434 366T498 292T580 268Z" />
<glyph unicode="r" horiz-adv-x="822" d="M154 0L248 993H544L526 789Q579 900 650 954T790 1009Q806 1009 817 1006T841 1000L811 666Q790 668 768 668T726 668Q666 668 617 645T534 567T492 419L450 0H154Z" />
<glyph unicode="s" horiz-adv-x="950" d="M473 -35Q368 -35 276 1T131 115T94 313H367Q359 267 384 246T465 225Q529 225 555 246T584 291Q588 319 567 333T526 356L316 449Q229 487 183 559T147 726Q157 819 215 884T366 985T574 1020Q771 1020 854 926T927 691H652Q654
723 633 743T562 763Q534 763 511 756T475 736T459 705Q457 684 473 673T503 654L744 541Q821 505 873 444T917 291Q911 212 856 137T704 14T473 -35Z" />
<glyph unicode="t" horiz-adv-x="751" d="M473 -35Q389 -35 320 0T212 109T184 296L234 833L275 780H129L148 991H298L249 946L274 1235H570L545 946L504 991H748L728 780H483L532 833L485 311Q480 264 498 244T561 223Q578 223 605 229T672 250L695 19Q640 -1
589 -18T473 -35Z" />
<glyph unicode="u" horiz-adv-x="1174" d="M482 -18Q394 -18 318 16T201 132T175 359L237 993H533L473 397Q471 333 496 302T565 270Q608 270 653 292T732 371T777 532L821 993H1117L1027 0H726L740 155Q691 61 625 22T482 -18Z" />
<glyph unicode="v" horiz-adv-x="968" d="M104 991H449L512 320L709 991H1055L653 0H317L104 991Z" />
<glyph unicode="w" horiz-adv-x="1436" d="M104 991H415L492 376L669 928H952L1022 375L1220 991H1516L1131 0H835L760 476L601 0H305L104 991Z" />
<glyph unicode="x" horiz-adv-x="1089" d="M6 0L409 491L101 993H468L619 739L810 993H1171L775 491L1079 0H718L558 252L374 0H6Z" />
<glyph unicode="y" horiz-adv-x="951" d="M214 -514Q145 -514 78 -501T-56 -457L-29 -172Q20 -200 67 -213T160 -226Q188 -226 215 -215T268 -174T319 -89L355 0L97 991H440L531 363L750 991H1052L587 -159Q533 -295 475 -372T353 -482T214 -514Z" />
<glyph unicode="z" horiz-adv-x="933" d="M109 0L137 269L568 722H176L204 991H918L891 722L481 269H851L823 0H109Z" />
<glyph unicode="{" horiz-adv-x="795" d="M762 -355Q569 -355 452 -285T286 -92T252 192L268 372Q277 451 272 477T229 503H164L196 844H256Q294 844 306 870T323 976L344 1162Q359 1323 430 1444T633 1634T956 1703L927 1398Q795 1398 723 1344T638 1156L617
954Q608 855 560 785T444 680L446 667Q503 632 540 563T567 393L546 194Q531 62 595 6T789 -50L762 -355Z" />
<glyph unicode="|" horiz-adv-x="601" d="M127 -244L304 1593H600L423 -244H127Z" />
<glyph unicode="}" horiz-adv-x="1020" d="M-61 -355L-31 -50Q101 -50 173 4T258 192L278 393Q287 493 334 562T449 665V680Q398 709 364 766T327 902Q327 916 327 927T329 954L349 1154Q352 1183 352 1196T353 1218Q346 1316 284 1357T106 1398L134 1703Q304
1703 416 1647T585 1491T647 1259Q647 1234 647 1210T643 1156L627 976Q626 955 625 932T623 888Q623 872 631 858T666 844H732L700 503H639Q602 503 591 478T572 372L552 185Q537 25 466 -96T263 -286T-61 -355Z" />
<glyph unicode="~" horiz-adv-x="1146" d="M300 362L158 457Q207 613 276 710T464 807Q511 807 559 792T666 751Q717 726 756 714T824 701Q900 701 948 811L1099 695Q1044 544 960 468T767 391Q733 391 688 403T584 447Q529 465 496 477T433 489Q393 489 364 460T300
362Z" />
<glyph unicode="&#xa0;" horiz-adv-x="490" />
<glyph unicode="&#xa1;" horiz-adv-x="562" d="M529 858L483 -18H150L267 858H529ZM451 1417Q540 1417 588 1356T629 1204Q621 1113 560 1053T411 993Q320 993 269 1054T226 1204Q234 1290 296 1353T451 1417Z" />
<glyph unicode="&#xa2;" horiz-adv-x="988" d="M391 950L441 1123H737L685 950H391ZM195 -146L247 27H542L489 -146H195ZM401 -35Q288 -35 195 31T51 217T16 493Q31 666 103 783T282 960T503 1020Q603 1020 673 982T787 883T848 748T860 606L558 609Q556 649 539
685T472 721Q440 721 406 701T347 632T312 493Q304 406 319 357T364 288T423 268Q488 268 511 299T542 375H837Q826 268 775 175T631 23T401 -35Z" />
<glyph unicode="&#xa3;" horiz-adv-x="1166" d="M45 0L74 305H138Q203 305 228 346T264 472L275 595H139L158 809H291L302 917Q318 1077 383 1178T546 1328T758 1377Q934 1377 1020 1275T1108 967H816Q819 1019 799 1049T731 1079Q685 1079 647 1038T598 917L590
809H874L855 595H571L564 498Q557 437 537 390T482 305H625Q716 305 755 337T808 440H1138Q1119 229 996 115T602 0H45Z" />
<glyph unicode="&#xa4;" horiz-adv-x="1200" d="M563 168Q422 168 312 236T143 419T93 674Q104 816 181 931T379 1115T639 1184Q779 1184 889 1116T1060 932T1109 674Q1098 535 1022 420T825 237T563 168ZM164 95L0 275L296 557L466 376L164 95ZM958 96L727 344L919
524L1155 276L958 96ZM587 448Q653 448 706 480T792 565T829 674Q834 738 806 790T727 872T616 903Q551 903 498 870T411 785T374 674Q370 611 398 560T476 478T587 448ZM287 811L41 1066L233 1246L479 993L287 811ZM936 823L769 1003L1041 1258L1205 1078L936
823Z" />
<glyph unicode="&#xa5;" horiz-adv-x="1208" d="M1042 380H185L200 552H1054L1042 380ZM1007 128H148L165 304H1022L1007 128ZM442 0L494 560L171 1346H521L675 900L940 1346H1290L788 560L736 0H442Z" />
<glyph unicode="&#xa6;" horiz-adv-x="601" d="M127 -244L204 553H500L423 -244H127ZM227 797L304 1593H600L523 797H227Z" />
<glyph unicode="&#xa7;" horiz-adv-x="954" d="M500 168L496 428Q560 433 587 454T617 501Q620 527 603 541T559 566L349 659Q262 697 216 769T180 936Q190 1029 248 1094T399 1195T607 1230Q804 1230 887 1136T960 901H685Q687 933 666 953T595 973Q567 973 544
966T508 946T492 915Q490 894 506 883T536 864L777 751Q854 715 906 654T950 501Q944 422 889 347T736 221T500 168ZM446 -225Q341 -225 249 -189T104 -75T67 123H340Q332 77 357 56T438 35Q502 35 528 56T557 101Q561 129 540 143T499 166L289 259Q202 297 156
369T120 536Q134 674 253 752T548 834L541 577Q498 575 467 560T432 515Q430 494 446 483T476 464L717 351Q794 315 846 254T890 101Q884 22 829 -53T677 -176T446 -225Z" />
<glyph unicode="&#xa8;" horiz-adv-x="815" d="M200 1687Q205 1764 256 1811T381 1859Q453 1859 494 1812T531 1687Q521 1614 471 1566T352 1518Q279 1518 236 1566T200 1687ZM603 1691Q608 1765 660 1814T784 1864Q856 1864 897 1815T930 1691Q923 1615 875 1569T756
1523Q684 1523 640 1569T603 1691Z" />
<glyph unicode="&#xa9;" horiz-adv-x="1466" d="M686 -13Q544 -13 426 40T223 188T98 406T73 672Q88 813 154 937T325 1155T558 1303T830 1356Q971 1356 1089 1303T1292 1156T1417 937T1442 672Q1427 530 1361 406T1190 187T957 40T686 -13ZM703 142Q812 142 912
183T1092 297T1224 466T1287 672Q1299 782 1268 877T1171 1046T1015 1160T813 1201Q704 1201 604 1160T423 1047T291 878T228 672Q216 563 247 467T344 298T502 184T703 142ZM711 255Q617 255 550 302T452 441T434 671Q448 808 496 900T619 1039T788 1086Q924 1086
988 1015T1052 830L866 795Q859 844 838 877T773 910Q736 910 705 884T652 805T621 671Q614 590 625 538T663 461T727 435Q779 435 808 466T843 542H1030Q1021 450 981 386T873 289T711 255Z" />
<glyph unicode="&#xaa;" horiz-adv-x="1105" d="M440 -35Q318 -35 237 10T118 133T91 303Q97 392 146 456T285 555T503 590Q569 590 620 583T725 568L732 633Q740 703 721 743T627 783Q580 783 550 768T503 728T481 674H160Q171 794 232 870T395 983T627 1020Q852
1020 950 918T1031 620L973 0H714Q711 24 709 49T703 99Q650 35 597 0T440 -35ZM541 214Q591 214 622 235T672 289T706 358Q677 366 632 373T549 381Q493 381 452 361T408 303Q406 262 448 238T541 214Z" />
<glyph unicode="&#xab;" horiz-adv-x="1374" d="M489 116L132 550L611 984L789 807L425 506L435 584L715 283L489 116ZM1089 116L732 550L1211 984L1389 807L1025 506L1035 584L1315 283L1089 116Z" />
<glyph unicode="&#xac;" horiz-adv-x="1200" d="M237 719H975L917 302H717L750 540L800 480H204L237 719Z" />
<glyph unicode="&#xad;" horiz-adv-x="1200" d="M147 483L174 773H699L672 483H147Z" />
<glyph unicode="&#xae;" horiz-adv-x="1466" d="M686 -13Q544 -13 426 40T223 188T98 406T73 672Q88 813 154 937T325 1155T558 1303T830 1356Q971 1356 1089 1303T1292 1156T1417 937T1442 672Q1427 530 1361 406T1190 187T957 40T686 -13ZM703 142Q812 142 912
183T1092 297T1224 466T1287 672Q1299 782 1268 877T1171 1046T1015 1160T813 1201Q704 1201 604 1160T423 1047T291 878T228 672Q216 563 247 467T344 298T502 184T703 142ZM449 278L524 1070H804Q936 1070 1006 1002T1067 819Q1057 739 1014 681T901 590L1048
278H819L719 570H649L623 278H449ZM660 697H749Q811 697 844 725T882 797Q885 843 864 872T788 902H682L660 697Z" />
<glyph unicode="&#xaf;" horiz-adv-x="915" d="M255 1428H1017L981 1169H219L255 1428Z" />
<glyph unicode="&#xb0;" horiz-adv-x="794" d="M487 1013Q403 1013 337 1054T235 1165T208 1319Q215 1403 262 1472T382 1583T539 1624Q623 1624 689 1583T790 1473T819 1319Q811 1235 764 1166T644 1055T487 1013ZM502 1196Q552 1196 591 1230T635 1319Q640 1372
607 1406T523 1441Q470 1441 433 1405T390 1319Q385 1267 418 1232T502 1196Z" />
<glyph unicode="&#xb1;" horiz-adv-x="1290" d="M608 1208H904L884 1001H1102L1073 709H854L835 499H538L562 709H331L360 1001H587L608 1208ZM261 293H1117L1081 0H227L261 293Z" />
<glyph unicode="&#xb2;" horiz-adv-x="754" d="M364 722L363 715H783L765 530H162L178 693Q186 760 206 809T266 894T371 955L538 1019Q582 1038 603 1063T626 1122Q629 1153 610 1177T545 1202Q505 1202 474 1174T431 1092H226Q235 1192 283 1255T404 1347T558
1377Q637 1377 699 1345T796 1255T821 1114Q814 1019 760 955T591 841L423 776Q389 764 377 753T364 722Z" />
<glyph unicode="&#xb3;" horiz-adv-x="774" d="M451 508Q389 508 333 526T232 582T165 672T147 797H346Q348 769 361 747T400 711T466 697Q524 697 560 722T600 788Q603 817 592 834T556 860T496 868H381L395 1027H512Q554 1027 580 1051T610 1115Q611 1149 592
1171T517 1194Q470 1194 432 1173T380 1105H186Q210 1246 301 1311T525 1377Q614 1377 680 1349T779 1267T806 1141Q802 1080 769 1033T675 964Q736 936 770 886T797 768Q791 692 744 634T620 542T451 508Z" />
<glyph unicode="&#xb4;" horiz-adv-x="796" d="M292 1159L246 1364L822 1626L886 1345L292 1159Z" />
<glyph unicode="&#xb5;" horiz-adv-x="1174" d="M482 -18Q394 -18 318 16T201 132T175 359L237 993H533L473 397Q471 333 496 302T565 270Q608 270 653 292T732 371T777 532L821 993H1117L1027 0H726L740 155Q691 61 625 22T482 -18ZM103 -391L234 993H532L396 -391H103Z" />
<glyph unicode="&#xb6;" horiz-adv-x="1200" d="M526 459Q295 459 171 571T68 902Q91 1124 241 1233T618 1342H1140L1110 1053H752L690 459H526ZM445 -252L611 1342H843L677 -252H445ZM775 -252L941 1342H1173L1007 -252H775Z" />
<glyph unicode="&#xb7;" horiz-adv-x="462" d="M287 412Q200 412 148 471T106 624Q116 713 177 774T327 836Q412 836 464 777T510 624Q503 526 437 469T287 412Z" />
<glyph unicode="&#xb8;" horiz-adv-x="591" d="M1 -379L33 -278Q96 -303 142 -306T215 -294T242 -251Q243 -230 227 -213T175 -181T74 -151L142 103L263 81L205 -144L174 -80Q279 -90 340 -121T427 -192T453 -273Q453 -331 410 -367T297 -418T149 -423T1 -379Z" />
<glyph unicode="&#xb9;" horiz-adv-x="487" d="M356 1359H488L410 523H224L280 1116Q249 1105 222 1102T167 1100L184 1291Q225 1298 266 1312T356 1359Z" />
<glyph unicode="&#xba;" horiz-adv-x="1061" d="M532 -35Q408 -35 310 21T160 195T125 491Q142 676 215 793T398 965T628 1020Q748 1020 846 965T996 794T1031 491Q1013 311 940 195T759 22T532 -35ZM548 255Q607 255 663 308T733 491Q746 626 710 680T614 734Q553
734 494 680T420 491Q411 404 427 352T477 278T548 255Z" />
<glyph unicode="&#xbb;" horiz-adv-x="1365" d="M273 116L95 283L459 584L449 516L169 817L395 984L752 550L273 116ZM865 116L687 283L1051 584L1041 516L761 817L987 984L1344 550L865 116Z" />
<glyph unicode="&#xbc;" horiz-adv-x="1868" d="M712 1449H847L767 600H578L635 1203Q604 1191 577 1188T520 1186L537 1380Q580 1387 621 1401T712 1449ZM291 0L1240 1346H1475L525 0H291ZM1406 0L1422 168H1046L1059 321L1486 847H1669L1623 344H1754L1740 168H1609L1591
0H1406ZM1279 321H1449L1470 553L1279 321Z" />
<glyph unicode="&#xbd;" horiz-adv-x="1938" d="M713 1449H848L768 600H579L636 1203Q605 1191 578 1188T521 1186L538 1380Q581 1387 622 1401T713 1449ZM280 0L1229 1346H1464L514 0H280ZM1380 195L1379 188H1805L1787 0H1175L1191 166Q1201 268 1244 330T1387
429L1557 494Q1603 511 1623 539T1647 601Q1649 633 1630 658T1564 683Q1524 683 1492 654T1448 571H1240Q1249 672 1298 736T1421 830T1577 861Q1657 861 1721 829T1819 736T1844 593Q1837 497 1783 430T1610 316L1426 244Q1401 234 1392 223T1380 195Z" />
<glyph unicode="&#xbe;" horiz-adv-x="2162" d="M521 565Q438 565 364 598T247 696T212 858H414Q416 815 445 786T536 757Q595 757 632 782T673 849Q677 893 649 911T567 930H450L464 1091H583Q626 1091 652 1115T682 1181Q684 1216 664 1238T588 1261Q540 1261
502 1240T449 1171H252Q275 1314 368 1381T596 1448Q732 1448 812 1383T881 1208Q877 1146 843 1098T748 1028Q810 999 844 949T873 828Q866 752 818 693T693 599T521 565ZM515 0L1464 1346H1699L749 0H515ZM1700 0L1716 168H1340L1353 321L1780 847H1963L1917
344H2048L2034 168H1903L1885 0H1700ZM1573 321H1743L1764 553L1573 321Z" />
<glyph unicode="&#xbf;" horiz-adv-x="967" d="M720 875L712 807Q701 712 676 657T608 567T506 504Q469 486 440 469T392 428T370 366Q365 322 391 293T477 263Q549 263 599 306T653 416H954Q928 212 803 89T461 -35Q319 -35 223 17T79 159T40 366Q45 442 72 496T145
590T255 667Q310 698 347 722T401 774T418 841L417 875H720ZM606 1377Q699 1377 748 1314T787 1161Q777 1072 717 1015T566 958Q476 958 428 1015T386 1161Q393 1257 455 1317T606 1377Z" />
<glyph unicode="&#xc0;" horiz-adv-x="1236" d="M33 0L567 1346H943L1208 0H888L844 232H434L346 0H33ZM530 475H801L713 960L530 475ZM989 1434L433 1620L558 1901L1083 1639L989 1434Z" />
<glyph unicode="&#xc1;" horiz-adv-x="1236" d="M33 0L567 1346H943L1208 0H888L844 232H434L346 0H33ZM530 475H801L713 960L530 475ZM564 1514L518 1719L1094 1981L1158 1700L564 1514Z" />
<glyph unicode="&#xc2;" horiz-adv-x="1236" d="M33 0L567 1346H943L1208 0H888L844 232H434L346 0H33ZM530 475H801L713 960L530 475ZM526 1490L356 1656L822 1990L1231 1656L1020 1490L793 1676L526 1490Z" />
<glyph unicode="&#xc3;" horiz-adv-x="1236" d="M33 0L567 1346H943L1208 0H888L844 232H434L346 0H33ZM530 475H801L713 960L530 475ZM549 1557L442 1634Q477 1780 548 1864T705 1948Q734 1948 764 1938T831 1905Q861 1887 885 1872T933 1857Q958 1857 986 1879T1038
1948L1149 1858Q1129 1773 1090 1705T1001 1597T901 1557Q873 1557 838 1570T765 1611Q732 1635 715 1645T674 1655Q646 1655 614 1636T549 1557Z" />
<glyph unicode="&#xc4;" horiz-adv-x="1236" d="M33 0L567 1346H943L1208 0H888L844 232H434L346 0H33ZM530 475H801L713 960L530 475ZM586 1600Q513 1600 470 1647T434 1769Q439 1846 490 1893T615 1941Q683 1941 726 1894T765 1769Q755 1695 703 1648T586 1600ZM989
1605Q917 1605 873 1650T837 1773Q842 1847 894 1896T1018 1945Q1090 1945 1129 1896T1163 1773Q1153 1696 1107 1651T989 1605Z" />
<glyph unicode="&#xc5;" horiz-adv-x="1236" d="M33 0L567 1346H943L1208 0H888L844 232H434L346 0H33ZM530 475H801L713 960L530 475ZM772 1443Q696 1443 633 1480T533 1581T495 1720Q495 1796 532 1859T633 1959T772 1997Q848 1997 911 1960T1011 1859T1049
1720Q1049 1644 1012 1581T911 1481T772 1443ZM772 1648Q802 1648 823 1669T844 1720Q844 1750 823 1771T772 1792Q742 1792 721 1771T700 1720Q700 1690 721 1669T772 1648Z" />
<glyph unicode="&#xc6;" horiz-adv-x="1645" d="M33 0L579 1346H1632L1612 1061H1029L1161 1137L1121 713L997 814H1548L1525 526H976L1110 591L1070 167L944 288H1537L1510 0H752L782 321L823 292H399L470 318L346 0H33ZM791 415L859 1132L899 1061H717L788 1134L510
418L471 535H839L791 415Z" />
<glyph unicode="&#xc7;" horiz-adv-x="1188" d="M610 -35Q451 -35 337 44T169 280T139 671Q163 905 245 1062T454 1298T742 1377Q973 1377 1081 1256T1190 942L873 882Q863 966 827 1021T715 1077Q653 1077 600 1033T510 900T458 671Q446 534 465 445T528 313T637
270Q726 270 775 323T834 452H1153Q1137 295 1069 187T886 22T610 -35ZM431 -379L463 -278Q526 -303 572 -306T645 -294T672 -251Q673 -230 657 -213T605 -181T504 -151L572 103L693 81L635 -144L604 -80Q709 -90 770 -121T857 -192T883 -273Q883 -331 840 -367T727
-418T579 -423T431 -379Z" />
<glyph unicode="&#xc8;" horiz-adv-x="1104" d="M149 0L276 1346H1093L1068 1061H545L522 814H1009L980 526H493L470 288H991L969 0H149ZM923 1434L367 1620L492 1901L1017 1639L923 1434Z" />
<glyph unicode="&#xc9;" horiz-adv-x="1104" d="M149 0L276 1346H1093L1068 1061H545L522 814H1009L980 526H493L470 288H991L969 0H149ZM498 1514L452 1719L1028 1981L1092 1700L498 1514Z" />
<glyph unicode="&#xca;" horiz-adv-x="1104" d="M149 0L276 1346H1093L1068 1061H545L522 814H1009L980 526H493L470 288H991L969 0H149ZM460 1490L290 1656L756 1990L1165 1656L954 1490L727 1676L460 1490Z" />
<glyph unicode="&#xcb;" horiz-adv-x="1104" d="M149 0L276 1346H1093L1068 1061H545L522 814H1009L980 526H493L470 288H991L969 0H149ZM520 1600Q447 1600 404 1647T368 1769Q373 1846 424 1893T549 1941Q617 1941 660 1894T699 1769Q689 1695 637 1648T520
1600ZM923 1605Q851 1605 807 1650T771 1773Q776 1847 828 1896T952 1945Q1024 1945 1063 1896T1097 1773Q1087 1696 1041 1651T923 1605Z" />
<glyph unicode="&#xcc;" horiz-adv-x="601" d="M151 0L278 1346H574L447 0H151ZM672 1434L116 1620L241 1901L766 1639L672 1434Z" />
<glyph unicode="&#xcd;" horiz-adv-x="601" d="M151 0L278 1346H574L447 0H151ZM247 1514L201 1719L777 1981L841 1700L247 1514Z" />
<glyph unicode="&#xce;" horiz-adv-x="601" d="M151 0L278 1346H574L447 0H151ZM209 1490L39 1656L505 1990L914 1656L703 1490L476 1676L209 1490Z" />
<glyph unicode="&#xcf;" horiz-adv-x="601" d="M151 0L278 1346H574L447 0H151ZM269 1600Q196 1600 153 1647T117 1769Q122 1846 173 1893T298 1941Q366 1941 409 1894T448 1769Q438 1695 386 1648T269 1600ZM672 1605Q600 1605 556 1650T520 1773Q525 1847 577
1896T701 1945Q773 1945 812 1896T846 1773Q836 1696 790 1651T672 1605Z" />
<glyph unicode="&#xd0;" horiz-adv-x="1287" d="M114 826H690L653 523H77L114 826ZM276 1346H711Q897 1346 1031 1265T1232 1032T1281 670Q1261 465 1167 315T922 83T587 0H149L276 1346ZM545 1043L479 305H614Q710 305 782 352T900 482T958 670Q969 780 939 864T842
995T679 1043H545Z" />
<glyph unicode="&#xd1;" horiz-adv-x="1360" d="M147 0L274 1346H584L1012 470L959 473L1041 1346H1337L1210 0H923L471 911L528 908L441 0H147ZM611 1557L504 1634Q539 1780 610 1864T767 1948Q796 1948 826 1938T893 1905Q923 1887 947 1872T995 1857Q1020 1857
1048 1879T1100 1948L1211 1858Q1191 1773 1152 1705T1063 1597T963 1557Q935 1557 900 1570T827 1611Q794 1635 777 1645T736 1655Q708 1655 676 1636T611 1557Z" />
<glyph unicode="&#xd2;" horiz-adv-x="1312" d="M648 -35Q474 -35 352 46T173 286T139 676Q161 915 247 1070T470 1301T781 1377Q958 1377 1080 1298T1260 1063T1295 676Q1273 441 1188 283T965 45T648 -35ZM676 263Q801 263 886 372T988 681Q1006 866 943 973T754
1081Q635 1081 549 973T448 676Q427 480 491 372T676 263ZM1027 1434L471 1620L596 1901L1121 1639L1027 1434Z" />
<glyph unicode="&#xd3;" horiz-adv-x="1312" d="M648 -35Q474 -35 352 46T173 286T139 676Q161 915 247 1070T470 1301T781 1377Q958 1377 1080 1298T1260 1063T1295 676Q1273 441 1188 283T965 45T648 -35ZM676 263Q801 263 886 372T988 681Q1006 866 943 973T754
1081Q635 1081 549 973T448 676Q427 480 491 372T676 263ZM602 1514L556 1719L1132 1981L1196 1700L602 1514Z" />
<glyph unicode="&#xd4;" horiz-adv-x="1312" d="M648 -35Q474 -35 352 46T173 286T139 676Q161 915 247 1070T470 1301T781 1377Q958 1377 1080 1298T1260 1063T1295 676Q1273 441 1188 283T965 45T648 -35ZM676 263Q801 263 886 372T988 681Q1006 866 943 973T754
1081Q635 1081 549 973T448 676Q427 480 491 372T676 263ZM564 1490L394 1656L860 1990L1269 1656L1058 1490L831 1676L564 1490Z" />
<glyph unicode="&#xd5;" horiz-adv-x="1312" d="M648 -35Q474 -35 352 46T173 286T139 676Q161 915 247 1070T470 1301T781 1377Q958 1377 1080 1298T1260 1063T1295 676Q1273 441 1188 283T965 45T648 -35ZM676 263Q801 263 886 372T988 681Q1006 866 943 973T754
1081Q635 1081 549 973T448 676Q427 480 491 372T676 263ZM587 1557L480 1634Q515 1780 586 1864T743 1948Q772 1948 802 1938T869 1905Q899 1887 923 1872T971 1857Q996 1857 1024 1879T1076 1948L1187 1858Q1167 1773 1128 1705T1039 1597T939 1557Q911 1557
876 1570T803 1611Q770 1635 753 1645T712 1655Q684 1655 652 1636T587 1557Z" />
<glyph unicode="&#xd6;" horiz-adv-x="1312" d="M648 -35Q474 -35 352 46T173 286T139 676Q161 915 247 1070T470 1301T781 1377Q958 1377 1080 1298T1260 1063T1295 676Q1273 441 1188 283T965 45T648 -35ZM676 263Q801 263 886 372T988 681Q1006 866 943 973T754
1081Q635 1081 549 973T448 676Q427 480 491 372T676 263ZM624 1600Q551 1600 508 1647T472 1769Q477 1846 528 1893T653 1941Q721 1941 764 1894T803 1769Q793 1695 741 1648T624 1600ZM1027 1605Q955 1605 911 1650T875 1773Q880 1847 932 1896T1056 1945Q1128
1945 1167 1896T1201 1773Q1191 1696 1145 1651T1027 1605Z" />
<glyph unicode="&#xd7;" horiz-adv-x="980" d="M210 69L7 279L302 531L303 472L40 735L264 919L527 656L461 661L765 909L973 701L671 451L673 510L936 247L712 63L449 326L514 321L210 69Z" />
<glyph unicode="&#xd8;" horiz-adv-x="1312" d="M648 -35Q474 -35 352 46T173 286T139 676Q161 915 247 1070T470 1301T781 1377Q958 1377 1080 1298T1260 1063T1295 676Q1273 441 1188 283T965 45T648 -35ZM676 263Q801 263 886 372T988 681Q1006 866 943 973T754
1081Q635 1081 549 973T448 676Q427 480 491 372T676 263Z" />
<glyph unicode="&#xd9;" horiz-adv-x="1319" d="M663 -35Q409 -35 287 119T189 533L267 1346H563L485 533Q472 391 532 332T686 272Q785 272 857 331T942 533L1020 1346H1316L1243 533Q1225 361 1152 233T956 35T663 -35ZM1031 1434L475 1620L600 1901L1125 1639L1031
1434Z" />
<glyph unicode="&#xda;" horiz-adv-x="1319" d="M663 -35Q409 -35 287 119T189 533L267 1346H563L485 533Q472 391 532 332T686 272Q785 272 857 331T942 533L1020 1346H1316L1243 533Q1225 361 1152 233T956 35T663 -35ZM606 1514L560 1719L1136 1981L1200 1700L606
1514Z" />
<glyph unicode="&#xdb;" horiz-adv-x="1319" d="M663 -35Q409 -35 287 119T189 533L267 1346H563L485 533Q472 391 532 332T686 272Q785 272 857 331T942 533L1020 1346H1316L1243 533Q1225 361 1152 233T956 35T663 -35ZM568 1490L398 1656L864 1990L1273 1656L1062
1490L835 1676L568 1490Z" />
<glyph unicode="&#xdc;" horiz-adv-x="1319" d="M663 -35Q409 -35 287 119T189 533L267 1346H563L485 533Q472 391 532 332T686 272Q785 272 857 331T942 533L1020 1346H1316L1243 533Q1225 361 1152 233T956 35T663 -35ZM628 1600Q555 1600 512 1647T476 1769Q481
1846 532 1893T657 1941Q725 1941 768 1894T807 1769Q797 1695 745 1648T628 1600ZM1031 1605Q959 1605 915 1650T879 1773Q884 1847 936 1896T1060 1945Q1132 1945 1171 1896T1205 1773Q1195 1696 1149 1651T1031 1605Z" />
<glyph unicode="&#xdd;" horiz-adv-x="1208" d="M442 0L494 560L171 1346H521L675 900L940 1346H1290L788 560L736 0H442ZM550 1514L504 1719L1080 1981L1144 1700L550 1514Z" />
<glyph unicode="&#xde;" horiz-adv-x="1104" d="M143 0L270 1346H570L547 1101L506 1146H737Q879 1146 978 1098T1124 952T1158 703Q1138 482 1001 369T654 255H440L472 304L443 0H143ZM487 470L439 545H681Q757 545 799 592T849 703Q856 766 823 813T709 861H468L532
946L487 470Z" />
<glyph unicode="&#xdf;" horiz-adv-x="1281" d="M807 -28Q744 -28 681 -17T555 26L575 312Q622 288 669 273T779 258Q831 258 870 269T932 304T955 363Q955 404 929 432T863 485T785 534T720 592T693 671Q693 723 724 760T798 830T871 900T903 988Q903 1036 864
1071T728 1106Q656 1106 611 1086T541 1019T509 894L417 0H121L221 968Q235 1103 309 1199T499 1348T754 1400Q882 1400 967 1368T1104 1285T1177 1173T1199 1057Q1199 979 1168 926T1095 834T1022 764T990 697Q990 666 1016 643T1081 596T1158 539T1223 455T1249
325Q1249 223 1198 144T1048 18T807 -28Z" />
<glyph unicode="&#xe0;" horiz-adv-x="1105" d="M440 -35Q318 -35 237 10T118 133T91 303Q97 392 146 456T285 555T503 590Q569 590 620 583T725 568L732 633Q740 703 721 743T627 783Q580 783 550 768T503 728T481 674H160Q171 794 232 870T395 983T627 1020Q852
1020 950 918T1031 620L973 0H714Q711 24 709 49T703 99Q650 35 597 0T440 -35ZM541 214Q591 214 622 235T672 289T706 358Q677 366 632 373T549 381Q493 381 452 361T408 303Q406 262 448 238T541 214ZM874 1079L318 1265L443 1546L968 1284L874 1079Z" />
<glyph unicode="&#xe1;" horiz-adv-x="1105" d="M440 -35Q318 -35 237 10T118 133T91 303Q97 392 146 456T285 555T503 590Q569 590 620 583T725 568L732 633Q740 703 721 743T627 783Q580 783 550 768T503 728T481 674H160Q171 794 232 870T395 983T627 1020Q852
1020 950 918T1031 620L973 0H714Q711 24 709 49T703 99Q650 35 597 0T440 -35ZM541 214Q591 214 622 235T672 289T706 358Q677 366 632 373T549 381Q493 381 452 361T408 303Q406 262 448 238T541 214ZM449 1159L403 1364L979 1626L1043 1345L449 1159Z" />
<glyph unicode="&#xe2;" horiz-adv-x="1105" d="M440 -35Q318 -35 237 10T118 133T91 303Q97 392 146 456T285 555T503 590Q569 590 620 583T725 568L732 633Q740 703 721 743T627 783Q580 783 550 768T503 728T481 674H160Q171 794 232 870T395 983T627 1020Q852
1020 950 918T1031 620L973 0H714Q711 24 709 49T703 99Q650 35 597 0T440 -35ZM541 214Q591 214 622 235T672 289T706 358Q677 366 632 373T549 381Q493 381 452 361T408 303Q406 262 448 238T541 214ZM411 1135L241 1301L707 1635L1116 1301L905 1135L678 1321L411
1135Z" />
<glyph unicode="&#xe3;" horiz-adv-x="1105" d="M440 -35Q318 -35 237 10T118 133T91 303Q97 392 146 456T285 555T503 590Q569 590 620 583T725 568L732 633Q740 703 721 743T627 783Q580 783 550 768T503 728T481 674H160Q171 794 232 870T395 983T627 1020Q852
1020 950 918T1031 620L973 0H714Q711 24 709 49T703 99Q650 35 597 0T440 -35ZM541 214Q591 214 622 235T672 289T706 358Q677 366 632 373T549 381Q493 381 452 361T408 303Q406 262 448 238T541 214ZM434 1202L327 1279Q362 1425 433 1509T590 1593Q619 1593
649 1583T716 1550Q746 1532 770 1517T818 1502Q843 1502 871 1524T923 1593L1034 1503Q1014 1418 975 1350T886 1242T786 1202Q758 1202 723 1215T650 1256Q617 1280 600 1290T559 1300Q531 1300 499 1281T434 1202Z" />
<glyph unicode="&#xe4;" horiz-adv-x="1105" d="M440 -35Q318 -35 237 10T118 133T91 303Q97 392 146 456T285 555T503 590Q569 590 620 583T725 568L732 633Q740 703 721 743T627 783Q580 783 550 768T503 728T481 674H160Q171 794 232 870T395 983T627 1020Q852
1020 950 918T1031 620L973 0H714Q711 24 709 49T703 99Q650 35 597 0T440 -35ZM541 214Q591 214 622 235T672 289T706 358Q677 366 632 373T549 381Q493 381 452 361T408 303Q406 262 448 238T541 214ZM471 1245Q398 1245 355 1292T319 1414Q324 1491 375 1538T500
1586Q568 1586 611 1539T650 1414Q640 1340 588 1293T471 1245ZM874 1250Q802 1250 758 1295T722 1418Q727 1492 779 1541T903 1590Q975 1590 1014 1541T1048 1418Q1038 1341 992 1296T874 1250Z" />
<glyph unicode="&#xe5;" horiz-adv-x="1105" d="M440 -35Q318 -35 237 10T118 133T91 303Q97 392 146 456T285 555T503 590Q569 590 620 583T725 568L732 633Q740 703 721 743T627 783Q580 783 550 768T503 728T481 674H160Q171 794 232 870T395 983T627 1020Q852
1020 950 918T1031 620L973 0H714Q711 24 709 49T703 99Q650 35 597 0T440 -35ZM541 214Q591 214 622 235T672 289T706 358Q677 366 632 373T549 381Q493 381 452 361T408 303Q406 262 448 238T541 214ZM657 1088Q581 1088 518 1125T418 1226T380 1365Q380 1441
417 1504T518 1604T657 1642Q733 1642 796 1605T896 1504T934 1365Q934 1289 897 1226T796 1126T657 1088ZM657 1293Q687 1293 708 1314T729 1365Q729 1395 708 1416T657 1437Q627 1437 606 1416T585 1365Q585 1335 606 1314T657 1293Z" />
<glyph unicode="&#xe6;" horiz-adv-x="1604" d="M90 303Q98 389 146 453T284 554T505 590Q581 590 637 581T757 565L723 523L735 633Q743 703 724 743T630 783Q583 783 553 768T506 728T484 674H163Q174 793 235 869T396 983T626 1020Q759 1020 831 981T929 857L897
859Q971 936 1063 978T1247 1020Q1348 1020 1420 973T1536 848T1589 674T1577 478Q1572 456 1568 442T1559 409H975L1025 449Q1014 385 1024 336T1065 258T1145 229Q1183 229 1211 247T1255 302H1551Q1531 211 1471 135T1324 12T1132 -35Q1057 -35 993 -9T878 68T790
190L820 191Q768 73 661 19T436 -35Q319 -35 239 11T120 134T90 303ZM411 303Q409 262 451 238T544 214Q587 214 615 229T663 270T695 326T720 385L728 352Q704 361 650 371T552 381Q515 381 484 372T433 346T411 303ZM1037 569L998 607H1311Q1313 644 1305 678T1272
734T1200 757Q1156 757 1121 735T1065 670T1037 569Z" />
<glyph unicode="&#xe7;" horiz-adv-x="988" d="M510 -35Q397 -35 304 31T160 217T125 493Q140 666 212 783T391 960T612 1020Q712 1020 782 982T896 883T957 748T969 606L667 609Q665 649 648 685T581 721Q549 721 515 701T456 632T421 493Q413 406 428 357T473
288T532 268Q597 268 620 299T651 375H946Q935 268 884 175T740 23T510 -35ZM313 -379L345 -278Q408 -303 454 -306T527 -294T554 -251Q555 -230 539 -213T487 -181T386 -151L454 103L575 81L517 -144L486 -80Q591 -90 652 -121T739 -192T765 -273Q765 -331 722
-367T609 -418T461 -423T313 -379Z" />
<glyph unicode="&#xe8;" horiz-adv-x="988" d="M511 -35Q397 -35 304 33T161 222T125 498Q140 662 212 778T390 957T610 1020Q720 1020 794 974T910 849T965 675T964 478Q959 457 955 442T946 409H363L412 451Q400 385 410 335T452 257T535 229Q568 229 597 246T642
302H938Q917 210 858 134T710 11T511 -35ZM424 564L382 607H743L694 564Q701 609 697 653T667 727T586 757Q542 757 507 734T451 668T424 564ZM815 1079L259 1265L384 1546L909 1284L815 1079Z" />
<glyph unicode="&#xe9;" horiz-adv-x="988" d="M511 -35Q397 -35 304 33T161 222T125 498Q140 662 212 778T390 957T610 1020Q720 1020 794 974T910 849T965 675T964 478Q959 457 955 442T946 409H363L412 451Q400 385 410 335T452 257T535 229Q568 229 597 246T642
302H938Q917 210 858 134T710 11T511 -35ZM424 564L382 607H743L694 564Q701 609 697 653T667 727T586 757Q542 757 507 734T451 668T424 564ZM390 1159L344 1364L920 1626L984 1345L390 1159Z" />
<glyph unicode="&#xea;" horiz-adv-x="988" d="M511 -35Q397 -35 304 33T161 222T125 498Q140 662 212 778T390 957T610 1020Q720 1020 794 974T910 849T965 675T964 478Q959 457 955 442T946 409H363L412 451Q400 385 410 335T452 257T535 229Q568 229 597 246T642
302H938Q917 210 858 134T710 11T511 -35ZM424 564L382 607H743L694 564Q701 609 697 653T667 727T586 757Q542 757 507 734T451 668T424 564ZM608 1135L438 1301L904 1635L1313 1301L1102 1135L875 1321L608 1135Z" />
<glyph unicode="&#xeb;" horiz-adv-x="988" d="M511 -35Q397 -35 304 33T161 222T125 498Q140 662 212 778T390 957T610 1020Q720 1020 794 974T910 849T965 675T964 478Q959 457 955 442T946 409H363L412 451Q400 385 410 335T452 257T535 229Q568 229 597 246T642
302H938Q917 210 858 134T710 11T511 -35ZM424 564L382 607H743L694 564Q701 609 697 653T667 727T586 757Q542 757 507 734T451 668T424 564ZM412 1245Q339 1245 296 1292T260 1414Q265 1491 316 1538T441 1586Q509 1586 552 1539T591 1414Q581 1340 529 1293T412
1245ZM815 1250Q743 1250 699 1295T663 1418Q668 1492 720 1541T844 1590Q916 1590 955 1541T989 1418Q979 1341 933 1296T815 1250Z" />
<glyph unicode="&#xec;" horiz-adv-x="652" d="M181 0L276 993H572L477 0H181ZM647 1079L91 1265L216 1546L741 1284L647 1079Z" />
<glyph unicode="&#xed;" horiz-adv-x="652" d="M181 0L276 993H572L477 0H181ZM478 1159L432 1364L1008 1626L1072 1345L478 1159Z" />
<glyph unicode="&#xee;" horiz-adv-x="652" d="M181 0L276 993H572L477 0H181ZM184 1135L14 1301L480 1635L889 1301L678 1135L451 1321L184 1135Z" />
<glyph unicode="&#xef;" horiz-adv-x="652" d="M181 0L276 993H572L477 0H181ZM244 1245Q171 1245 128 1292T92 1414Q97 1491 148 1538T273 1586Q341 1586 384 1539T423 1414Q413 1340 361 1293T244 1245ZM647 1250Q575 1250 531 1295T495 1418Q500 1492 552 1541T676
1590Q748 1590 787 1541T821 1418Q811 1341 765 1296T647 1250Z" />
<glyph unicode="&#xf0;" horiz-adv-x="1148" d="M536 -28Q424 -28 327 19T169 165T109 420Q109 556 154 663T273 845T436 959T609 998Q659 998 714 982T819 925T899 814T930 631L917 636Q914 851 857 1008T704 1292T487 1538L765 1680Q909 1527 988 1371T1099
1062T1131 767Q1131 564 1082 415T949 167T758 20T536 -28ZM549 216Q619 216 664 263T732 384T755 533Q755 649 712 696T614 744Q561 744 516 706T444 596T417 422Q417 319 449 268T549 216ZM563 1096L463 1278L1079 1618L1181 1436L563 1096Z" />
<glyph unicode="&#xf1;" horiz-adv-x="1165" d="M154 0L248 991H506L522 849Q580 938 651 979T802 1020Q917 1020 984 963T1076 805T1090 575L1038 0H735L787 575Q797 648 770 684T695 721Q626 721 565 651T487 412L450 0H154ZM464 1202L357 1279Q392 1425 463
1509T620 1593Q649 1593 679 1583T746 1550Q776 1532 800 1517T848 1502Q873 1502 901 1524T953 1593L1064 1503Q1044 1418 1005 1350T916 1242T816 1202Q788 1202 753 1215T680 1256Q647 1280 630 1290T589 1300Q561 1300 529 1281T464 1202Z" />
<glyph unicode="&#xf2;" horiz-adv-x="1061" d="M532 -35Q408 -35 310 21T160 195T125 491Q142 676 215 793T398 965T628 1020Q748 1020 846 965T996 794T1031 491Q1013 311 940 195T759 22T532 -35ZM548 255Q607 255 663 308T733 491Q746 626 710 680T614 734Q553
734 494 680T420 491Q411 404 427 352T477 278T548 255ZM922 1079L366 1265L491 1546L1016 1284L922 1079Z" />
<glyph unicode="&#xf3;" horiz-adv-x="1061" d="M532 -35Q408 -35 310 21T160 195T125 491Q142 676 215 793T398 965T628 1020Q748 1020 846 965T996 794T1031 491Q1013 311 940 195T759 22T532 -35ZM548 255Q607 255 663 308T733 491Q746 626 710 680T614 734Q553
734 494 680T420 491Q411 404 427 352T477 278T548 255ZM497 1159L451 1364L1027 1626L1091 1345L497 1159Z" />
<glyph unicode="&#xf4;" horiz-adv-x="1061" d="M532 -35Q408 -35 310 21T160 195T125 491Q142 676 215 793T398 965T628 1020Q748 1020 846 965T996 794T1031 491Q1013 311 940 195T759 22T532 -35ZM548 255Q607 255 663 308T733 491Q746 626 710 680T614 734Q553
734 494 680T420 491Q411 404 427 352T477 278T548 255ZM459 1135L289 1301L755 1635L1164 1301L953 1135L726 1321L459 1135Z" />
<glyph unicode="&#xf5;" horiz-adv-x="1061" d="M532 -35Q408 -35 310 21T160 195T125 491Q142 676 215 793T398 965T628 1020Q748 1020 846 965T996 794T1031 491Q1013 311 940 195T759 22T532 -35ZM548 255Q607 255 663 308T733 491Q746 626 710 680T614 734Q553
734 494 680T420 491Q411 404 427 352T477 278T548 255ZM482 1202L375 1279Q410 1425 481 1509T638 1593Q667 1593 697 1583T764 1550Q794 1532 818 1517T866 1502Q891 1502 919 1524T971 1593L1082 1503Q1062 1418 1023 1350T934 1242T834 1202Q806 1202 771 1215T698
1256Q665 1280 648 1290T607 1300Q579 1300 547 1281T482 1202Z" />
<glyph unicode="&#xf6;" horiz-adv-x="1061" d="M532 -35Q408 -35 310 21T160 195T125 491Q142 676 215 793T398 965T628 1020Q748 1020 846 965T996 794T1031 491Q1013 311 940 195T759 22T532 -35ZM548 255Q607 255 663 308T733 491Q746 626 710 680T614 734Q553
734 494 680T420 491Q411 404 427 352T477 278T548 255ZM519 1245Q446 1245 403 1292T367 1414Q372 1491 423 1538T548 1586Q616 1586 659 1539T698 1414Q688 1340 636 1293T519 1245ZM922 1250Q850 1250 806 1295T770 1418Q775 1492 827 1541T951 1590Q1023 1590
1062 1541T1096 1418Q1086 1341 1040 1296T922 1250Z" />
<glyph unicode="&#xf7;" horiz-adv-x="948" d="M329 721H1185L1149 428H295L329 721ZM538 833Q451 833 399 892T357 1045Q367 1134 428 1195T578 1257Q663 1257 715 1198T761 1045Q754 947 688 890T538 833ZM408 -85Q321 -85 269 -26T227 127Q237 216 298 277T448
339Q533 339 585 280T631 127Q624 29 558 -28T408 -85Z" />
<glyph unicode="&#xf8;" horiz-adv-x="1061" d="M532 -35Q408 -35 310 21T160 195T125 491Q142 676 215 793T398 965T628 1020Q748 1020 846 965T996 794T1031 491Q1013 311 940 195T759 22T532 -35ZM548 255Q607 255 663 308T733 491Q746 626 710 680T614 734Q553
734 494 680T420 491Q411 404 427 352T477 278T548 255Z" />
<glyph unicode="&#xf9;" horiz-adv-x="1174" d="M482 -18Q394 -18 318 16T201 132T175 359L237 993H533L473 397Q471 333 496 302T565 270Q608 270 653 292T732 371T777 532L821 993H1117L1027 0H726L740 155Q691 61 625 22T482 -18ZM908 1079L352 1265L477 1546L1002
1284L908 1079Z" />
<glyph unicode="&#xfa;" horiz-adv-x="1174" d="M482 -18Q394 -18 318 16T201 132T175 359L237 993H533L473 397Q471 333 496 302T565 270Q608 270 653 292T732 371T777 532L821 993H1117L1027 0H726L740 155Q691 61 625 22T482 -18ZM483 1159L437 1364L1013 1626L1077
1345L483 1159Z" />
<glyph unicode="&#xfb;" horiz-adv-x="1174" d="M482 -18Q394 -18 318 16T201 132T175 359L237 993H533L473 397Q471 333 496 302T565 270Q608 270 653 292T732 371T777 532L821 993H1117L1027 0H726L740 155Q691 61 625 22T482 -18ZM445 1135L275 1301L741 1635L1150
1301L939 1135L712 1321L445 1135Z" />
<glyph unicode="&#xfc;" horiz-adv-x="1174" d="M482 -18Q394 -18 318 16T201 132T175 359L237 993H533L473 397Q471 333 496 302T565 270Q608 270 653 292T732 371T777 532L821 993H1117L1027 0H726L740 155Q691 61 625 22T482 -18ZM505 1245Q432 1245 389 1292T353
1414Q358 1491 409 1538T534 1586Q602 1586 645 1539T684 1414Q674 1340 622 1293T505 1245ZM908 1250Q836 1250 792 1295T756 1418Q761 1492 813 1541T937 1590Q1009 1590 1048 1541T1082 1418Q1072 1341 1026 1296T908 1250Z" />
<glyph unicode="&#xfd;" horiz-adv-x="951" d="M214 -514Q145 -514 78 -501T-56 -457L-29 -172Q20 -200 67 -213T160 -226Q188 -226 215 -215T268 -174T319 -89L355 0L97 991H440L531 363L750 991H1052L587 -159Q533 -295 475 -372T353 -482T214 -514ZM372 1159L326
1364L902 1626L966 1345L372 1159Z" />
<glyph unicode="&#xfe;" horiz-adv-x="1132" d="M105 -479L279 1346H575L527 843H486Q534 938 605 979T754 1020Q861 1020 950 958T1088 778T1121 493Q1106 325 1034 207T859 27T643 -35Q576 -35 529 -20T448 32L401 -479H105ZM617 268Q657 268 702 291T782 364T825
493Q832 562 816 613T762 692T670 721Q624 721 587 701T528 643T501 556L485 397Q481 361 491 332T531 285T617 268Z" />
<glyph unicode="&#xff;" horiz-adv-x="951" d="M214 -514Q145 -514 78 -501T-56 -457L-29 -172Q20 -200 67 -213T160 -226Q188 -226 215 -215T268 -174T319 -89L355 0L97 991H440L531 363L750 991H1052L587 -159Q533 -295 475 -372T353 -482T214 -514ZM650 1245Q577
1245 534 1292T498 1414Q503 1491 554 1538T679 1586Q747 1586 790 1539T829 1414Q819 1340 767 1293T650 1245ZM1053 1250Q981 1250 937 1295T901 1418Q906 1492 958 1541T1082 1590Q1154 1590 1193 1541T1227 1418Q1217 1341 1171 1296T1053 1250Z" />
<glyph unicode="&#x2013;" horiz-adv-x="1052" d="M144 483L173 773H1027L1000 483H144Z" />
<glyph unicode="&#x2014;" horiz-adv-x="1473" d="M144 483L173 773H1453L1423 483H144Z" />
<glyph unicode="&#x2018;" horiz-adv-x="610" d="M354 664Q248 664 195 748T154 950Q161 1031 204 1110T316 1255T467 1366L662 1234Q589 1200 525 1151T435 1033Q492 1019 534 974T569 858Q562 776 501 720T354 664Z" />
<glyph unicode="&#x2019;" horiz-adv-x="610" d="M347 664L156 790Q230 827 291 879T379 995Q315 1009 276 1055T247 1174Q255 1257 316 1311T466 1366Q534 1366 580 1327T648 1223T662 1081Q654 997 610 917T498 772T347 664Z" />
<glyph unicode="&#x201a;" horiz-adv-x="582" d="M451 -337L246 -213Q317 -172 378 -123T462 -10Q405 8 365 54T330 171Q337 252 400 309T550 366Q624 366 671 326T738 221T750 82Q741 -1 700 -81T595 -228T451 -337Z" />
<glyph unicode="&#x201c;" horiz-adv-x="1098" d="M864 664Q758 664 705 748T664 950Q671 1031 714 1110T826 1255T977 1366L1172 1234Q1099 1200 1035 1151T945 1033Q1002 1019 1044 974T1079 858Q1072 776 1011 720T864 664ZM354 664Q248 664 195 748T154 950Q161
1031 204 1110T316 1255T467 1366L662 1234Q589 1200 525 1151T435 1033Q492 1019 534 974T569 858Q562 776 501 720T354 664Z" />
<glyph unicode="&#x201d;" horiz-adv-x="1106" d="M843 664L652 790Q726 827 787 879T875 995Q811 1009 772 1055T743 1174Q751 1257 812 1311T962 1366Q1030 1366 1076 1327T1144 1223T1158 1081Q1150 997 1106 917T994 772T843 664ZM578 664L387 790Q461 827
522 879T610 995Q546 1009 507 1055T478 1174Q486 1257 547 1311T697 1366Q765 1366 811 1327T879 1223T893 1081Q885 997 841 917T729 772T578 664Z" />
<glyph unicode="&#x201e;" horiz-adv-x="1088" d="M701 -337L496 -213Q567 -172 628 -123T712 -10Q655 8 615 54T580 171Q587 252 650 309T800 366Q874 366 921 326T988 221T1000 82Q991 -1 950 -81T845 -228T701 -337ZM451 -337L246 -213Q317 -172 378 -123T462
-10Q405 8 365 54T330 171Q337 252 400 309T550 366Q624 366 671 326T738 221T750 82Q741 -1 700 -81T595 -228T451 -337Z" />
<glyph unicode="&#x2022;" horiz-adv-x="691" d="M464 401Q306 401 211 508T134 787Q153 950 265 1062T537 1174Q693 1174 788 1066T871 787Q858 608 738 505T464 401Z" />
<glyph unicode="&#x2039;" horiz-adv-x="774" d="M489 116L132 550L611 984L789 807L425 506L435 584L715 283L489 116Z" />
<glyph unicode="&#x203a;" horiz-adv-x="773" d="M273 116L95 283L459 584L449 516L169 817L395 984L752 550L273 116Z" />
</font>
</defs>
</svg>
