<?xml version="1.0" standalone="no"?>
<!DOCTYPE svg PUBLIC "-//W3C//DTD SVG 1.1//EN" "http://www.w3.org/Graphics/SVG/1.1/DTD/svg11.dtd">
<svg xmlns="http://www.w3.org/2000/svg">
<defs >
<font id="LibreCaslonText" horiz-adv-x="595" ><font-face
    font-family="Libre Caslon Text"
    units-per-em="1000"
    panose-1="0 0 5 0 0 0 0 0 0 0"
    ascent="970"
    descent="-260"
    alphabetic="0" />
<glyph unicode=" " glyph-name="space" horiz-adv-x="283" />
<glyph unicode="!" glyph-name="exclam" horiz-adv-x="336" d="M218 571Q247 694 259 729Q267 752 285 766T327 780Q355 780 373 763T391 717Q391 695 376 664T312 553Q272 486 240 412T172 230H137L218 571ZM78 115T57 95T36 47Q36 22 52 6T95 -10Q125 -10 147
10T170 57Q170 82 152 98T107 115Q78 115 57 95Z" />
<glyph unicode="&quot;" glyph-name="quotedbl" horiz-adv-x="372" d="M225 593T230 629T237 706Q239 750 245 770Q254 798 273 814T318 830Q337 830 346 821T356 795Q356 777 347 758T316 701Q291 659 274 625T240 545H210Q225 593 230 629ZM377 593T382 629T389
706Q391 750 397 770Q406 798 425 814T470 830Q489 830 498 821T508 795Q508 777 499 758T468 701Q443 659 426 625T392 545H362Q377 593 382 629Z" />
<glyph unicode="#" glyph-name="numbersign" horiz-adv-x="667" d="M552 525H695L672 469H532L479 318H619L594 262H460L400 92H343L402 262H254L194 92H136L195 262H51L75 318H215L268 469H128L151 525H287L348 696H406L346 525H494L555 696H612L552 525ZM422
318L475 469H326L273 318H422Z" />
<glyph unicode="$" glyph-name="dollar" horiz-adv-x="577" d="M562 757T597 719T633 629Q633 601 619 585T580 568Q534 568 525 635Q520 674 511 696T485 728L367 434Q414 379 437 345T470 283T479 223Q479 156 443 103T343 20T198 -10H188L132 -150H87L145 -5Q81
8 42 47T3 141Q3 169 17 185T56 202Q102 202 111 135Q117 89 128 67T162 36L287 346Q251 384 231 409T197 470T182 551Q182 617 215 669T306 750T438 780L461 779L515 912H560L503 772Q562 757 597 719ZM287 552T296 530T337 469L445 739Q440 740 429 740Q361 740
324 700T287 586Q287 552 296 530ZM282 30T326 69T371 177Q371 216 357 247T317 311L204 30Q282 30 326 69Z" />
<glyph unicode="%" glyph-name="percent" horiz-adv-x="961" d="M756 770H826L275 0H207L756 770ZM291 315T358 367T468 500T511 664Q511 780 410 780Q341 780 276 729T170 597T129 430Q129 371 151 343T223 315Q291 315 358 367ZM233 351T225 366T217 415Q217
481 245 558T314 690T389 744Q424 744 424 679Q424 613 396 536T326 405T250 351Q233 351 225 366ZM687 -10T754 42T864 175T907 339Q907 455 806 455Q737 455 672 404T566 272T525 105Q525 46 547 18T619 -10Q687 -10 754 42ZM629 26T621 41T613 90Q613 156 641
233T710 365T785 419Q820 419 820 354Q820 288 792 211T722 80T646 26Q629 26 621 41Z" />
<glyph unicode="&amp;" glyph-name="ampersand" horiz-adv-x="931" d="M540 88T615 119T732 205T775 326Q775 384 739 416T642 449Q611 449 584 439T540 413T523 381Q523 367 532 361T559 350Q580 344 590 336T601 309Q601 290 585 279T547 268Q519 268 496 290T473
350Q473 394 494 421T570 469T733 507Q805 519 848 531T919 570T946 643Q946 677 929 695T885 714Q869 714 858 707T832 687Q818 674 808 668T784 662Q766 662 756 672T745 701Q745 735 779 757T862 780Q918 780 951 750T984 660Q984 571 928 520T761 450L760 446Q794
432 813 396T832 311Q832 223 776 150T624 33T416 -10Q321 -10 248 22T134 113T93 248Q93 319 126 374T220 464Q208 481 201 505T194 554Q194 601 218 642T282 708T368 733Q403 733 433 719T481 680T499 626Q499 598 484 581T443 564Q415 564 407 579T397 625Q395
657 386 673T346 689Q317 689 292 672T252 627T237 564Q237 542 241 522T255 487Q282 498 312 498Q340 498 357 485T375 452Q375 430 360 416T319 402Q301 402 280 410T241 433Q205 419 182 381T158 294Q158 234 195 187T299 114T449 88Q540 88 615 119Z" />
<glyph unicode="&apos;" glyph-name="quotesingle" horiz-adv-x="220" d="M225 593T230 629T237 706Q239 750 245 770Q254 798 273 814T318 830Q337 830 346 821T356 795Q356 777 347 758T316 701Q291 659 274 625T240 545H210Q225 593 230 629Z" />
<glyph unicode="(" glyph-name="parenleft" horiz-adv-x="318" d="M93 -104T93 -12Q93 127 141 279T273 572T457 820L449 830Q335 754 236 630T78 359T18 75Q18 -80 97 -200L117 -187Q93 -104 93 -12Z" />
<glyph unicode=")" glyph-name="parenright" horiz-adv-x="329" d="M-4 -132T86 -30T243 217T310 530Q310 627 286 707T224 830L210 820Q220 790 226 741T232 630Q232 444 172 279T37 -2T-105 -187L-93 -200Q-4 -132 86 -30Z" />
<glyph unicode="*" glyph-name="asterisk" horiz-adv-x="487" d="M416 581T431 555Q444 535 454 525T481 515Q502 515 518 529T535 565Q535 579 523 585T483 599Q441 610 424 619L399 632L433 645Q457 654 496 662Q539 671 558 681T578 720Q578 733 570 740T546
748Q530 748 516 740T479 712Q450 687 424 670L394 650L406 682Q414 704 435 738Q447 759 453 773T460 803Q460 816 453 823T433 830Q411 830 395 810T378 754L379 716Q379 696 377 684L372 650L351 669Q336 683 320 709Q309 729 300 738T273 747Q251 747 235 732T219
696Q219 681 232 675T275 660Q313 651 328 644L356 631L323 618Q302 610 258 599Q215 589 196 579T176 541Q176 529 184 522T208 514Q225 514 240 523T279 553Q282 556 297 568T328 591L362 612L349 579Q343 564 322 525Q308 499 302 485T295 458Q295 446 302 439T323
432Q341 432 353 443T371 472Q374 484 375 502T376 525Q376 548 379 578L383 612L404 592Q416 581 431 555Z" />
<glyph unicode="+" glyph-name="plus" horiz-adv-x="512" d="M67 315V364H247V544H298V364H477V315H298V134H247V315H67Z" />
<glyph unicode="," glyph-name="comma" horiz-adv-x="289" d="M54 -4T59 -7T65 -21Q65 -47 32 -90T-44 -165L-26 -186Q50 -134 89 -75T129 45Q129 89 108 113T49 137Q14 137 -6 118T-27 64Q-27 11 30 0Q54 -4 59 -7Z" />
<glyph unicode="-" glyph-name="hyphen" horiz-adv-x="480" d="M77 294H396L363 210H44L77 294Z" />
<glyph unicode="." glyph-name="period" horiz-adv-x="282" d="M20 137T-6 114T-32 57Q-32 27 -12 9T41 -10Q74 -10 101 15T129 72Q129 99 107 118T54 137Q20 137 -6 114Z" />
<glyph unicode="/" glyph-name="slash" horiz-adv-x="345" d="M301 819H370L66 -169H-1L301 819Z" />
<glyph unicode="0" glyph-name="zero" horiz-adv-x="645" d="M313 -10T415 78T582 305T648 582Q648 780 498 780Q394 780 296 694T136 468T74 183Q74 83 107 37T210 -10Q313 -10 415 78ZM204 31T190 57T176 139Q176 257 227 399T351 639T485 738Q515 738 529 711T544
628Q544 510 493 369T369 129T234 31Q204 31 190 57Z" />
<glyph unicode="1" glyph-name="one" horiz-adv-x="429" d="M300 0L310 23L184 42L467 780H433Q394 746 315 707T171 651L179 624L314 656L317 654L81 47L-37 23L-46 0H300Z" />
<glyph unicode="2" glyph-name="two" horiz-adv-x="607" d="M132 150T177 199T269 286T386 375Q463 430 506 467T579 551T608 651Q608 714 568 747T451 780Q362 780 290 738T153 611L182 591Q231 657 295 695T421 733Q456 733 475 713T494 656Q494 616 471 577T412
500T312 404Q235 334 183 279T84 153T16 0H441L523 204H491Q475 173 455 147T405 91H102Q132 150 177 199Z" />
<glyph unicode="3" glyph-name="three" horiz-adv-x="593" d="M222 368T248 373T297 379Q345 379 370 347T396 253Q396 192 370 142T299 63T199 34Q156 34 138 49T106 91Q95 111 85 121T54 131Q30 131 15 117T-1 81Q-1 42 47 16T166 -10Q256 -10 335 31T462 140T510
285Q510 346 480 388T398 440Q492 497 535 550T578 660Q578 716 539 748T432 780Q284 780 166 614L195 593Q245 661 297 697T397 733Q433 733 455 710T477 650Q477 602 441 553T341 461T193 390L204 359Q222 368 248 373Z" />
<glyph unicode="4" glyph-name="four" horiz-adv-x="556" d="M306 0L379 221H479L505 298H405L572 770H470L16 269L1 221H279L201 0H306ZM435 675H439L306 298H95L435 675Z" />
<glyph unicode="5" glyph-name="five" horiz-adv-x="543" d="M127 372Q177 388 238 388Q304 388 337 355T370 256Q370 198 345 147T279 65T189 34Q155 34 139 47T109 88Q98 110 87 120T55 131Q31 131 17 117T3 79Q3 39 44 15T154 -10Q243 -10 319 32T441 144T486
298Q486 385 435 434T292 483Q235 483 191 476L258 667H508L547 790L525 797L499 757H247L115 382L127 372Z" />
<glyph unicode="6" glyph-name="six" horiz-adv-x="578" d="M413 734T298 642T118 427T53 171Q53 82 89 36T197 -10Q276 -10 353 42T480 177T529 346Q529 422 488 460T367 499Q296 499 238 463L235 466Q293 559 385 638T570 754L560 780Q413 734 298 642ZM185
33T170 59T155 143Q155 227 180 298T249 412T342 455Q417 455 417 356Q417 287 388 211T312 84T221 33Q185 33 170 59Z" />
<glyph unicode="7" glyph-name="seven" horiz-adv-x="520" d="M197 619L257 680H536Q375 455 291 331T173 141T139 43Q139 17 152 4T190 -10Q216 -10 231 7T263 72Q314 221 400 376T638 745L628 770H282V820H255L161 619H197Z" />
<glyph unicode="8" glyph-name="eight" horiz-adv-x="621" d="M174 380T106 322T37 172Q37 123 61 82T135 15T258 -10Q322 -10 378 16T468 97T503 230Q503 275 483 319T433 401L401 440Q485 477 538 523T591 641Q591 703 545 741T420 780Q363 780 314 758T234
692T203 585Q203 542 219 505T253 447L274 421Q174 380 106 322ZM335 510T312 545T289 623Q289 675 325 706T415 738Q457 738 477 715T498 651Q498 594 466 550T376 467Q335 510 312 545ZM385 281T399 250T413 181Q413 112 375 72T270 32Q208 32 175 74T141 179Q141
234 159 271T211 334T298 390L359 314Q385 281 399 250Z" />
<glyph unicode="9" glyph-name="nine" horiz-adv-x="578" d="M238 36T353 128T533 343T598 599Q598 688 562 734T454 780Q375 780 298 728T171 593T122 424Q122 348 163 310T284 271Q319 271 354 282T415 312L418 309Q362 213 270 133T81 16L91 -10Q238 36 353
128ZM466 737T481 711T496 627Q496 543 471 472T402 358T309 315Q234 315 234 414Q234 483 263 559T339 686T430 737Q466 737 481 711Z" />
<glyph unicode=":" glyph-name="colon" horiz-adv-x="327" d="M173 501T147 478T121 421Q121 391 141 373T194 354Q227 354 254 379T282 436Q282 463 260 482T207 501Q173 501 147 478ZM54 137T28 114T2 57Q2 27 22 9T75 -10Q108 -10 135 15T163 72Q163 99 141
118T88 137Q54 137 28 114Z" />
<glyph unicode=";" glyph-name="semicolon" horiz-adv-x="331" d="M175 501T149 478T123 421Q123 391 143 373T196 354Q229 354 256 379T284 436Q284 463 262 482T209 501Q175 501 149 478ZM85 -4T90 -7T96 -21Q96 -47 63 -90T-13 -165L5 -186Q81 -134 120 -75T160
45Q160 89 139 113T80 137Q45 137 25 118T4 64Q4 11 61 0Q85 -4 90 -7Z" />
<glyph unicode="&lt;" glyph-name="less" horiz-adv-x="589" d="M65 361L474 556V495L137 341V337L474 181V116L65 310V361Z" />
<glyph unicode="=" glyph-name="equal" horiz-adv-x="628" d="M505 382V424H139V382H505ZM505 232V274H139V232H505Z" />
<glyph unicode="&gt;" glyph-name="greater" horiz-adv-x="582" d="M138 181L475 337V341L138 495V561L547 366V315L138 121V181Z" />
<glyph unicode="?" glyph-name="question" horiz-adv-x="483" d="M308 224T291 242T274 289Q274 327 302 357T388 428Q437 465 466 491T517 554T538 637Q538 704 492 742T362 780Q298 780 257 759T216 703Q216 684 228 672T260 659Q282 659 295 670T324 704Q339
725 352 736T386 747Q419 747 440 724T461 665Q461 629 443 598T397 542T325 483Q281 450 255 426T210 372T192 307Q192 255 227 225T331 194L336 222Q308 224 291 242ZM213 -10T234 10T255 58Q255 83 239 99T196 115Q166 115 144 95T121 48Q121 23 139 7T184 -10Q213
-10 234 10Z" />
<glyph unicode="@" glyph-name="at" horiz-adv-x="920" d="M570 -134T460 -134Q343 -134 270 -88T165 27T133 170Q133 274 175 365T297 510T482 565Q566 565 633 534T739 444T778 309Q778 235 757 181T701 99T630 71Q582 71 582 119Q582 138 589 160L670 450H590L579
411H575Q565 428 545 439T502 450Q437 450 376 403T276 287T238 164Q238 102 267 68T350 34Q392 34 430 54T503 128L507 127Q502 119 502 107Q502 66 527 44T597 21Q662 21 715 61T798 168T828 314Q828 391 787 459T670 568T492 610Q374 610 271 555T105 400T42
169Q42 55 97 -23T239 -140T426 -178Q557 -178 648 -123L637 -94Q570 -134 460 -134ZM351 89T338 105T325 160Q325 204 355 263T427 364T503 407Q546 407 546 351Q546 300 520 238T455 133T379 89Q351 89 338 105Z" />
<glyph unicode="A" glyph-name="A" horiz-adv-x="748" d="M521 677L58 139Q23 99 0 79T-53 47T-131 28L-145 0H133L146 28Q102 34 82 43T61 69Q61 82 69 95T101 137L230 286H467L442 105Q435 60 410 45T325 28L311 0H619L633 28Q585 31 567 40T548 75Q548 86 549
92L640 793L532 770L521 677ZM262 323L514 614L472 323H262Z" />
<glyph unicode="B" glyph-name="B" horiz-adv-x="715" d="M296 0Q392 0 465 29T579 111T619 234Q619 297 587 339T494 397V401Q559 411 611 442T694 518T724 613Q724 686 661 728T491 770H251L240 742L318 723L36 47L-52 28L-63 0H296ZM430 729H491Q620 729 620
612Q620 526 561 478T397 429H304L430 729ZM201 38T184 46T166 74Q166 94 183 135L287 389H359Q436 389 473 356T511 251Q511 148 443 93T243 38Q201 38 184 46Z" />
<glyph unicode="C" glyph-name="C" horiz-adv-x="742" d="M536 77Q477 31 422 11T298 -10Q63 -10 63 213Q63 351 146 483T361 697T632 780Q680 780 721 769T789 737L825 770H847L750 540H721Q736 596 736 634Q736 687 709 711T622 736Q512 736 408 661T238 466T173
219Q173 37 325 37Q422 37 506 105T641 293H670L559 0H532L540 77H536Z" />
<glyph unicode="D" glyph-name="D" horiz-adv-x="805" d="M242 0Q401 0 505 47Q587 84 649 149T746 298T781 470Q781 561 741 628T628 733T456 770H250L240 747L318 728L34 42L-58 23L-68 0H242ZM198 42T182 50T166 80Q166 99 179 129L428 730H455Q558 730 614
669T671 495Q671 357 612 254T454 97T236 42Q198 42 182 50Z" />
<glyph unicode="E" glyph-name="E" horiz-adv-x="713" d="M632 230H603Q542 128 466 40H143L285 386H459Q455 315 442 266H471L584 540H555Q521 483 471 426H303L427 730H653Q692 663 711 550H738L730 770H250L240 747L318 728L34 42L-58 23L-68 0H541L632 230Z" />
<glyph unicode="F" glyph-name="F" horiz-adv-x="644" d="M260 23L143 40L280 374H454Q450 303 437 254H466L579 528H550Q516 471 466 414H298L427 730H661Q697 653 711 550H738V770H250L240 747L318 728L34 42L-58 23L-68 0H250L260 23Z" />
<glyph unicode="G" glyph-name="G" horiz-adv-x="798" d="M494 94T453 64T348 34Q184 34 184 233Q184 360 244 476T404 664T612 736Q677 736 709 708T741 621Q741 586 727 530H757L855 770H831L780 725Q747 754 708 767T616 780Q483 780 356 701T150 496T71 237Q71
119 137 55T326 -10Q389 -10 457 8T585 59L703 344L799 363L809 386H525L515 363L598 344L521 159Q494 94 453 64Z" />
<glyph unicode="H" glyph-name="H" horiz-adv-x="859" d="M287 385L145 42L227 23L217 0H-72L-62 23L35 42L319 728L236 747L246 770H536L526 747L430 728L304 425H660L786 728L703 747L713 770H1003L993 745L897 728L612 42L693 21L684 0H394L404 23L501 42L643
385H287Z" />
<glyph unicode="I" glyph-name="I" horiz-adv-x="392" d="M-62 23L-72 0H217L227 23L145 42L430 728L526 747L536 770H246L236 747L319 728L35 42L-62 23Z" />
<glyph unicode="J" glyph-name="J" horiz-adv-x="380" d="M71 -133T-2 -194T-157 -256Q-210 -256 -243 -233T-276 -177Q-276 -154 -261 -141T-225 -127Q-203 -127 -193 -138T-174 -173Q-166 -194 -157 -205T-128 -216Q-106 -216 -88 -199T-50 -143T3 -27L318 728L235
747L245 770H535L525 747L429 728L115 -27Q71 -133 -2 -194Z" />
<glyph unicode="K" glyph-name="K" horiz-adv-x="743" d="M520 770H250L241 747L319 728L33 42L-55 23L-64 0H252L262 23L143 42L266 338L335 392L474 0H655L662 23L574 42L417 458L707 689Q741 716 769 727T840 742L854 770H595L586 747Q621 746 638 736T655
710Q655 691 610 655L295 407L429 729L510 747L520 770Z" />
<glyph unicode="L" glyph-name="L" horiz-adv-x="695" d="M637 242H603Q529 119 461 40H143L425 725L526 747L536 770H250L240 747L318 728L34 42L-58 23L-68 0H541L637 242Z" />
<glyph unicode="M" glyph-name="M" horiz-adv-x="994" d="M127 0L137 23L55 42L389 690H393L306 -10H359L917 710H921L642 42L545 23L535 0H819L829 23L747 42L1032 728L1129 747L1138 770H904L443 169H439L511 770H277L268 747L358 728L7 42L-90 23L-100 0H127Z" />
<glyph unicode="N" glyph-name="N" horiz-adv-x="815" d="M349 690L80 42L162 23L152 0H-75L-65 23L32 42L316 728L233 747L243 770H455L579 171H583L814 728L731 747L741 770H969L959 747L863 728L556 -10H498L353 690H349Z" />
<glyph unicode="O" glyph-name="O" horiz-adv-x="804" d="M426 -10T541 68T729 272T801 531Q801 650 741 715T571 780Q450 780 335 701T147 496T75 236Q75 119 135 55T304 -10Q426 -10 541 68ZM254 37T223 79T191 210Q191 336 246 458T388 658T565 736Q628 736
659 694T690 565Q690 438 636 315T495 115T319 37Q254 37 223 79Z" />
<glyph unicode="P" glyph-name="P" horiz-adv-x="653" d="M469 341T550 372T675 461T720 594Q720 677 660 723T490 770H250L241 747L319 728L33 42L-55 23L-64 0H252L262 23L143 42L265 341H363Q469 341 550 372ZM429 729H490Q551 729 583 698T616 608Q616 547
584 496T497 415T377 385H284L429 729Z" />
<glyph unicode="Q" glyph-name="Q" horiz-adv-x="804" d="M79 -90Q45 -104 29 -120T12 -159Q12 -176 21 -188T50 -201Q67 -201 78 -191T90 -166Q90 -161 88 -154T86 -140Q86 -133 90 -130T108 -126Q133 -126 150 -136T193 -169Q225 -198 252 -212T325 -227Q385
-227 432 -198T507 -130T542 -63H508Q487 -92 438 -109T325 -127Q281 -127 250 -118T190 -87L425 8Q526 48 612 128T750 313T802 530Q802 649 742 714T574 780Q452 780 336 701T148 496T76 237Q76 129 127 66T270 -8V-12L79 -90ZM254 37T223 80T192 212Q192 337
247 459T390 658T567 736Q630 736 660 693T691 562Q691 436 637 314T495 115T318 37Q254 37 223 80Z" />
<glyph unicode="R" glyph-name="R" horiz-adv-x="740" d="M464 0H665L672 23L564 42L450 359Q573 377 645 443T717 607Q717 770 490 770H250L241 747L319 728L33 42L-55 23L-64 0H252L262 23L143 42L270 354H347L464 0ZM429 729H490Q551 729 583 698T616 608Q616
552 584 504T498 427T382 398H289L429 729Z" />
<glyph unicode="S" glyph-name="S" horiz-adv-x="589" d="M98 261Q85 209 85 165Q85 30 222 30Q298 30 342 69T386 177Q386 229 363 267T295 353Q262 390 243 415T211 474T197 552Q197 618 229 670T317 751T446 780Q495 780 531 765T597 718L643 770H675L589 550H559Q564
569 568 594T572 637Q572 687 541 713T450 740Q378 740 340 702T302 591Q302 562 308 542T329 499T379 438Q447 359 470 314T494 219Q494 154 458 102T358 20T216 -10Q88 -10 45 72L-6 0H-37L69 261H98Z" />
<glyph unicode="T" glyph-name="T" horiz-adv-x="735" d="M312 730Q217 648 143 550H119L247 770H873L819 550H795Q796 564 796 595Q796 676 777 730H599L314 42L416 23L406 0H88L98 23L205 42L490 730H312Z" />
<glyph unicode="U" glyph-name="U" horiz-adv-x="778" d="M94 219T94 150Q94 72 149 31T310 -10Q412 -10 489 42T623 230L834 728L929 747L938 770H717L706 747L790 728L587 259Q551 175 515 127T437 58T340 37Q267 37 232 63T196 144Q196 170 204 204T225 269L416
727L512 747L522 770H237L228 747L310 728L137 320Q94 219 94 150Z" />
<glyph unicode="V" glyph-name="V" horiz-adv-x="734" d="M269 678Q270 684 270 695Q269 720 251 729T185 742L199 770H507L493 742Q434 741 409 726T376 665L303 133H307L697 633Q718 660 724 673T731 701Q730 717 710 726T646 742L659 770H948L934 742Q885 735
855 724T801 692T745 631L239 -10H180L269 678Z" />
<glyph unicode="W" glyph-name="W" horiz-adv-x="1029" d="M264 678Q265 684 265 695Q264 720 246 729T180 742L194 770H482L468 742Q419 741 398 726T371 665L298 134L584 526L604 678Q605 684 605 695Q604 721 593 730T550 742L564 770H842L828 742Q769 741
744 726T711 665L638 134L1002 633Q1023 661 1029 674T1036 701Q1035 717 1015 726T951 742L964 770H1233L1219 742Q1176 735 1150 724T1102 692T1050 631L574 -10H515L574 447L234 -10H175L264 678Z" />
<glyph unicode="X" glyph-name="X" horiz-adv-x="744" d="M212 23Q134 35 134 70Q134 98 184 146L374 330L423 115Q428 92 428 80Q428 54 409 42T339 23L330 0H629L639 23Q590 31 570 49T538 116L467 407L726 656Q773 702 811 720T906 747L916 770H678L669 747Q722
747 722 724Q722 700 670 651L457 448L408 655Q402 678 402 693Q402 719 419 731T478 747L487 770H193L182 746Q222 741 243 733T274 708T292 663L362 373L147 167Q82 105 42 76T-28 36T-98 23L-108 0H201L212 23Z" />
<glyph unicode="Y" glyph-name="Y" horiz-adv-x="716" d="M402 23L304 42L439 363L708 638Q753 683 781 704T837 735T908 747L921 770H645L636 747Q719 747 719 716Q719 697 686 664L417 394L387 640Q384 661 384 677Q384 716 401 730T462 747L472 770H190L180
747Q216 747 233 740T257 717T270 664L319 340L195 42L98 23L88 0H392L402 23Z" />
<glyph unicode="Z" glyph-name="Z" horiz-adv-x="697" d="M646 244H612Q541 143 434 42H122L744 718L766 770H270L150 553H177Q251 649 349 730H618L-7 51L-29 0H523L646 244Z" />
<glyph unicode="[" glyph-name="bracketleft" horiz-adv-x="364" d="M174 -156H57L363 788H481L491 820H292L-34 -187H164L174 -156Z" />
<glyph unicode="\" glyph-name="backslash" horiz-adv-x="627" d="M241 819H311L408 -169H339L241 819Z" />
<glyph unicode="]" glyph-name="bracketright" horiz-adv-x="363" d="M413 820H214L204 788H322L16 -156H-102L-112 -187H86L413 820Z" />
<glyph unicode="^" glyph-name="asciicircum" horiz-adv-x="498" d="M404 649H408L436 332H472L445 711H409L68 332H116L404 649Z" />
<glyph unicode="_" glyph-name="underscore" horiz-adv-x="718" d="M-62 -30H488L471 -74H-79L-62 -30Z" />
<glyph unicode="`" glyph-name="grave" horiz-adv-x="119" d="M108 792Q108 795 108 800T109 815Q109 857 62 857Q41 857 26 844T10 811Q10 798 13 786T23 755L68 636L96 642L108 792Z" />
<glyph unicode="a" glyph-name="a" horiz-adv-x="604" d="M291 540T204 474T59 309T0 122Q0 60 29 25T110 -10Q160 -10 208 28T316 152L322 149Q303 118 296 95T288 48Q288 19 303 5T347 -10Q430 -10 537 124L517 138Q437 49 406 49Q390 49 390 68Q390 78 400
109L572 530H470L454 493Q436 519 418 529T371 540Q291 540 204 474ZM109 25T101 39T92 83Q92 153 143 255T264 432T382 508Q402 508 415 495T428 458Q428 441 424 422T406 372Q366 280 314 200T213 73T129 25Q109 25 101 39Z" />
<glyph unicode="b" glyph-name="b" horiz-adv-x="575" d="M283 793L61 249Q34 183 34 131Q34 64 71 27T177 -10Q263 -10 345 48T480 199T532 386Q532 459 499 499T408 540Q370 540 331 520T257 462H252L393 820H201L205 805L283 793ZM214 363T249 408T320 479T383
505Q407 505 421 481T435 416Q435 345 390 252T281 92T169 25Q145 25 131 40T116 82Q116 123 139 189T189 310Q214 363 249 408Z" />
<glyph unicode="c" glyph-name="c" horiz-adv-x="498" d="M330 509T265 440T154 273T109 99Q109 61 122 43T168 25Q253 25 384 159L406 146Q341 69 273 30T140 -10Q76 -10 43 29T10 143Q11 226 55 308T177 451Q231 493 290 516T399 540Q450 540 485 514T520 449Q520
431 508 420T476 409Q437 409 430 457Q425 485 416 497T387 509Q330 509 265 440Z" />
<glyph unicode="d" glyph-name="d" horiz-adv-x="603" d="M563 793L447 493Q428 519 409 529T362 540Q281 540 197 475T58 310T3 120Q3 -10 112 -10Q166 -10 212 26T319 152L321 149Q306 120 299 100T292 62Q292 25 306 8T353 -10Q437 -10 536 124L516 138Q474
90 450 70T411 49Q393 49 393 68Q393 80 404 109L672 820H481L486 805L563 793ZM113 25T103 39T93 81Q93 151 143 253T262 432T379 508Q398 508 410 495T426 458Q425 442 420 424T401 372Q363 280 313 200T213 73T130 25Q113 25 103 39Z" />
<glyph unicode="e" glyph-name="e" horiz-adv-x="485" d="M312 540T219 475T63 312T0 125Q0 61 34 26T130 -10Q260 -10 383 145L361 159Q317 100 260 63T155 25Q126 25 112 41T97 92Q97 162 154 269Q253 286 330 318T451 390T494 471Q494 503 468 521T398 540Q312
540 219 475ZM242 425T291 467T382 509Q414 509 414 479Q414 445 381 409T292 343T176 302L208 361Q242 425 291 467Z" />
<glyph unicode="f" glyph-name="f" horiz-adv-x="324" d="M432 830T356 775T227 600L196 530H107L95 498H183L39 143Q-39 -49 -99 -135T-203 -221Q-220 -221 -227 -211T-242 -181Q-250 -157 -260 -145T-295 -132Q-317 -132 -329 -143T-342 -173Q-342 -210 -313
-233T-233 -256Q-128 -256 -33 -146T166 203L293 498H390L403 530H305L329 590Q374 701 418 752T512 803Q535 803 549 794T563 768Q563 761 562 757T560 748Q556 732 556 722Q556 703 569 691T603 678Q625 678 638 691T651 726Q651 770 612 800T517 830Q432 830
356 775Z" />
<glyph unicode="g" glyph-name="g" horiz-adv-x="527" d="M479 540T427 479Q378 540 297 540Q241 540 192 514T114 445T85 352Q85 272 159 220L158 216Q88 216 49 190T9 116Q9 92 20 70T53 32Q6 32 -32 14T-93 -35T-115 -105Q-115 -150 -85 -184T1 -237T129 -256Q206
-256 267 -235T363 -177T398 -92Q398 -49 370 -14T293 38L137 91Q87 107 87 142Q87 187 178 187Q192 187 220 185L256 184Q313 184 361 210T437 280T465 376Q465 397 461 414T446 454Q451 465 461 471T482 478Q495 478 510 465Q518 458 525 454T542 450Q559 450
571 461T584 490Q584 511 569 525T528 540Q479 540 427 479ZM203 218T188 239T172 300Q172 345 195 392T254 471T322 503Q351 503 363 487T376 436Q376 382 356 332T302 250T232 218Q203 218 188 239ZM65 -226T19 -194T-27 -107Q-27 -60 5 -27T84 6Q98 6 116 0L244
-43Q276 -54 297 -77T318 -125Q318 -169 269 -197T143 -226Q65 -226 19 -194Z" />
<glyph unicode="h" glyph-name="h" d="M217 805L215 820H406L216 382L221 380Q284 465 336 502T445 539Q487 539 512 519T537 460Q537 415 510 360L393 121Q373 79 373 64Q373 49 388 49Q404 49 434 73T502 139L523 124Q419 -10 324 -10Q292 -10 279 4T265 48Q265
88 300 158L434 427Q448 457 448 477Q448 505 419 505Q385 505 338 464T240 352T149 194L58 0H-35L293 793L217 805Z" />
<glyph unicode="i" glyph-name="i" horiz-adv-x="340" d="M278 780T256 760T234 712Q234 686 251 671T296 655Q325 655 348 676T371 725Q371 748 352 764T307 780Q278 780 256 760ZM187 540T142 516T64 451L87 433Q110 462 133 478T175 495Q188 495 188 486Q188
478 183 467L38 111Q23 76 23 46Q23 18 40 4T88 -10Q126 -10 177 24T275 117L255 129Q206 81 185 65T150 49Q141 49 136 54T130 68Q130 74 133 81L276 425Q292 463 292 491Q292 514 274 527T227 540Q187 540 142 516Z" />
<glyph unicode="j" glyph-name="j" horiz-adv-x="306" d="M271 780T250 760T229 712Q229 687 245 671T289 655Q319 655 341 675T363 722Q363 746 345 763T300 780Q271 780 250 760ZM180 540T138 517T59 451L80 433Q127 492 163 492Q171 492 174 489T177 479Q177
464 163 425T97 252L-13 -28Q-56 -137 -85 -179T-145 -221Q-166 -221 -175 -211T-192 -178Q-201 -154 -211 -143T-245 -132Q-291 -132 -291 -179Q-291 -214 -259 -235T-174 -256Q-100 -256 -43 -211T54 -81L181 203Q232 316 257 389T284 492Q284 515 268 527T221
540Q180 540 138 517Z" />
<glyph unicode="k" glyph-name="k" horiz-adv-x="560" d="M297 793L-36 0H64L159 235H167L236 90Q261 38 288 14T351 -10Q388 -10 424 12T481 69L461 80Q425 33 393 33Q378 33 366 49T331 111L263 254Q333 273 393 308T490 386T526 465Q526 501 502 520T432 540Q385
540 339 519T261 462H257L411 820H220L222 805L297 793ZM346 496T388 496Q426 496 426 456Q426 412 391 370T299 300T176 268Q201 333 229 376T295 453Q346 496 388 496Z" />
<glyph unicode="l" glyph-name="l" horiz-adv-x="316" d="M293 793L156 466Q95 322 58 229T10 104T-1 52Q-1 23 12 7T50 -10Q92 -10 145 23T247 117L225 129Q181 82 158 66T120 49Q112 49 106 54T99 67Q99 83 114 122T192 305L413 820H215L217 805L293 793Z" />
<glyph unicode="m" glyph-name="m" horiz-adv-x="891" d="M548 427T548 466Q548 502 527 520T466 539Q412 539 363 502T254 380L249 382Q294 462 294 500Q294 521 283 530T246 540Q198 540 147 509T57 426L77 410Q106 448 135 471T182 495Q189 495 193 492T197
482Q197 471 186 446L-6 0H91L181 194Q222 284 269 355T360 465T436 505Q451 505 459 497T468 475Q468 456 455 427L259 0H367L459 207Q495 288 540 356T630 465T705 505Q719 505 727 497T735 475Q735 457 721 427L596 158Q560 79 560 42Q560 17 575 4T620 -10Q666
-10 717 24T820 124L799 139Q763 98 732 74T684 49Q669 49 669 64Q669 75 690 121L797 360Q821 412 821 451Q821 494 799 516T734 539Q680 539 630 501T525 380L521 382Q548 427 548 466Z" />
<glyph unicode="n" glyph-name="n" horiz-adv-x="629" d="M198 540T147 509T57 426L77 410Q108 448 137 471T183 495Q197 495 197 480Q197 473 186 446L-6 0H91L184 194Q226 282 275 353T371 464T451 505Q466 505 474 497T483 475Q483 453 470 427L334 158Q298
86 298 43Q298 -10 357 -10Q451 -10 558 124L537 139Q499 96 468 73T420 49Q408 49 408 63Q408 81 428 121L545 360Q570 410 570 452Q570 495 547 517T479 539Q424 539 372 502T254 380L250 382Q274 426 284 453T294 500Q294 521 283 530T246 540Q198 540 147 509Z"
/>
<glyph unicode="o" glyph-name="o" horiz-adv-x="557" d="M241 -10T324 49T461 198T515 376Q515 452 476 496T366 540Q285 540 203 481T67 332T13 155Q13 78 51 34T161 -10Q241 -10 324 49ZM403 505T414 488T426 437Q426 366 378 268T263 97T149 25Q125 25 115
43T104 98Q104 173 150 270T262 436T378 505Q403 505 414 488Z" />
<glyph unicode="p" glyph-name="p" horiz-adv-x="566" d="M203 533Q131 522 79 486L87 466Q123 491 192 503L-118 -223L-198 -235V-250H88V-232L-14 -220L83 13Q110 10 135 10Q230 10 318 56T460 181T515 348Q515 425 459 477T302 540L338 630L238 619L203 533ZM287
504T292 506T307 508Q353 508 382 472T411 369Q411 286 370 210T261 86T120 39Q106 39 94 40L284 497Q287 504 292 506Z" />
<glyph unicode="q" glyph-name="q" horiz-adv-x="571" d="M478 530L460 493Q446 519 428 529T380 540Q297 540 207 472T56 303T-4 109Q-4 -10 98 -10Q152 -10 200 26T314 152L316 149L160 -218L44 -235V-250H332V-232L260 -223L579 530H478ZM103 25T95 37T87 76Q87
145 142 248T270 430T392 508Q412 508 423 495T436 458Q435 441 430 423T410 372Q368 281 313 201T206 73T121 25Q103 25 95 37Z" />
<glyph unicode="r" glyph-name="r" horiz-adv-x="455" d="M471 540T492 525T513 484Q513 463 502 451T469 439Q456 439 448 443T430 457Q421 466 414 470T394 475Q352 475 302 407T182 194L89 0H-8L185 446Q196 472 196 483Q196 495 183 495Q166 495 136 471T75
410L56 426Q96 477 145 508T235 540Q257 540 269 527T282 489Q282 468 273 445T239 382L244 380Q295 464 342 502T438 540Q471 540 492 525Z" />
<glyph unicode="s" glyph-name="s" horiz-adv-x="441" d="M322 540T357 528T414 494T435 448Q435 430 423 419T390 407Q351 407 345 451Q340 488 329 499T287 511Q243 511 220 487T197 421Q197 390 212 360T258 284Q290 237 306 204T323 136Q323 96 297 63T227
10T128 -10Q85 -10 48 4T-12 40T-34 88Q-34 106 -22 117T11 128Q33 128 42 117T59 81Q69 51 83 36T133 21Q175 21 200 46T226 112Q226 138 212 164T167 233Q132 282 114 317T96 390Q96 431 121 465T188 520T281 540Q322 540 357 528Z" />
<glyph unicode="t" glyph-name="t" horiz-adv-x="339" d="M198 530L261 677L368 687L300 530H388L377 498H287L204 305L179 247Q141 160 126 121T110 73Q110 49 132 49Q147 49 171 67T236 129L256 117Q208 57 158 24T63 -10Q34 -10 22 4T10 53Q10 76 23 116T79
255L184 498H101L112 530H198Z" />
<glyph unicode="u" glyph-name="u" horiz-adv-x="618" d="M117 448T141 464T179 481Q191 481 191 468Q191 449 171 409L54 170Q29 118 29 79Q29 -9 118 -9Q173 -9 222 27T334 150L339 148Q308 86 308 48Q308 22 324 6T365 -10Q400 -10 445 21T531 104L511 120Q480
82 452 59T405 35Q399 35 395 38T391 47Q391 60 402 84L596 530H497L406 336Q364 247 318 176T228 65T152 25Q139 25 131 32T122 53Q122 76 135 103L266 372Q301 445 301 488Q301 514 286 527T242 540Q158 540 66 434L89 418Q117 448 141 464Z" />
<glyph unicode="v" glyph-name="v" horiz-adv-x="614" d="M79 369T79 394Q79 424 101 437T172 451H320Q297 414 279 391T230 336Q149 255 116 203T83 103Q83 51 116 21T206 -10Q287 -10 364 45T504 208Q548 282 575 358T603 482Q603 509 592 524T559 540Q537 540
524 524T511 480Q511 467 517 429Q523 389 523 367Q523 329 508 289T461 198Q408 114 354 72T250 29Q189 29 189 122Q189 164 207 207T279 330Q334 413 351 443T394 530H238Q142 530 96 503T49 421Q49 382 68 360T121 338Q143 338 156 348T169 378Q169 395 157
406T129 418Q111 418 99 408T87 384Q90 369 101 360L98 356Q79 369 79 394Z" />
<glyph unicode="w" glyph-name="w" horiz-adv-x="905" d="M446 -10T403 55Q313 -10 226 -10Q164 -10 128 19T92 100Q92 148 122 202T227 336Q260 370 278 393T318 451H169Q120 451 98 438T76 394Q76 371 95 356L98 360Q86 374 86 384Q86 398 97 408T126 418Q142
418 154 407T167 378Q167 359 154 349T118 338Q86 338 67 359T47 417Q47 475 91 502T235 530H392Q364 471 346 440T277 330Q232 261 215 215T198 128Q198 38 269 38Q319 38 387 85Q371 121 371 173Q371 253 412 339T515 482T635 540Q663 540 679 524T695 479Q695
421 634 319T482 125Q495 84 519 62T579 40Q622 40 668 80T756 198Q783 247 795 286T807 364Q807 383 804 404T800 432Q799 440 797 455T795 480Q795 508 808 524T843 540Q862 540 874 526T886 485Q886 438 862 360T799 208Q744 103 675 47T532 -10Q446 -10 403
55ZM470 187T474 163Q542 236 586 321T631 473Q631 507 614 507Q581 507 547 464T492 353T470 221Q470 187 474 163Z" />
<glyph unicode="x" glyph-name="x" horiz-adv-x="568" d="M250 42T270 16T329 -10Q368 -10 407 17T476 93L456 106Q420 64 405 51T376 37Q367 37 362 44T353 70T341 135L313 304L398 408Q428 445 450 462T489 479Q498 479 504 474T518 459Q528 447 536 441T558
435Q578 435 591 448T605 481Q605 502 585 516T536 530Q458 530 363 414L308 347L290 479Q286 509 271 524T230 540Q193 540 150 510T79 434L97 424Q119 452 133 463T164 474Q176 474 179 468T187 440L217 257L123 129Q95 91 70 71T25 51Q15 51 9 55T-5 71Q-13
83 -21 89T-42 95Q-62 95 -75 82T-89 49Q-89 28 -69 14T-22 0Q19 0 68 33T159 123L224 213L241 102Q250 42 270 16Z" />
<glyph unicode="y" glyph-name="y" horiz-adv-x="546" d="M110 488T135 488Q153 488 163 460T178 368T183 191Q183 55 178 -7T163 -96T126 -154Q106 -178 83 -192T41 -206Q27 -206 19 -201T1 -183Q-9 -170 -19 -163T-47 -156Q-69 -156 -81 -167T-94 -199Q-94 -225
-70 -240T-7 -256Q86 -256 211 -113T432 211T527 478Q527 506 514 523T477 540Q455 540 441 524T426 482Q426 468 429 441Q434 379 434 373Q434 314 393 219T289 47L286 50Q292 161 292 234Q292 361 284 426T257 515T201 540Q158 540 116 515T49 448L68 433Q110
488 135 488Z" />
<glyph unicode="z" glyph-name="z" horiz-adv-x="556" d="M166 540T118 508T69 424Q69 388 92 364T148 340Q171 340 185 351T199 383Q199 404 188 416T159 429Q142 429 131 419T120 393Q120 378 138 368L137 364Q121 367 112 377T102 404Q102 429 122 442T183
456Q210 456 273 447Q375 434 431 434L433 430L-36 9L-13 -10Q5 3 22 8T67 13Q98 13 132 8T175 2Q247 -10 285 -10Q364 -10 412 21T460 106Q460 138 444 156T399 175Q378 175 365 164T352 135Q352 117 363 105T393 92Q404 92 411 97T424 114L428 112Q428 62 363
62Q335 62 272 75Q221 85 187 90T112 95V99L580 521L559 540Q522 517 483 517Q464 517 386 527Q282 540 244 540Q166 540 118 508Z" />
<glyph unicode="{" glyph-name="braceleft" horiz-adv-x="359" d="M141 -157T119 -157Q96 -157 85 -148T73 -117Q73 -95 83 -65Q93 -32 134 59Q170 141 188 189T207 264Q207 288 197 303T164 328L165 332Q207 346 235 378T280 464Q294 507 310 597Q322 668 332
699Q346 743 371 768T428 794Q442 794 468 789L482 815Q454 828 423 828Q358 828 312 795T246 701Q236 671 223 595Q209 507 195 463Q175 400 143 372T60 343L52 320Q88 320 105 307T122 265Q122 239 108 194Q92 146 47 45Q16 -20 1 -60T-14 -128Q-14 -162 9 -178T83
-194Q117 -194 159 -180L162 -151Q141 -157 119 -157Z" />
<glyph unicode="|" glyph-name="bar" horiz-adv-x="311" d="M292 819H362L41 -170H-28L292 819Z" />
<glyph unicode="}" glyph-name="braceright" horiz-adv-x="358" d="M-75 -194T-42 -194Q24 -194 64 -165T126 -70Q133 -48 139 -17T152 47Q170 145 186 194Q208 263 238 291T322 320L330 343Q294 343 277 356T260 399Q260 421 273 463Q286 500 305 544T330 599Q358
657 371 692T385 751Q385 789 359 808T283 828Q251 828 214 815L212 789Q241 794 254 794Q298 794 298 746Q298 722 290 699Q279 665 245 595Q212 525 194 478T176 400Q176 350 217 332L216 328Q173 313 147 284T103 202Q92 169 83 128T66 48Q52 -25 40 -65T6 -131T-54
-157Q-75 -157 -93 -151L-108 -180Q-75 -194 -42 -194Z" />
<glyph unicode="~" glyph-name="asciitilde" horiz-adv-x="587" d="M100 249T118 262T168 276Q193 276 216 269T269 249Q299 236 321 230T367 223Q429 223 469 265T525 359H495Q480 333 461 320T411 307Q386 307 364 313T311 333Q280 346 259 352T213 359Q151
359 111 317T55 223H85Q100 249 118 262Z" />
<glyph unicode="&#xa0;" glyph-name="uni00A0" horiz-adv-x="283" />
<glyph unicode="&#xa1;" glyph-name="exclamdown" horiz-adv-x="314" d="M218 415T239 435T260 483Q260 508 244 524T201 540Q171 540 149 520T126 473Q126 448 144 432T189 415Q218 415 239 435ZM78 -41Q48 -170 42 -189Q25 -240 -21 -240Q-49 -240 -67 -223T-85
-177Q-85 -156 -72 -126T-16 -23Q25 46 57 120T124 300H159L78 -41Z" />
<glyph unicode="&#xa2;" glyph-name="cent" horiz-adv-x="521" d="M466 534T495 509T525 449Q525 431 513 420T481 409Q442 409 435 457Q428 498 408 506L210 31Q287 54 389 159L411 146Q305 21 196 -4L135 -150H90L148 -10Q82 -10 49 29T15 143Q16 226 60 308T182
451Q228 487 279 510T377 538L438 686H483L422 539Q466 534 495 509ZM114 64T125 46T163 25L362 504Q307 487 249 417T152 257T114 99Q114 64 125 46Z" />
<glyph unicode="&#xa3;" glyph-name="sterling" horiz-adv-x="657" d="M234 379L313 561Q361 672 419 726T559 780Q621 780 662 746T704 658Q704 634 688 618T647 602Q621 602 604 620T587 669Q587 712 579 728T551 744Q529 744 511 731T472 682T425 578L349 379H529L513
335H330Q294 255 267 204T214 118Q257 105 304 96T385 86Q469 86 511 168H546Q532 84 487 37T376 -10Q295 -10 174 69Q98 -10 25 -10Q-10 -10 -30 8T-51 57Q-51 97 -22 121T53 146Q98 146 130 138Q162 203 214 335H121L141 379H234ZM78 107T52 107Q28 107 14 96T-1
66Q-1 51 9 42T36 33Q55 33 71 46T110 94Q78 107 52 107Z" />
<glyph unicode="&#xa4;" glyph-name="currency" horiz-adv-x="710" d="M311 152T383 152Q457 152 509 194L575 127L623 175L557 241Q598 297 598 368Q598 441 556 493L623 559L575 607L510 541Q452 582 383 582Q310 582 257 540L191 607L143 559L210 494Q168 440
168 368Q168 292 210 241L143 175L191 127L257 194Q311 152 383 152ZM344 216T311 236T258 292T238 368Q238 408 257 442T310 497T383 518Q422 518 455 498T508 443T528 367Q528 326 509 292T456 237T383 216Q344 216 311 236Z" />
<glyph unicode="&#xa5;" glyph-name="yen" horiz-adv-x="798" d="M303 210L233 42L136 23L126 0H430L440 23L342 42L412 210H565L587 254H431L463 331H623L645 375H488L746 638Q791 683 819 704T875 735T946 747L959 770H683L674 747Q757 747 757 716Q757 697
724 664L455 394L425 640Q422 661 422 677Q422 716 439 730T500 747L510 770H228L218 747Q254 747 271 740T295 717T308 664L351 375H216L194 331H353L321 254H158L136 210H303Z" />
<glyph unicode="&#xa6;" glyph-name="brokenbar" horiz-adv-x="262" d="M278 819H345L220 432H153L278 819ZM82 216H149L24 -171H-42L82 216Z" />
<glyph unicode="&#xa7;" glyph-name="section" horiz-adv-x="584" d="M259 534T236 575T212 664Q212 710 237 748T305 808T404 830Q448 830 490 815T559 775T586 724Q586 704 573 692T539 680Q520 680 507 692T483 731Q470 766 454 780T413 795Q370 795 344 770T318
701Q318 654 343 614T416 518Q465 460 488 422T511 340Q511 297 486 261T418 204T323 183Q309 183 303 184Q355 125 380 85T406 -3Q406 -46 382 -82T314 -139T219 -160Q170 -160 121 -142T40 -95T8 -36Q8 -16 21 -4T55 9Q74 9 88 -3T112 -41Q129 -85 152 -105T209
-125Q250 -125 276 -99T302 -32Q302 8 280 42T212 126Q177 165 157 191T122 251T107 321Q107 368 132 405T202 464T303 486Q259 534 236 575ZM408 346T390 377T338 447Q327 451 309 451Q266 451 240 426T214 359Q214 299 262 234Q284 218 313 218Q354 218 381 244T408
312Q408 346 390 377Z" />
<glyph unicode="&#xa8;" glyph-name="dieresis" horiz-adv-x="317" d="M49 780T30 762T10 720Q10 697 25 683T65 669Q91 669 111 688T132 731Q132 752 115 766T75 780Q49 780 30 762ZM224 780T205 762T185 720Q185 697 200 683T240 669Q266 669 286 688T307 731Q307
752 290 766T250 780Q224 780 205 762Z" />
<glyph unicode="&#xa9;" glyph-name="copyright" horiz-adv-x="975" d="M127 492T180 582T325 726T524 780Q632 780 723 727T867 583T921 385Q921 278 868 188T723 44T524 -10Q416 -10 325 43T181 187T127 385Q127 492 180 582ZM174 291T221 212T348 85T524 38Q619
38 699 85T826 211T873 385Q873 479 826 558T699 685T524 732Q429 732 349 685T221 559T174 385Q174 291 221 212ZM279 460T310 518T397 609T524 642Q599 642 658 598H662L689 640H704V481H680Q669 513 655 538Q635 572 606 588T535 604Q462 604 423 549T384 390Q384
287 424 231T536 174Q610 174 649 233Q671 264 682 316H704V137H689L660 188Q628 161 595 149T522 136Q451 136 396 167T310 256T279 386Q279 460 310 518Z" />
<glyph unicode="&#xaa;" glyph-name="ordfeminine" horiz-adv-x="475" d="M353 780T294 737T196 630T156 508Q156 468 178 445T238 422Q270 422 302 447T372 528L375 526Q353 490 353 460Q353 422 399 422Q423 422 456 443T525 505L507 519Q455 461 435 461Q425
461 425 473Q425 481 431 500L543 774H472L461 750Q450 766 438 773T407 780Q353 780 294 737ZM241 460T236 469T230 498Q230 540 261 600T335 705T408 750Q420 750 429 741T438 717Q438 693 424 661Q400 607 368 561T306 488T254 460Q241 460 236 469Z" />
<glyph unicode="&#xab;" glyph-name="guillemotleft" horiz-adv-x="478" d="M125 234L274 421L258 436L36 251L31 239L105 53L125 64V234ZM301 234L450 421L434 436L212 251L207 239L281 53L301 64V234Z" />
<glyph unicode="&#xac;" glyph-name="logicalnot" horiz-adv-x="634" d="M93 264V308H503V147H452V264H93Z" />
<glyph unicode="&#xad;" glyph-name="uni00AD" horiz-adv-x="480" d="M77 294H396L363 210H44L77 294Z" />
<glyph unicode="&#xae;" glyph-name="registered" horiz-adv-x="974" d="M126 492T179 583T324 727T523 780Q630 780 721 727T866 583T920 385Q920 278 867 187T722 43T523 -10Q416 -10 325 43T180 187T126 385Q126 492 179 583ZM173 291T220 211T348 85T523 38Q618
38 698 84T825 211T872 385Q872 479 825 559T698 685T523 732Q428 732 348 686T221 559T173 385Q173 291 220 211ZM511 632Q592 632 641 596T691 493Q691 447 663 417T582 374L689 175L736 162V143H600L487 365H450V175L508 162V143H325V162L364 175V600L325 612V632H511ZM472
399Q511 399 534 408T573 434Q598 460 598 499Q598 533 583 557T540 591Q516 599 483 599H450V399H472Z" />
<glyph unicode="&#xaf;" glyph-name="overscore" horiz-adv-x="335" d="M325 780H38L10 709H296L325 780Z" />
<glyph unicode="&#xb0;" glyph-name="degree" horiz-adv-x="355" d="M396 587T431 622T466 708Q466 758 431 794T345 830Q294 830 259 795T224 708Q224 657 259 622T345 587Q396 587 431 622ZM265 744T287 767T345 790Q381 790 403 767T425 708Q425 673 403 651T345
628Q311 628 288 651T265 708Q265 744 287 767Z" />
<glyph unicode="&#xb1;" glyph-name="plusminus" horiz-adv-x="643" d="M115 422V471H295V651H346V471H525V422H346V241H295V422H115ZM115 155H525V106H115V155Z" />
<glyph unicode="&#xb2;" glyph-name="uni00B2" horiz-adv-x="406" d="M252 544T289 576T391 655Q443 692 472 716T521 771T541 837Q541 880 512 903T430 926Q369 926 317 896T226 812L253 789Q281 831 319 856T392 882Q417 882 429 869T442 833Q442 796 415 762T328
672Q279 627 247 593T186 513T144 416H432L486 549L463 557Q448 528 424 502H226Q252 544 289 576Z" />
<glyph unicode="&#xb3;" glyph-name="uni00B3" horiz-adv-x="396" d="M278 652T294 655T323 659Q349 659 363 639T378 582Q378 524 346 485T264 446Q238 446 225 456T199 487Q190 501 183 508T164 515Q151 515 142 505T132 478Q132 448 163 429T242 409Q303 409
357 436T444 507T477 603Q477 642 452 669T388 703Q451 730 486 769T522 848Q522 885 494 905T416 926Q367 926 321 897T238 810L261 791Q292 835 325 859T388 883Q409 883 420 871T431 839Q431 792 383 749T255 681L267 646Q278 652 294 655Z" />
<glyph unicode="&#xb4;" glyph-name="acute" horiz-adv-x="248" d="M188 750Q215 769 226 784T238 815Q238 833 224 845T189 857Q155 857 126 813L10 642L26 631L188 750Z" />
<glyph unicode="&#xb5;" glyph-name="uni00B5" horiz-adv-x="668" d="M25 -37T35 9T70 111H74Q71 90 71 74Q71 33 89 12T141 -10Q187 -10 237 29T348 150L353 148Q322 86 322 49Q322 23 338 7T379 -10Q414 -10 459 21T545 104L525 120Q495 81 466 58T419 35Q405
35 405 47Q405 59 416 84L610 530H511L420 336Q377 246 331 175T241 65T167 25Q153 25 145 33T136 55Q136 72 149 103L337 530H224L124 300Q109 265 12 82Q-45 -27 -70 -89T-95 -184Q-95 -211 -83 -226T-49 -242Q-15 -242 3 -206T24 -100Q25 -37 35 9Z" />
<glyph unicode="&#xb6;" glyph-name="paragraph" horiz-adv-x="565" d="M293 12T274 -22T232 -70T178 -84Q148 -84 132 -71T107 -25Q99 1 89 12T61 23Q41 23 29 11T17 -23Q17 -64 61 -91T172 -118Q220 -118 251 -101T307 -43T359 76L583 730L657 745L666 770H475Q386
770 312 734T194 637T150 503Q150 426 195 381T320 336H405L314 74Q293 12 274 -22Z" />
<glyph unicode="&#xb7;" glyph-name="middot" horiz-adv-x="298" d="M124 384T98 361T72 304Q72 274 92 256T145 237Q178 237 205 262T233 319Q233 346 211 365T158 384Q124 384 98 361Z" />
<glyph unicode="&#xb8;" glyph-name="cedilla" horiz-adv-x="230" d="M12 -226T42 -226Q80 -226 105 -206T131 -156Q131 -122 89 -122Q59 -122 41 -134L33 -121L142 17H182L125 -58Q167 -58 190 -76T213 -128Q213 -161 190 -191T127 -239T43 -257Q18 -257 0 -251T-27
-233L-10 -210Q12 -226 42 -226Z" />
<glyph unicode="&#xb9;" glyph-name="uni00B9" horiz-adv-x="355" d="M383 416L393 439L310 452L492 927H445Q418 905 363 880T263 842L270 818L359 831L362 828L218 455L140 439L131 416H383Z" />
<glyph unicode="&#xba;" glyph-name="ordmasculine" horiz-adv-x="422" d="M323 422T380 460T473 556T510 673Q510 722 482 751T406 780Q350 780 293 742T200 646T163 529Q163 480 191 451T267 422Q323 422 380 460ZM442 747T442 705Q442 661 411 602T336 499T262
455Q232 455 232 500Q232 546 262 605T334 705T411 747Q442 747 442 705Z" />
<glyph unicode="&#xbb;" glyph-name="guillemotright" horiz-adv-x="476" d="M129 255L-20 68L-4 53L218 238L223 250L149 436L129 425V255ZM305 255L156 68L172 53L394 238L399 250L325 436L305 425V255Z" />
<glyph unicode="&#xbc;" glyph-name="onequarter" horiz-adv-x="878" d="M731 770H801L250 0H182L731 770ZM313 321L322 342L248 353L411 780H368Q345 761 296 738T205 703L211 682L291 694L294 691L165 356L95 342L87 321H313ZM669 0L706 120H767L787 178H727L826
459H748L477 161L463 120H630L587 0H669ZM717 377H721L651 178H538L717 377Z" />
<glyph unicode="&#xbd;" glyph-name="onehalf" horiz-adv-x="925" d="M705 770H775L224 0H156L705 770ZM314 321L323 342L249 353L412 780H369Q346 761 297 738T206 703L212 682L292 694L295 691L166 356L96 342L88 321H314ZM595 115T630 145T720 215Q766 247
793 269T837 319T855 379Q855 417 829 438T755 459Q700 459 654 432T572 356L596 336Q621 374 655 396T721 419Q766 419 766 375Q766 342 742 311T664 231Q619 189 590 159T536 88T498 0H757L806 120L785 127Q771 100 750 77H572Q595 115 630 145Z" />
<glyph unicode="&#xbe;" glyph-name="threequarters" horiz-adv-x="904" d="M754 770H824L273 0H205L754 770ZM697 0L734 120H795L815 178H755L854 459H776L505 161L491 120H658L615 0H697ZM745 377H749L679 178H566L745 377ZM236 534T250 537T276 540Q301 540
314 522T327 470Q327 417 298 383T223 348Q201 348 190 357T166 385Q158 397 152 403T134 410Q122 410 114 401T105 377Q105 350 132 333T204 315Q259 315 308 339T386 403T416 489Q416 525 394 549T336 580Q393 604 424 639T456 710Q456 743 431 761T361 780Q317
780 275 754T200 676L221 659Q249 698 279 719T336 741Q355 741 364 731T374 702Q374 659 331 621T215 560L226 529Q236 534 250 537Z" />
<glyph unicode="&#xbf;" glyph-name="questiondown" horiz-adv-x="465" d="M228 540T207 520T186 472Q186 447 202 431T245 415Q275 415 297 435T320 482Q320 507 302 523T257 540Q228 540 207 520ZM133 306T150 288T167 241Q167 204 140 175T55 102Q7 67 -24
39T-76 -27T-98 -113Q-98 -180 -52 -218T78 -256Q142 -256 183 -235T224 -179Q224 -160 212 -148T180 -135Q158 -135 145 -146T116 -180Q101 -201 88 -212T54 -223Q21 -223 0 -200T-21 -141Q-21 -105 -3 -73T43 -16T116 44Q161 79 187 103T231 158T249 223Q249
275 214 305T110 336L105 308Q133 306 150 288Z" />
<glyph unicode="&#xc0;" glyph-name="Agrave" horiz-adv-x="748" d="M521 677L58 139Q23 99 0 79T-53 47T-131 28L-145 0H133L146 28Q102 34 82 43T61 69Q61 82 69 95T101 137L230 286H467L442 105Q435 60 410 45T325 28L311 0H619L633 28Q585 31 567 40T548 75Q548
86 549 92L640 793L532 770L521 677ZM262 323L514 614L472 323H262ZM577 928Q558 945 544 952T514 960Q491 960 478 947T464 912Q464 894 473 881T501 863L662 816L681 837L577 928Z" />
<glyph unicode="&#xc1;" glyph-name="Aacute" horiz-adv-x="748" d="M521 677L58 139Q23 99 0 79T-53 47T-131 28L-145 0H133L146 28Q102 34 82 43T61 69Q61 82 69 95T101 137L230 286H467L442 105Q435 60 410 45T325 28L311 0H619L633 28Q585 31 567 40T548 75Q548
86 549 92L640 793L532 770L521 677ZM262 323L514 614L472 323H262ZM654 860Q691 871 706 885T722 917Q722 935 709 947T679 960Q657 960 635 944L491 837L502 816L654 860Z" />
<glyph unicode="&#xc2;" glyph-name="Acircumflex" horiz-adv-x="748" d="M521 677L58 139Q23 99 0 79T-53 47T-131 28L-145 0H133L146 28Q102 34 82 43T61 69Q61 82 69 95T101 137L230 286H467L442 105Q435 60 410 45T325 28L311 0H619L633 28Q585 31 567 40T548
75Q548 86 549 92L640 793L532 770L521 677ZM262 323L514 614L472 323H262ZM664 960T673 954T691 933L745 837L719 820L628 888L463 820L451 837L583 933Q604 948 617 954T647 960Q664 960 673 954Z" />
<glyph unicode="&#xc3;" glyph-name="Atilde" horiz-adv-x="748" d="M521 677L58 139Q23 99 0 79T-53 47T-131 28L-145 0H133L146 28Q102 34 82 43T61 69Q61 82 69 95T101 137L230 286H467L442 105Q435 60 410 45T325 28L311 0H619L633 28Q585 31 567 40T548 75Q548
86 549 92L640 793L532 770L521 677ZM262 323L514 614L472 323H262ZM462 870T478 880T517 890Q533 890 546 886T585 871Q606 861 622 856T653 851Q690 851 724 884T776 969H752Q732 931 690 931Q670 931 648 939T622 948Q576 966 552 966Q515 966 481 934T433 852H454Q462
870 478 880Z" />
<glyph unicode="&#xc4;" glyph-name="Adieresis" horiz-adv-x="748" d="M521 677L58 139Q23 99 0 79T-53 47T-131 28L-145 0H133L146 28Q102 34 82 43T61 69Q61 82 69 95T101 137L230 286H467L442 105Q435 60 410 45T325 28L311 0H619L633 28Q585 31 567 40T548
75Q548 86 549 92L640 793L532 770L521 677ZM262 323L514 614L472 323H262ZM496 960T477 942T457 900Q457 877 472 863T512 849Q538 849 558 868T579 911Q579 932 562 946T522 960Q496 960 477 942ZM671 960T652 942T632 900Q632 877 647 863T687 849Q713 849 733
868T754 911Q754 932 737 946T697 960Q671 960 652 942Z" />
<glyph unicode="&#xc5;" glyph-name="Aring" horiz-adv-x="748" d="M521 677L58 139Q23 99 0 79T-53 47T-131 28L-145 0H133L146 28Q102 34 82 43T61 69Q61 82 69 95T101 137L230 286H467L442 105Q435 60 410 45T325 28L311 0H619L633 28Q585 31 567 40T548 75Q548
86 549 92L640 793L532 770L521 677ZM262 323L514 614L472 323H262ZM570 970T546 947T522 893Q522 866 541 848T589 830Q623 830 649 853T676 907Q676 933 655 951T604 970Q570 970 546 947ZM615 932T625 924T636 903Q636 889 623 878T594 866Q580 866 571 875T562
897Q562 911 573 921T601 932Q615 932 625 924Z" />
<glyph unicode="&#xc6;" glyph-name="AE" horiz-adv-x="1040" d="M959 230H930Q869 128 793 40H470L612 386H786Q782 315 769 266H798L911 540H882Q847 483 798 426H630L754 730H980Q1019 663 1038 550H1065L1057 770H535L525 747L602 728L71 139Q35 99 11 79T-44
47T-122 28L-136 0H145L158 28Q114 34 95 43T75 69Q75 81 84 95T118 137L253 286H462L363 47L271 28L259 0H868L959 230ZM286 323L630 702H634L477 323H286Z" />
<glyph unicode="&#xc7;" glyph-name="Ccedilla" horiz-adv-x="742" d="M536 77Q477 31 422 11T298 -10Q63 -10 63 213Q63 351 146 483T361 697T632 780Q680 780 721 769T789 737L825 770H847L750 540H721Q736 596 736 634Q736 687 709 711T622 736Q512 736 408
661T238 466T173 219Q173 37 325 37Q422 37 506 105T641 293H670L559 0H532L540 77H536ZM169 -226T199 -226Q237 -226 262 -206T288 -156Q288 -122 246 -122Q216 -122 198 -134L190 -121L299 17H339L282 -58Q324 -58 347 -76T370 -128Q370 -161 347 -191T284 -239T200
-257Q175 -257 157 -251T130 -233L147 -210Q169 -226 199 -226Z" />
<glyph unicode="&#xc8;" glyph-name="Egrave" horiz-adv-x="713" d="M632 230H603Q542 128 466 40H143L285 386H459Q455 315 442 266H471L584 540H555Q521 483 471 426H303L427 730H653Q692 663 711 550H738L730 770H250L240 747L318 728L34 42L-58 23L-68 0H541L632
230ZM544 928Q525 945 511 952T481 960Q458 960 445 947T431 912Q431 894 440 881T468 863L629 816L648 837L544 928Z" />
<glyph unicode="&#xc9;" glyph-name="Eacute" horiz-adv-x="713" d="M632 230H603Q542 128 466 40H143L285 386H459Q455 315 442 266H471L584 540H555Q521 483 471 426H303L427 730H653Q692 663 711 550H738L730 770H250L240 747L318 728L34 42L-58 23L-68 0H541L632
230ZM607 860Q644 871 659 885T675 917Q675 935 662 947T632 960Q610 960 588 944L444 837L455 816L607 860Z" />
<glyph unicode="&#xca;" glyph-name="Ecircumflex" horiz-adv-x="713" d="M632 230H603Q542 128 466 40H143L285 386H459Q455 315 442 266H471L584 540H555Q521 483 471 426H303L427 730H653Q692 663 711 550H738L730 770H250L240 747L318 728L34 42L-58 23L-68
0H541L632 230ZM597 960T606 954T624 933L678 837L652 820L561 888L396 820L384 837L516 933Q537 948 550 954T580 960Q597 960 606 954Z" />
<glyph unicode="&#xcb;" glyph-name="Edieresis" horiz-adv-x="713" d="M632 230H603Q542 128 466 40H143L285 386H459Q455 315 442 266H471L584 540H555Q521 483 471 426H303L427 730H653Q692 663 711 550H738L730 770H250L240 747L318 728L34 42L-58 23L-68
0H541L632 230ZM434 960T415 942T395 900Q395 877 410 863T450 849Q476 849 496 868T517 911Q517 932 500 946T460 960Q434 960 415 942ZM609 960T590 942T570 900Q570 877 585 863T625 849Q651 849 671 868T692 911Q692 932 675 946T635 960Q609 960 590 942Z"
/>
<glyph unicode="&#xcc;" glyph-name="Igrave" horiz-adv-x="392" d="M-62 23L-72 0H217L227 23L145 42L430 728L526 747L536 770H246L236 747L319 728L35 42L-62 23ZM416 928Q397 945 383 952T353 960Q330 960 317 947T303 912Q303 894 312 881T340 863L501 816L520
837L416 928Z" />
<glyph unicode="&#xcd;" glyph-name="Iacute" horiz-adv-x="392" d="M-62 23L-72 0H217L227 23L145 42L430 728L526 747L536 770H246L236 747L319 728L35 42L-62 23ZM469 860Q506 871 521 885T537 917Q537 935 524 947T494 960Q472 960 450 944L306 837L317 816L469 860Z" />
<glyph unicode="&#xce;" glyph-name="Icircumflex" horiz-adv-x="392" d="M-62 23L-72 0H217L227 23L145 42L430 728L526 747L536 770H246L236 747L319 728L35 42L-62 23ZM479 960T488 954T506 933L560 837L534 820L443 888L278 820L266 837L398 933Q419 948 432
954T462 960Q479 960 488 954Z" />
<glyph unicode="&#xcf;" glyph-name="Idieresis" horiz-adv-x="392" d="M-62 23L-72 0H217L227 23L145 42L430 728L526 747L536 770H246L236 747L319 728L35 42L-62 23ZM323 960T304 942T284 900Q284 877 299 863T339 849Q365 849 385 868T406 911Q406 932 389
946T349 960Q323 960 304 942ZM498 960T479 942T459 900Q459 877 474 863T514 849Q540 849 560 868T581 911Q581 932 564 946T524 960Q498 960 479 942Z" />
<glyph unicode="&#xd0;" glyph-name="Eth" horiz-adv-x="808" d="M557 770T630 733T744 629T784 470Q784 381 750 298T653 150T508 47Q404 0 245 0H-65L-55 23L37 42L175 376H78L96 420H193L321 728L243 747L253 770H459Q557 770 630 733ZM357 42T456 96T615 254T674
495Q674 607 618 668T458 730H431L303 420H453L434 376H284L182 129Q169 99 169 80Q169 59 185 51T239 42Q357 42 456 96Z" />
<glyph unicode="&#xd1;" glyph-name="Ntilde" horiz-adv-x="815" d="M349 690L80 42L162 23L152 0H-75L-65 23L32 42L316 728L233 747L243 770H455L579 171H583L814 728L731 747L741 770H969L959 747L863 728L556 -10H498L353 690H349ZM498 854T514 864T553 874Q569
874 582 870T621 855Q642 845 658 840T689 835Q726 835 760 868T812 953H788Q768 915 726 915Q706 915 684 923T658 932Q612 950 588 950Q551 950 517 918T469 836H490Q498 854 514 864Z" />
<glyph unicode="&#xd2;" glyph-name="Ograve" horiz-adv-x="804" d="M426 -10T541 68T729 272T801 531Q801 650 741 715T571 780Q450 780 335 701T147 496T75 236Q75 119 135 55T304 -10Q426 -10 541 68ZM254 37T223 79T191 210Q191 336 246 458T388 658T565 736Q628
736 659 694T690 565Q690 438 636 315T495 115T319 37Q254 37 223 79ZM625 928Q606 945 592 952T562 960Q539 960 526 947T512 912Q512 894 521 881T549 863L710 816L729 837L625 928Z" />
<glyph unicode="&#xd3;" glyph-name="Oacute" horiz-adv-x="804" d="M426 -10T541 68T729 272T801 531Q801 650 741 715T571 780Q450 780 335 701T147 496T75 236Q75 119 135 55T304 -10Q426 -10 541 68ZM254 37T223 79T191 210Q191 336 246 458T388 658T565 736Q628
736 659 694T690 565Q690 438 636 315T495 115T319 37Q254 37 223 79ZM678 860Q715 871 730 885T746 917Q746 935 733 947T703 960Q681 960 659 944L515 837L526 816L678 860Z" />
<glyph unicode="&#xd4;" glyph-name="Ocircumflex" horiz-adv-x="804" d="M426 -10T541 68T729 272T801 531Q801 650 741 715T571 780Q450 780 335 701T147 496T75 236Q75 119 135 55T304 -10Q426 -10 541 68ZM254 37T223 79T191 210Q191 336 246 458T388 658T565
736Q628 736 659 694T690 565Q690 438 636 315T495 115T319 37Q254 37 223 79ZM688 960T697 954T715 933L769 837L743 820L652 888L487 820L475 837L607 933Q628 948 641 954T671 960Q688 960 697 954Z" />
<glyph unicode="&#xd5;" glyph-name="Otilde" horiz-adv-x="804" d="M426 -10T541 68T729 272T801 531Q801 650 741 715T571 780Q450 780 335 701T147 496T75 236Q75 119 135 55T304 -10Q426 -10 541 68ZM254 37T223 79T191 210Q191 336 246 458T388 658T565 736Q628
736 659 694T690 565Q690 438 636 315T495 115T319 37Q254 37 223 79ZM494 854T510 864T549 874Q565 874 578 870T617 855Q638 845 654 840T685 835Q722 835 756 868T808 953H784Q764 915 722 915Q702 915 680 923T654 932Q608 950 584 950Q547 950 513 918T465
836H486Q494 854 510 864Z" />
<glyph unicode="&#xd6;" glyph-name="Odieresis" horiz-adv-x="804" d="M426 -10T541 68T729 272T801 531Q801 650 741 715T571 780Q450 780 335 701T147 496T75 236Q75 119 135 55T304 -10Q426 -10 541 68ZM254 37T223 79T191 210Q191 336 246 458T388 658T565
736Q628 736 659 694T690 565Q690 438 636 315T495 115T319 37Q254 37 223 79ZM540 960T521 942T501 900Q501 877 516 863T556 849Q582 849 602 868T623 911Q623 932 606 946T566 960Q540 960 521 942ZM715 960T696 942T676 900Q676 877 691 863T731 849Q757 849
777 868T798 911Q798 932 781 946T741 960Q715 960 696 942Z" />
<glyph unicode="&#xd7;" glyph-name="multiply" horiz-adv-x="553" d="M111 480L148 517L288 377L428 517L467 478L327 338L466 199L429 162L290 301L149 160L110 199L251 340L111 480Z" />
<glyph unicode="&#xd8;" glyph-name="Oslash" horiz-adv-x="804" d="M764 695T782 646T801 531Q801 398 729 273T542 69T304 -10Q254 -10 214 4L105 -149H52L174 23Q126 52 101 106T75 236Q75 369 147 495T334 701T571 780Q642 780 691 753L788 889H843L728 727Q764
695 782 646ZM191 128T218 86L654 700Q623 736 565 736Q476 736 389 659T246 459T191 210Q191 128 218 86ZM408 37T494 114T635 315T690 565Q690 620 678 656L250 54Q278 37 319 37Q408 37 494 114Z" />
<glyph unicode="&#xd9;" glyph-name="Ugrave" horiz-adv-x="778" d="M94 219T94 150Q94 72 149 31T310 -10Q412 -10 489 42T623 230L834 728L929 747L938 770H717L706 747L790 728L587 259Q551 175 515 127T437 58T340 37Q267 37 232 63T196 144Q196 170 204 204T225
269L416 727L512 747L522 770H237L228 747L310 728L137 320Q94 219 94 150ZM618 928Q599 945 585 952T555 960Q532 960 519 947T505 912Q505 894 514 881T542 863L703 816L722 837L618 928Z" />
<glyph unicode="&#xda;" glyph-name="Uacute" horiz-adv-x="778" d="M94 219T94 150Q94 72 149 31T310 -10Q412 -10 489 42T623 230L834 728L929 747L938 770H717L706 747L790 728L587 259Q551 175 515 127T437 58T340 37Q267 37 232 63T196 144Q196 170 204 204T225
269L416 727L512 747L522 770H237L228 747L310 728L137 320Q94 219 94 150ZM711 860Q748 871 763 885T779 917Q779 935 766 947T736 960Q714 960 692 944L548 837L559 816L711 860Z" />
<glyph unicode="&#xdb;" glyph-name="Ucircumflex" horiz-adv-x="778" d="M94 219T94 150Q94 72 149 31T310 -10Q412 -10 489 42T623 230L834 728L929 747L938 770H717L706 747L790 728L587 259Q551 175 515 127T437 58T340 37Q267 37 232 63T196 144Q196 170
204 204T225 269L416 727L512 747L522 770H237L228 747L310 728L137 320Q94 219 94 150ZM721 960T730 954T748 933L802 837L776 820L685 888L520 820L508 837L640 933Q661 948 674 954T704 960Q721 960 730 954Z" />
<glyph unicode="&#xdc;" glyph-name="Udieresis" horiz-adv-x="778" d="M94 219T94 150Q94 72 149 31T310 -10Q412 -10 489 42T623 230L834 728L929 747L938 770H717L706 747L790 728L587 259Q551 175 515 127T437 58T340 37Q267 37 232 63T196 144Q196 170 204
204T225 269L416 727L512 747L522 770H237L228 747L310 728L137 320Q94 219 94 150ZM553 960T534 942T514 900Q514 877 529 863T569 849Q595 849 615 868T636 911Q636 932 619 946T579 960Q553 960 534 942ZM728 960T709 942T689 900Q689 877 704 863T744 849Q770
849 790 868T811 911Q811 932 794 946T754 960Q728 960 709 942Z" />
<glyph unicode="&#xdd;" glyph-name="Yacute" horiz-adv-x="716" d="M402 23L304 42L439 363L708 638Q753 683 781 704T837 735T908 747L921 770H645L636 747Q719 747 719 716Q719 697 686 664L417 394L387 640Q384 661 384 677Q384 716 401 730T462 747L472 770H190L180
747Q216 747 233 740T257 717T270 664L319 340L195 42L98 23L88 0H392L402 23ZM645 860Q682 871 697 885T713 917Q713 935 700 947T670 960Q648 960 626 944L482 837L493 816L645 860Z" />
<glyph unicode="&#xde;" glyph-name="Thorn" horiz-adv-x="658" d="M-52 23L-61 0H255L265 23L146 42L199 167H297Q403 167 484 198T609 287T654 420Q654 503 594 549T424 596H380L436 728L524 747L533 770H217L207 747L326 728L36 42L-52 23ZM363 555H424Q485
555 517 524T550 434Q550 373 518 322T431 241T311 211H218L363 555Z" />
<glyph unicode="&#xdf;" glyph-name="germandbls" horiz-adv-x="669" d="M346 441T368 472T437 544Q470 572 489 593T523 645T537 715Q537 758 520 780T469 803Q420 803 380 753T299 590L157 203Q101 50 53 -36T-46 -159T-165 -197Q-221 -197 -255 -175T-289 -115Q-289
-73 -245 -73Q-220 -73 -209 -84T-189 -119Q-181 -141 -172 -151T-141 -162Q-114 -162 -92 -137T-41 -48T33 143L197 600Q235 708 307 769T471 830Q539 830 581 797T624 711Q624 669 601 641T530 577Q481 539 456 508T431 431Q431 392 449 359T504 277Q539 232
556 202T573 137Q573 97 548 63T478 10T381 -10Q337 -10 299 3T239 39T216 87Q216 106 228 117T261 128Q282 128 291 117T310 80Q320 51 334 36T381 21Q423 21 449 46T476 109Q476 138 462 165T417 233Q382 282 364 317T346 394Q346 441 368 472Z" />
<glyph unicode="&#xe0;" glyph-name="agrave" horiz-adv-x="604" d="M291 540T204 474T59 309T0 122Q0 60 29 25T110 -10Q160 -10 208 28T316 152L322 149Q303 118 296 95T288 48Q288 19 303 5T347 -10Q430 -10 537 124L517 138Q437 49 406 49Q390 49 390 68Q390
78 400 109L572 530H470L454 493Q436 519 418 529T371 540Q291 540 204 474ZM109 25T101 39T92 83Q92 153 143 255T264 432T382 508Q402 508 415 495T428 458Q428 441 424 422T406 372Q366 280 314 200T213 73T129 25Q109 25 101 39ZM480 792Q480 795 480 800T481
815Q481 857 434 857Q413 857 398 844T382 811Q382 798 385 786T395 755L440 636L468 642L480 792Z" />
<glyph unicode="&#xe1;" glyph-name="aacute" horiz-adv-x="604" d="M291 540T204 474T59 309T0 122Q0 60 29 25T110 -10Q160 -10 208 28T316 152L322 149Q303 118 296 95T288 48Q288 19 303 5T347 -10Q430 -10 537 124L517 138Q437 49 406 49Q390 49 390 68Q390
78 400 109L572 530H470L454 493Q436 519 418 529T371 540Q291 540 204 474ZM109 25T101 39T92 83Q92 153 143 255T264 432T382 508Q402 508 415 495T428 458Q428 441 424 422T406 372Q366 280 314 200T213 73T129 25Q109 25 101 39ZM495 750Q522 769 533 784T545
815Q545 833 531 845T496 857Q462 857 433 813L317 642L333 631L495 750Z" />
<glyph unicode="&#xe2;" glyph-name="acircumflex" horiz-adv-x="604" d="M291 540T204 474T59 309T0 122Q0 60 29 25T110 -10Q160 -10 208 28T316 152L322 149Q303 118 296 95T288 48Q288 19 303 5T347 -10Q430 -10 537 124L517 138Q437 49 406 49Q390 49 390
68Q390 78 400 109L572 530H470L454 493Q436 519 418 529T371 540Q291 540 204 474ZM109 25T101 39T92 83Q92 153 143 255T264 432T382 508Q402 508 415 495T428 458Q428 441 424 422T406 372Q366 280 314 200T213 73T129 25Q109 25 101 39ZM537 857T545 850T556
828L572 640L549 628L479 769L296 628L277 640L448 828Q474 857 516 857Q537 857 545 850Z" />
<glyph unicode="&#xe3;" glyph-name="atilde" horiz-adv-x="604" d="M291 540T204 474T59 309T0 122Q0 60 29 25T110 -10Q160 -10 208 28T316 152L322 149Q303 118 296 95T288 48Q288 19 303 5T347 -10Q430 -10 537 124L517 138Q437 49 406 49Q390 49 390 68Q390
78 400 109L572 530H470L454 493Q436 519 418 529T371 540Q291 540 204 474ZM109 25T101 39T92 83Q92 153 143 255T264 432T382 508Q402 508 415 495T428 458Q428 441 424 422T406 372Q366 280 314 200T213 73T129 25Q109 25 101 39ZM313 701T329 711T368 721Q384
721 397 717T436 702Q457 692 473 687T504 682Q541 682 575 715T627 800H603Q583 762 541 762Q521 762 499 770T473 779Q427 797 403 797Q366 797 332 765T284 683H305Q313 701 329 711Z" />
<glyph unicode="&#xe4;" glyph-name="adieresis" horiz-adv-x="604" d="M291 540T204 474T59 309T0 122Q0 60 29 25T110 -10Q160 -10 208 28T316 152L322 149Q303 118 296 95T288 48Q288 19 303 5T347 -10Q430 -10 537 124L517 138Q437 49 406 49Q390 49 390 68Q390
78 400 109L572 530H470L454 493Q436 519 418 529T371 540Q291 540 204 474ZM109 25T101 39T92 83Q92 153 143 255T264 432T382 508Q402 508 415 495T428 458Q428 441 424 422T406 372Q366 280 314 200T213 73T129 25Q109 25 101 39ZM359 780T340 762T320 720Q320
697 335 683T375 669Q401 669 421 688T442 731Q442 752 425 766T385 780Q359 780 340 762ZM534 780T515 762T495 720Q495 697 510 683T550 669Q576 669 596 688T617 731Q617 752 600 766T560 780Q534 780 515 762Z" />
<glyph unicode="&#xe5;" glyph-name="aring" horiz-adv-x="604" d="M291 540T204 474T59 309T0 122Q0 60 29 25T110 -10Q160 -10 208 28T316 152L322 149Q303 118 296 95T288 48Q288 19 303 5T347 -10Q430 -10 537 124L517 138Q437 49 406 49Q390 49 390 68Q390
78 400 109L572 530H470L454 493Q436 519 418 529T371 540Q291 540 204 474ZM109 25T101 39T92 83Q92 153 143 255T264 432T382 508Q402 508 415 495T428 458Q428 441 424 422T406 372Q366 280 314 200T213 73T129 25Q109 25 101 39ZM442 817T414 790T385 726Q385
694 407 673T464 651Q504 651 535 679T567 743Q567 774 542 795T482 817Q442 817 414 790ZM499 782T514 770T529 739Q529 719 511 703T469 686Q449 686 436 698T423 729Q423 751 439 766T479 782Q499 782 514 770Z" />
<glyph unicode="&#xe6;" glyph-name="ae" horiz-adv-x="804" d="M679 540T635 523T549 472L573 530H471L455 493Q436 519 418 529T371 540Q292 540 205 474T60 309T1 121Q1 60 30 25T111 -10Q161 -10 209 28T317 152L323 149Q322 143 322 125Q322 60 355 25T449
-10Q577 -10 702 145L680 159Q636 100 579 63T474 25Q445 25 431 41T416 92Q416 163 473 269Q572 286 649 318T770 390T813 471Q813 502 788 521T720 540Q679 540 635 523ZM561 425T610 467T701 509Q733 509 733 479Q733 445 700 409T611 343T495 302L527 361Q561
425 610 467ZM93 25T93 81Q93 153 144 255T265 432T384 508Q405 508 417 493T429 452Q429 425 407 372Q370 283 318 203T214 74T128 25Q93 25 93 81Z" />
<glyph unicode="&#xe7;" glyph-name="ccedilla" horiz-adv-x="498" d="M330 509T265 440T154 273T109 99Q109 61 122 43T168 25Q253 25 384 159L406 146Q341 69 273 30T140 -10Q76 -10 43 29T10 143Q11 226 55 308T177 451Q231 493 290 516T399 540Q450 540 485
514T520 449Q520 431 508 420T476 409Q437 409 430 457Q425 485 416 497T387 509Q330 509 265 440ZM254 -226T284 -226Q322 -226 347 -206T373 -156Q373 -122 331 -122Q301 -122 283 -134L275 -121L384 17H424L367 -58Q409 -58 432 -76T455 -128Q455 -161 432 -191T369
-239T285 -257Q260 -257 242 -251T215 -233L232 -210Q254 -226 284 -226Z" />
<glyph unicode="&#xe8;" glyph-name="egrave" horiz-adv-x="485" d="M312 540T219 475T63 312T0 125Q0 61 34 26T130 -10Q260 -10 383 145L361 159Q317 100 260 63T155 25Q126 25 112 41T97 92Q97 162 154 269Q253 286 330 318T451 390T494 471Q494 503 468 521T398
540Q312 540 219 475ZM242 425T291 467T382 509Q414 509 414 479Q414 445 381 409T292 343T176 302L208 361Q242 425 291 467ZM472 792Q472 795 472 800T473 815Q473 857 426 857Q405 857 390 844T374 811Q374 798 377 786T387 755L432 636L460 642L472 792Z" />
<glyph unicode="&#xe9;" glyph-name="eacute" horiz-adv-x="485" d="M312 540T219 475T63 312T0 125Q0 61 34 26T130 -10Q260 -10 383 145L361 159Q317 100 260 63T155 25Q126 25 112 41T97 92Q97 162 154 269Q253 286 330 318T451 390T494 471Q494 503 468 521T398
540Q312 540 219 475ZM242 425T291 467T382 509Q414 509 414 479Q414 445 381 409T292 343T176 302L208 361Q242 425 291 467ZM487 750Q514 769 525 784T537 815Q537 833 523 845T488 857Q454 857 425 813L309 642L325 631L487 750Z" />
<glyph unicode="&#xea;" glyph-name="ecircumflex" horiz-adv-x="485" d="M312 540T219 475T63 312T0 125Q0 61 34 26T130 -10Q260 -10 383 145L361 159Q317 100 260 63T155 25Q126 25 112 41T97 92Q97 162 154 269Q253 286 330 318T451 390T494 471Q494 503 468
521T398 540Q312 540 219 475ZM242 425T291 467T382 509Q414 509 414 479Q414 445 381 409T292 343T176 302L208 361Q242 425 291 467ZM529 857T537 850T548 828L564 640L541 628L471 769L288 628L269 640L440 828Q466 857 508 857Q529 857 537 850Z" />
<glyph unicode="&#xeb;" glyph-name="edieresis" horiz-adv-x="485" d="M312 540T219 475T63 312T0 125Q0 61 34 26T130 -10Q260 -10 383 145L361 159Q317 100 260 63T155 25Q126 25 112 41T97 92Q97 162 154 269Q253 286 330 318T451 390T494 471Q494 503 468
521T398 540Q312 540 219 475ZM242 425T291 467T382 509Q414 509 414 479Q414 445 381 409T292 343T176 302L208 361Q242 425 291 467ZM328 780T309 762T289 720Q289 697 304 683T344 669Q370 669 390 688T411 731Q411 752 394 766T354 780Q328 780 309 762ZM503
780T484 762T464 720Q464 697 479 683T519 669Q545 669 565 688T586 731Q586 752 569 766T529 780Q503 780 484 762Z" />
<glyph unicode="&#xec;" glyph-name="igrave" horiz-adv-x="340" d="M187 540T142 516T64 451L87 433Q110 462 133 478T175 495Q188 495 188 486Q188 478 183 467L38 111Q23 76 23 46Q23 18 40 4T88 -10Q126 -10 177 24T275 117L255 129Q206 81 185 65T150 49Q141
49 136 54T130 68Q130 74 133 81L276 425Q292 463 292 491Q292 514 274 527T227 540Q187 540 142 516ZM347 792Q347 795 347 800T348 815Q348 857 301 857Q280 857 265 844T249 811Q249 798 252 786T262 755L307 636L335 642L347 792Z" />
<glyph unicode="&#xed;" glyph-name="iacute" horiz-adv-x="340" d="M187 540T142 516T64 451L87 433Q110 462 133 478T175 495Q188 495 188 486Q188 478 183 467L38 111Q23 76 23 46Q23 18 40 4T88 -10Q126 -10 177 24T275 117L255 129Q206 81 185 65T150 49Q141
49 136 54T130 68Q130 74 133 81L276 425Q292 463 292 491Q292 514 274 527T227 540Q187 540 142 516ZM362 750Q389 769 400 784T412 815Q412 833 398 845T363 857Q329 857 300 813L184 642L200 631L362 750Z" />
<glyph unicode="&#xee;" glyph-name="icircumflex" horiz-adv-x="340" d="M187 540T142 516T64 451L87 433Q110 462 133 478T175 495Q188 495 188 486Q188 478 183 467L38 111Q23 76 23 46Q23 18 40 4T88 -10Q126 -10 177 24T275 117L255 129Q206 81 185 65T150
49Q141 49 136 54T130 68Q130 74 133 81L276 425Q292 463 292 491Q292 514 274 527T227 540Q187 540 142 516ZM371 857T379 850T390 828L406 640L383 628L313 769L130 628L111 640L282 828Q308 857 350 857Q371 857 379 850Z" />
<glyph unicode="&#xef;" glyph-name="idieresis" horiz-adv-x="340" d="M187 540T142 516T64 451L87 433Q110 462 133 478T175 495Q188 495 188 486Q188 478 183 467L38 111Q23 76 23 46Q23 18 40 4T88 -10Q126 -10 177 24T275 117L255 129Q206 81 185 65T150
49Q141 49 136 54T130 68Q130 74 133 81L276 425Q292 463 292 491Q292 514 274 527T227 540Q187 540 142 516ZM189 780T170 762T150 720Q150 697 165 683T205 669Q231 669 251 688T272 731Q272 752 255 766T215 780Q189 780 170 762ZM364 780T345 762T325 720Q325
697 340 683T380 669Q406 669 426 688T447 731Q447 752 430 766T390 780Q364 780 345 762Z" />
<glyph unicode="&#xf0;" glyph-name="eth" horiz-adv-x="555" d="M418 540T437 502H441Q439 543 429 577T395 657L265 573L244 606L379 693Q359 724 331 746T254 793L268 819Q322 795 357 772T420 720L550 802L572 770L443 688Q472 649 493 569T515 416Q515 310
465 211T333 51T164 -10Q93 -10 53 32T13 151Q13 239 66 330T201 480T362 540Q418 540 437 502ZM322 496T258 430T149 268T104 97Q104 25 149 25Q197 25 262 94T374 260T421 429Q421 496 374 496Q322 496 258 430Z" />
<glyph unicode="&#xf1;" glyph-name="ntilde" horiz-adv-x="629" d="M198 540T147 509T57 426L77 410Q108 448 137 471T183 495Q197 495 197 480Q197 473 186 446L-6 0H91L184 194Q226 282 275 353T371 464T451 505Q466 505 474 497T483 475Q483 453 470 427L334
158Q298 86 298 43Q298 -10 357 -10Q451 -10 558 124L537 139Q499 96 468 73T420 49Q408 49 408 63Q408 81 428 121L545 360Q570 410 570 452Q570 495 547 517T479 539Q424 539 372 502T254 380L250 382Q274 426 284 453T294 500Q294 521 283 530T246 540Q198 540
147 509ZM308 701T324 711T363 721Q379 721 392 717T431 702Q452 692 468 687T499 682Q536 682 570 715T622 800H598Q578 762 536 762Q516 762 494 770T468 779Q422 797 398 797Q361 797 327 765T279 683H300Q308 701 324 711Z" />
<glyph unicode="&#xf2;" glyph-name="ograve" horiz-adv-x="557" d="M241 -10T324 49T461 198T515 376Q515 452 476 496T366 540Q285 540 203 481T67 332T13 155Q13 78 51 34T161 -10Q241 -10 324 49ZM403 505T414 488T426 437Q426 366 378 268T263 97T149 25Q125
25 115 43T104 98Q104 173 150 270T262 436T378 505Q403 505 414 488ZM486 792Q486 795 486 800T487 815Q487 857 440 857Q419 857 404 844T388 811Q388 798 391 786T401 755L446 636L474 642L486 792Z" />
<glyph unicode="&#xf3;" glyph-name="oacute" horiz-adv-x="557" d="M241 -10T324 49T461 198T515 376Q515 452 476 496T366 540Q285 540 203 481T67 332T13 155Q13 78 51 34T161 -10Q241 -10 324 49ZM403 505T414 488T426 437Q426 366 378 268T263 97T149 25Q125
25 115 43T104 98Q104 173 150 270T262 436T378 505Q403 505 414 488ZM501 750Q528 769 539 784T551 815Q551 833 537 845T502 857Q468 857 439 813L323 642L339 631L501 750Z" />
<glyph unicode="&#xf4;" glyph-name="ocircumflex" horiz-adv-x="557" d="M241 -10T324 49T461 198T515 376Q515 452 476 496T366 540Q285 540 203 481T67 332T13 155Q13 78 51 34T161 -10Q241 -10 324 49ZM403 505T414 488T426 437Q426 366 378 268T263 97T149
25Q125 25 115 43T104 98Q104 173 150 270T262 436T378 505Q403 505 414 488ZM543 857T551 850T562 828L578 640L555 628L485 769L302 628L283 640L454 828Q480 857 522 857Q543 857 551 850Z" />
<glyph unicode="&#xf5;" glyph-name="otilde" horiz-adv-x="557" d="M241 -10T324 49T461 198T515 376Q515 452 476 496T366 540Q285 540 203 481T67 332T13 155Q13 78 51 34T161 -10Q241 -10 324 49ZM403 505T414 488T426 437Q426 366 378 268T263 97T149 25Q125
25 115 43T104 98Q104 173 150 270T262 436T378 505Q403 505 414 488ZM294 701T310 711T349 721Q365 721 378 717T417 702Q438 692 454 687T485 682Q522 682 556 715T608 800H584Q564 762 522 762Q502 762 480 770T454 779Q408 797 384 797Q347 797 313 765T265
683H286Q294 701 310 711Z" />
<glyph unicode="&#xf6;" glyph-name="odieresis" horiz-adv-x="557" d="M241 -10T324 49T461 198T515 376Q515 452 476 496T366 540Q285 540 203 481T67 332T13 155Q13 78 51 34T161 -10Q241 -10 324 49ZM403 505T414 488T426 437Q426 366 378 268T263 97T149
25Q125 25 115 43T104 98Q104 173 150 270T262 436T378 505Q403 505 414 488ZM328 780T309 762T289 720Q289 697 304 683T344 669Q370 669 390 688T411 731Q411 752 394 766T354 780Q328 780 309 762ZM503 780T484 762T464 720Q464 697 479 683T519 669Q545 669
565 688T586 731Q586 752 569 766T529 780Q503 780 484 762Z" />
<glyph unicode="&#xf7;" glyph-name="divide" horiz-adv-x="533" d="M205 543T224 563T273 583Q305 583 324 564T343 513Q343 484 324 465T273 445Q243 445 224 465T205 513Q205 543 224 563ZM77 364H487V315H77V364ZM205 200T224 220T273 240Q305 240 324 221T343
170Q343 141 324 122T273 102Q243 102 224 122T205 170Q205 200 224 220Z" />
<glyph unicode="&#xf8;" glyph-name="oslash" horiz-adv-x="557" d="M515 467T515 376Q515 288 461 198T324 49T161 -10Q127 -10 99 1L13 -120H-40L62 24Q13 67 13 155Q13 242 66 332T202 481T366 540Q395 540 421 532L511 658H566L461 510Q515 467 515 376ZM104
84L400 501Q392 505 378 505Q327 505 262 436T151 270T104 98V84ZM197 25T263 97T377 267T426 437Q426 452 425 459L122 34Q133 25 149 25Q197 25 263 97Z" />
<glyph unicode="&#xf9;" glyph-name="ugrave" horiz-adv-x="618" d="M117 448T141 464T179 481Q191 481 191 468Q191 449 171 409L54 170Q29 118 29 79Q29 -9 118 -9Q173 -9 222 27T334 150L339 148Q308 86 308 48Q308 22 324 6T365 -10Q400 -10 445 21T531 104L511
120Q480 82 452 59T405 35Q399 35 395 38T391 47Q391 60 402 84L596 530H497L406 336Q364 247 318 176T228 65T152 25Q139 25 131 32T122 53Q122 76 135 103L266 372Q301 445 301 488Q301 514 286 527T242 540Q158 540 66 434L89 418Q117 448 141 464ZM506 792Q506
795 506 800T507 815Q507 857 460 857Q439 857 424 844T408 811Q408 798 411 786T421 755L466 636L494 642L506 792Z" />
<glyph unicode="&#xfa;" glyph-name="uacute" horiz-adv-x="618" d="M117 448T141 464T179 481Q191 481 191 468Q191 449 171 409L54 170Q29 118 29 79Q29 -9 118 -9Q173 -9 222 27T334 150L339 148Q308 86 308 48Q308 22 324 6T365 -10Q400 -10 445 21T531 104L511
120Q480 82 452 59T405 35Q399 35 395 38T391 47Q391 60 402 84L596 530H497L406 336Q364 247 318 176T228 65T152 25Q139 25 131 32T122 53Q122 76 135 103L266 372Q301 445 301 488Q301 514 286 527T242 540Q158 540 66 434L89 418Q117 448 141 464ZM521 750Q548
769 559 784T571 815Q571 833 557 845T522 857Q488 857 459 813L343 642L359 631L521 750Z" />
<glyph unicode="&#xfb;" glyph-name="ucircumflex" horiz-adv-x="618" d="M117 448T141 464T179 481Q191 481 191 468Q191 449 171 409L54 170Q29 118 29 79Q29 -9 118 -9Q173 -9 222 27T334 150L339 148Q308 86 308 48Q308 22 324 6T365 -10Q400 -10 445 21T531
104L511 120Q480 82 452 59T405 35Q399 35 395 38T391 47Q391 60 402 84L596 530H497L406 336Q364 247 318 176T228 65T152 25Q139 25 131 32T122 53Q122 76 135 103L266 372Q301 445 301 488Q301 514 286 527T242 540Q158 540 66 434L89 418Q117 448 141 464ZM563
857T571 850T582 828L598 640L575 628L505 769L322 628L303 640L474 828Q500 857 542 857Q563 857 571 850Z" />
<glyph unicode="&#xfc;" glyph-name="udieresis" horiz-adv-x="618" d="M117 448T141 464T179 481Q191 481 191 468Q191 449 171 409L54 170Q29 118 29 79Q29 -9 118 -9Q173 -9 222 27T334 150L339 148Q308 86 308 48Q308 22 324 6T365 -10Q400 -10 445 21T531
104L511 120Q480 82 452 59T405 35Q399 35 395 38T391 47Q391 60 402 84L596 530H497L406 336Q364 247 318 176T228 65T152 25Q139 25 131 32T122 53Q122 76 135 103L266 372Q301 445 301 488Q301 514 286 527T242 540Q158 540 66 434L89 418Q117 448 141 464ZM340
780T321 762T301 720Q301 697 316 683T356 669Q382 669 402 688T423 731Q423 752 406 766T366 780Q340 780 321 762ZM515 780T496 762T476 720Q476 697 491 683T531 669Q557 669 577 688T598 731Q598 752 581 766T541 780Q515 780 496 762Z" />
<glyph unicode="&#xfd;" glyph-name="yacute" horiz-adv-x="546" d="M110 488T135 488Q153 488 163 460T178 368T183 191Q183 55 178 -7T163 -96T126 -154Q106 -178 83 -192T41 -206Q27 -206 19 -201T1 -183Q-9 -170 -19 -163T-47 -156Q-69 -156 -81 -167T-94
-199Q-94 -225 -70 -240T-7 -256Q86 -256 211 -113T432 211T527 478Q527 506 514 523T477 540Q455 540 441 524T426 482Q426 468 429 441Q434 379 434 373Q434 314 393 219T289 47L286 50Q292 161 292 234Q292 361 284 426T257 515T201 540Q158 540 116 515T49
448L68 433Q110 488 135 488ZM457 750Q484 769 495 784T507 815Q507 833 493 845T458 857Q424 857 395 813L279 642L295 631L457 750Z" />
<glyph unicode="&#xfe;" glyph-name="thorn" horiz-adv-x="592" d="M216 805L294 793L-128 -223L-208 -235V-250H78V-232L-24 -220L73 13Q98 10 127 10Q231 10 328 57T484 181T544 341Q544 400 514 446T427 518T297 547L404 820H212L216 805ZM276 504T281 506T300
508Q365 508 402 470T440 363Q440 284 392 209T268 86T110 39Q93 39 84 40L274 497Q276 504 281 506Z" />
<glyph unicode="&#xff;" glyph-name="ydieresis" horiz-adv-x="546" d="M110 488T135 488Q153 488 163 460T178 368T183 191Q183 55 178 -7T163 -96T126 -154Q106 -178 83 -192T41 -206Q27 -206 19 -201T1 -183Q-9 -170 -19 -163T-47 -156Q-69 -156 -81 -167T-94
-199Q-94 -225 -70 -240T-7 -256Q86 -256 211 -113T432 211T527 478Q527 506 514 523T477 540Q455 540 441 524T426 482Q426 468 429 441Q434 379 434 373Q434 314 393 219T289 47L286 50Q292 161 292 234Q292 361 284 426T257 515T201 540Q158 540 116 515T49
448L68 433Q110 488 135 488ZM284 780T265 762T245 720Q245 697 260 683T300 669Q326 669 346 688T367 731Q367 752 350 766T310 780Q284 780 265 762ZM459 780T440 762T420 720Q420 697 435 683T475 669Q501 669 521 688T542 731Q542 752 525 766T485 780Q459
780 440 762Z" />
<glyph unicode="&#x2013;" glyph-name="endash" horiz-adv-x="761" d="M73 282H672L647 221H49L73 282Z" />
<glyph unicode="&#x2014;" glyph-name="emdash" horiz-adv-x="1082" d="M73 282H993L968 222H49L73 282Z" />
<glyph unicode="&#x2018;" glyph-name="quoteleft" horiz-adv-x="263" d="M268 667T263 670T258 682Q258 703 288 738T361 804L340 830Q271 783 236 730T201 623Q201 583 220 562T273 540Q304 540 322 557T341 606Q341 654 290 663Q268 667 263 670Z" />
<glyph unicode="&#x2019;" glyph-name="quoteright" horiz-adv-x="256" d="M308 703T313 700T318 688Q318 667 288 632T215 566L236 540Q305 587 340 640T375 747Q375 787 356 808T303 830Q272 830 254 813T235 764Q235 716 286 707Q308 703 313 700Z" />
<glyph unicode="&#x201a;" glyph-name="quotesinglbase" horiz-adv-x="275" d="M46 0T51 -3T56 -15Q56 -36 26 -71T-47 -137L-26 -163Q43 -116 78 -63T113 44Q113 84 94 105T41 127Q10 127 -8 110T-27 61Q-27 13 24 4Q46 0 51 -3Z" />
<glyph unicode="&#x201c;" glyph-name="quotedblleft" horiz-adv-x="455" d="M268 667T263 670T258 682Q258 703 288 738T361 804L340 830Q271 783 236 730T201 623Q201 583 220 562T273 540Q304 540 322 557T341 606Q341 654 290 663Q268 667 263 670ZM460 667T455
670T450 682Q450 703 480 738T553 804L532 830Q463 783 428 730T393 623Q393 583 412 562T465 540Q496 540 514 557T533 606Q533 654 482 663Q460 667 455 670Z" />
<glyph unicode="&#x201d;" glyph-name="quotedblright" horiz-adv-x="448" d="M308 703T313 700T318 688Q318 667 288 632T215 566L236 540Q305 587 340 640T375 747Q375 787 356 808T303 830Q272 830 254 813T235 764Q235 716 286 707Q308 703 313 700ZM500 703T505
700T510 688Q510 667 480 632T407 566L428 540Q497 587 532 640T567 747Q567 787 548 808T495 830Q464 830 446 813T427 764Q427 716 478 707Q500 703 505 700Z" />
<glyph unicode="&#x201e;" glyph-name="quotedblbase" horiz-adv-x="464" d="M44 1T49 -2T54 -14Q54 -35 24 -70T-49 -136L-28 -162Q41 -115 76 -62T111 45Q111 85 92 106T39 128Q8 128 -10 111T-29 62Q-29 14 22 5Q44 1 49 -2ZM236 1T241 -2T246 -14Q246 -35
216 -70T143 -136L164 -162Q233 -115 268 -62T303 45Q303 85 284 106T231 128Q200 128 182 111T163 62Q163 14 214 5Q236 1 241 -2Z" />
<glyph unicode="&#x2022;" glyph-name="bullet" horiz-adv-x="427" d="M216 490T185 473T135 428T116 365Q116 317 147 289T230 260Q264 260 296 278T348 326T368 388Q368 431 333 460T251 490Q216 490 185 473Z" />
<glyph unicode="&#x2039;" glyph-name="guilsinglleft" horiz-adv-x="302" d="M125 234L274 421L258 436L36 251L31 239L105 53L125 64V234Z" />
<glyph unicode="&#x203a;" glyph-name="guilsinglright" horiz-adv-x="300" d="M129 255L-20 68L-4 53L218 238L223 250L149 436L129 425V255Z" />
</font>
</defs>
</svg>
