<?xml version="1.0" standalone="no"?>
<!DOCTYPE svg PUBLIC "-//W3C//DTD SVG 1.1//EN" "http://www.w3.org/Graphics/SVG/1.1/DTD/svg11.dtd">
<svg xmlns="http://www.w3.org/2000/svg">
<defs >
<font id="LibreFranklin" horiz-adv-x="568" ><font-face
    font-family="Libre Franklin Thin Medium"
    units-per-em="1000"
    panose-1="0 0 0 0 0 0 0 0 0 0"
    ascent="966"
    descent="-246"
    alphabetic="0" />
<glyph unicode=" " horiz-adv-x="212" />
<glyph unicode="!" horiz-adv-x="251" d="M186 18Q186 0 165 0H80Q63 0 63 16V113Q63 128 75 128H174Q186 128 186 115V18ZM161 213Q160 204 156 201T141 197H105Q96 197 93 200T89 211L63 728Q62 735 65 738T74 742H176Q188 742 187 730L161 213Z" />
<glyph unicode="&quot;" horiz-adv-x="428" d="M339 510Q338 501 334 497T319 493H292Q283 493 280 496T276 507L248 729Q248 736 251 739T259 742H356Q368 742 367 730L339 510ZM154 510Q153 501 149 497T134 493H107Q98 493 95 496T91 507L63 729Q63 736 66
739T74 742H171Q183 742 182 730L154 510Z" />
<glyph unicode="#" horiz-adv-x="603" d="M178 17Q176 7 173 3T160 0L130 4Q121 6 118 8T115 18L222 729Q223 735 226 739T234 742L273 737Q286 736 284 722L178 17ZM389 17Q388 7 385 3T371 0L342 4Q333 6 330 8T326 18L434 729Q435 735 438 739T446 742L485
737Q498 736 496 722L389 17ZM541 255Q541 238 522 238H44Q35 238 32 241T29 253V287Q29 300 39 300H530Q541 300 541 289V255ZM574 465Q574 448 555 448H77Q68 448 65 451T62 463V497Q62 510 72 510H563Q574 510 574 499V465Z" />
<glyph unicode="$" horiz-adv-x="621" d="M584 193Q584 139 557 95T482 24T369 -6Q361 -7 359 -9T356 -18V-68Q356 -85 339 -85H297Q282 -85 282 -71V-18Q282 -11 280 -9T272 -6Q191 -4 137 22T41 99Q25 113 36 123L77 165Q84 171 90 171T101 166Q134 126 173
103T271 76Q283 75 283 85V307Q283 315 279 320T265 330Q187 354 141 384T75 453T55 541Q55 595 81 637T155 708T269 745Q273 745 278 748T283 757V803Q283 808 286 811T292 814H342Q349 814 352 811T355 799V753Q355 746 366 744Q423 736 466 715T546 661Q559
652 548 641L508 594Q502 589 498 589T486 597Q467 619 436 636T366 660Q360 661 358 659T355 652V427Q355 418 367 413L410 400Q464 381 503 352T563 283T584 193V193ZM283 654Q283 666 271 663Q215 656 183 625T151 550Q151 527 161 508T196 471T263 437Q272
434 277 437T283 452V654ZM356 82Q356 75 366 76Q422 79 454 109T487 182Q487 224 460 252T370 303Q364 305 360 304T356 294V82V82Z" />
<glyph unicode="%" horiz-adv-x="925" d="M229 753Q280 753 319 727T382 653T405 541Q405 478 383 430T320 356T229 330Q178 330 138 356T74 430T51 541Q51 605 74 652T137 726T229 753V753ZM228 388Q276 388 300 430T325 540Q325 611 300 653T228 695Q197 695
176 676T143 622T131 540Q131 495 142 461T175 407T228 388V388ZM698 413Q749 413 788 387T851 313T874 201Q874 138 852 90T789 16T698 -10Q647 -10 606 16T542 90T519 201Q519 265 542 312T606 386T698 413V413ZM697 48Q728 48 749 67T782 121T794 200Q794 246
782 281T749 335T697 355Q667 355 645 336T612 281T600 200Q600 156 611 122T645 68T697 48V48ZM254 6Q248 -4 234 -4H203Q192 -4 191 3T194 18L675 742Q679 748 683 749T693 750H732Q738 750 741 748T739 737L254 6Z" />
<glyph unicode="&amp;" horiz-adv-x="797" d="M349 753Q407 753 452 735T523 682T549 600Q549 565 531 530T476 463T380 404Q373 401 373 398T377 388L518 226Q524 220 527 220T537 228Q552 244 569 265T603 310T631 355T649 394Q654 406 668 401L720 384Q726
382 729 377T730 365Q720 337 700 303T653 234T596 165Q591 159 591 156T598 147Q615 132 640 120T695 101T753 92Q769 92 769 77V20Q769 10 765 5T750 0Q708 0 665 10T584 39T517 78Q510 82 506 82T496 77Q448 37 392 16T269 -5Q162 -5 101 47T40 190Q40 249 76
299T197 399Q207 404 207 409T199 424Q167 458 151 494T134 569Q134 622 162 663T239 729T349 753V753ZM354 683Q319 683 294 668T255 628T242 576Q242 555 251 535T279 494L308 460Q311 457 316 457T326 459Q392 491 422 524T452 597Q452 639 424 661T354 683V683ZM281
334Q274 343 268 343T253 339Q208 316 182 279T155 199Q155 164 172 137T220 93T290 77Q328 77 366 93T432 133Q438 139 439 144T435 157L281 334V334Z" />
<glyph unicode="&apos;" horiz-adv-x="242" d="M154 510Q153 501 149 497T134 493H107Q98 493 95 496T91 507L63 729Q63 736 66 739T74 742H171Q183 742 182 730L154 510Z" />
<glyph unicode="(" horiz-adv-x="294" d="M268 742Q275 742 276 739T275 732Q226 634 194 519T161 284Q161 171 189 65T269 -154Q271 -158 270 -161T261 -165H210Q202 -165 196 -157Q155 -86 125 -17T78 126T61 285Q61 410 100 524T202 733Q209 742 221 742H268V742Z" />
<glyph unicode=")" horiz-adv-x="294" d="M26 742V742H74Q86 742 92 733Q154 639 193 525T233 285Q233 200 217 126T170 -17T98 -157Q92 -165 84 -165H33Q27 -165 26 -162T26 -154Q79 -41 106 65T133 284Q133 403 101 518T19 732Q18 735 19 738T26 742Z" />
<glyph unicode="*" horiz-adv-x="407" d="M211 510Q209 512 207 512T204 510L129 389Q127 386 123 386T113 388L72 416Q64 423 70 431L157 538Q159 541 158 543T153 547L34 581Q25 583 29 595L45 639Q49 649 57 644L170 598Q174 596 176 597T179 603L170 732Q169
736 171 739T180 742H235Q240 742 242 739T244 732L235 603Q234 594 242 597L358 647Q368 652 372 641L385 598Q388 587 379 584L262 547Q258 546 258 544T260 538L342 436Q346 432 345 428T338 418L301 392Q295 388 290 389T282 393L211 510Z" />
<glyph unicode="+" horiz-adv-x="565" d="M509 349Q509 333 489 333L73 332Q65 332 62 335T58 347V399Q58 413 68 413H497Q509 413 509 402V349ZM260 148Q243 148 243 167V583Q243 592 246 595T257 599H310Q323 599 323 588L324 159Q324 148 312 148H260Z" />
<glyph unicode="," horiz-adv-x="225" d="M52 -147Q47 -147 44 -142T44 -131L90 -19Q98 0 82 0H67Q51 0 51 14V115Q51 128 63 128H163Q174 128 174 116V23Q174 16 172 9L91 -134Q87 -140 80 -143T66 -147H52V-147Z" />
<glyph unicode="-" horiz-adv-x="381" d="M323 240Q323 224 303 224H73Q65 224 62 227T58 238V291Q58 305 69 305H311Q323 305 323 294V240Z" />
<glyph unicode="." horiz-adv-x="222" d="M171 18Q171 0 150 0H65Q48 0 48 16V115Q48 129 60 129H160Q171 129 171 116V18Z" />
<glyph unicode="/" horiz-adv-x="349" d="M20 -35Q7 -35 10 -24L261 731Q265 742 276 742H327Q344 742 337 723L92 -20Q89 -28 84 -31T71 -35H20V-35Z" />
<glyph unicode="0" horiz-adv-x="694" d="M348 752Q409 752 461 727T553 652T613 532T635 369Q635 248 598 164T495 35T347 -9Q264 -9 199 35T97 163T59 368Q59 460 81 531T142 651T233 726T348 752V752ZM348 80Q400 80 436 109T492 202T512 369Q512 474 492 539T435
634T347 664Q297 664 260 634T203 539T182 369Q182 266 202 203T260 110T348 80V80Z" />
<glyph unicode="1" horiz-adv-x="479" d="M426 92Q440 92 440 81V13Q440 8 437 4T425 0H61Q47 0 47 12V81Q47 92 60 92H179Q188 92 188 98V607Q188 619 177 616L62 576Q46 572 46 590V638Q46 647 48 649T57 656L212 733Q223 738 229 740T246 742H296Q309 742 309
728V101Q309 92 316 92H426V92Z" />
<glyph unicode="2" horiz-adv-x="613" d="M283 314Q327 355 356 385T402 442T427 491T435 541Q435 580 416 606T366 647T299 661Q271 661 242 651T186 619T136 560Q134 555 128 554T114 557L56 589Q48 595 47 601T51 615Q98 686 165 719T308 752Q376 752 431 728T520
657T553 538Q553 496 538 458T489 380T398 288L201 113Q195 108 196 105T207 101H546Q561 101 561 88V14Q561 8 558 4T546 0H64Q53 0 49 3T45 17V70Q45 77 47 82T56 96T78 116L283 314Z" />
<glyph unicode="3" horiz-adv-x="649" d="M73 634Q66 642 73 652Q103 685 140 707T222 740T313 752Q394 752 452 728T541 661T572 562Q572 510 540 467T449 403Q438 399 438 396T448 388Q490 377 523 352T575 290T595 208Q595 143 563 94T465 18T300 -10Q248 -10
201 3T113 40T42 101Q37 108 38 113T46 123L100 163Q107 169 111 168T118 164Q148 133 177 115T238 88T308 79Q388 79 432 114T476 205Q476 249 452 279T388 324T303 341L216 342Q202 342 202 353V418Q202 428 216 429L286 431Q335 431 372 447T432 492T454 556Q454
587 436 611T386 650T313 665Q263 665 221 646T140 589Q134 584 131 584T120 589L73 634V634Z" />
<glyph unicode="4" horiz-adv-x="661" d="M379 729Q386 737 391 739T408 742H494Q507 742 507 728V288Q507 278 516 278H606Q621 278 621 266V206Q621 191 606 191H517Q507 191 507 181V17Q507 0 488 0H401Q385 0 385 16V184Q385 191 375 191H59Q42 191 42 206V267Q42
275 46 283T61 305L379 729V729ZM375 278Q384 278 384 285V592Q384 604 381 605T370 596L146 291Q136 278 153 278H375Z" />
<glyph unicode="5" horiz-adv-x="661" d="M549 742Q562 742 565 739T567 725L563 657Q562 648 560 646T547 643H214Q201 643 200 631L185 442Q184 435 188 432T197 430Q235 447 270 459T356 472Q425 472 482 448T575 372T610 243Q610 163 573 107T471 20T320 -10Q238
-10 167 18T51 99Q46 106 46 112T53 124L108 165Q118 173 128 163Q154 138 179 119T234 89T306 78Q365 78 406 98T469 156T491 239Q491 287 471 319T414 367T333 384Q286 384 248 367T175 331Q166 327 164 327T154 332L92 367Q83 372 83 376T84 392L111 725Q112
735 116 738T138 742H549Z" />
<glyph unicode="6" horiz-adv-x="669" d="M370 751Q411 751 444 742T504 716T549 681T578 642Q580 637 580 632T573 624L500 597Q494 594 490 597T483 605Q463 631 438 647T371 663Q306 663 263 632T200 545T179 420Q179 403 182 399T198 400Q235 417 275 431T373
446Q450 446 505 418T590 341T620 228Q620 158 584 105T488 21T352 -9Q261 -9 196 35T95 161T59 358Q59 481 97 569T205 704T370 751V751ZM353 362Q329 362 300 357T244 342T199 320Q189 313 185 306T181 280Q181 245 191 210T223 143T276 94T350 75Q393 75 427
94T481 148T501 224Q501 264 483 295T431 344T353 362V362Z" />
<glyph unicode="7" horiz-adv-x="606" d="M545 742Q556 742 560 738T565 727L563 685Q563 677 558 665T545 643Q507 585 471 518T405 380T350 244T311 120T290 22Q288 0 273 0H169Q150 0 155 20Q170 76 192 142T248 286T327 450T432 629Q436 635 435 639T425 643H53Q38
643 39 658L46 731Q48 742 65 742H545Z" />
<glyph unicode="8" horiz-adv-x="673" d="M334 752Q409 752 466 726T556 654T588 547Q588 502 564 466T489 395Q474 386 488 379Q535 359 564 332T607 273T621 201Q621 136 585 89T483 16T331 -10Q247 -10 185 13T88 79T54 184Q54 235 80 277T169 356Q180 363
181 366T170 377Q143 394 121 415T87 466T74 533Q74 594 106 643T197 722T334 752V752ZM336 668Q295 668 262 652T208 609T188 545Q188 464 281 441L376 418Q391 414 409 424T444 453T473 496T484 547Q484 599 445 633T336 668V668ZM337 74Q414 74 458 106T502
194Q502 235 480 262T404 302L285 333Q270 336 249 328T208 302T174 257T160 199Q160 141 204 108T337 74V74Z" />
<glyph unicode="9" horiz-adv-x="666" d="M299 -9Q257 -9 223 0T162 26T116 61T85 100Q84 105 84 110T90 118L163 145Q169 148 173 145T180 137Q201 111 228 95T299 79Q363 79 404 110T466 197T487 322Q487 340 484 344T468 342Q432 325 392 311T296 296Q220 296
165 324T79 401T49 514Q49 585 85 638T182 721T318 751Q407 751 472 707T572 581T607 384Q607 261 569 173T463 38T299 -9V-9ZM314 380Q340 380 369 386T424 402T468 426Q478 434 482 441T486 466Q486 500 476 535T445 601T393 649T319 667Q277 667 243 648T189
595T169 519Q169 479 187 448T238 398T314 380V380Z" />
<glyph unicode=":" horiz-adv-x="222" d="M171 401Q171 383 150 383H65Q48 383 48 399V496Q48 510 60 510H160Q171 510 171 497V401ZM171 21Q171 3 150 3H65Q48 3 48 20V116Q48 131 60 131H160Q171 131 171 118V21Z" />
<glyph unicode=";" horiz-adv-x="238" d="M52 -148Q47 -148 44 -144T44 -132L90 -19Q98 0 82 0H67Q51 0 51 14V115Q51 128 63 128H163Q174 128 174 116V23Q174 16 172 9L91 -135Q87 -142 80 -145T66 -148H52V-148ZM65 380Q48 380 48 396V495Q48 509 60 509H160Q171
509 171 496V398Q171 380 150 380H65V380Z" />
<glyph unicode="&lt;" horiz-adv-x="554" d="M490 162Q490 149 483 145T465 145L66 301Q59 304 55 308T50 321V387Q50 396 54 400T66 408L465 565Q477 570 484 565T491 550V495Q491 478 464 468L173 354L464 241Q478 235 484 230T490 214V162Z" />
<glyph unicode="=" horiz-adv-x="565" d="M509 448Q509 431 489 431H73Q65 431 62 434T58 445V498Q58 511 68 511L497 512Q509 512 509 500V448ZM509 219Q509 203 489 203L73 202Q65 202 62 205T58 216V269Q58 283 68 283H497Q509 283 509 271V219Z" />
<glyph unicode="&gt;" horiz-adv-x="554" d="M64 214Q64 224 70 229T91 241L382 354L90 468Q64 478 64 495V550Q64 560 71 565T89 565L488 408Q496 405 500 401T505 387V321Q505 313 501 309T488 301L89 145Q79 141 72 145T64 162V214V214Z" />
<glyph unicode="?" horiz-adv-x="527" d="M309 18Q309 0 288 0H202Q193 0 190 4T186 16V113Q186 128 198 128H297Q309 128 309 115V18ZM28 596Q22 598 22 603T22 612Q54 678 118 715T265 752Q335 752 386 729T466 666T495 574Q495 524 475 488T424 422T364 363T313
298T292 214Q292 208 288 204T278 199H219Q203 199 203 216Q203 272 222 312T268 384T322 444T369 502T388 570Q388 618 354 646T264 674Q233 674 203 662T149 630T114 583Q112 578 109 577T99 576L28 596Z" />
<glyph unicode="@" horiz-adv-x="834" d="M658 -46Q618 -75 561 -94T433 -113Q342 -113 270 -84T148 -4T71 116T45 261Q45 342 73 414T155 542T283 629T449 661Q515 661 578 643T693 585T775 485T805 339Q805 264 780 206T711 114T611 81Q570 81 548 95T519 132Q516
139 514 139T507 133Q485 104 451 86T369 67Q330 67 297 88T245 150T225 243Q225 306 249 358T318 443T421 475Q463 475 490 458T534 415Q536 414 538 414T542 419L548 443Q549 449 557 449H610Q618 449 617 442L580 223Q573 181 583 165T617 149Q647 149 673 170T715
233T731 333Q731 405 707 455T642 535T551 580T449 594Q368 594 307 568T204 495T141 389T120 261Q120 194 141 137T204 39T307 -26T447 -49Q491 -49 521 -42T574 -22T622 7Q635 15 642 6L665 -26Q670 -33 667 -37T658 -46V-46ZM309 250Q309 200 329 170T387 139Q419
139 445 157T490 206T512 273Q517 315 506 344T474 388T427 403Q392 403 366 383T324 328T309 250V250Z" />
<glyph unicode="A" horiz-adv-x="741" d="M53 0Q46 0 43 6T43 21L298 726Q301 735 306 738T320 742H421Q440 742 446 725L699 20Q702 13 699 7T688 0H594Q581 0 577 12L513 190Q512 195 510 197T501 199H224Q215 199 212 191L147 10Q145 5 142 3T130 0H53V0ZM470
293Q483 293 478 307L370 607Q366 615 363 615T356 606L245 306Q240 293 252 293H470Z" />
<glyph unicode="B" horiz-adv-x="707" d="M103 0Q96 0 92 4T88 14V725Q88 733 92 737T104 742H347Q485 742 559 693T633 549Q633 490 602 450T502 384Q498 383 498 380T502 375Q576 355 613 313T651 199Q651 98 576 49T356 0H103V0ZM351 85Q439 85 482 115T525
206Q525 250 504 277T445 318T361 331H225Q209 331 209 318V100Q209 85 220 85H351ZM361 419Q389 419 415 424T464 443T499 479T512 535Q512 596 468 626T349 657H224Q209 657 209 644V433Q209 419 220 419H361Z" />
<glyph unicode="C" horiz-adv-x="712" d="M379 752Q432 752 479 736T565 690T627 624T659 542Q661 531 659 528T650 523L557 517Q551 516 549 519T545 528Q532 588 490 626T383 664Q288 664 237 592T185 372Q185 226 235 154T387 82Q454 82 499 114T574 221Q577
228 589 226L660 209Q663 208 666 205T667 192Q660 166 644 138T604 84T547 36T473 3T382 -10Q281 -10 209 37T97 170T58 373Q58 491 97 576T208 706T379 752V752Z" />
<glyph unicode="D" horiz-adv-x="731" d="M105 742Q116 742 140 742T193 742T246 741T283 741Q420 739 506 696T632 572T673 376Q673 254 630 170T498 43T274 0H106Q88 0 88 18V726Q88 735 92 738T105 742V742ZM219 653Q209 653 209 639V100Q209 88 221 88H254Q355
88 420 116T516 206T547 372Q547 478 516 539T422 626T260 653H219V653Z" />
<glyph unicode="E" horiz-adv-x="636" d="M88 727Q88 742 102 742H568Q580 742 580 729L579 666Q579 651 564 651H224Q209 651 209 638V432Q209 419 222 419H466Q479 419 479 407V340Q479 335 477 332T466 329H221Q209 329 209 318V102Q209 91 219 91H578Q592
91 592 79V13Q592 7 589 4T578 0H105Q88 0 88 16V727V727Z" />
<glyph unicode="F" horiz-adv-x="611" d="M88 727Q88 742 102 742H559Q571 742 571 729L570 666Q570 651 555 651H224Q209 651 209 638V420Q209 408 222 408H473Q485 408 485 396V330Q485 319 473 319H221Q209 319 209 307V16Q209 0 191 0H105Q95 0 92 3T88 16V727V727Z" />
<glyph unicode="G" horiz-adv-x="743" d="M376 -10Q279 -10 207 36T97 167T58 368Q58 488 98 574T212 706T382 752Q455 752 515 723T614 648T662 548Q664 538 662 535T653 529L562 515Q556 514 554 517T550 527Q543 565 520 595T462 644T380 663Q318 663 274 631T208
535T185 374Q185 272 208 207T275 111T383 79Q426 79 459 93T514 131T548 183T563 239L564 289Q566 301 554 301H404Q398 301 395 303T392 313V366Q392 377 403 377L657 376Q667 376 672 372T677 360V13Q677 6 674 3T664 0H638Q631 0 626 2T617 13L601 99Q600 104
598 104T591 99Q573 71 545 46T475 6T376 -10V-10Z" />
<glyph unicode="H" horiz-adv-x="740" d="M219 338Q209 338 209 328V17Q209 0 190 0H105Q95 0 92 4T88 16V727Q88 742 102 742H196Q209 742 209 727V446Q209 432 222 432H519Q531 432 531 445V728Q531 742 543 742H639Q652 742 652 727V16Q652 8 649 4T635 0H551Q531
0 531 17V327Q531 338 520 338H219Z" />
<glyph unicode="I" horiz-adv-x="298" d="M196 742Q209 742 209 727V19Q209 8 205 4T188 0H106Q95 0 92 3T88 16V727Q88 742 102 742H196Z" />
<glyph unicode="J" horiz-adv-x="427" d="M343 172Q343 80 301 35T168 -10Q131 -10 101 -3T54 10Q46 12 42 17T39 33L48 98Q49 113 62 110Q77 105 94 99T139 92Q183 92 202 115T222 201V727Q222 742 235 742H331Q343 742 343 727V172V172Z" />
<glyph unicode="K" horiz-adv-x="714" d="M673 17Q677 10 676 5T666 0H562Q547 0 541 11L339 363Q333 373 323 361L216 238Q209 230 209 219V17Q209 0 190 0H105Q96 0 92 3T88 16V728Q88 742 101 742H197Q209 742 209 729V383Q209 376 212 376T219 380L520 731Q525
737 530 739T545 742H630Q639 742 642 737T640 725L420 476Q414 469 419 459L673 17V17Z" />
<glyph unicode="L" horiz-adv-x="610" d="M88 727Q88 742 102 742H196Q209 742 209 727V102Q209 91 219 91H557Q571 91 571 79V13Q571 7 568 4T557 0H105Q95 0 92 4T88 16V727V727Z" />
<glyph unicode="M" horiz-adv-x="919" d="M104 0Q88 0 88 17V727Q88 742 102 742H233Q242 742 246 740T252 730L452 205Q456 196 460 196T467 206L664 726Q670 742 682 742H818Q831 742 831 727V18Q831 0 813 0H727Q718 0 714 3T710 16V564Q710 570 708 569T704
563L498 14Q493 0 479 0H419Q403 0 398 13L196 557Q193 563 191 563T189 557V14Q189 7 186 4T174 0H104V0Z" />
<glyph unicode="N" horiz-adv-x="757" d="M658 742Q669 742 669 729V13Q669 7 665 4T654 0H589Q582 0 577 1T567 10L202 534Q197 541 194 540T191 533V14Q191 0 175 0H104Q88 0 88 14V727Q88 742 103 742H181Q189 742 193 740T203 730L553 223Q559 215 563 216T568
225V728Q568 742 582 742H658Z" />
<glyph unicode="O" horiz-adv-x="767" d="M384 -10Q283 -10 210 34T98 163T59 368Q59 489 99 575T212 706T385 752Q484 752 556 707T668 576T708 369Q708 249 669 165T557 35T384 -10V-10ZM385 79Q485 79 533 148T582 368Q582 520 533 592T385 664Q285 664 235
592T185 368Q185 219 235 149T385 79V79Z" />
<glyph unicode="P" horiz-adv-x="698" d="M649 521Q649 447 615 399T521 326T383 302H219Q209 302 209 292V17Q209 0 191 0H104Q95 0 92 3T88 15V727Q88 742 102 742H369Q448 742 511 719T612 647T649 521V521ZM525 524Q525 570 505 598T449 640T362 653H224Q209
653 209 639V406Q209 391 220 391H369Q440 391 482 424T525 524V524Z" />
<glyph unicode="Q" horiz-adv-x="768" d="M59 369Q59 491 98 576T211 707T384 752Q484 752 557 707T669 577T709 369Q709 253 674 175T576 50Q571 47 571 42Q571 31 588 14T633 -16T692 -35Q699 -36 701 -39T703 -46V-104Q703 -117 696 -120T673 -124Q623 -124
573 -97T476 -7Q471 0 461 -3Q442 -6 423 -8T384 -10Q285 -10 212 34T99 163T59 369V369ZM185 367Q185 218 234 149T384 79Q483 79 533 148T583 368Q583 517 534 590T384 664Q284 664 235 591T185 367V367Z" />
<glyph unicode="R" horiz-adv-x="704" d="M641 21Q644 13 641 7T629 0H532Q520 0 514 14L392 318Q387 330 367 330H221Q214 330 212 327T209 319V18Q209 0 190 0H105Q95 0 92 4T88 16V727Q88 742 102 742H391Q514 742 582 692T651 546Q651 491 630 452T577 388T507
352Q500 349 503 340L641 21V21ZM367 415Q445 415 485 444T526 537Q526 597 489 627T384 657H225Q209 657 209 645V429Q209 415 220 415H367V415Z" />
<glyph unicode="S" horiz-adv-x="652" d="M498 592Q472 621 434 642T335 663Q264 663 225 634T185 552Q185 538 192 519T220 483T283 450L433 403Q524 375 563 324T603 203Q603 137 570 89T475 16T328 -10Q265 -10 212 4T117 47T47 117Q43 124 44 130T53 142L102
176Q113 183 119 182T130 175Q155 143 180 121T239 89T321 78Q396 78 441 104T487 189Q487 212 478 230T447 264T383 295L232 344Q175 363 140 393T87 461T70 539Q70 603 103 651T195 725T333 752Q386 752 430 740T512 705T575 651Q579 646 580 641T575 630L518
586Q512 582 509 583T498 592V592Z" />
<glyph unicode="T" horiz-adv-x="656" d="M39 728Q39 735 42 738T54 742H603Q611 742 614 739T617 728V664Q617 652 603 652H405Q394 652 394 643V15Q394 0 381 0H287Q274 0 274 14V641Q274 652 263 652H53Q39 652 39 664V728Z" />
<glyph unicode="U" horiz-adv-x="713" d="M633 256Q633 162 601 103T507 17T356 -10Q258 -10 197 21T108 116T79 273V726Q79 742 92 742H187Q200 742 200 727V252Q200 164 242 122T365 80Q418 80 455 98T513 155T533 255V727Q533 742 545 742H621Q633 742 633
728V256V256Z" />
<glyph unicode="V" horiz-adv-x="715" d="M662 742Q670 742 673 737T674 725L424 17Q419 0 399 0H314Q292 0 287 16L42 724Q40 732 43 737T54 742H148Q161 742 165 729L360 154Q367 135 374 155L568 729Q572 742 586 742H662V742Z" />
<glyph unicode="W" horiz-adv-x="1057" d="M998 742Q1009 742 1013 736T1014 720L809 17Q804 0 785 0H709Q688 0 684 16L534 542Q533 549 531 549T525 541L374 17Q370 0 350 0H272Q252 0 247 16L44 720Q42 730 46 736T61 742H144Q154 742 158 739T164 729L317
186Q320 176 323 176T329 185L483 729Q484 735 488 738T504 742H576Q586 742 590 739T596 729L750 182Q753 174 756 174T762 182L915 729Q917 736 921 739T935 742H998V742Z" />
<glyph unicode="X" horiz-adv-x="701" d="M653 27Q664 11 661 6T645 0H550Q535 0 528 11L354 278Q347 288 343 288T330 277L158 11Q155 5 149 3T135 0H56Q45 0 42 5T48 27L272 364Q277 372 277 377T271 391L52 723Q48 729 49 735T60 742H161Q171 742 175 740T183
731L342 484Q347 477 351 477T361 484L520 731Q524 737 528 739T541 742H629Q638 742 639 737T635 725L420 402Q415 395 415 390T420 378L653 27V27Z" />
<glyph unicode="Y" horiz-adv-x="694" d="M644 742Q653 742 655 738T654 726L417 332Q412 326 411 319T410 293V20Q410 0 388 0H307Q297 0 294 4T290 17V292Q290 303 288 309T281 322L41 723Q36 731 39 736T53 742H149Q160 742 164 739T173 728L347 427Q353 416
358 416T368 425L541 728Q546 737 550 739T564 742H644V742Z" />
<glyph unicode="Z" horiz-adv-x="647" d="M58 0Q50 0 47 3T43 14V42Q43 51 45 56T56 73L430 640Q436 650 424 650H76Q68 650 66 653T63 664V730Q63 742 73 742H590Q601 742 601 730V699Q601 692 599 688T591 675L210 102Q207 97 209 95T216 92H586Q599 92 599
81V13Q599 8 596 4T585 0H58V0Z" />
<glyph unicode="[" horiz-adv-x="296" d="M81 729Q81 742 97 742H271Q281 742 281 734V685Q281 676 271 676H187Q173 676 173 660L172 -87Q172 -95 174 -97T184 -99H268Q280 -99 280 -110V-153Q280 -165 268 -165H99Q82 -165 82 -150L81 729V729Z" />
<glyph unicode="\" horiz-adv-x="349" d="M277 -35Q270 -35 265 -32T256 -20L11 723Q5 742 21 742H72Q84 742 88 731L338 -24Q342 -35 329 -35H277V-35Z" />
<glyph unicode="]" horiz-adv-x="296" d="M215 729V729L214 -150Q214 -165 197 -165H28Q16 -165 16 -153V-110Q16 -99 28 -99H112Q119 -99 121 -97T124 -87L123 660Q123 676 109 676H25Q15 676 15 685V734Q15 742 25 742H199Q215 742 215 729Z" />
<glyph unicode="^" horiz-adv-x="476" d="M244 403Q242 410 237 410T229 403L123 139Q121 134 117 133T106 131H54Q40 131 47 147L194 504Q204 527 220 535T252 537T279 504L428 144Q433 130 418 130H368Q362 130 357 131T350 138L244 403Z" />
<glyph unicode="_" horiz-adv-x="526" d="M469 -109Q469 -125 449 -125L73 -126Q65 -126 62 -123T58 -111V-58Q58 -45 68 -45L457 -44Q469 -44 469 -56V-109Z" />
<glyph unicode="`" horiz-adv-x="292" d="M29 744Q34 755 43 751L276 657Q285 653 281 641L272 615Q270 608 266 607T253 606L24 673Q7 678 12 693L29 744V744Z" />
<glyph unicode="a" horiz-adv-x="552" d="M369 60Q334 26 292 8T197 -10Q120 -10 76 30T32 135Q32 190 63 229T155 291T303 318L368 323Q374 324 379 327T384 338V363Q384 412 354 440T272 469Q233 469 200 451T141 395Q138 390 135 388T124 388L56 408Q52 410
51 413T53 427Q82 481 138 510T277 540Q349 540 395 520T463 461T486 370V17Q486 7 483 4T471 0H403Q396 0 392 5T387 20L386 58Q383 74 369 60V60ZM384 249Q384 266 370 264L316 260Q276 258 243 250T187 227T150 194T136 148Q136 109 163 87T238 64Q268 64 294
74T341 101Q361 118 372 136T384 171V249V249Z" />
<glyph unicode="b" horiz-adv-x="602" d="M88 0Q78 0 74 4T70 18V727Q70 742 84 742H164Q176 742 176 727V485Q176 475 180 474T192 479Q203 490 223 504T274 529T345 540Q417 540 464 505T534 408T558 268Q558 140 499 65T330 -10Q287 -10 255 3T202 35T169 69Q165
74 162 74T158 66L150 17Q147 0 130 0H88ZM176 180Q176 146 194 119T242 77T306 61Q347 61 379 82T430 148T449 266Q449 365 414 416T311 467Q270 467 235 448T176 400V180Z" />
<glyph unicode="c" horiz-adv-x="545" d="M297 540Q353 540 394 522T464 473T510 407Q516 393 503 390L432 378Q423 376 419 386Q402 412 385 429T348 456T302 466Q256 466 222 443T169 374T150 265Q150 201 169 156T223 87T306 63Q353 63 385 87T444 155Q447
159 449 160T458 159L511 143Q519 140 515 128Q503 103 484 78T438 34T376 2T297 -10Q222 -10 165 24T75 120T42 263Q42 345 75 407T165 504T297 540V540Z" />
<glyph unicode="d" horiz-adv-x="602" d="M444 0Q437 0 433 4T428 16V54Q428 61 424 62T415 58Q402 46 382 30T332 2T261 -10Q199 -10 150 20T72 109T43 258Q43 343 73 406T155 504T272 540Q319 540 351 525T410 487Q418 480 422 481T426 494V727Q426 742 439
742H519Q532 742 532 727V17Q532 8 528 4T513 0H444V0ZM426 406Q397 435 368 451T303 467Q259 467 225 444T171 376T151 261Q151 191 171 147T224 83T298 62Q334 62 363 79T409 121T426 172V406V406Z" />
<glyph unicode="e" horiz-adv-x="582" d="M151 228Q151 183 172 147T230 89T312 67Q358 67 394 86T460 145Q463 149 466 149T475 147L526 123Q537 118 528 107Q500 66 467 40T392 2T301 -10Q225 -10 167 24T76 119T42 259Q42 346 76 408T168 505T299 540Q373 540
428 508T515 414T546 266Q546 257 544 251T531 244H161Q156 244 154 240T151 228V228ZM424 307Q435 307 438 310T441 321Q441 359 425 393T378 448T302 469Q255 469 222 447T171 387T153 308L424 307Z" />
<glyph unicode="f" horiz-adv-x="386" d="M350 530Q357 530 360 527T364 517V465Q364 454 351 454H247Q238 454 238 445V16Q238 0 225 0H144Q132 0 132 14V446Q132 454 125 454H35Q23 454 23 465V517Q23 523 26 526T36 530H122Q132 530 132 542V611Q132 674 165
708T264 742H353Q368 742 368 727L369 680Q369 675 366 672T356 668H292Q263 668 250 650T236 600V539Q236 530 246 530H350V530Z" />
<glyph unicode="g" horiz-adv-x="611" d="M567 543Q577 543 581 539T586 525V480Q586 469 582 464T566 460Q550 461 538 460T515 455Q490 447 495 432Q499 422 504 408T509 371Q509 327 485 290T411 231T285 209Q238 209 211 204T171 189T159 169Q159 154 178
148T242 139L375 131Q468 126 511 88T554 -10Q554 -85 486 -130T288 -175Q156 -175 88 -140T19 -38Q19 -3 44 23T113 69Q125 74 113 80Q91 91 77 106T63 144Q63 160 73 174T103 202T148 224Q153 226 154 229T148 236Q104 258 82 291T59 371Q59 447 119 492T294
538Q347 538 384 526T447 493Q453 488 459 488T470 494Q482 506 498 517T532 536T567 543V543ZM285 269Q349 269 380 296T411 371Q411 420 380 448T285 477Q223 477 190 449T156 371Q156 324 189 297T285 269V269ZM201 54Q183 55 162 45T126 17T110 -25Q110 -53
130 -73T191 -105T298 -116Q376 -116 417 -94T458 -26Q458 4 436 23T364 45L201 54Z" />
<glyph unicode="h" horiz-adv-x="588" d="M87 0Q71 0 71 16V727Q71 742 83 742H162Q174 742 174 729V465Q174 460 176 459T184 462Q218 489 246 506T303 531T364 540Q441 540 482 499T523 386V18Q523 0 506 0H432Q424 0 421 3T417 16V366Q417 410 395 435T324
460Q297 460 274 452T227 427T177 385V17Q177 0 158 0H87V0Z" />
<glyph unicode="i" horiz-adv-x="247" d="M176 19Q176 8 172 4T156 0H88Q77 0 74 3T70 16V515Q70 530 84 530H164Q176 530 176 516V19ZM179 636Q179 615 159 615H85Q74 615 71 620T67 634V725Q67 742 82 742H165Q179 742 179 726V636Z" />
<glyph unicode="j" horiz-adv-x="247" d="M177 -18Q177 -95 143 -132T24 -170Q-19 -170 -30 -168T-42 -154L-43 -100Q-43 -95 -40 -91T-31 -85L17 -82Q45 -80 58 -66T71 -12V515Q71 530 85 530H165Q177 530 177 516V-18V-18ZM180 636Q180 615 159 615H85Q68 615
68 634V725Q68 742 83 742H165Q180 742 180 726V636Z" />
<glyph unicode="k" horiz-adv-x="576" d="M550 19Q554 12 552 6T539 0H450Q443 0 438 4T430 15L293 257Q291 263 288 264T280 259L185 164Q181 160 179 156T177 143V19Q177 8 173 4T157 0H88Q78 0 75 3T71 16V727Q71 742 84 742H164Q177 742 177 727V280Q177 273
179 272T188 276L416 517Q429 530 439 530H514Q526 530 528 524T521 509L369 354Q365 350 364 346T367 333L550 19V19Z" />
<glyph unicode="l" horiz-adv-x="248" d="M177 19Q177 8 173 4T156 0H88Q70 0 70 16L72 727Q72 742 85 742H164Q177 742 177 727V19Z" />
<glyph unicode="m" horiz-adv-x="910" d="M86 0Q70 0 70 16V515Q70 530 83 530H161Q173 530 173 517V462Q173 457 176 456T183 459Q214 484 241 502T296 530T358 540Q415 540 451 514T500 450Q502 446 505 447T513 452Q542 479 571 498T630 529T693 540Q765 540
805 498T846 385V18Q846 0 828 0H754Q747 0 744 3T740 16V366Q740 410 718 435T652 460Q626 460 602 450T559 426T524 397Q517 390 514 384T511 368V18Q511 0 493 0H420Q413 0 409 3T405 16V366Q405 410 384 435T317 460Q279 460 248 442T176 385V17Q176 0 157
0H86V0Z" />
<glyph unicode="n" horiz-adv-x="588" d="M86 0Q70 0 70 16V515Q70 530 83 530H162Q174 530 174 517V462Q174 457 176 456T184 459Q215 484 243 502T300 530T363 540Q439 540 481 498T523 387V18Q523 0 506 0H432Q424 0 421 3T417 16V366Q417 410 394 435T323
460Q296 460 273 452T227 427T176 385V17Q176 0 157 0H86V0Z" />
<glyph unicode="o" horiz-adv-x="599" d="M299 -10Q222 -10 164 24T74 120T42 262Q42 345 75 407T166 505T300 540Q378 540 435 505T525 407T557 263Q557 183 525 122T434 25T299 -10V-10ZM301 65Q348 65 381 89T431 157T449 265Q449 328 432 373T381 442T300
467Q253 467 220 443T168 373T150 265Q150 202 168 158T219 89T301 65V65Z" />
<glyph unicode="p" horiz-adv-x="601" d="M159 530Q176 530 176 514V475Q176 468 179 468T189 472Q202 485 221 500T269 528T342 540Q403 540 451 511T528 422T557 272Q557 180 529 118T450 23T332 -10Q288 -10 254 3T193 40Q184 49 180 48T176 34V-151Q176 -165
164 -165H83Q70 -165 70 -151V512Q70 522 74 526T89 530H159V530ZM176 123Q203 95 232 79T299 62Q344 62 377 85T430 154T449 272Q449 343 430 386T377 448T304 468Q267 468 238 452T193 412T176 364V123V123Z" />
<glyph unicode="q" horiz-adv-x="602" d="M515 530Q525 530 528 526T532 512V-150Q532 -165 519 -165H438Q426 -165 426 -150V32Q426 44 423 46T410 40Q384 20 347 5T267 -10Q198 -10 148 23T71 119T44 266Q44 349 71 410T149 506T271 540Q319 540 351 528T403
498T436 466Q445 457 448 469L456 512Q459 522 463 526T476 530H515ZM426 349Q426 382 410 409T365 454T298 471Q258 471 225 449T172 382T152 267Q152 199 170 154T222 85T298 62Q336 62 369 77T426 121V349Z" />
<glyph unicode="r" horiz-adv-x="396" d="M86 0Q78 0 74 4T70 16V515Q70 530 83 530H160Q172 530 172 517V454Q172 448 175 447T183 451Q208 481 233 500T285 530T337 540Q372 540 372 526V448Q372 436 361 438Q349 441 336 442T308 443Q287 443 264 434T222 410T189
375T176 336V17Q176 0 157 0H86V0Z" />
<glyph unicode="s" horiz-adv-x="517" d="M391 406Q372 434 338 452T257 470Q208 470 176 450T143 394Q143 377 157 360T217 330L340 295Q413 276 445 238T477 151Q477 101 449 66T370 10T254 -10Q172 -10 112 21T26 100Q24 106 24 110T28 118L77 144Q84 148 88
148T95 143Q111 120 132 102T183 74T255 63Q290 63 318 72T363 99T379 139Q379 163 360 180T291 211L189 237Q113 257 80 292T47 376Q47 425 73 461T146 519T258 540Q328 540 381 514T461 446Q464 442 465 438T460 429L408 402Q404 400 400 401T391 406V406Z" />
<glyph unicode="t" horiz-adv-x="401" d="M236 454Q227 454 227 444V151Q227 108 243 93T292 77H356Q362 77 365 74T368 65V22Q368 9 353 5Q340 3 321 2T284 1T251 0Q186 0 154 30T121 125V442Q121 454 111 454H36Q23 454 23 466V519Q23 530 35 530H115Q123 530
123 539L135 696Q136 710 147 710H216Q229 710 229 694V539Q229 530 238 530H358Q370 530 370 519V466Q370 454 356 454H236Z" />
<glyph unicode="u" horiz-adv-x="583" d="M262 70Q302 70 337 91T407 149V513Q407 530 426 530H498Q514 530 514 514L512 14Q512 0 500 0H422Q410 0 410 13V69Q410 74 408 75T400 72Q349 26 307 8T221 -10Q176 -10 141 9T85 63T64 145V512Q64 530 82 530H155Q170
530 170 514V167Q170 124 194 97T262 70V70Z" />
<glyph unicode="v" horiz-adv-x="555" d="M518 530Q526 530 529 525T529 513L327 17Q321 0 301 0H254Q234 0 227 16L26 512Q24 520 27 525T39 530H122Q128 530 133 527T139 517L283 155Q290 136 299 156L441 518Q444 523 448 526T459 530H518V530Z" />
<glyph unicode="w" horiz-adv-x="803" d="M763 530Q771 530 774 525T774 513L618 14Q616 6 612 3T598 0H540Q522 0 517 15L409 358Q405 367 402 367T396 358L291 14Q289 6 285 3T272 0H210Q192 0 188 15L29 512Q27 520 30 525T41 530H119Q125 530 130 527T137
517L247 161Q249 152 253 152T261 162L369 518Q371 524 375 527T386 530H444Q450 530 455 527T461 517L573 161Q576 152 580 152T587 162L693 518Q696 523 700 526T712 530H763V530Z" />
<glyph unicode="x" horiz-adv-x="559" d="M526 25Q536 11 535 6T521 0H433Q415 0 408 11L279 190Q273 199 270 199T259 190L125 11Q118 0 101 0H43Q31 0 27 6T34 29L211 254Q216 262 216 267T210 279L40 510Q35 517 38 523T51 530H134Q144 530 149 528T158 519L280
352Q288 340 295 352L413 519Q417 525 422 527T437 530H501Q511 530 512 525T509 513L346 295Q340 288 340 283T346 270L526 25V25Z" />
<glyph unicode="y" horiz-adv-x="541" d="M106 -165Q76 -165 61 -163T45 -150V-99Q45 -93 50 -89T73 -85H138Q159 -85 176 -73T205 -41T219 -2T217 35L26 511Q23 518 26 524T39 530H121Q127 530 132 527T138 517L276 157Q279 148 284 148T293 160L429 518Q431
523 435 526T445 530H504Q512 530 515 525T515 513L300 -32Q284 -73 265 -99T223 -139T172 -159T106 -165V-165Z" />
<glyph unicode="z" horiz-adv-x="493" d="M43 0Q35 0 32 3T29 14V46Q29 56 31 62T42 79L319 448Q327 459 313 459H64Q56 459 54 462T51 473V518Q51 530 62 530H446Q457 530 457 519V483Q457 474 455 468T446 453L167 84Q158 72 172 72H448Q461 72 461 60V14Q461
8 458 4T446 0H43V0Z" />
<glyph unicode="{" horiz-adv-x="324" d="M116 633Q116 668 134 692T184 729T254 742H299Q309 742 309 734V685Q309 676 299 676H271Q245 676 231 670T212 652T207 623V408Q207 370 192 346T154 310T105 294Q99 293 99 291T105 287Q130 285 153 274T191 239T207
172V-45Q207 -73 221 -86T272 -99H297Q309 -99 309 -110V-153Q309 -165 297 -165H256Q216 -165 184 -152T134 -114T116 -55V164Q116 188 105 210T69 246T7 260Q0 260 0 272V310Q0 322 7 322Q63 322 89 349T116 421V633V633Z" />
<glyph unicode="|" horiz-adv-x="258" d="M105 -165Q89 -165 89 -148L88 832Q88 840 91 843T102 847H155Q169 847 169 833V-153Q169 -165 157 -165H105Z" />
<glyph unicode="}" horiz-adv-x="324" d="M208 633V633V421Q208 376 234 349T317 322Q324 322 324 310V272Q324 260 317 260Q280 260 256 247T220 211T208 164V-55Q208 -89 190 -114T141 -152T69 -165H27Q15 -165 15 -153V-110Q15 -99 27 -99H52Q90 -99 103 -86T117
-45V172Q118 214 133 238T171 274T219 287Q226 288 226 290T219 294Q194 297 171 309T133 346T117 408V623Q117 640 112 651T94 669T53 676H25Q15 676 15 685V734Q15 742 25 742H71Q109 742 140 730T189 693T208 633Z" />
<glyph unicode="~" horiz-adv-x="581" d="M517 372Q499 345 466 328T390 311Q360 311 336 319T291 338T248 358T200 366Q164 366 139 350T95 314Q91 309 88 309T82 315L60 355Q56 364 65 371Q94 399 124 418T199 437Q229 437 252 429T297 410T341 391T389 382Q424
382 446 396T483 429Q493 441 501 427L520 392Q523 387 522 383T517 372V372Z" />
<glyph unicode="&#xa0;" horiz-adv-x="212" />
<glyph unicode="&#xa1;" horiz-adv-x="251" d="M187 415Q187 402 175 402H76Q64 402 64 417V514Q64 530 81 530H166Q187 530 187 512V415V415ZM188 -153Q189 -158 186 -161T177 -165H75Q70 -165 67 -162T64 -151L91 319Q91 327 94 330T106 333H143Q153 333 157
330T162 317L188 -153V-153Z" />
<glyph unicode="&#xa2;" horiz-adv-x="558" d="M331 20Q331 0 311 0H274Q256 0 256 18V135Q256 152 274 152H316Q331 152 331 137V20V20ZM331 610Q331 590 311 590H274Q256 590 256 608V725Q256 742 274 742H316Q331 742 331 727V610V610ZM297 651Q353 651 394
633T464 584T510 518Q516 504 503 501L432 489Q423 487 419 497Q402 523 385 540T348 567T302 577Q256 577 222 554T169 485T150 376Q150 312 169 267T223 198T306 174Q353 174 385 198T444 266Q447 270 449 271T458 270L511 254Q519 251 515 239Q503 214 484 189T438
145T376 113T297 101Q222 101 165 135T75 231T42 374Q42 456 75 518T165 615T297 651V651Z" />
<glyph unicode="&#xa3;" horiz-adv-x="625" d="M24 0Q12 0 12 13V80Q12 90 22 90H50Q89 90 115 122T142 223Q142 244 140 273T131 344Q130 352 123 352H34Q26 352 26 361V408Q26 417 34 417H108Q118 417 117 426L104 503Q92 562 105 608T150 686T225 735T318 752Q363
752 405 738T481 697T530 633Q532 627 529 625T521 620L451 598Q440 594 435 602Q422 629 398 646T332 663Q300 663 275 651T234 614T218 554Q218 524 225 488T239 426Q241 417 248 417H395Q403 417 403 410V361Q403 352 395 352H260Q250 352 251 344Q254 316 255
290T254 237Q252 198 244 171T224 127T205 101Q200 96 201 94T208 91H365Q413 91 443 107T490 163Q494 173 506 171L569 155Q583 151 580 140Q558 71 504 36T371 0H24V0Z" />
<glyph unicode="&#xa4;" horiz-adv-x="549" d="M275 172Q214 172 166 204Q157 209 152 202L105 155Q96 147 85 156L55 187Q46 196 55 205L102 252Q108 259 102 269Q88 292 81 317T73 373Q73 403 81 429T104 480Q108 488 103 494L56 541Q48 550 56 560L87 591Q96
601 105 591L153 544Q158 538 167 543Q190 557 217 565T273 574Q333 574 382 541Q390 538 394 542L443 592Q450 598 455 592L492 553Q498 547 492 541L442 492Q438 488 442 481Q457 458 465 431T474 373Q474 344 466 316T442 265Q438 259 442 255L492 205Q498 199
493 193L456 155Q450 149 444 155L395 204Q390 209 384 206Q360 190 333 181T275 172V172ZM275 249Q310 249 338 266T382 311T399 373Q399 406 383 434T338 480T275 497Q240 497 212 480T167 435T151 373Q151 340 167 312T211 266T275 249V249Z" />
<glyph unicode="&#xa5;" horiz-adv-x="624" d="M610 742Q619 742 621 738T620 726L384 337Q379 330 378 323T377 298V20Q377 0 355 0H274Q264 0 261 4T257 17V294Q257 306 255 311T248 324L9 723Q5 731 8 736T21 742H120Q130 742 134 739T144 728L317 426Q322
417 325 417T334 425L509 728Q514 737 518 739T533 742H610V742ZM533 301Q533 285 514 285L116 284Q108 284 105 287T101 299V335Q101 348 112 348L522 349Q533 349 533 337V301ZM533 149Q533 133 514 133L116 132Q108 132 105 135T101 146V182Q101 196 112 196L522
197Q533 197 533 185V149Z" />
<glyph unicode="&#xa6;" horiz-adv-x="258" d="M105 435Q89 435 89 451L88 832Q88 840 91 843T102 847H155Q169 847 169 833V447Q169 435 157 435H105ZM105 -165Q89 -165 89 -148L88 232Q88 240 91 243T102 247H155Q169 247 169 234V-153Q169 -165 157 -165H105Z" />
<glyph unicode="&#xa7;" horiz-adv-x="493" d="M367 208Q414 182 437 151T460 78Q460 34 436 0T365 -55T254 -75Q179 -75 121 -45T37 30Q33 38 34 42T37 47L89 74Q95 78 99 77T106 70Q129 39 165 18T254 -4Q301 -4 332 14T363 66Q363 91 343 112T268 155L181 188Q108
216 75 252T42 341Q42 388 70 422T141 475Q104 495 83 516T54 559T46 605Q46 647 70 680T138 732T242 752Q310 752 361 724T436 658Q441 651 440 647T435 641L385 615Q379 613 375 614T366 619Q345 645 316 663T247 681Q199 681 172 663T144 615Q144 595 159 576T221
538L303 506Q385 473 420 434T456 340Q456 290 430 259T367 208V208ZM279 247Q304 246 323 255T353 282T365 321Q365 349 350 372T279 417L226 438Q199 436 178 424T145 394T133 356Q133 329 149 312T220 271L279 247V247Z" />
<glyph unicode="&#xa8;" horiz-adv-x="284" d="M110 642Q110 633 106 629T91 625H25Q16 625 13 628T10 640V728Q10 742 22 742H98Q110 742 110 729V642ZM274 642Q274 633 270 629T255 625H190Q180 625 177 628T174 640V728Q174 742 186 742H262Q274 742 274 729V642Z" />
<glyph unicode="&#xa9;" horiz-adv-x="830" d="M415 -10Q336 -10 267 19T146 101T64 222T34 371Q34 450 63 519T145 640T267 722T415 752Q494 752 563 723T684 641T766 519T796 371Q796 292 767 223T685 101T563 20T415 -10V-10ZM415 58Q479 58 535 79T633 142T699
241T723 371Q723 442 700 499T634 599T535 663T415 685Q349 685 293 663T195 599T130 500T107 371Q107 299 130 242T195 143T293 80T415 58V58ZM417 588Q461 588 493 573T548 533T585 480Q587 474 585 472T579 468L519 456Q513 454 509 463Q494 489 473 507T421
525Q372 525 341 486T309 374Q309 301 341 262T425 222Q462 222 487 242T530 293Q533 299 542 296L583 283Q590 281 587 271Q578 251 563 232T527 197T479 170T417 160Q359 160 315 186T245 261T220 372Q220 436 245 484T315 560T417 588V588Z" />
<glyph unicode="&#xaa;" horiz-adv-x="398" d="M186 750Q258 750 290 721T322 640V473Q322 459 323 449T330 424Q333 417 328 415T314 412H269Q263 412 261 414T257 422L253 446Q252 454 241 447Q217 426 195 416T141 406Q89 406 61 431T32 499Q32 548 74 576T200
612L241 616Q252 617 252 625V639Q252 699 183 699Q159 699 140 691T106 658Q103 652 95 654L47 666Q44 668 44 672T45 679Q62 713 96 731T186 750V750ZM104 503Q104 482 121 469T168 456Q204 456 230 479Q241 489 246 498T252 518V561Q252 573 241 572L206 568Q159
565 132 548T104 503V503Z" />
<glyph unicode="&#xab;" horiz-adv-x="459" d="M408 79Q412 71 397 71H360Q352 71 349 77L230 244Q221 257 229 269L349 446Q352 451 354 451T360 452H400Q404 452 407 450T408 441L317 266Q313 256 317 248L408 79ZM224 79Q228 71 213 71H176Q168 71 165 77L46
244Q37 257 45 269L165 446Q168 451 170 451T177 452H216Q220 452 223 450T224 441L133 266Q129 256 133 248L224 79Z" />
<glyph unicode="&#xac;" horiz-adv-x="565" d="M509 349Q509 333 489 333L73 332Q65 332 62 335T58 347V399Q58 413 68 413H497Q509 413 509 402V349ZM509 199Q509 184 492 184H435Q421 184 421 196L420 376Q420 388 431 388H497Q509 388 509 375V199Z" />
<glyph unicode="&#xad;" horiz-adv-x="381" d="M323 240Q323 224 303 224H73Q65 224 62 227T58 238V291Q58 305 69 305H311Q323 305 323 294V240Z" />
<glyph unicode="&#xae;" horiz-adv-x="545" d="M273 275Q207 275 153 307T66 393T34 513Q34 579 66 633T152 719T273 752Q339 752 393 720T479 633T511 513Q511 447 479 393T393 307T273 275V275ZM273 325Q328 325 369 348T434 413T458 513Q458 570 435 612T370
678T273 702Q218 702 176 679T111 613T87 513Q87 456 110 414T176 348T273 325V325ZM366 400Q367 398 366 396T361 393H322Q318 393 316 398L280 497Q279 499 278 500T271 501H231Q227 501 227 497V399Q227 393 221 393H185Q180 393 180 398V625Q180 630 184 630H288Q327
630 349 615T371 569Q371 542 357 528T325 507Q323 507 324 503L366 400V400ZM282 537Q299 537 310 543T322 565Q322 578 313 586T280 594H232Q229 594 228 594T227 590V541Q227 537 231 537H282V537Z" />
<glyph unicode="&#xaf;" horiz-adv-x="338" d="M328 672Q328 657 310 657H24Q16 657 13 660T10 671V718Q10 730 20 730H318Q328 730 328 719V672Z" />
<glyph unicode="&#xb0;" horiz-adv-x="464" d="M395 694Q395 647 374 610T316 552T232 531Q185 531 148 552T90 610T69 694Q69 742 90 779T148 837T232 858Q279 858 315 837T373 779T395 694V694ZM324 693Q324 736 299 763T230 790Q188 790 162 763T137 693Q138
650 163 623T231 596Q274 596 299 623T324 693V693Z" />
<glyph unicode="&#xb1;" horiz-adv-x="565" d="M509 72Q509 56 489 56L73 55Q65 55 62 58T58 69V122Q58 135 68 135L497 136Q509 136 509 124V72ZM509 430Q509 413 489 413H73Q65 413 62 416T58 427V480Q58 493 68 493L497 494Q509 494 509 482V430ZM260 228Q243
228 243 247V663Q243 673 246 676T257 679H310Q323 679 323 668V240Q323 228 311 228H260Z" />
<glyph unicode="&#xb2;" horiz-adv-x="452" d="M196 581Q233 615 254 639T283 683T292 724Q292 749 280 765T248 791T206 800Q180 800 153 786T104 736Q99 728 90 735L53 754Q48 758 48 762T50 771Q80 815 122 836T212 857Q255 857 290 842T345 797T366 723Q366
696 357 672T325 623T268 566L144 455Q141 452 142 450T148 447H361Q371 447 371 439V393Q371 384 362 384H58Q52 384 50 386T47 395V428Q47 435 50 440T67 457L196 581Z" />
<glyph unicode="&#xb3;" horiz-adv-x="467" d="M74 783Q70 788 74 794Q102 825 141 841T225 857Q301 857 344 823T388 737Q388 705 368 678T310 638Q303 635 303 633T310 628Q349 617 375 587T402 515Q402 454 356 416T217 378Q167 378 126 396T55 448Q52 451
52 454T57 461L91 487Q98 492 102 487Q131 458 158 446T222 434Q272 434 299 456T327 512Q327 540 312 559T272 588T219 598L163 599Q155 599 155 606V646Q155 653 163 654L208 655Q253 656 283 678T314 734Q314 763 289 782T225 802Q194 802 168 790T116 755Q112
751 110 751T103 754L74 783V783Z" />
<glyph unicode="&#xb4;" horiz-adv-x="292" d="M283 694Q288 679 271 674L42 608Q34 606 30 607T23 616L14 642Q10 655 19 658L253 752Q262 756 266 745L283 694Z" />
<glyph unicode="&#xb5;" horiz-adv-x="583" d="M263 70Q301 70 337 91T407 149V513Q407 530 426 530H498Q514 530 514 514L512 14Q512 0 500 0H422Q410 0 410 13V69Q410 75 408 76T400 73Q356 34 322 16T251 -6Q225 -8 205 -4T170 13V-146Q170 -157 166 -161T149
-165H81Q64 -165 64 -149V512Q64 530 82 530H155Q170 530 170 514V154Q170 131 182 112T216 82T263 70V70Z" />
<glyph unicode="&#xb6;" horiz-adv-x="574" d="M455 678Q447 678 447 670V-75Q447 -78 446 -81T439 -85H389Q379 -85 379 -75V671Q379 678 370 678H333Q326 678 326 670V-75Q326 -85 316 -85H266Q256 -85 256 -75V300Q256 306 250 306Q188 309 141 336T68 411T42
519Q42 577 68 628T147 710T278 742H501Q510 742 510 734V685Q510 678 501 678H455Z" />
<glyph unicode="&#xb7;" horiz-adv-x="216" d="M169 331Q169 313 150 313H60Q45 313 45 328V420Q45 434 56 434H159Q169 434 169 421V331Z" />
<glyph unicode="&#xb8;" horiz-adv-x="234" d="M224 -132Q224 -158 209 -176T168 -203T110 -213Q84 -213 60 -208T15 -190Q9 -186 11 -180L23 -151Q26 -146 32 -149Q45 -157 61 -163T98 -169Q125 -169 138 -160T152 -132Q152 -111 133 -100T70 -88Q64 -88 63 -87T63
-81L100 5H153L131 -50Q129 -56 136 -56Q169 -58 188 -69T216 -98T224 -132V-132Z" />
<glyph unicode="&#xb9;" horiz-adv-x="367" d="M274 438Q283 438 283 431V388Q283 380 274 380H44Q36 380 36 388V431Q36 438 44 438H119Q124 438 124 442V762Q124 769 118 768L45 742Q35 740 35 751V782Q35 786 36 788T42 792L140 841Q146 844 150 845T160 847H192Q200
847 200 838V443Q200 438 205 438H274V438Z" />
<glyph unicode="&#xba;" horiz-adv-x="407" d="M203 751Q253 751 289 729T346 668T366 577Q366 528 347 490T291 429T203 407Q153 407 117 429T61 489T42 577Q42 629 62 668T118 729T203 751V751ZM203 699Q161 699 140 668T118 580Q118 523 139 492T203 460Q247
460 268 491T290 580Q290 636 269 667T203 699V699Z" />
<glyph unicode="&#xbb;" horiz-adv-x="458" d="M141 248Q146 257 141 266L51 441Q48 447 51 449T59 452H98Q102 452 104 452T109 446L230 269Q237 257 229 244L110 77Q106 71 98 71H61Q48 71 50 79L141 248V248ZM325 248Q330 257 325 266L235 441Q232 447 235
449T243 452H282Q285 452 287 452T293 446L414 269Q422 257 413 244L293 77Q290 71 282 71H245Q231 71 234 79L325 248V248Z" />
<glyph unicode="&#xbc;" horiz-adv-x="907" d="M276 334Q285 334 285 327V284Q285 276 276 276H46Q38 276 38 284V327Q38 334 46 334H121Q126 334 126 338V658Q126 665 120 664L47 638Q37 636 37 647V678Q37 682 38 684T44 688L142 737Q148 740 152 741T162 743H194Q202
743 202 734V339Q202 334 207 334H276V334ZM257 6Q251 -4 237 -4H206Q195 -4 194 3T197 18L678 742Q682 748 686 749T696 750H735Q741 750 744 748T742 737L257 6ZM710 459Q714 463 718 465T729 467H783Q791 467 791 458V181Q791 175 797 175H854Q863 175 863 168V130Q863
121 853 121H797Q791 121 791 114V11Q791 0 779 0H724Q714 0 714 10V116Q714 121 708 121H509Q499 121 499 130V168Q499 173 501 178T510 192L710 459V459ZM708 175Q714 175 714 179V373Q714 381 712 381T705 375L564 183Q559 175 569 175H708Z" />
<glyph unicode="&#xbd;" horiz-adv-x="963" d="M274 334Q283 334 283 327V284Q283 276 274 276H44Q36 276 36 284V327Q36 334 44 334H119Q124 334 124 338V658Q124 665 118 664L45 638Q35 636 35 647V678Q35 682 36 684T42 688L140 737Q146 740 150 741T160 743H192Q200
743 200 734V339Q200 334 205 334H274V334ZM245 6Q239 -4 225 -4H194Q183 -4 182 3T185 18L666 742Q670 748 674 749T684 750H723Q729 750 732 748T730 737L245 6ZM728 197Q765 231 786 255T815 299T824 340Q824 365 812 381T780 407T738 416Q712 416 685 402T636
352Q631 344 622 351L585 370Q580 374 580 378T582 387Q612 431 654 452T744 473Q787 473 822 458T877 413T898 339Q898 312 889 288T857 239T800 182L676 71Q673 68 674 66T680 63H893Q903 63 903 55V9Q903 0 894 0H590Q584 0 582 2T579 11V44Q579 51 582 56T599
73L728 197Z" />
<glyph unicode="&#xbe;" horiz-adv-x="957" d="M60 678Q56 683 60 689Q88 720 127 736T211 752Q287 752 330 718T374 632Q374 600 354 573T296 533Q289 530 289 528T296 523Q335 512 361 482T388 410Q388 349 342 311T203 273Q153 273 112 291T41 343Q38 346 38
349T43 356L77 382Q84 387 88 382Q117 353 144 341T208 329Q258 329 285 351T313 407Q313 435 298 454T258 483T205 493L149 494Q141 494 141 501V541Q141 548 149 549L194 550Q239 551 269 573T300 629Q300 658 275 677T211 697Q180 697 154 685T102 650Q98 646
96 646T89 649L60 678V678ZM315 6Q309 -4 295 -4H264Q253 -4 252 3T255 18L736 742Q740 748 744 749T754 750H793Q799 750 802 748T800 737L315 6ZM767 459Q771 463 775 465T786 467H840Q848 467 848 458V181Q848 175 854 175H911Q920 175 920 168V130Q920 121
910 121H854Q848 121 848 114V11Q848 0 836 0H781Q771 0 771 10V116Q771 121 765 121H566Q556 121 556 130V168Q556 173 558 178T567 192L767 459V459ZM765 175Q771 175 771 179V373Q771 381 769 381T762 375L621 183Q616 175 626 175H765Z" />
<glyph unicode="&#xbf;" horiz-adv-x="522" d="M213 512Q213 530 234 530H319Q328 530 332 526T336 514V417Q336 402 324 402H224Q213 402 213 415V512ZM493 -19Q499 -21 500 -26T499 -35Q468 -101 404 -138T257 -175Q184 -175 132 -152T54 -89T27 3Q27 43 41
71T79 121T128 163T177 204T214 254T229 320Q229 326 233 330T244 335H303Q318 335 318 318Q318 274 305 242T271 185T227 141T182 102T148 60T134 7Q134 -38 168 -66T258 -95Q289 -95 319 -83T373 -51T408 -6Q411 -1 413 0T423 0L493 -19Z" />
<glyph unicode="&#xc0;" horiz-adv-x="741" d="M53 0Q46 0 43 6T43 21L298 726Q301 735 306 738T320 742H421Q440 742 446 725L699 20Q702 13 699 7T688 0H594Q581 0 577 12L513 190Q512 195 510 197T501 199H224Q215 199 212 191L147 10Q145 5 142 3T130 0H53V0ZM470
293Q483 293 478 307L370 607Q366 615 363 615T356 606L245 306Q240 293 252 293H470ZM256 956Q261 967 270 963L503 869Q512 865 508 853L499 827Q497 820 493 819T480 818L251 885Q234 890 239 905L256 956V956Z" />
<glyph unicode="&#xc1;" horiz-adv-x="741" d="M53 0Q46 0 43 6T43 21L298 726Q301 735 306 738T320 742H421Q440 742 446 725L699 20Q702 13 699 7T688 0H594Q581 0 577 12L513 190Q512 195 510 197T501 199H224Q215 199 212 191L147 10Q145 5 142 3T130 0H53V0ZM470
293Q483 293 478 307L370 607Q366 615 363 615T356 606L245 306Q240 293 252 293H470ZM505 906Q510 891 493 886L264 820Q256 818 252 819T245 828L236 854Q232 867 241 870L475 964Q484 968 488 957L505 906Z" />
<glyph unicode="&#xc2;" horiz-adv-x="741" d="M53 0Q46 0 43 6T43 21L298 726Q301 735 306 738T320 742H421Q440 742 446 725L699 20Q702 13 699 7T688 0H594Q581 0 577 12L513 190Q512 195 510 197T501 199H224Q215 199 212 191L147 10Q145 5 142 3T130 0H53V0ZM470
293Q483 293 478 307L370 607Q366 615 363 615T356 606L245 306Q240 293 252 293H470ZM380 894Q371 903 368 903T354 894L299 843Q293 838 290 837T279 836H217Q210 836 210 839T214 849L319 947Q325 952 330 955T346 958H396Q404 958 408 955T417 948L520 849Q534
836 519 836H451Q445 836 441 837T431 843L380 894Z" />
<glyph unicode="&#xc3;" horiz-adv-x="741" d="M53 0Q46 0 43 6T43 21L298 726Q301 735 306 738T320 742H421Q440 742 446 725L699 20Q702 13 699 7T688 0H594Q581 0 577 12L513 190Q512 195 510 197T501 199H224Q215 199 212 191L147 10Q145 5 142 3T130 0H53V0ZM470
293Q483 293 478 307L370 607Q366 615 363 615T356 606L245 306Q240 293 252 293H470ZM518 882Q506 874 486 867T438 859Q410 859 389 865T348 878T304 885Q282 885 269 879T242 863Q236 860 232 860T226 869L215 901Q213 906 213 910T219 918Q236 931 254 940T299
950Q326 950 349 943T393 929T438 922Q458 922 472 928T499 943Q505 946 509 946T516 937L527 900Q530 890 518 882V882Z" />
<glyph unicode="&#xc4;" horiz-adv-x="741" d="M53 0Q46 0 43 6T43 21L298 726Q301 735 306 738T320 742H421Q440 742 446 725L699 20Q702 13 699 7T688 0H594Q581 0 577 12L513 190Q512 195 510 197T501 199H224Q215 199 212 191L147 10Q145 5 142 3T130 0H53V0ZM470
293Q483 293 478 307L370 607Q366 615 363 615T356 606L245 306Q240 293 252 293H470ZM336 854Q336 845 332 841T317 837H251Q242 837 239 840T236 852V940Q236 954 248 954H324Q336 954 336 941V854ZM500 854Q500 845 496 841T481 837H416Q406 837 403 840T400
852V940Q400 954 412 954H488Q500 954 500 941V854Z" />
<glyph unicode="&#xc5;" horiz-adv-x="741" d="M53 0Q46 0 43 6T43 21L298 726Q301 735 306 738T320 742H421Q440 742 446 725L699 20Q702 13 699 7T688 0H594Q581 0 577 12L513 190Q512 195 510 197T501 199H224Q215 199 212 191L147 10Q145 5 142 3T130 0H53V0ZM470
293Q483 293 478 307L370 607Q366 615 363 615T356 606L245 306Q240 293 252 293H470ZM475 857Q475 811 444 781T368 750Q323 750 292 781T261 859Q261 888 275 911T314 948T368 962Q398 962 422 948T460 911T475 857V857ZM421 856Q421 880 406 895T367 910Q346
910 329 895T312 856Q312 835 329 818T367 801Q390 801 405 818T421 856V856Z" />
<glyph unicode="&#xc6;" horiz-adv-x="1031" d="M973 91Q986 91 986 79V13Q986 7 983 4T972 0H517Q500 0 500 16V191Q500 199 492 199H260Q250 199 246 191L146 10Q143 5 139 3T128 0H51Q44 0 42 6T44 21L433 726Q437 735 442 738T457 742H962Q974 742 974 729V666Q974
651 958 651H636Q621 651 621 638V432Q621 419 634 419H866Q879 419 879 407V340Q879 335 877 332T867 329H633Q621 329 621 318V102Q621 91 631 91H973V91ZM488 293Q500 293 500 306V619Q500 634 492 634T475 619L299 306Q291 293 303 293H488V293Z" />
<glyph unicode="&#xc7;" horiz-adv-x="712" d="M379 752Q432 752 479 736T565 690T627 624T659 542Q661 531 659 528T650 523L557 517Q551 516 549 519T545 528Q532 588 490 626T383 664Q288 664 237 592T185 372Q185 226 235 154T387 82Q454 82 499 114T574 221Q577
228 589 226L660 209Q663 208 666 205T667 192Q660 166 644 138T604 84T547 36T473 3T382 -10Q281 -10 209 37T97 170T58 373Q58 491 97 576T208 706T379 752V752ZM482 -132Q482 -158 467 -176T426 -203T368 -213Q342 -213 318 -208T273 -190Q267 -186 269 -180L281
-151Q284 -146 290 -149Q303 -157 319 -163T356 -169Q383 -169 396 -160T410 -132Q410 -111 391 -100T328 -88Q322 -88 321 -87T321 -81L358 5H411L389 -50Q387 -56 394 -56Q427 -58 446 -69T474 -98T482 -132V-132Z" />
<glyph unicode="&#xc8;" horiz-adv-x="636" d="M88 727Q88 742 102 742H568Q580 742 580 729L579 666Q579 651 564 651H224Q209 651 209 638V432Q209 419 222 419H466Q479 419 479 407V340Q479 335 477 332T466 329H221Q209 329 209 318V102Q209 91 219 91H578Q592
91 592 79V13Q592 7 589 4T578 0H105Q88 0 88 16V727V727ZM228 956Q233 967 242 963L475 869Q484 865 480 853L471 827Q469 820 465 819T452 818L223 885Q206 890 211 905L228 956V956Z" />
<glyph unicode="&#xc9;" horiz-adv-x="636" d="M88 727Q88 742 102 742H568Q580 742 580 729L579 666Q579 651 564 651H224Q209 651 209 638V432Q209 419 222 419H466Q479 419 479 407V340Q479 335 477 332T466 329H221Q209 329 209 318V102Q209 91 219 91H578Q592
91 592 79V13Q592 7 589 4T578 0H105Q88 0 88 16V727V727ZM478 906Q483 891 466 886L237 820Q229 818 225 819T218 828L209 854Q205 867 214 870L448 964Q457 968 461 957L478 906Z" />
<glyph unicode="&#xca;" horiz-adv-x="636" d="M88 727Q88 742 102 742H568Q580 742 580 729L579 666Q579 651 564 651H224Q209 651 209 638V432Q209 419 222 419H466Q479 419 479 407V340Q479 335 477 332T466 329H221Q209 329 209 318V102Q209 91 219 91H578Q592
91 592 79V13Q592 7 589 4T578 0H105Q88 0 88 16V727V727ZM353 894Q344 903 341 903T327 894L272 843Q266 838 263 837T252 836H190Q183 836 183 839T187 849L292 947Q298 952 303 955T319 958H369Q377 958 381 955T390 948L493 849Q507 836 492 836H424Q418 836
414 837T404 843L353 894Z" />
<glyph unicode="&#xcb;" horiz-adv-x="636" d="M88 727Q88 742 102 742H568Q580 742 580 729L579 666Q579 651 564 651H224Q209 651 209 638V432Q209 419 222 419H466Q479 419 479 407V340Q479 335 477 332T466 329H221Q209 329 209 318V102Q209 91 219 91H578Q592
91 592 79V13Q592 7 589 4T578 0H105Q88 0 88 16V727V727ZM309 854Q309 845 305 841T290 837H224Q215 837 212 840T209 852V940Q209 954 221 954H297Q309 954 309 941V854ZM473 854Q473 845 469 841T454 837H389Q379 837 376 840T373 852V940Q373 954 385 954H461Q473
954 473 941V854Z" />
<glyph unicode="&#xcc;" horiz-adv-x="298" d="M196 742Q209 742 209 727V19Q209 8 205 4T188 0H106Q95 0 92 3T88 16V727Q88 742 102 742H196ZM38 956Q43 967 52 963L285 869Q294 865 290 853L281 827Q279 820 275 819T262 818L33 885Q16 890 21 905L38 956V956Z" />
<glyph unicode="&#xcd;" horiz-adv-x="298" d="M196 742Q209 742 209 727V19Q209 8 205 4T188 0H106Q95 0 92 3T88 16V727Q88 742 102 742H196ZM288 906Q293 891 276 886L47 820Q39 818 35 819T28 828L19 854Q15 867 24 870L258 964Q267 968 271 957L288 906Z" />
<glyph unicode="&#xce;" horiz-adv-x="298" d="M196 742Q209 742 209 727V19Q209 8 205 4T188 0H106Q95 0 92 3T88 16V727Q88 742 102 742H196ZM163 894Q154 903 151 903T137 894L82 843Q76 838 73 837T62 836H0Q-7 836 -7 839T-3 849L102 947Q108 952 113 955T129
958H179Q187 958 191 955T200 948L303 849Q317 836 302 836H234Q228 836 224 837T214 843L163 894Z" />
<glyph unicode="&#xcf;" horiz-adv-x="298" d="M196 742Q209 742 209 727V19Q209 8 205 4T188 0H106Q95 0 92 3T88 16V727Q88 742 102 742H196ZM118 854Q118 845 114 841T99 837H33Q24 837 21 840T18 852V940Q18 954 30 954H106Q118 954 118 941V854ZM282 854Q282
845 278 841T263 837H198Q188 837 185 840T182 852V940Q182 954 194 954H270Q282 954 282 941V854Z" />
<glyph unicode="&#xd0;" horiz-adv-x="739" d="M379 346Q379 328 358 328H47Q37 328 34 332T30 344V396Q30 411 42 411H368Q379 411 379 398V346ZM114 742Q125 742 149 742T202 742T255 741T291 741Q428 739 514 696T641 572T681 376Q681 254 638 170T506 43T282
0H114Q97 0 97 18V726Q97 735 101 738T114 742V742ZM227 653Q217 653 217 639V100Q217 88 230 88H262Q364 88 428 116T524 206T555 372Q555 478 524 539T430 626T268 653H227V653Z" />
<glyph unicode="&#xd1;" horiz-adv-x="757" d="M658 742Q669 742 669 729V13Q669 7 665 4T654 0H589Q582 0 577 1T567 10L202 534Q197 541 194 540T191 533V14Q191 0 175 0H104Q88 0 88 14V727Q88 742 103 742H181Q189 742 193 740T203 730L553 223Q559 215 563
216T568 225V728Q568 742 582 742H658ZM538 882Q526 874 506 867T458 859Q430 859 409 865T368 878T324 885Q302 885 289 879T262 863Q256 860 252 860T246 869L235 901Q233 906 233 910T239 918Q256 931 274 940T319 950Q346 950 369 943T413 929T458 922Q478
922 492 928T519 943Q525 946 529 946T536 937L547 900Q550 890 538 882V882Z" />
<glyph unicode="&#xd2;" horiz-adv-x="767" d="M384 -10Q283 -10 210 34T98 163T59 368Q59 489 99 575T212 706T385 752Q484 752 556 707T668 576T708 369Q708 249 669 165T557 35T384 -10V-10ZM385 79Q485 79 533 148T582 368Q582 520 533 592T385 664Q285 664
235 592T185 368Q185 219 235 149T385 79V79ZM272 956Q277 967 286 963L519 869Q528 865 524 853L515 827Q513 820 509 819T496 818L267 885Q250 890 255 905L272 956V956Z" />
<glyph unicode="&#xd3;" horiz-adv-x="767" d="M384 -10Q283 -10 210 34T98 163T59 368Q59 489 99 575T212 706T385 752Q484 752 556 707T668 576T708 369Q708 249 669 165T557 35T384 -10V-10ZM385 79Q485 79 533 148T582 368Q582 520 533 592T385 664Q285 664
235 592T185 368Q185 219 235 149T385 79V79ZM522 906Q527 891 510 886L281 820Q273 818 269 819T262 828L253 854Q249 867 258 870L492 964Q501 968 505 957L522 906Z" />
<glyph unicode="&#xd4;" horiz-adv-x="767" d="M384 -10Q283 -10 210 34T98 163T59 368Q59 489 99 575T212 706T385 752Q484 752 556 707T668 576T708 369Q708 249 669 165T557 35T384 -10V-10ZM385 79Q485 79 533 148T582 368Q582 520 533 592T385 664Q285 664
235 592T185 368Q185 219 235 149T385 79V79ZM397 894Q388 903 385 903T371 894L316 843Q310 838 307 837T296 836H234Q227 836 227 839T231 849L336 947Q342 952 347 955T363 958H413Q421 958 425 955T434 948L537 849Q551 836 536 836H468Q462 836 458 837T448
843L397 894Z" />
<glyph unicode="&#xd5;" horiz-adv-x="767" d="M384 -10Q283 -10 210 34T98 163T59 368Q59 489 99 575T212 706T385 752Q484 752 556 707T668 576T708 369Q708 249 669 165T557 35T384 -10V-10ZM385 79Q485 79 533 148T582 368Q582 520 533 592T385 664Q285 664
235 592T185 368Q185 219 235 149T385 79V79ZM534 882Q522 874 502 867T454 859Q426 859 405 865T364 878T320 885Q298 885 285 879T258 863Q252 860 248 860T242 869L231 901Q229 906 229 910T235 918Q252 931 270 940T315 950Q342 950 365 943T409 929T454 922Q474
922 488 928T515 943Q521 946 525 946T532 937L543 900Q546 890 534 882V882Z" />
<glyph unicode="&#xd6;" horiz-adv-x="767" d="M384 -10Q283 -10 210 34T98 163T59 368Q59 489 99 575T212 706T385 752Q484 752 556 707T668 576T708 369Q708 249 669 165T557 35T384 -10V-10ZM385 79Q485 79 533 148T582 368Q582 520 533 592T385 664Q285 664
235 592T185 368Q185 219 235 149T385 79V79ZM352 854Q352 845 348 841T333 837H267Q258 837 255 840T252 852V940Q252 954 264 954H340Q352 954 352 941V854ZM516 854Q516 845 512 841T497 837H432Q422 837 419 840T416 852V940Q416 954 428 954H504Q516 954 516
941V854Z" />
<glyph unicode="&#xd7;" horiz-adv-x="551" d="M448 167Q436 156 422 169L69 522Q63 528 63 533T69 543L106 581Q116 591 123 583L485 221Q488 217 488 213T485 205L448 167ZM71 201Q59 212 73 226L425 580Q432 586 436 586T447 580L484 543Q493 534 486 526L124
164Q116 156 107 164L71 201Z" />
<glyph unicode="&#xd8;" horiz-adv-x="740" d="M722 710Q731 701 722 692L641 604Q667 559 681 500T695 369Q695 249 656 165T544 35T370 -10Q301 -10 245 11T148 74L82 1Q75 -7 68 -7T53 0L27 26Q13 40 23 50L100 134Q73 179 59 238T45 368Q45 489 85 575T198
706T371 752Q440 752 496 730T594 665L665 742Q676 754 685 746L722 710V710ZM173 368Q173 326 178 292T195 230L519 590Q471 663 371 663Q271 663 222 591T173 368V368ZM567 368Q567 410 562 445T545 507L222 149Q271 80 372 80Q471 80 519 149T567 368V368Z"
/>
<glyph unicode="&#xd9;" horiz-adv-x="713" d="M633 256Q633 162 601 103T507 17T356 -10Q258 -10 197 21T108 116T79 273V726Q79 742 92 742H187Q200 742 200 727V252Q200 164 242 122T365 80Q418 80 455 98T513 155T533 255V727Q533 742 545 742H621Q633 742
633 728V256V256ZM253 956Q258 967 267 963L500 869Q509 865 505 853L496 827Q494 820 490 819T477 818L248 885Q231 890 236 905L253 956V956Z" />
<glyph unicode="&#xda;" horiz-adv-x="713" d="M633 256Q633 162 601 103T507 17T356 -10Q258 -10 197 21T108 116T79 273V726Q79 742 92 742H187Q200 742 200 727V252Q200 164 242 122T365 80Q418 80 455 98T513 155T533 255V727Q533 742 545 742H621Q633 742
633 728V256V256ZM503 906Q508 891 491 886L262 820Q254 818 250 819T243 828L234 854Q230 867 239 870L473 964Q482 968 486 957L503 906Z" />
<glyph unicode="&#xdb;" horiz-adv-x="713" d="M633 256Q633 162 601 103T507 17T356 -10Q258 -10 197 21T108 116T79 273V726Q79 742 92 742H187Q200 742 200 727V252Q200 164 242 122T365 80Q418 80 455 98T513 155T533 255V727Q533 742 545 742H621Q633 742
633 728V256V256ZM378 894Q369 903 366 903T352 894L297 843Q291 838 288 837T277 836H215Q208 836 208 839T212 849L317 947Q323 952 328 955T344 958H394Q402 958 406 955T415 948L518 849Q532 836 517 836H449Q443 836 439 837T429 843L378 894Z" />
<glyph unicode="&#xdc;" horiz-adv-x="713" d="M633 256Q633 162 601 103T507 17T356 -10Q258 -10 197 21T108 116T79 273V726Q79 742 92 742H187Q200 742 200 727V252Q200 164 242 122T365 80Q418 80 455 98T513 155T533 255V727Q533 742 545 742H621Q633 742
633 728V256V256ZM333 854Q333 845 329 841T314 837H248Q239 837 236 840T233 852V940Q233 954 245 954H321Q333 954 333 941V854ZM497 854Q497 845 493 841T478 837H413Q403 837 400 840T397 852V940Q397 954 409 954H485Q497 954 497 941V854Z" />
<glyph unicode="&#xdd;" horiz-adv-x="694" d="M644 742Q653 742 655 738T654 726L417 332Q412 326 411 319T410 293V20Q410 0 388 0H307Q297 0 294 4T290 17V292Q290 303 288 309T281 322L41 723Q36 731 39 736T53 742H149Q160 742 164 739T173 728L347 427Q353
416 358 416T368 425L541 728Q546 737 550 739T564 742H644V742ZM488 906Q493 891 476 886L247 820Q239 818 235 819T228 828L219 854Q215 867 224 870L458 964Q467 968 471 957L488 906Z" />
<glyph unicode="&#xde;" horiz-adv-x="703" d="M654 383Q654 309 620 261T526 189T388 166H219Q209 166 209 156V17Q209 0 191 0H104Q95 0 92 3T88 15V727Q88 742 102 742H196Q209 742 209 727V599Q209 591 217 591H374Q454 591 517 569T617 501T654 383V383ZM530
384Q530 447 486 474T368 501H224Q209 501 209 488V270Q209 255 220 255H374Q445 255 487 286T530 384V384Z" />
<glyph unicode="&#xdf;" horiz-adv-x="621" d="M325 742Q390 742 431 723T491 671T511 597Q511 560 496 535T452 491T386 456Q358 440 347 431T336 406Q336 391 346 384T385 367Q417 355 451 341T514 304T561 249T580 167Q580 109 553 70T480 10T375 -10Q339 -10
305 -2T246 20Q236 25 241 34L267 85Q272 93 282 88Q299 78 319 71T369 63Q420 63 451 87T483 156Q483 189 467 209T423 242T362 266Q335 276 310 290T269 327T253 385Q253 424 274 449T334 498Q354 511 371 523T401 553T413 594Q413 627 389 647T318 668Q261 668
227 634T193 535V15Q196 0 183 0H101Q89 0 89 13V430Q89 440 81 440H34Q21 440 21 451V503Q21 508 24 512T35 516H79Q86 516 87 519T89 528Q89 574 104 613T148 680T221 725T325 742V742Z" />
<glyph unicode="&#xe0;" horiz-adv-x="552" d="M369 60Q334 26 292 8T197 -10Q120 -10 76 30T32 135Q32 190 63 229T155 291T303 318L368 323Q374 324 379 327T384 338V363Q384 412 354 440T272 469Q233 469 200 451T141 395Q138 390 135 388T124 388L56 408Q52
410 51 413T53 427Q82 481 138 510T277 540Q349 540 395 520T463 461T486 370V17Q486 7 483 4T471 0H403Q396 0 392 5T387 20L386 58Q383 74 369 60V60ZM384 249Q384 266 370 264L316 260Q276 258 243 250T187 227T150 194T136 148Q136 109 163 87T238 64Q268 64
294 74T341 101Q361 118 372 136T384 171V249V249ZM162 744Q167 755 176 751L409 657Q418 653 414 641L405 615Q403 608 399 607T386 606L157 673Q140 678 145 693L162 744V744Z" />
<glyph unicode="&#xe1;" horiz-adv-x="552" d="M369 60Q334 26 292 8T197 -10Q120 -10 76 30T32 135Q32 190 63 229T155 291T303 318L368 323Q374 324 379 327T384 338V363Q384 412 354 440T272 469Q233 469 200 451T141 395Q138 390 135 388T124 388L56 408Q52
410 51 413T53 427Q82 481 138 510T277 540Q349 540 395 520T463 461T486 370V17Q486 7 483 4T471 0H403Q396 0 392 5T387 20L386 58Q383 74 369 60V60ZM384 249Q384 266 370 264L316 260Q276 258 243 250T187 227T150 194T136 148Q136 109 163 87T238 64Q268 64
294 74T341 101Q361 118 372 136T384 171V249V249ZM412 694Q417 679 400 674L171 608Q163 606 159 607T152 616L143 642Q139 655 148 658L382 752Q391 756 395 745L412 694Z" />
<glyph unicode="&#xe2;" horiz-adv-x="552" d="M369 60Q334 26 292 8T197 -10Q120 -10 76 30T32 135Q32 190 63 229T155 291T303 318L368 323Q374 324 379 327T384 338V363Q384 412 354 440T272 469Q233 469 200 451T141 395Q138 390 135 388T124 388L56 408Q52
410 51 413T53 427Q82 481 138 510T277 540Q349 540 395 520T463 461T486 370V17Q486 7 483 4T471 0H403Q396 0 392 5T387 20L386 58Q383 74 369 60V60ZM384 249Q384 266 370 264L316 260Q276 258 243 250T187 227T150 194T136 148Q136 109 163 87T238 64Q268 64
294 74T341 101Q361 118 372 136T384 171V249V249ZM287 682Q278 691 275 691T261 682L206 631Q200 626 197 625T186 624H124Q117 624 117 627T121 637L226 735Q232 740 237 743T253 746H303Q311 746 315 743T324 736L427 637Q441 624 426 624H358Q352 624 348 625T338
631L287 682Z" />
<glyph unicode="&#xe3;" horiz-adv-x="552" d="M369 60Q334 26 292 8T197 -10Q120 -10 76 30T32 135Q32 190 63 229T155 291T303 318L368 323Q374 324 379 327T384 338V363Q384 412 354 440T272 469Q233 469 200 451T141 395Q138 390 135 388T124 388L56 408Q52
410 51 413T53 427Q82 481 138 510T277 540Q349 540 395 520T463 461T486 370V17Q486 7 483 4T471 0H403Q396 0 392 5T387 20L386 58Q383 74 369 60V60ZM384 249Q384 266 370 264L316 260Q276 258 243 250T187 227T150 194T136 148Q136 109 163 87T238 64Q268 64
294 74T341 101Q361 118 372 136T384 171V249V249ZM424 670Q412 662 392 655T344 647Q316 647 295 653T254 666T210 673Q188 673 175 667T148 651Q142 648 138 648T132 657L121 689Q119 694 119 698T125 706Q142 719 160 728T205 738Q232 738 255 731T299 717T344
710Q364 710 378 716T405 731Q411 734 415 734T422 725L433 688Q436 678 424 670V670Z" />
<glyph unicode="&#xe4;" horiz-adv-x="552" d="M369 60Q334 26 292 8T197 -10Q120 -10 76 30T32 135Q32 190 63 229T155 291T303 318L368 323Q374 324 379 327T384 338V363Q384 412 354 440T272 469Q233 469 200 451T141 395Q138 390 135 388T124 388L56 408Q52
410 51 413T53 427Q82 481 138 510T277 540Q349 540 395 520T463 461T486 370V17Q486 7 483 4T471 0H403Q396 0 392 5T387 20L386 58Q383 74 369 60V60ZM384 249Q384 266 370 264L316 260Q276 258 243 250T187 227T150 194T136 148Q136 109 163 87T238 64Q268 64
294 74T341 101Q361 118 372 136T384 171V249V249ZM242 642Q242 633 238 629T223 625H157Q148 625 145 628T142 640V728Q142 742 154 742H230Q242 742 242 729V642ZM406 642Q406 633 402 629T387 625H322Q312 625 309 628T306 640V728Q306 742 318 742H394Q406
742 406 729V642Z" />
<glyph unicode="&#xe5;" horiz-adv-x="552" d="M369 60Q334 26 292 8T197 -10Q120 -10 76 30T32 135Q32 190 63 229T155 291T303 318L368 323Q374 324 379 327T384 338V363Q384 412 354 440T272 469Q233 469 200 451T141 395Q138 390 135 388T124 388L56 408Q52
410 51 413T53 427Q82 481 138 510T277 540Q349 540 395 520T463 461T486 370V17Q486 7 483 4T471 0H403Q396 0 392 5T387 20L386 58Q383 74 369 60V60ZM384 249Q384 266 370 264L316 260Q276 258 243 250T187 227T150 194T136 148Q136 109 163 87T238 64Q268 64
294 74T341 101Q361 118 372 136T384 171V249V249ZM382 697Q382 651 351 621T275 590Q230 590 199 621T168 699Q168 728 182 751T221 788T275 802Q305 802 329 788T367 751T382 697V697ZM328 696Q328 720 313 735T274 750Q253 750 236 735T219 696Q219 675 236
658T274 641Q297 641 312 658T328 696V696Z" />
<glyph unicode="&#xe6;" horiz-adv-x="920" d="M506 243Q496 243 493 239T489 221Q489 191 501 164T535 114T586 80T649 67Q686 67 712 78T759 106T797 145Q801 149 803 149T812 147L862 123Q873 119 865 107Q840 69 807 43T731 3T636 -10Q583 -10 544 6T477 46T430
93Q427 98 423 93Q400 67 370 44T299 5T200 -10Q120 -10 76 30T32 139Q32 215 96 262T291 317L366 323Q374 324 379 327T384 338V363Q384 412 355 440T269 469Q232 469 200 451T141 395Q137 389 134 388T123 388L56 408Q52 410 51 415T53 427Q74 464 104 489T177
527T276 540Q347 540 391 519T455 454Q486 496 532 518T636 540Q709 540 764 508T851 415T883 266Q883 255 880 250T865 244L506 243V243ZM638 469Q598 469 565 450T512 395T491 308L761 307Q772 307 775 310T778 322Q778 360 761 393T712 448T638 469V469ZM384
245Q384 253 381 257T368 260L306 256Q254 252 217 239T158 202T137 145Q137 107 164 84T240 62Q279 63 311 77T364 116T384 170V245V245Z" />
<glyph unicode="&#xe7;" horiz-adv-x="545" d="M297 540Q353 540 394 522T464 473T510 407Q516 393 503 390L432 378Q423 376 419 386Q402 412 385 429T348 456T302 466Q256 466 222 443T169 374T150 265Q150 201 169 156T223 87T306 63Q353 63 385 87T444 155Q447
159 449 160T458 159L511 143Q519 140 515 128Q503 103 484 78T438 34T376 2T297 -10Q222 -10 165 24T75 120T42 263Q42 345 75 407T165 504T297 540V540ZM397 -132Q397 -158 382 -176T341 -203T283 -213Q257 -213 233 -208T188 -190Q182 -186 184 -180L196 -151Q199
-146 205 -149Q218 -157 234 -163T271 -169Q298 -169 311 -160T325 -132Q325 -111 306 -100T243 -88Q237 -88 236 -87T236 -81L273 5H326L304 -50Q302 -56 309 -56Q342 -58 361 -69T389 -98T397 -132V-132Z" />
<glyph unicode="&#xe8;" horiz-adv-x="582" d="M151 228Q151 183 172 147T230 89T312 67Q358 67 394 86T460 145Q463 149 466 149T475 147L526 123Q537 118 528 107Q500 66 467 40T392 2T301 -10Q225 -10 167 24T76 119T42 259Q42 346 76 408T168 505T299 540Q373
540 428 508T515 414T546 266Q546 257 544 251T531 244H161Q156 244 154 240T151 228V228ZM424 307Q435 307 438 310T441 321Q441 359 425 393T378 448T302 469Q255 469 222 447T171 387T153 308L424 307ZM186 744Q191 755 200 751L433 657Q442 653 438 641L429
615Q427 608 423 607T410 606L181 673Q164 678 169 693L186 744V744Z" />
<glyph unicode="&#xe9;" horiz-adv-x="582" d="M151 228Q151 183 172 147T230 89T312 67Q358 67 394 86T460 145Q463 149 466 149T475 147L526 123Q537 118 528 107Q500 66 467 40T392 2T301 -10Q225 -10 167 24T76 119T42 259Q42 346 76 408T168 505T299 540Q373
540 428 508T515 414T546 266Q546 257 544 251T531 244H161Q156 244 154 240T151 228V228ZM424 307Q435 307 438 310T441 321Q441 359 425 393T378 448T302 469Q255 469 222 447T171 387T153 308L424 307ZM436 694Q441 679 424 674L195 608Q187 606 183 607T176
616L167 642Q163 655 172 658L406 752Q415 756 419 745L436 694Z" />
<glyph unicode="&#xea;" horiz-adv-x="582" d="M151 228Q151 183 172 147T230 89T312 67Q358 67 394 86T460 145Q463 149 466 149T475 147L526 123Q537 118 528 107Q500 66 467 40T392 2T301 -10Q225 -10 167 24T76 119T42 259Q42 346 76 408T168 505T299 540Q373
540 428 508T515 414T546 266Q546 257 544 251T531 244H161Q156 244 154 240T151 228V228ZM424 307Q435 307 438 310T441 321Q441 359 425 393T378 448T302 469Q255 469 222 447T171 387T153 308L424 307ZM311 682Q302 691 299 691T285 682L230 631Q224 626 221
625T210 624H148Q141 624 141 627T145 637L250 735Q256 740 261 743T277 746H327Q335 746 339 743T348 736L451 637Q465 624 450 624H382Q376 624 372 625T362 631L311 682Z" />
<glyph unicode="&#xeb;" horiz-adv-x="582" d="M151 228Q151 183 172 147T230 89T312 67Q358 67 394 86T460 145Q463 149 466 149T475 147L526 123Q537 118 528 107Q500 66 467 40T392 2T301 -10Q225 -10 167 24T76 119T42 259Q42 346 76 408T168 505T299 540Q373
540 428 508T515 414T546 266Q546 257 544 251T531 244H161Q156 244 154 240T151 228V228ZM424 307Q435 307 438 310T441 321Q441 359 425 393T378 448T302 469Q255 469 222 447T171 387T153 308L424 307ZM266 642Q266 633 262 629T247 625H181Q172 625 169 628T166
640V728Q166 742 178 742H254Q266 742 266 729V642ZM430 642Q430 633 426 629T411 625H346Q336 625 333 628T330 640V728Q330 742 342 742H418Q430 742 430 729V642Z" />
<glyph unicode="&#xec;" horiz-adv-x="247" d="M176 19Q176 8 172 4T156 0H88Q77 0 74 3T70 16V515Q70 530 84 530H164Q176 530 176 516V19ZM12 744Q17 755 26 751L259 657Q268 653 264 641L255 615Q253 608 249 607T236 606L7 673Q-10 678 -5 693L12 744V744Z" />
<glyph unicode="&#xed;" horiz-adv-x="247" d="M176 19Q176 8 172 4T156 0H88Q77 0 74 3T70 16V515Q70 530 84 530H164Q176 530 176 516V19ZM262 694Q267 679 250 674L21 608Q13 606 9 607T2 616L-7 642Q-11 655 -2 658L232 752Q241 756 245 745L262 694Z" />
<glyph unicode="&#xee;" horiz-adv-x="247" d="M176 19Q176 8 172 4T156 0H88Q77 0 74 3T70 16V515Q70 530 84 530H164Q176 530 176 516V19ZM137 682Q128 691 125 691T111 682L56 631Q50 626 47 625T36 624H-26Q-33 624 -33 627T-29 637L76 735Q82 740 87 743T103
746H153Q161 746 165 743T174 736L277 637Q291 624 276 624H208Q202 624 198 625T188 631L137 682Z" />
<glyph unicode="&#xef;" horiz-adv-x="247" d="M176 19Q176 8 172 4T156 0H88Q77 0 74 3T70 16V515Q70 530 84 530H164Q176 530 176 516V19ZM93 642Q93 633 89 629T74 625H8Q-1 625 -4 628T-7 640V728Q-7 742 5 742H81Q93 742 93 729V642ZM257 642Q257 633 253
629T238 625H173Q163 625 160 628T157 640V728Q157 742 169 742H245Q257 742 257 729V642Z" />
<glyph unicode="&#xf0;" horiz-adv-x="599" d="M557 266Q557 184 526 122T436 25T298 -10Q222 -10 165 24T75 117T42 252Q42 330 74 390T164 485T294 520Q327 520 353 510T397 482Q377 521 347 556T269 624L131 546Q121 540 114 552L102 570Q98 576 99 580T104
585L224 653Q201 665 177 676T124 699Q120 701 119 704T122 711L168 747Q173 750 176 751T187 749Q219 739 248 726T305 698L397 750Q405 755 410 748L425 720Q429 713 423 709L351 669Q458 596 507 493T557 266V266ZM301 65Q346 65 379 89T430 156T449 255Q449
312 431 355T379 422T300 447Q256 447 222 423T169 355T150 255Q150 198 168 156T221 89T301 65V65Z" />
<glyph unicode="&#xf1;" horiz-adv-x="588" d="M86 0Q70 0 70 16V515Q70 530 83 530H162Q174 530 174 517V462Q174 457 176 456T184 459Q215 484 243 502T300 530T363 540Q439 540 481 498T523 387V18Q523 0 506 0H432Q424 0 421 3T417 16V366Q417 410 394 435T323
460Q296 460 273 452T227 427T176 385V17Q176 0 157 0H86V0ZM453 670Q441 662 421 655T373 647Q345 647 324 653T283 666T239 673Q217 673 204 667T177 651Q171 648 167 648T161 657L150 689Q148 694 148 698T154 706Q171 719 189 728T234 738Q261 738 284 731T328
717T373 710Q393 710 407 716T434 731Q440 734 444 734T451 725L462 688Q465 678 453 670V670Z" />
<glyph unicode="&#xf2;" horiz-adv-x="599" d="M299 -10Q222 -10 164 24T74 120T42 262Q42 345 75 407T166 505T300 540Q378 540 435 505T525 407T557 263Q557 183 525 122T434 25T299 -10V-10ZM301 65Q348 65 381 89T431 157T449 265Q449 328 432 373T381 442T300
467Q253 467 220 443T168 373T150 265Q150 202 168 158T219 89T301 65V65ZM188 744Q193 755 202 751L435 657Q444 653 440 641L431 615Q429 608 425 607T412 606L183 673Q166 678 171 693L188 744V744Z" />
<glyph unicode="&#xf3;" horiz-adv-x="599" d="M299 -10Q222 -10 164 24T74 120T42 262Q42 345 75 407T166 505T300 540Q378 540 435 505T525 407T557 263Q557 183 525 122T434 25T299 -10V-10ZM301 65Q348 65 381 89T431 157T449 265Q449 328 432 373T381 442T300
467Q253 467 220 443T168 373T150 265Q150 202 168 158T219 89T301 65V65ZM437 694Q442 679 425 674L196 608Q188 606 184 607T177 616L168 642Q164 655 173 658L407 752Q416 756 420 745L437 694Z" />
<glyph unicode="&#xf4;" horiz-adv-x="599" d="M299 -10Q222 -10 164 24T74 120T42 262Q42 345 75 407T166 505T300 540Q378 540 435 505T525 407T557 263Q557 183 525 122T434 25T299 -10V-10ZM301 65Q348 65 381 89T431 157T449 265Q449 328 432 373T381 442T300
467Q253 467 220 443T168 373T150 265Q150 202 168 158T219 89T301 65V65ZM312 682Q303 691 300 691T286 682L231 631Q225 626 222 625T211 624H149Q142 624 142 627T146 637L251 735Q257 740 262 743T278 746H328Q336 746 340 743T349 736L452 637Q466 624 451
624H383Q377 624 373 625T363 631L312 682Z" />
<glyph unicode="&#xf5;" horiz-adv-x="599" d="M299 -10Q222 -10 164 24T74 120T42 262Q42 345 75 407T166 505T300 540Q378 540 435 505T525 407T557 263Q557 183 525 122T434 25T299 -10V-10ZM301 65Q348 65 381 89T431 157T449 265Q449 328 432 373T381 442T300
467Q253 467 220 443T168 373T150 265Q150 202 168 158T219 89T301 65V65ZM450 670Q438 662 418 655T370 647Q342 647 321 653T280 666T236 673Q214 673 201 667T174 651Q168 648 164 648T158 657L147 689Q145 694 145 698T151 706Q168 719 186 728T231 738Q258
738 281 731T325 717T370 710Q390 710 404 716T431 731Q437 734 441 734T448 725L459 688Q462 678 450 670V670Z" />
<glyph unicode="&#xf6;" horiz-adv-x="599" d="M299 -10Q222 -10 164 24T74 120T42 262Q42 345 75 407T166 505T300 540Q378 540 435 505T525 407T557 263Q557 183 525 122T434 25T299 -10V-10ZM301 65Q348 65 381 89T431 157T449 265Q449 328 432 373T381 442T300
467Q253 467 220 443T168 373T150 265Q150 202 168 158T219 89T301 65V65ZM268 642Q268 633 264 629T249 625H183Q174 625 171 628T168 640V728Q168 742 180 742H256Q268 742 268 729V642ZM432 642Q432 633 428 629T413 625H348Q338 625 335 628T332 640V728Q332
742 344 742H420Q432 742 432 729V642Z" />
<glyph unicode="&#xf7;" horiz-adv-x="566" d="M347 145Q347 127 327 127H236Q221 127 221 142V235Q221 249 232 249H336Q347 249 347 237V145ZM509 349Q509 333 489 333L73 332Q65 332 62 335T58 347V399Q58 413 68 413H497Q509 413 509 402V349ZM347 514Q347
497 327 497H236Q221 497 221 512V605Q221 618 232 618H336Q347 618 347 606V514Z" />
<glyph unicode="&#xf8;" horiz-adv-x="587" d="M69 7Q61 0 55 0T42 7L27 23Q14 37 26 49L518 522Q531 535 541 524L563 502Q572 491 562 483L69 7ZM298 -10Q221 -10 163 24T73 120T40 262Q40 345 73 407T165 505T299 540Q376 540 433 505T523 407T556 263Q556
183 524 122T433 25T298 -10V-10ZM299 65Q347 65 380 89T430 157T448 265Q448 328 431 373T380 442T299 467Q252 467 218 443T166 373T148 265Q148 202 166 158T218 89T299 65V65Z" />
<glyph unicode="&#xf9;" horiz-adv-x="583" d="M262 70Q302 70 337 91T407 149V513Q407 530 426 530H498Q514 530 514 514L512 14Q512 0 500 0H422Q410 0 410 13V69Q410 74 408 75T400 72Q349 26 307 8T221 -10Q176 -10 141 9T85 63T64 145V512Q64 530 82 530H155Q170
530 170 514V167Q170 124 194 97T262 70V70ZM168 744Q173 755 182 751L415 657Q424 653 420 641L411 615Q409 608 405 607T392 606L163 673Q146 678 151 693L168 744V744Z" />
<glyph unicode="&#xfa;" horiz-adv-x="583" d="M262 70Q302 70 337 91T407 149V513Q407 530 426 530H498Q514 530 514 514L512 14Q512 0 500 0H422Q410 0 410 13V69Q410 74 408 75T400 72Q349 26 307 8T221 -10Q176 -10 141 9T85 63T64 145V512Q64 530 82 530H155Q170
530 170 514V167Q170 124 194 97T262 70V70ZM418 694Q423 679 406 674L177 608Q169 606 165 607T158 616L149 642Q145 655 154 658L388 752Q397 756 401 745L418 694Z" />
<glyph unicode="&#xfb;" horiz-adv-x="583" d="M262 70Q302 70 337 91T407 149V513Q407 530 426 530H498Q514 530 514 514L512 14Q512 0 500 0H422Q410 0 410 13V69Q410 74 408 75T400 72Q349 26 307 8T221 -10Q176 -10 141 9T85 63T64 145V512Q64 530 82 530H155Q170
530 170 514V167Q170 124 194 97T262 70V70ZM293 682Q284 691 281 691T267 682L212 631Q206 626 203 625T192 624H130Q123 624 123 627T127 637L232 735Q238 740 243 743T259 746H309Q317 746 321 743T330 736L433 637Q447 624 432 624H364Q358 624 354 625T344
631L293 682Z" />
<glyph unicode="&#xfc;" horiz-adv-x="583" d="M262 70Q302 70 337 91T407 149V513Q407 530 426 530H498Q514 530 514 514L512 14Q512 0 500 0H422Q410 0 410 13V69Q410 74 408 75T400 72Q349 26 307 8T221 -10Q176 -10 141 9T85 63T64 145V512Q64 530 82 530H155Q170
530 170 514V167Q170 124 194 97T262 70V70ZM248 642Q248 633 244 629T229 625H163Q154 625 151 628T148 640V728Q148 742 160 742H236Q248 742 248 729V642ZM412 642Q412 633 408 629T393 625H328Q318 625 315 628T312 640V728Q312 742 324 742H400Q412 742 412
729V642Z" />
<glyph unicode="&#xfd;" horiz-adv-x="541" d="M106 -165Q76 -165 61 -163T45 -150V-99Q45 -93 50 -89T73 -85H138Q159 -85 176 -73T205 -41T219 -2T217 35L26 511Q23 518 26 524T39 530H121Q127 530 132 527T138 517L276 157Q279 148 284 148T293 160L429 518Q431
523 435 526T445 530H504Q512 530 515 525T515 513L300 -32Q284 -73 265 -99T223 -139T172 -159T106 -165V-165ZM421 694Q426 679 409 674L180 608Q172 606 168 607T161 616L152 642Q148 655 157 658L391 752Q400 756 404 745L421 694Z" />
<glyph unicode="&#xfe;" horiz-adv-x="599" d="M159 742Q176 742 176 726V475Q176 468 179 468T189 472Q202 485 221 500T269 528T342 540Q403 540 451 511T528 422T557 272Q557 180 529 118T450 23T332 -10Q288 -10 254 3T193 40Q184 49 180 48T176 34V-151Q176
-165 164 -165H83Q70 -165 70 -151V724Q70 734 74 738T89 742H159V742ZM176 123Q203 95 232 79T299 62Q344 62 377 85T430 154T449 272Q449 343 430 386T377 448T304 468Q267 468 238 452T193 412T176 364V123V123Z" />
<glyph unicode="&#xff;" horiz-adv-x="541" d="M106 -165Q76 -165 61 -163T45 -150V-99Q45 -93 50 -89T73 -85H138Q159 -85 176 -73T205 -41T219 -2T217 35L26 511Q23 518 26 524T39 530H121Q127 530 132 527T138 517L276 157Q279 148 284 148T293 160L429 518Q431
523 435 526T445 530H504Q512 530 515 525T515 513L300 -32Q284 -73 265 -99T223 -139T172 -159T106 -165V-165ZM252 642Q252 633 248 629T233 625H167Q158 625 155 628T152 640V728Q152 742 164 742H240Q252 742 252 729V642ZM416 642Q416 633 412 629T397 625H332Q322
625 319 628T316 640V728Q316 742 328 742H404Q416 742 416 729V642Z" />
<glyph unicode="&#x2013;" horiz-adv-x="566" d="M509 233Q509 216 489 216H73Q65 216 62 219T58 230V284Q58 297 68 297L497 298Q509 298 509 286V233Z" />
<glyph unicode="&#x2014;" horiz-adv-x="889" d="M832 233Q832 216 812 216H73Q65 216 62 219T58 230V284Q58 297 68 297L820 298Q832 298 832 286V233Z" />
<glyph unicode="&#x2018;" horiz-adv-x="228" d="M171 742Q177 742 179 738T180 729L136 632Q132 623 133 618T142 612L159 611Q168 611 170 608T173 597V503Q173 490 163 490H59Q48 490 48 501V590Q48 595 51 599L131 730Q135 737 141 739T155 742H171V742Z" />
<glyph unicode="&#x2019;" horiz-adv-x="228" d="M56 490Q51 490 49 494T48 504L92 600Q95 610 94 615T85 620L69 621Q61 622 58 625T54 635V730Q54 742 65 742H169Q179 742 179 731V642Q179 638 176 633L96 502Q93 496 87 493T73 490H56V490Z" />
<glyph unicode="&#x201a;" horiz-adv-x="228" d="M56 -131Q51 -131 49 -127T48 -118L92 -21Q95 -11 94 -7T85 -1L69 0Q61 1 58 4T54 14V109Q54 121 65 121H169Q179 121 179 110V21Q179 17 176 12L96 -119Q93 -125 87 -128T73 -131H56V-131Z" />
<glyph unicode="&#x201c;" horiz-adv-x="419" d="M250 490Q240 490 240 501V590Q240 595 243 599L323 730Q327 737 333 739T346 742H363Q368 742 370 738T371 729L328 632Q324 623 325 618T334 612L350 611Q359 611 362 608T365 597V503Q365 490 354 490H250V490ZM59
490Q48 490 48 501V590Q48 595 51 599L131 730Q135 737 141 739T155 742H171Q177 742 179 738T180 729L136 632Q132 623 133 618T142 612L159 611Q168 611 170 608T173 597V503Q173 490 163 490H59V490Z" />
<glyph unicode="&#x201d;" horiz-adv-x="421" d="M248 490Q242 490 240 494T239 504L283 600Q287 610 286 615T277 620L260 621Q253 622 250 625T246 635V730Q246 742 257 742H360Q371 742 371 731V642Q371 638 368 633L288 502Q284 496 278 493T264 490H248V490ZM56
490Q51 490 49 494T48 504L92 600Q95 610 94 615T85 620L69 621Q61 622 58 625T54 635V730Q54 742 65 742H169Q179 742 179 731V642Q179 638 176 633L96 502Q93 496 87 493T73 490H56V490Z" />
<glyph unicode="&#x201e;" horiz-adv-x="421" d="M247 -131Q242 -131 240 -127T239 -118L283 -21Q286 -11 285 -7T276 -1L260 0Q252 1 249 4T245 14V109Q245 121 256 121H360Q370 121 370 110V21Q370 17 367 12L287 -119Q284 -125 278 -128T264 -131H247V-131ZM56
-131Q51 -131 49 -127T48 -118L92 -21Q95 -11 94 -7T85 -1L69 0Q61 1 58 4T54 14V109Q54 121 65 121H169Q179 121 179 110V21Q179 17 176 12L96 -119Q93 -125 87 -128T73 -131H56V-131Z" />
<glyph unicode="&#x2022;" horiz-adv-x="320" d="M159 271Q130 271 106 285T68 324T53 377Q53 406 67 430T106 468T159 483Q188 483 212 469T250 430T265 377Q265 348 251 324T212 286T159 271V271Z" />
<glyph unicode="&#x2039;" horiz-adv-x="274" d="M224 79Q228 71 213 71H176Q168 71 165 77L46 244Q37 257 45 269L165 446Q168 451 170 451T177 452H216Q220 452 223 450T224 441L133 266Q129 256 133 248L224 79Z" />
<glyph unicode="&#x203a;" horiz-adv-x="275" d="M142 248Q146 257 142 266L51 441Q49 447 52 449T59 452H98Q102 452 104 452T110 446L230 269Q238 257 229 244L110 77Q107 71 99 71H62Q48 71 51 79L142 248V248Z" />
</font>
</defs>
</svg>
