<?xml version="1.0" standalone="no"?>
<!DOCTYPE svg PUBLIC "-//W3C//DTD SVG 1.1//EN" "http://www.w3.org/Graphics/SVG/1.1/DTD/svg11.dtd">
<svg xmlns="http://www.w3.org/2000/svg">
<defs >
<font id="LibreFranklin" horiz-adv-x="567" ><font-face
    font-family="Libre Franklin Thin Medium"
    units-per-em="1000"
    panose-1="0 0 0 0 0 0 0 0 0 0"
    ascent="966"
    descent="-246"
    alphabetic="0" />
<glyph unicode=" " horiz-adv-x="212" />
<glyph unicode="!" horiz-adv-x="251" d="M151 15Q149 5 146 3T130 0H45Q35 0 31 5T28 19L42 116Q43 124 45 126T53 128H153Q159 128 162 124T165 112L151 15ZM153 210Q151 201 148 199T134 197H98Q89 197 86 201T83 214L129 731Q129 738 131 740T138 742H241Q246
742 249 737T252 727L153 210Z" />
<glyph unicode="&quot;" horiz-adv-x="428" d="M336 507Q334 498 331 496T317 493H289Q280 493 277 497T274 510L277 732Q278 739 280 740T287 742H384Q390 742 393 738T395 727L336 507ZM407 507Q405 498 402 496T388 493H360Q351 493 348 497T345 510L348 732Q349
739 351 740T358 742H455Q461 742 464 738T466 727L407 507Z" />
<glyph unicode="#" horiz-adv-x="603" d="M142 14Q140 4 137 2T125 0L96 5Q87 6 83 10T80 21L287 731Q290 738 292 740T299 742L337 737Q343 736 347 731T349 719L142 14ZM354 14Q352 4 349 2T337 0L307 5Q299 6 295 10T291 21L498 731Q501 738 503 740T510 742L549
737Q555 736 559 731T561 719L354 14ZM540 252Q538 243 535 241T521 238H43Q34 238 30 243T27 256L32 290Q33 297 36 298T44 300H534Q539 300 542 296T544 286L540 252ZM603 462Q601 453 597 451T583 448H105Q96 448 93 453T90 466L95 500Q96 507 99 508T107 510H597Q602
510 605 506T607 496L603 462Z" />
<glyph unicode="$" horiz-adv-x="621" d="M573 188Q566 134 534 92T451 23T335 -7Q325 -7 321 -11T316 -22L309 -71Q308 -80 305 -82T292 -85H250Q242 -85 239 -80T236 -68L243 -15Q244 -8 244 -7T238 -6Q156 -4 106 24T21 103Q13 109 11 115T15 126L62 167Q69
173 75 171T84 161Q112 124 148 102T240 75Q248 75 253 78T259 88L289 310Q291 318 289 323T278 332Q203 356 160 386T103 456T95 547Q103 599 133 640T215 709T331 745Q338 746 345 750T353 760L359 806Q360 811 361 812T367 814H416Q424 814 428 809T430 796L424
750Q423 747 424 746T429 743Q486 735 526 713T598 657Q604 655 606 650T603 638L555 592Q549 587 545 589T536 601Q519 622 490 638T426 662Q419 663 415 659T409 649L377 424Q376 418 377 417T385 413L427 399Q479 380 514 350T565 279T573 188V188ZM338 657Q339
662 337 663T331 662Q272 655 235 623T190 544Q187 522 194 504T223 469T282 435Q293 433 300 438T310 455L338 657ZM329 79Q329 75 330 76T335 78Q393 80 432 111T477 187Q482 228 460 255T380 304Q362 307 359 291L329 79V79Z" />
<glyph unicode="%" horiz-adv-x="925" d="M294 753Q345 753 382 726T436 649T444 535Q435 473 407 427T336 356T243 330Q191 330 153 357T98 433T90 547Q99 609 128 655T200 727T294 753V753ZM241 388Q274 388 299 408T341 463T364 546Q374 614 356 654T293 695Q261
695 235 675T193 619T169 534Q160 468 177 428T241 388V388ZM714 413Q766 413 803 386T857 309T864 195Q856 133 827 87T756 16T663 -10Q611 -10 574 17T519 93T511 207Q521 269 549 315T621 387T714 413V413ZM662 48Q694 48 719 68T762 124T786 206Q792 251 786
284T761 336T714 355Q683 355 657 335T614 278T590 194Q584 151 590 118T614 67T662 48V48ZM206 3Q202 -2 198 -3T185 -4H154Q143 -4 141 4T145 21L728 744Q733 751 737 751T746 750H785Q791 750 795 746T794 734L206 3Z" />
<glyph unicode="&amp;" horiz-adv-x="797" d="M414 753Q473 753 516 734T581 679T596 594Q591 561 568 527T505 460T404 401Q384 398 392 385L510 224Q515 218 519 221T530 233Q548 248 568 269T608 313T643 359T666 399Q670 404 674 404T685 401L734 383Q740
381 743 374T744 359Q731 332 706 299T650 231T585 160Q578 156 576 153T578 143Q594 130 617 118T669 100T723 92Q734 92 739 87T742 74L734 17Q733 7 730 4T717 0Q675 0 633 11T555 40T495 81Q487 84 483 82T472 72Q418 34 359 15T235 -5Q126 -5 72 49T30 196Q38
254 80 302T212 401Q225 407 228 412T224 429Q196 461 184 498T177 575Q184 626 217 666T302 730T414 753V753ZM417 683Q380 683 352 667T307 626T285 570Q282 552 287 532T308 491L333 458Q336 455 341 457T351 463Q422 493 458 526T499 603Q505 643 481 663T417
683V683ZM293 336Q287 345 281 343T266 335Q217 314 184 276T144 193Q137 142 170 110T258 77Q298 77 339 94T410 137Q418 141 422 146T422 159L293 336V336Z" />
<glyph unicode="&apos;" horiz-adv-x="242" d="M188 507Q186 498 183 496T169 493H141Q132 493 129 497T126 510L129 732Q130 739 132 740T139 742H236Q242 742 245 738T247 727L188 507Z" />
<glyph unicode="(" horiz-adv-x="294" d="M153 -165Q142 -165 140 -151Q109 -82 88 -14T60 129T65 291Q82 413 136 527T266 738Q274 742 285 742H333Q339 742 341 737T342 726Q300 662 264 589T201 438T163 278Q147 168 159 62T207 -159Q214 -165 203 -165H153V-165Z" />
<glyph unicode=")" horiz-adv-x="294" d="M-31 -165Q-37 -165 -39 -160T-40 -149Q2 -85 38 -12T101 139T139 299Q154 410 142 516T94 736Q88 742 98 742H149Q160 742 161 728Q193 659 214 591T241 448T236 286Q219 164 165 50T36 -161Q28 -165 16 -165H-31V-165Z" />
<glyph unicode="*" horiz-adv-x="407" d="M247 512Q245 515 243 512T240 507L147 386Q145 383 141 385T133 390L95 418Q91 422 90 425T92 434L195 540Q197 543 198 544T195 547L81 581Q76 583 75 587T74 598L97 642Q100 646 102 646T108 643L215 597Q219 595 222
598T227 606L236 736Q237 739 238 740T245 742H299Q305 742 308 738T309 729L282 600Q281 595 282 596T286 598L409 648Q415 651 418 648T423 638L431 596Q432 590 432 588T426 583L304 546Q300 545 297 542T296 536L365 434Q368 430 368 426T361 416L320 391Q314
386 309 389T303 395L247 512Z" />
<glyph unicode="+" horiz-adv-x="565" d="M519 346Q519 338 515 336T501 333L84 332Q76 332 73 337T69 350L77 402Q79 409 80 411T87 413H516Q521 413 524 409T528 399L519 346ZM246 148Q237 148 233 154T230 170L288 586Q289 595 291 597T302 599H354Q361 599
365 595T368 585L309 156Q308 151 306 150T298 148H246Z" />
<glyph unicode="," horiz-adv-x="225" d="M-8 -147Q-18 -147 -11 -133L52 -22Q58 -11 56 -6T44 0H28Q19 0 17 2T16 12L30 112Q31 119 35 123T44 128H145Q156 128 154 115L141 26Q140 20 139 16T134 10L33 -131Q27 -140 21 -143T8 -147H-8V-147Z" />
<glyph unicode="-" horiz-adv-x="381" d="M318 237Q317 229 313 227T299 224H70Q61 224 58 228T54 241L62 294Q64 301 66 303T72 305H315Q320 305 324 301T326 291L318 237Z" />
<glyph unicode="." horiz-adv-x="222" d="M136 15Q135 5 132 3T115 0H31Q21 0 17 5T14 19L28 118Q29 125 31 127T39 129H139Q145 129 148 125T150 113L136 15Z" />
<glyph unicode="/" horiz-adv-x="349" d="M-20 -35Q-27 -35 -30 -31T-31 -22L326 734Q329 739 332 740T341 742H392Q401 742 404 736T402 720L52 -22Q48 -31 44 -33T31 -35H-20V-35Z" />
<glyph unicode="0" horiz-adv-x="694" d="M412 752Q485 752 539 717T625 616T656 454Q656 433 654 411T649 363Q632 244 584 161T465 34T313 -9Q239 -9 184 25T99 124T68 284Q68 305 69 327T75 374Q88 464 119 534T195 653T296 727T412 752V752ZM318 80Q370 80
412 110T483 205T528 374Q532 406 534 433T536 483Q536 579 502 621T408 664Q357 664 314 633T241 535T196 363Q192 333 190 307T187 259Q187 164 222 122T318 80V80Z" />
<glyph unicode="1" horiz-adv-x="479" d="M403 92Q416 92 414 81L403 11Q402 5 400 3T390 0H23Q15 0 13 2T12 12L22 84Q23 89 25 90T34 92H155Q164 92 165 102L236 611Q237 615 236 616T228 616L106 575Q89 571 91 587L99 640Q100 648 102 651T112 658L275 734Q287
740 294 741T310 742H364Q376 742 374 727L285 100Q284 92 291 92H403V92Z" />
<glyph unicode="2" horiz-adv-x="613" d="M288 316Q349 365 391 406T454 484T476 560Q476 594 461 616T419 649T359 661Q315 661 266 635T179 556Q174 549 166 554L94 599Q91 602 91 606T99 620Q151 686 224 719T372 752Q435 752 485 731T564 669T593 568Q593
510 570 464T503 375T403 286L188 113Q181 108 181 105T188 101H522Q538 101 535 88L525 11Q524 5 522 3T511 0H29Q9 0 11 20L18 73Q19 80 21 85T31 98T55 118L288 316Z" />
<glyph unicode="3" horiz-adv-x="649" d="M125 639Q117 648 126 657Q161 688 201 709T286 741T377 752Q490 752 552 705T615 582Q615 539 595 502T540 438T461 395Q455 394 455 391T461 386Q516 372 552 331T588 229Q588 157 549 103T439 20T270 -10Q204 -10 157
6T78 48T22 107Q15 117 21 122L84 165Q88 168 91 168T96 164Q132 118 177 99T277 79Q331 79 375 97T445 149T471 228Q471 265 450 290T393 329T316 342L225 343Q213 343 215 353L224 423Q224 430 236 430L307 431Q358 431 401 450T470 501T496 573Q496 612 463
638T372 665Q332 665 301 654T242 626T187 587Q177 580 169 589L125 639V639Z" />
<glyph unicode="4" horiz-adv-x="661" d="M443 731Q450 738 455 740T472 742H561Q574 742 573 728L510 285Q509 278 516 278H609Q616 278 619 276T622 267L613 203Q612 197 609 194T598 191H506Q496 191 495 180L472 14Q471 6 467 3T453 0H365Q348 0 350 15L374
184Q376 191 367 191H47Q32 191 34 206L43 270Q45 279 49 287T65 308L443 731V731ZM377 278Q387 278 388 288L431 597Q434 612 418 594L150 290Q144 283 145 281T151 278H377Z" />
<glyph unicode="5" horiz-adv-x="661" d="M619 742Q629 742 631 738T632 726L617 654Q616 648 613 646T601 643H266Q260 643 257 641T252 631L209 439Q208 434 210 432T217 432Q255 448 295 460T383 472Q447 472 498 451T579 386T609 277Q609 190 567 125T451
25T286 -10Q229 -10 182 3T96 42T29 105Q24 113 24 117T31 124L91 166Q95 169 100 167T110 158Q138 127 176 103T275 78Q338 78 386 103T462 171T490 269Q490 307 473 332T425 371T354 384Q322 384 293 376T238 354T187 328Q181 326 177 326T167 330L106 367Q100
372 100 378T101 395L177 728Q179 738 183 740T202 742H619Z" />
<glyph unicode="6" horiz-adv-x="669" d="M434 751Q471 751 503 742T562 716T606 678T631 633Q633 626 626 623L551 595Q544 592 533 610Q517 635 494 649T432 663Q365 663 317 631T239 542T200 414Q199 410 199 407T198 401Q198 398 201 398T211 400Q249 418
294 432T394 446Q465 446 514 422T590 356T616 257Q616 199 593 151T527 66T432 11T318 -9Q238 -9 182 25T96 123T66 276Q66 296 68 318T73 364Q90 486 139 572T264 705T434 751V751ZM371 362Q346 362 316 356T257 340T209 319Q190 307 185 289T180 240Q180 210
188 181T212 127T255 89T319 75Q367 75 407 99T472 164T497 250Q497 300 464 331T371 362V362Z" />
<glyph unicode="7" horiz-adv-x="606" d="M614 742Q625 742 628 737T629 724L622 682Q620 671 615 660T600 637Q553 580 508 514T422 377T347 240T290 116T255 16Q253 7 250 4T238 0H132Q124 0 121 7T121 25Q143 79 175 146T251 290T352 452T480 631Q485 637 484
640T475 643H105Q97 643 95 647T94 659L112 732Q113 738 117 740T129 742H614Z" />
<glyph unicode="8" horiz-adv-x="673" d="M399 752Q468 752 520 729T601 666T630 569Q630 530 616 501T582 449T540 412T504 387Q498 383 498 380T504 373Q519 366 537 355T573 326T602 282T614 216Q614 160 589 118T520 48T419 5T295 -10Q219 -10 162 10T73 70T42
168Q42 216 61 252T113 316T186 367Q192 371 193 374T187 383Q167 397 150 412T122 451T111 511Q111 578 148 632T251 719T399 752V752ZM398 668Q348 668 309 648T248 596T226 527Q226 494 245 474T303 443L391 419Q411 414 433 425T477 459T512 510T526 567Q526
613 492 640T398 668V668ZM301 74Q361 74 404 91T470 139T494 209Q494 244 474 267T410 304L293 337Q280 341 256 330T207 296T165 242T148 176Q148 130 188 102T301 74V74Z" />
<glyph unicode="9" horiz-adv-x="666" d="M265 -9Q222 -9 188 1T129 29T88 66T63 106Q60 115 68 119L140 145Q152 150 160 134Q177 108 201 94T268 79Q333 79 380 111T457 200T496 328Q497 340 494 342T482 340Q443 322 401 309T304 296Q234 296 185 320T109 387T83
486Q83 544 107 593T173 677T268 732T381 751Q460 751 515 717T600 620T629 467Q629 374 605 289T535 136T420 30T265 -9V-9ZM326 380Q353 380 382 386T438 403T486 428Q507 439 512 457T518 505Q518 534 510 563T486 615T443 653T380 667Q333 667 292 643T227
579T202 493Q202 443 235 412T326 380V380Z" />
<glyph unicode=":" horiz-adv-x="222" d="M190 398Q189 388 185 386T169 383H84Q75 383 71 388T67 402L81 499Q83 506 85 508T93 510H192Q198 510 201 506T204 494L190 398ZM137 18Q136 9 132 6T115 3H31Q21 3 17 8T15 23L28 119Q29 127 31 129T39 131H139Q145
131 148 127T150 115L137 18Z" />
<glyph unicode=";" horiz-adv-x="238" d="M-3 -148Q-9 -148 -12 -142T-14 -130L50 -16Q55 -7 55 -4T47 0H32Q24 0 20 5T17 17L31 119Q32 125 34 126T42 128H142Q148 128 151 124T153 113L140 20Q139 11 136 7L36 -138Q30 -144 24 -146T10 -148H-3V-148ZM84 380Q74
380 70 385T67 399L81 498Q83 505 85 507T92 509H192Q198 509 201 505T203 493L190 395Q188 385 185 383T169 380H84V380Z" />
<glyph unicode="&lt;" horiz-adv-x="554" d="M475 159Q473 146 467 144T451 146L73 302Q66 305 62 310T58 324L67 390Q68 399 72 402T84 409L506 566Q517 571 524 564T530 547L523 492Q521 483 515 478T495 467L185 354L458 240Q471 234 477 228T482 210L475 159Z" />
<glyph unicode="=" horiz-adv-x="565" d="M534 445Q533 436 529 434T515 431H98Q90 431 87 436T84 448L91 501Q92 508 94 509T101 511L530 512Q535 512 538 507T541 497L534 445ZM502 216Q500 207 497 205T483 203L67 202Q58 202 54 207T51 220L58 272Q60 279
62 281T69 283H497Q502 283 506 279T509 268L502 216Z" />
<glyph unicode="&gt;" horiz-adv-x="554" d="M57 217Q59 227 65 231T85 242L394 354L121 469Q94 480 96 498L105 553Q107 573 129 564L506 407Q513 405 518 399T521 384L512 318Q511 310 507 307T496 300L75 144Q64 140 56 146T50 165L57 217V217Z" />
<glyph unicode="?" horiz-adv-x="527" d="M274 15Q272 5 269 3T253 0H168Q158 0 154 5T151 19L165 116Q166 124 168 126T176 128H276Q281 128 284 124T288 112L274 15ZM77 597Q71 599 70 605T70 618Q112 682 179 717T328 752Q399 752 448 729T522 663T538 568Q531
520 506 484T446 419T377 359T317 293T284 208Q282 199 271 199H212Q205 199 200 205T197 222Q204 277 229 316T285 388T348 448T403 506T431 575Q437 621 408 647T326 674Q293 674 261 662T201 628T160 578Q157 575 155 575T145 577L77 597Z" />
<glyph unicode="@" horiz-adv-x="834" d="M617 -50Q572 -77 513 -95T385 -113Q293 -113 224 -84T112 -2T51 120T45 267Q56 347 94 418T193 544T332 630T501 661Q567 661 628 642T736 583T805 481T815 333Q805 259 772 202T692 113T589 81Q561 81 543 88T515 107T502
137Q500 142 497 139T490 128Q463 101 428 84T346 67Q305 67 275 89T230 153T223 249Q231 311 262 362T342 444T447 475Q490 475 514 457T552 411Q555 410 558 413T564 421L573 446Q575 449 576 449T581 449H634Q637 449 640 446T642 439L574 220Q561 179 567 164T596
149Q627 149 657 171T710 237T741 339Q752 409 735 458T681 537T598 580T500 594Q418 594 352 567T237 494T158 386T119 255Q109 189 122 133T171 37T263 -26T399 -49Q444 -49 475 -41T532 -20T583 10Q591 13 596 10T603 3L623 -28Q627 -35 625 -40T617 -50V-50ZM306
244Q299 197 314 168T364 139Q398 139 428 158T481 210T513 279Q525 320 518 347T493 389T450 403Q415 403 385 382T333 325T306 244V244Z" />
<glyph unicode="A" horiz-adv-x="741" d="M12 0Q6 0 4 6T7 23L363 729Q368 737 373 739T388 742H489Q499 742 503 736T509 722L664 17Q665 11 663 6T653 0H558Q545 0 543 14L504 192Q503 199 494 199H218Q208 199 203 189L111 8Q109 3 106 2T96 0H12V0ZM476 293Q489
293 486 308L418 606Q417 616 413 615T404 604L252 306Q249 298 250 296T257 293H476Z" />
<glyph unicode="B" horiz-adv-x="707" d="M64 0Q57 0 55 4T54 17L154 727Q155 742 170 742H412Q538 742 606 699T674 573Q674 499 632 452T519 382Q512 380 512 377T517 372Q578 357 610 321T643 225Q643 160 617 116T545 47T444 11T326 0H64V0ZM323 85Q359 85
393 92T456 116T502 161T519 232Q519 267 501 289T450 321T373 331H233Q225 331 222 328T216 317L186 97Q185 90 187 88T195 85H323ZM380 419Q427 419 466 435T528 482T552 560Q552 609 513 633T406 657H279Q271 657 267 654T262 643L233 431Q232 424 234 422T241
419H380Z" />
<glyph unicode="C" horiz-adv-x="712" d="M444 752Q517 752 573 723T663 645T696 536Q697 522 685 522L595 516Q585 516 584 534Q578 592 542 628T442 664Q386 664 344 640T273 574T226 483T200 379T192 275Q192 178 232 130T355 82Q424 82 476 115T564 222Q569
231 583 227L656 207Q664 205 657 186Q646 161 627 134T580 81T517 35T439 2T347 -10Q259 -10 196 27T101 132T68 293Q68 359 82 425T126 550T199 655T305 726T444 752V752Z" />
<glyph unicode="D" horiz-adv-x="731" d="M71 0Q62 0 58 6T54 21L154 730Q155 737 158 739T170 742H340Q460 742 538 708T655 608T694 450Q694 309 643 209T491 54T243 0H71V0ZM253 88Q366 88 435 132T536 259T568 456Q568 528 543 571T466 634T338 653H276Q263
653 261 638L188 104Q187 95 189 92T199 88H253Z" />
<glyph unicode="E" horiz-adv-x="636" d="M154 730Q155 738 157 740T166 742H636Q648 742 644 726L636 664Q635 657 632 654T619 651H275Q269 651 266 649T262 639L232 429Q231 423 233 421T240 419H490Q497 419 498 416T498 407L489 338Q488 329 477 329H228Q218
329 216 317L186 101Q185 91 193 91H555Q562 91 564 89T565 79L557 10Q556 4 554 2T543 0H69Q51 0 54 19L154 730V730Z" />
<glyph unicode="F" horiz-adv-x="611" d="M154 729Q155 738 158 740T167 742H627Q638 742 636 729L627 664Q626 657 623 654T612 651H274Q268 651 266 648T261 636L231 419Q230 413 231 411T239 408H495Q501 408 502 406T504 399L495 330Q495 324 492 322T481
319H227Q221 319 219 317T214 304L174 13Q172 4 169 2T157 0H65Q55 0 54 3T54 19L154 729V729Z" />
<glyph unicode="G" horiz-adv-x="743" d="M341 -10Q255 -10 194 26T100 129T67 289Q67 382 93 465T168 613T287 715T445 752Q520 752 577 722T666 645T700 543Q700 529 693 528L599 514Q594 513 592 517T589 532Q586 569 568 598T518 645T441 663Q375 663 329
630T252 540T207 415T192 275Q192 174 233 127T352 79Q397 79 432 94T493 133T535 185T559 241L567 290Q572 301 558 301H407Q398 301 399 311L406 369Q407 377 414 377L679 376Q687 376 689 374T691 363L641 12Q640 0 627 0H602Q588 0 585 13L582 100Q581 105
577 105T567 98Q547 71 516 46T441 6T341 -10V-10Z" />
<glyph unicode="H" horiz-adv-x="740" d="M230 338Q225 338 222 335T218 325L174 14Q172 5 169 3T155 0H67Q57 0 55 3T53 16L154 730Q155 738 157 740T166 742H265Q271 742 273 739T274 729L234 444Q233 436 235 434T243 432H544Q550 432 553 437T557 448L597
731Q598 738 600 740T609 742H707Q713 742 715 739T716 724L616 13Q615 5 613 3T601 0H513Q503 0 499 4T496 17L540 330Q541 338 531 338H230Z" />
<glyph unicode="I" horiz-adv-x="298" d="M263 742Q276 742 273 724L174 16Q172 5 169 3T154 0H68Q58 0 56 5T54 19L154 730Q155 738 157 740T166 742H263Z" />
<glyph unicode="J" horiz-adv-x="427" d="M330 169Q322 108 298 68T234 9T133 -10Q94 -10 65 -2T20 11Q10 14 7 17T4 27L25 99Q26 105 29 107T40 106Q53 102 70 97T112 92Q158 92 181 118T214 204L288 730Q289 738 291 740T300 742H398Q410 742 407 724L330 169V169Z" />
<glyph unicode="K" horiz-adv-x="714" d="M636 17Q643 0 628 0H525Q511 0 508 14L354 366Q352 372 349 369T338 359L214 236Q210 232 207 228T202 216L174 14Q173 6 169 3T155 0H67Q59 0 56 5T54 19L154 731Q155 738 157 740T166 742H262Q268 742 271 738T274
726L225 380Q224 372 226 375T234 383L584 732Q590 739 595 740T610 742H704Q714 742 715 738T710 727L451 474Q447 470 445 467T444 457L636 17V17Z" />
<glyph unicode="L" horiz-adv-x="610" d="M154 728Q155 742 167 742H265Q276 742 273 724L187 103Q184 91 195 91H533Q546 91 544 76L535 10Q534 4 532 2T522 0H69Q51 0 54 19L154 728V728Z" />
<glyph unicode="M" horiz-adv-x="919" d="M64 0Q56 0 54 3T54 20L154 730Q155 738 157 740T167 742H300Q307 742 310 739T316 729L443 203Q445 195 448 196T456 205L729 729Q735 742 747 742H886Q898 742 896 729L796 15Q794 5 791 3T778 0H692Q683 0 679 4T676
19L752 559Q753 565 751 565T746 560L463 11Q459 4 455 2T444 0H381Q374 0 371 3T365 16L238 556Q237 562 235 562T230 557L153 11Q152 5 149 3T139 0H64V0Z" />
<glyph unicode="N" horiz-adv-x="757" d="M724 742Q735 742 734 729L633 10Q632 0 620 0H554Q548 0 543 2T534 12L241 537Q238 544 234 543T228 532L155 13Q154 5 151 3T139 0H65Q58 0 55 5T53 17L154 730Q155 738 157 740T168 742H245Q254 742 258 739T266 728L545
221Q550 212 556 213T563 225L634 731Q635 738 637 740T647 742H724Z" />
<glyph unicode="O" horiz-adv-x="767" d="M349 -10Q260 -10 197 24T101 126T68 287Q68 307 69 329T74 374Q91 494 142 578T271 707T448 752Q536 752 599 717T695 614T728 450Q728 430 727 408T722 363Q705 245 655 162T527 34T349 -10V-10ZM354 79Q456 79 516
150T598 373Q602 401 603 426T605 472Q605 570 565 617T445 664Q345 664 283 590T199 362Q195 336 193 312T191 268Q191 171 232 125T354 79V79Z" />
<glyph unicode="P" horiz-adv-x="698" d="M226 302Q220 302 217 299T212 289L174 14Q172 5 169 3T156 0H65Q50 0 54 18L154 729Q155 737 157 739T166 742H433Q506 742 563 722T654 660T687 552Q687 471 649 416T544 331T390 302H226ZM564 553Q564 608 525 630T419
653H278Q270 653 267 650T261 638L229 405Q228 396 230 394T237 391H384Q439 391 479 411T541 467T564 553V553Z" />
<glyph unicode="Q" horiz-adv-x="768" d="M74 375Q91 495 142 579T271 708T447 752Q536 752 599 717T695 614T729 451Q729 431 728 409T722 363Q706 249 662 172T547 47Q537 40 539 33Q541 22 556 7T596 -19T648 -35Q655 -36 657 -39T659 -47L650 -111Q648 -120
643 -122T621 -124Q593 -124 561 -113T498 -75T443 -5Q439 2 426 -1Q407 -5 388 -7T349 -10Q261 -10 198 24T102 125T68 288Q68 308 69 330T74 375V375ZM199 361Q195 334 193 310T191 265Q191 169 232 124T353 79Q454 79 515 150T598 374Q602 401 603 425T605 471Q605
568 566 616T445 664Q343 664 282 589T199 361V361Z" />
<glyph unicode="R" horiz-adv-x="704" d="M606 19Q613 0 594 0H498Q491 0 487 4T481 17L400 320Q399 326 396 328T383 330H230Q218 330 217 318L174 15Q172 5 168 3T153 0H69Q59 0 56 5T54 19L154 730Q155 738 157 740T166 742H456Q569 742 630 699T692 573Q692
520 671 475T613 398T523 349Q516 347 514 344T512 337L606 19V19ZM385 415Q441 415 481 431T543 481T566 565Q566 612 534 634T441 657H276Q265 657 262 644L231 426Q230 420 232 418T239 415H385V415Z" />
<glyph unicode="S" horiz-adv-x="652" d="M547 597Q525 624 486 644T389 664Q341 664 303 648T243 604T221 535Q221 519 230 503T258 472T307 445L450 395Q526 368 561 328T596 230Q596 153 556 99T447 18T292 -10Q195 -10 130 24T29 122Q26 129 26 134T34 144L85
176Q94 182 101 180T114 170Q137 139 160 118T216 86T302 75Q352 75 391 88T454 130T477 205Q477 233 457 254T386 296L241 348Q171 373 139 417T107 514Q107 569 129 612T192 687T284 735T395 752Q450 752 493 739T570 702T628 648Q633 641 633 637T629 628L566
586Q562 584 558 587T547 597V597Z" />
<glyph unicode="T" horiz-adv-x="656" d="M105 731Q106 738 108 740T118 742H673Q681 742 682 739T682 730L673 662Q672 657 669 655T659 652H462Q454 652 451 650T447 640L359 13Q358 5 355 3T346 0H251Q242 0 240 4T239 17L327 640Q328 652 316 652H107Q94 652
96 663L105 731Z" />
<glyph unicode="U" horiz-adv-x="713" d="M632 253Q619 158 579 100T474 16T322 -10Q193 -10 134 44T75 204Q75 221 76 239T81 276L145 729Q146 737 148 739T157 742H251Q259 742 262 737T264 724L198 249Q197 237 196 227T194 205Q194 140 229 110T334 80Q389
80 430 99T497 157T532 258L598 730Q600 738 602 740T610 742H686Q693 742 696 737T698 725L632 253V253Z" />
<glyph unicode="V" horiz-adv-x="715" d="M733 742Q748 742 741 726L389 14Q385 5 380 3T365 0H279Q268 0 263 3T255 15L107 727Q104 742 119 742H214Q227 742 229 726L343 154Q347 137 355 153L634 732Q636 738 640 740T650 742H733V742Z" />
<glyph unicode="W" horiz-adv-x="1057" d="M1070 742Q1081 742 1082 737T1080 718L774 14Q770 5 766 3T750 0H674Q664 0 658 3T651 15L574 542Q573 547 571 547T566 542L340 14Q335 5 331 3T315 0H236Q216 0 214 16L109 722Q107 732 110 737T125 742H209Q219 742
222 738T227 726L304 186Q306 177 309 177T316 186L548 732Q551 738 554 740T569 742H643Q653 742 656 738T660 726L738 182Q739 175 742 175T749 184L980 732Q983 738 987 740T1000 742H1070V742Z" />
<glyph unicode="X" horiz-adv-x="701" d="M618 24Q626 9 624 5T610 0H515Q508 0 503 2T495 11L357 281Q353 289 349 289T339 281L123 8Q119 3 114 2T100 0H16Q5 0 4 7T13 30L285 367Q292 374 293 380T291 394L117 728Q114 734 115 738T125 742H226Q235 742 239
740T245 730L370 483Q377 470 386 483L585 734Q589 739 593 740T606 742H698Q707 742 707 735T702 722L438 396Q432 389 432 385T433 375L618 24V24Z" />
<glyph unicode="Y" horiz-adv-x="694" d="M713 742Q721 742 723 737T721 725L427 330Q422 323 419 316T414 290L375 17Q374 6 369 3T352 0H267Q258 0 256 4T254 17L294 295Q296 306 295 311T291 325L107 726Q103 734 105 738T117 742H214Q224 742 228 738T236
725L368 424Q375 408 386 424L605 731Q611 738 615 740T629 742H713V742Z" />
<glyph unicode="Z" horiz-adv-x="647" d="M24 0Q15 0 11 3T8 15L12 45Q13 54 16 60T27 75L481 642Q485 647 485 648T479 650H132Q117 650 119 668L128 733Q130 739 131 740T138 742H657Q668 742 667 729L662 696Q661 689 659 685T651 673L188 100Q181 92 190 92H563Q569
92 571 90T573 81L563 10Q562 5 560 3T550 0H24V0Z" />
<glyph unicode="[" horiz-adv-x="296" d="M41 -165Q34 -165 29 -160T24 -147L147 732Q148 739 150 740T161 742H336Q341 742 344 739T346 731L340 682Q339 678 338 677T331 676H247Q240 676 235 671T228 657L122 -90Q121 -98 122 -98T131 -99H215Q221 -99 224
-103T228 -113L221 -156Q220 -162 219 -163T211 -165H41V-165Z" />
<glyph unicode="\" horiz-adv-x="349" d="M237 -35Q220 -35 218 -17L76 725Q74 735 75 738T86 742H137Q143 742 147 738T152 728L297 -27Q298 -32 297 -33T288 -35H237V-35Z" />
<glyph unicode="]" horiz-adv-x="296" d="M-32 -165Q-38 -165 -41 -162T-43 -154L-37 -105Q-36 -101 -34 -100T-28 -99H56Q64 -99 69 -94T75 -80L181 667Q182 675 181 675T172 676H88Q82 676 79 680T75 690L82 733Q83 740 84 741T92 742H262Q270 742 275 737T279
724L156 -155Q155 -162 153 -163T142 -165H-32V-165Z" />
<glyph unicode="^" horiz-adv-x="476" d="M265 406Q263 413 258 411T250 400L106 136Q103 131 100 131T90 131H37Q31 131 29 137T29 150L228 507Q240 530 257 537T289 535T310 502L410 141Q412 134 411 132T402 130H352Q346 130 340 133T334 141L265 406Z" />
<glyph unicode="_" horiz-adv-x="526" d="M416 -112Q415 -121 411 -123T397 -125L20 -126Q11 -126 8 -121T6 -108L13 -55Q14 -48 16 -47T23 -45L411 -44Q416 -44 420 -48T423 -59L416 -112Z" />
<glyph unicode="`" horiz-adv-x="292" d="M95 744Q98 749 101 750T109 749L328 653Q333 651 335 647T334 637L320 609Q318 603 315 603T303 604L83 671Q73 674 71 678T71 690L95 744V744Z" />
<glyph unicode="a" horiz-adv-x="552" d="M347 58Q309 23 263 7T167 -10Q96 -10 56 25T16 117Q16 171 43 208T113 269T209 304T312 318L378 323Q397 324 399 341L403 366Q404 371 404 376T404 386Q404 425 379 447T309 469Q269 469 232 451T165 393Q162 389 159
388T148 389L83 409Q78 411 76 416T80 433Q115 484 175 512T316 540Q381 540 423 523T486 473T506 397Q506 390 506 383T504 367L455 14Q453 4 451 2T440 0H373Q365 0 362 5T359 19L363 60Q362 75 347 58V58ZM386 252Q387 260 386 262T376 264L317 260Q290 258
257 252T193 232T143 194T123 133Q123 101 146 83T210 64Q242 64 270 75T322 102Q345 119 359 138T376 174L386 252Z" />
<glyph unicode="b" horiz-adv-x="602" d="M53 0Q43 0 39 6T36 21L136 730Q137 737 140 739T148 742H232Q239 742 240 737T241 724L208 486Q207 477 209 477T220 484Q234 493 256 506T309 530T380 540Q443 540 483 513T542 439T562 328Q562 270 547 210T500 101T417
21T296 -10Q253 -10 223 3T174 36T145 71Q142 76 138 75T130 64L118 16Q116 6 112 3T98 0H53ZM164 177Q160 143 174 117T214 76T273 61Q321 61 355 86T412 153T444 241T455 332Q455 398 428 432T344 467Q301 467 263 447T196 398L164 177Z" />
<glyph unicode="c" horiz-adv-x="545" d="M331 540Q388 540 427 521T492 470T528 401Q529 395 528 393T519 388L450 377Q446 376 443 380T438 392Q424 416 410 432T378 457T334 466Q287 466 252 443T193 381T157 297T145 210Q145 139 179 101T273 63Q322 63 358
86T427 156Q432 162 441 158L491 142Q495 141 497 136T496 122Q481 98 459 75T407 32T342 2T262 -10Q194 -10 144 18T66 98T38 219Q38 280 58 337T117 440T209 513T331 540V540Z" />
<glyph unicode="d" horiz-adv-x="602" d="M409 0Q402 0 397 3T394 16L400 54Q402 62 398 62T387 56Q373 44 351 29T298 2T227 -10Q144 -10 91 43T38 201Q38 264 56 323T108 432T193 511T307 540Q355 540 385 524T437 483Q445 475 450 477T458 497L492 729Q493
737 496 739T506 742H587Q598 742 596 724L496 16Q495 6 491 3T477 0H409ZM447 408Q424 437 397 452T335 467Q286 467 251 442T192 377T157 290T145 200Q145 152 161 121T204 76T265 62Q303 62 335 80T388 124T413 176L447 408Z" />
<glyph unicode="e" horiz-adv-x="582" d="M266 -10Q198 -10 147 18T67 98T38 217Q38 279 59 336T118 440T211 513T334 540Q400 540 448 514T522 438T549 317Q549 304 548 290T545 260Q544 252 539 248T524 244H158Q150 244 147 234T144 199Q144 137 182 102T280
67Q327 67 366 86T438 145Q443 150 447 150T456 146L503 122Q517 115 508 102Q473 61 436 37T358 1T266 -10V-10ZM428 305Q438 305 444 313T451 348Q451 400 420 434T333 469Q286 469 249 446T188 385T159 305H428Z" />
<glyph unicode="f" horiz-adv-x="386" d="M389 530Q395 530 398 527T399 518L392 464Q390 454 379 454H273Q265 454 263 442L203 12Q202 4 200 2T190 0H110Q104 0 100 5T97 17L157 447Q159 454 152 454H60Q54 454 53 458T51 468L59 520Q60 526 62 528T71 530H157Q163
530 167 534T171 545L181 614Q190 677 226 709T329 742H417Q425 742 429 739T433 727L427 677Q426 668 414 668H351Q322 668 305 650T283 601L274 539Q273 530 283 530H389V530Z" />
<glyph unicode="g" horiz-adv-x="611" d="M217 -175Q101 -175 38 -142T-25 -50Q-25 -9 4 21T80 69Q88 73 90 76T84 83Q65 94 56 107T46 139Q46 162 60 179T96 208T138 226Q147 230 149 234T144 241Q109 258 91 285T73 350Q73 398 93 433T146 491T223 526T313 538Q380
538 417 523T474 490Q480 484 487 488T500 498Q514 511 531 521T567 537T601 543Q613 543 618 540T622 526L616 482Q615 470 611 467T597 462Q580 462 566 460T542 454Q510 446 516 430Q520 423 522 412T525 386Q525 339 504 306T447 251T368 219T281 209Q272 209
251 208T205 202T163 189T146 164Q146 152 163 147T221 139L354 131Q438 126 477 93T516 1Q516 -40 499 -70T451 -120T383 -152T302 -169T217 -175V-175ZM221 -116Q260 -116 295 -111T358 -94T402 -62T418 -12Q418 16 400 29T335 45L175 54Q149 49 124 37T84 7T68
-38Q68 -79 107 -97T221 -116V-116ZM284 269Q323 269 355 282T408 323T428 394Q428 433 400 455T314 477Q276 477 243 462T190 419T169 349Q169 312 199 291T284 269V269Z" />
<glyph unicode="h" horiz-adv-x="588" d="M52 0Q44 0 40 5T36 19L136 730Q138 738 141 740T150 742H228Q241 742 239 728L203 474Q201 461 210 466Q249 493 279 509T338 532T398 540Q469 540 506 506T543 412Q543 405 543 398T540 383L488 15Q487 6 484 3T471
0H397Q379 0 383 19L432 369Q433 375 433 380T434 391Q434 425 415 442T355 460Q327 460 302 451T252 425T194 382L142 14Q140 5 137 3T123 0H52Z" />
<glyph unicode="i" horiz-adv-x="247" d="M141 16Q140 5 137 3T121 0H53Q43 0 39 5T36 19L106 518Q107 526 109 528T119 530H201Q208 530 210 525T212 513L141 16ZM231 633Q230 623 226 619T210 615H132Q123 615 121 621T120 637L132 725Q135 742 148 742H233Q239
742 242 736T243 723L231 633Z" />
<glyph unicode="j" horiz-adv-x="247" d="M136 -21Q126 -98 88 -134T-33 -170Q-78 -170 -90 -166T-101 -151L-94 -97Q-93 -92 -91 -89T-82 -85L-33 -81Q-6 -80 10 -64T32 -9L106 518Q108 525 110 527T120 530H199Q206 530 209 525T212 513L136 -21V-21ZM231 633Q230
623 226 619T210 615H132Q123 615 121 621T120 637L132 725Q135 742 148 742H233Q239 742 242 736T243 723L231 633Z" />
<glyph unicode="k" horiz-adv-x="576" d="M513 16Q516 9 515 5T504 0H416Q408 0 404 5T397 17L294 258Q290 269 280 259L172 162Q168 158 165 153T159 140L142 16Q140 5 137 3T122 0H54Q43 0 39 5T36 19L136 730Q138 738 140 740T149 742H232Q238 742 240 737T241
724L179 277Q178 270 179 271T187 279L450 519Q457 526 462 528T474 530H549Q561 530 564 523T558 507L383 352Q378 348 375 344T375 331L513 16V16Z" />
<glyph unicode="l" horiz-adv-x="248" d="M142 16Q140 5 137 3T121 0H53Q43 0 39 5T35 19L138 730Q139 738 141 740T150 742H232Q244 742 241 726L142 16Z" />
<glyph unicode="m" horiz-adv-x="910" d="M52 0Q44 0 40 5T36 19L106 518Q107 526 109 528T118 530H200Q207 530 208 527T209 516L202 469Q200 457 208 464Q243 488 272 505T331 531T392 540Q450 540 482 514T522 450Q523 446 527 448T539 458Q573 483 604 501T665
530T727 540Q793 540 828 505T864 411Q864 404 864 397T862 382L810 15Q809 6 806 3T793 0H720Q702 0 705 19L754 366Q756 372 756 379T756 392Q756 425 739 442T683 460Q656 460 631 450T584 425T545 395Q537 388 532 382T525 365L476 15Q474 6 471 3T458 0H385Q378
0 374 5T370 19L420 369Q426 413 409 436T349 460Q322 460 298 451T249 425T194 382L141 14Q140 5 137 3T123 0H52V0Z" />
<glyph unicode="n" horiz-adv-x="588" d="M48 0Q40 0 38 5T36 19L106 518Q107 526 109 528T118 530H201Q206 530 208 528T209 519L201 464Q200 452 210 461Q256 498 302 519T398 540Q468 540 505 505T542 411Q542 405 542 398T540 384L488 15Q487 6 484 3T470
0H394Q386 0 384 5T383 19L432 367Q433 374 433 380T434 391Q434 424 415 442T355 460Q327 460 302 451T251 425T194 382L141 14Q140 5 136 3T122 0H48V0Z" />
<glyph unicode="o" horiz-adv-x="599" d="M264 -10Q195 -10 144 18T66 98T38 218Q38 289 61 348T126 450T220 516T335 540Q404 540 454 511T532 429T559 307Q559 215 520 144T415 31T264 -10V-10ZM268 65Q321 65 363 96T429 186T454 325Q454 392 423 429T333 467Q281
467 238 435T170 345T145 205Q145 139 177 102T268 65V65Z" />
<glyph unicode="p" horiz-adv-x="601" d="M21 -165Q16 -165 14 -160T13 -148L106 515Q107 525 110 527T123 530H194Q202 530 206 527T210 515L204 476Q203 470 207 470T218 477Q233 488 254 503T305 529T377 540Q458 540 510 488T562 330Q562 272 547 212T499
102T417 21T298 -10Q252 -10 219 6T164 45Q155 54 150 49T143 31L118 -154Q117 -161 115 -163T106 -165H21V-165ZM266 62Q315 62 350 87T409 154T443 242T455 332Q455 381 440 410T398 454T337 468Q299 468 267 451T214 410T190 361L154 121Q178 93 204 78T266
62V62Z" />
<glyph unicode="q" horiz-adv-x="602" d="M377 -165Q366 -165 368 -147L393 31Q395 41 394 42T381 36Q351 17 313 4T233 -10Q141 -10 91 48T40 208Q40 264 55 322T102 430T184 510T305 540Q354 540 385 527T433 497T460 463Q464 458 468 459T476 472L492 515Q495
525 499 527T512 530H555Q563 530 566 526T566 509L474 -153Q473 -161 469 -163T457 -165H377V-165ZM266 62Q304 62 340 78T404 123L439 352Q443 385 431 412T394 455T332 471Q284 471 249 446T192 381T158 295T146 206Q146 134 179 98T266 62V62Z" />
<glyph unicode="r" horiz-adv-x="396" d="M52 0Q43 0 39 5T36 19L106 518Q107 526 109 528T118 530H196Q202 530 205 527T207 514L199 460Q198 452 201 452T210 456Q237 485 265 503T320 531T371 540Q391 540 400 537T409 527L398 451Q398 444 396 442T390 440Q377
442 363 442T338 443Q316 443 291 434T243 409T204 373T186 333L141 14Q140 5 137 3T123 0H52V0Z" />
<glyph unicode="s" horiz-adv-x="517" d="M224 -10Q137 -10 81 23T5 105Q-1 117 10 122L57 146Q64 149 69 148T78 140Q95 106 129 84T222 62Q240 62 264 66T310 79T348 105T364 147Q364 168 346 184T284 213L185 240Q120 259 91 289T62 362Q62 420 94 459T179
519T292 540Q364 540 413 513T485 441Q488 437 488 433T481 425L434 403Q428 400 425 402T414 411Q398 437 367 453T289 470Q262 470 232 462T181 435T161 388Q161 370 173 356T224 330L342 297Q404 280 433 245T462 166Q462 121 441 88T385 33T308 1T224 -10V-10Z"
/>
<glyph unicode="t" horiz-adv-x="401" d="M218 0Q161 0 131 24T100 97Q100 104 100 112T102 128L146 444Q147 450 144 452T135 454H60Q50 454 51 469L59 522Q60 528 62 529T70 530H150Q154 530 157 533T162 542L196 699Q198 710 211 710H280Q286 710 288 706T290
691L267 539Q266 535 268 533T275 530H393Q399 530 403 528T406 519L398 463Q397 457 395 456T385 454H265Q254 454 252 441L211 148Q210 141 209 135T208 123Q208 95 222 86T264 77H328Q333 77 337 72T340 62L333 19Q331 6 320 4Q307 2 288 2T250 1T218 0V0Z"
/>
<glyph unicode="u" horiz-adv-x="583" d="M187 -10Q124 -10 85 26T46 122Q46 129 46 135T47 148L99 515Q100 524 104 527T116 530H190Q198 530 202 525T204 511L155 165Q154 160 154 155T154 145Q154 106 174 88T230 70Q272 70 311 92T390 151L442 516Q444 525
447 527T461 530H533Q541 530 545 525T549 511L477 11Q476 5 474 3T465 0H387Q382 0 378 2T375 12L383 66Q384 71 381 72T372 68Q316 23 273 7T187 -10V-10Z" />
<glyph unicode="v" horiz-adv-x="555" d="M552 530Q560 530 564 524T565 510L293 14Q288 5 283 3T267 0H220Q209 0 203 5T195 19L62 515Q59 530 74 530H156Q163 530 168 526T173 514L267 152Q271 135 283 159L476 520Q483 530 493 530H552V530Z" />
<glyph unicode="w" horiz-adv-x="803" d="M798 530Q805 530 809 524T810 510L583 11Q580 4 576 2T564 0H505Q485 0 484 18L423 360Q421 370 418 367T410 355L256 11Q253 4 249 2T237 0H175Q155 0 154 18L64 515Q62 530 76 530H153Q160 530 165 526T170 514L231
159Q233 149 237 152T245 165L405 521Q409 530 420 530H479Q485 530 490 526T495 514L558 159Q560 149 563 152T571 165L728 520Q734 530 746 530H798V530Z" />
<glyph unicode="x" horiz-adv-x="559" d="M490 22Q499 8 498 4T485 0H398Q389 0 383 4T375 14L270 191Q265 200 261 198T249 188L91 9Q87 3 79 2T62 0H0Q-12 0 -13 8T0 32L208 257Q215 264 216 269T215 282L76 513Q72 519 74 524T85 530H169Q179 530 184 526T191
516L290 349Q293 344 297 346T306 355L448 521Q452 528 457 529T472 530H539Q550 530 550 524T545 511L351 292Q344 285 343 280T345 268L490 22V22Z" />
<glyph unicode="y" horiz-adv-x="541" d="M41 -165Q13 -165 -1 -163T-14 -149L-7 -99Q-6 -92 2 -89T27 -85H89Q110 -85 129 -73T161 -42T181 -4T183 32L58 508Q53 530 70 530H160Q173 530 174 520L262 160Q265 149 270 149T281 162L465 515Q469 523 473 526T484
530H545Q559 530 550 515L257 -30Q235 -70 213 -96T165 -138T109 -159T41 -165V-165Z" />
<glyph unicode="z" horiz-adv-x="493" d="M6 0Q-3 0 -5 3T-6 15L-2 43Q-1 53 3 59T17 77L346 445Q351 451 350 455T339 459H89Q82 459 80 462T79 474L86 519Q88 525 92 527T101 530H485Q494 530 493 520L488 486Q487 478 483 471T471 456L141 86Q135 80 137 76T146
72H423Q435 72 433 60L426 13Q425 7 423 4T412 0H6V0Z" />
<glyph unicode="{" horiz-adv-x="324" d="M198 -165Q167 -165 143 -157T101 -135T76 -99T72 -52L102 168Q106 192 98 213T69 247T12 260Q7 260 4 264T2 275L7 313Q8 319 8 320T11 322Q69 322 100 351T138 425L169 636Q174 671 195 694T248 730T318 742H364Q369
742 372 739T375 731L368 682Q367 678 366 677T359 676H332Q305 676 290 669T267 649T257 620L227 405Q221 367 203 344T162 309T114 293Q106 293 103 291T104 287Q129 285 151 273T186 236T194 169L163 -48Q159 -76 170 -87T219 -99H244Q250 -99 253 -103T257
-113L250 -156Q249 -162 248 -163T239 -165H198V-165Z" />
<glyph unicode="|" horiz-adv-x="258" d="M47 -165Q38 -165 34 -160T31 -145L169 835Q170 843 172 845T182 847H235Q243 847 246 842T249 830L110 -156Q109 -162 107 -163T99 -165H47Z" />
<glyph unicode="}" horiz-adv-x="324" d="M-32 -165Q-38 -165 -41 -162T-43 -154L-37 -105Q-36 -101 -34 -100T-28 -99H0Q26 -99 41 -92T64 -72T74 -43L104 172Q110 210 128 233T170 269T218 284Q225 284 228 286T228 290Q203 292 180 304T145 341T138 408L168
625Q172 654 161 665T112 676H87Q81 676 78 680T75 690L81 733Q82 740 83 741T92 742H134Q164 742 188 734T230 712T255 676T259 629L229 409Q226 385 233 364T262 330T319 317Q323 317 326 313T329 302L324 264Q323 258 322 257T319 255Q262 255 231 226T193 152L163
-59Q159 -93 138 -117T84 -153T13 -165H-32V-165Z" />
<glyph unicode="~" horiz-adv-x="581" d="M534 367Q512 342 478 327T401 311Q370 311 347 319T304 338T264 358T219 366Q181 366 153 348T104 309Q99 307 96 310T91 318L74 357Q72 362 72 366T77 376Q110 401 143 419T219 437Q249 437 272 429T315 410T356 391T401
382Q438 382 463 398T504 434Q511 439 515 436T522 424L536 389Q540 381 534 367V367Z" />
<glyph unicode="&#xa0;" horiz-adv-x="212" />
<glyph unicode="&#xa1;" horiz-adv-x="251" d="M208 412Q207 406 205 404T197 402H98Q92 402 89 407T86 420L100 517Q101 525 103 527T116 530H201Q213 530 218 525T221 509L208 412V412ZM129 -156Q129 -161 127 -163T120 -165H17Q12 -165 8 -160T6 -148L98 322Q100
330 102 331T113 333H150Q160 333 165 328T168 314L129 -156V-156Z" />
<glyph unicode="&#xa2;" horiz-adv-x="558" d="M296 17Q295 6 291 3T276 0H239Q229 0 225 6T222 21L238 138Q239 147 243 149T256 152H297Q307 152 310 147T313 133L296 17V17ZM380 607Q378 596 374 593T359 590H322Q311 590 307 596T304 611L321 728Q322 737
326 739T339 742H380Q389 742 393 737T396 724L380 607V607ZM309 651Q366 651 405 632T470 581T506 512Q507 506 506 504T497 499L428 488Q424 487 421 491T416 503Q402 527 388 543T356 568T312 577Q265 577 230 554T171 492T135 408T123 321Q123 250 157 212T251
174Q300 174 336 197T405 267Q410 273 419 269L469 253Q473 252 475 247T474 233Q459 209 437 186T385 143T320 113T240 101Q172 101 122 129T44 209T16 330Q16 391 36 448T95 551T187 624T309 651V651Z" />
<glyph unicode="&#xa3;" horiz-adv-x="625" d="M-11 0Q-17 0 -20 5T-23 16L-14 83Q-13 89 -12 89T-5 90H23Q62 90 94 124T137 229Q140 248 141 277T144 350Q143 352 142 352T137 352H49Q45 352 42 356T40 364L47 411Q47 415 48 416T53 417H127Q131 417 135 420T140
429L137 506Q135 565 154 610T208 687T288 735T382 752Q427 752 468 737T540 694T579 627Q582 624 581 623T573 620L500 597Q495 595 491 598T485 608Q474 633 453 648T392 663Q359 663 331 650T283 611T258 549Q254 519 255 484T259 420Q262 417 267 417H414Q418
417 420 414T423 407L416 358Q415 354 414 353T409 352H276Q270 352 266 349T261 338Q261 311 259 286T250 231Q243 194 231 168T206 124T184 97Q178 94 177 93T181 91H338Q386 91 419 109T474 169Q478 172 481 172T490 170L552 155Q558 154 561 149T563 135Q530
68 472 34T337 0H-11V0Z" />
<glyph unicode="&#xa4;" horiz-adv-x="549" d="M266 172Q234 172 208 181T162 207Q156 208 152 206T145 200L91 153Q86 149 82 151T72 158L46 189Q42 194 41 198T44 207L99 254Q107 262 105 274Q94 296 89 321T89 378Q93 407 104 433T133 485Q141 491 137 496L97
543Q93 548 92 553T96 562L131 593Q137 598 141 596T148 589L190 542Q192 539 195 541T203 546Q229 559 257 566T312 574Q343 574 370 565T416 538Q422 538 425 540T431 545L488 594Q491 596 494 594T498 589L531 551Q533 547 534 545T533 539L476 489Q470 483
470 476Q483 454 488 427T489 367Q485 340 474 312T443 260Q441 259 439 257T440 252L481 203Q484 200 485 197T485 190L441 153Q438 150 436 152T431 157L389 206Q386 209 383 207T378 201Q351 187 323 180T266 172V172ZM268 249Q305 249 336 267T389 315T415
379Q419 410 408 437T371 480T312 497Q275 497 244 479T191 431T165 367Q161 336 172 309T209 266T268 249V249Z" />
<glyph unicode="&#xa5;" horiz-adv-x="624" d="M675 742Q683 742 687 736T686 723L395 334Q390 328 387 321T382 295L342 17Q341 6 337 3T320 0H240Q229 0 225 6T222 20L261 298Q263 309 263 314T259 327L75 726Q72 734 73 738T86 742H185Q195 742 199 738T206
725L338 423Q342 414 345 416T355 428L573 731Q580 740 583 741T597 742H675V742ZM538 298Q537 290 533 288T519 285L121 284Q113 284 109 289T106 302L111 338Q112 345 114 346T121 348L531 349Q536 349 540 345T543 334L538 298ZM516 146Q515 137 511 135T497
133L100 132Q91 132 87 137T84 150L89 185Q91 192 92 194T99 196L509 197Q514 197 518 192T521 182L516 146Z" />
<glyph unicode="&#xa6;" horiz-adv-x="258" d="M131 435Q122 435 118 440T116 454L169 835Q170 843 172 845T182 847H235Q243 847 246 842T249 830L195 444Q194 438 192 437T183 435H131ZM47 -165Q38 -165 34 -160T31 -145L84 235Q85 243 87 245T97 247H150Q158
247 162 242T165 230L110 -156Q109 -162 107 -163T99 -165H47Z" />
<glyph unicode="&#xa7;" horiz-adv-x="493" d="M358 205Q400 180 420 149T433 72Q427 29 399 -4T322 -56T211 -75Q134 -75 80 -43T7 36Q3 42 3 44T4 49L61 75Q66 78 70 75T76 65Q95 36 128 16T212 -4Q261 -4 296 15T336 72Q339 94 323 114T254 156L173 189Q103
217 75 255T54 347Q60 393 92 426T171 478Q137 498 120 519T97 563T95 611Q101 651 129 683T202 733T305 752Q376 752 423 722T488 653Q493 648 493 645T490 639L436 614Q429 611 425 614T420 624Q401 647 375 664T310 681Q260 681 229 661T192 609Q190 592 201
574T257 537L335 505Q412 473 443 432T466 334Q459 286 429 256T358 205V205ZM274 247Q299 246 320 256T356 286T374 327Q377 344 374 359T354 388T303 418L252 438Q225 436 202 423T164 390T145 350Q142 326 155 310T218 271L274 247V247Z" />
<glyph unicode="&#xa8;" horiz-adv-x="284" d="M162 639Q161 630 158 628T144 625H78Q69 625 66 630T63 643L75 731Q77 739 79 740T87 742H163Q169 742 172 737T174 726L162 639ZM327 639Q326 630 323 628T308 625H242Q233 625 230 630T227 643L240 731Q241 739
243 740T251 742H327Q333 742 336 737T339 726L327 639Z" />
<glyph unicode="&#xa9;" horiz-adv-x="830" d="M380 -10Q301 -10 235 20T124 103T58 226T49 377Q60 454 99 522T197 642T328 723T479 752Q558 752 624 722T735 639T801 515T810 365Q799 287 760 219T662 99T531 19T380 -10V-10ZM382 58Q447 58 507 80T615 145T696
245T739 377Q749 446 734 503T682 601T594 663T478 685Q412 685 352 662T243 597T163 496T121 365Q111 295 126 238T176 141T264 79T382 58V58ZM459 588Q503 588 534 572T584 529T613 474Q615 471 614 470T609 467L548 455Q545 454 542 458T538 468Q527 493 509
509T462 525Q428 525 399 506T351 453T324 368Q314 297 339 260T414 222Q453 222 482 244T533 299Q535 300 537 299T544 295L584 282Q591 280 589 265Q576 247 559 229T519 194T468 169T407 160Q348 160 306 187T245 264T235 378Q244 440 276 487T355 561T459 588V588Z"
/>
<glyph unicode="&#xaa;" horiz-adv-x="396" d="M253 750Q302 750 331 736T371 697T378 637L354 470Q352 456 352 446T353 419Q356 414 352 413T340 412H296Q289 412 287 416T283 425V449Q282 454 280 452T272 443Q244 424 221 415T169 406Q116 406 89 433T68 505Q75
552 120 578T249 612L291 616Q297 616 301 620T307 628L309 642Q312 672 298 685T251 699Q226 699 205 689T166 653Q163 651 162 652T155 654L108 668Q107 669 106 674T106 684Q128 716 163 733T253 750V750ZM140 497Q137 478 151 467T193 456Q213 456 230 463T261
484Q273 491 281 501T291 521L297 564Q298 570 297 571T289 571L254 568Q222 566 198 557T158 533T140 497V497Z" />
<glyph unicode="&#xab;" horiz-adv-x="459" d="M380 76Q382 72 381 72T372 71H335Q331 71 328 74T324 80L228 246Q226 253 225 259T228 272L374 449Q377 453 379 453T384 452H424Q428 452 432 448T433 438L317 263Q315 259 314 255T313 245L380 76ZM196 76Q198
72 197 72T188 71H151Q147 71 144 74T140 80L44 246Q42 253 41 259T44 272L190 449Q193 453 195 453T201 452H240Q244 452 248 448T249 438L134 263Q131 259 130 255T129 245L196 76Z" />
<glyph unicode="&#xac;" horiz-adv-x="565" d="M519 346Q519 338 515 336T501 333L84 332Q76 332 73 337T69 350L77 402Q79 409 80 411T87 413H516Q521 413 524 409T528 399L519 346ZM499 196Q498 188 496 186T483 184H426Q418 184 415 188T412 199L436 379Q438
385 439 386T446 388H512Q519 388 522 384T524 372L499 196Z" />
<glyph unicode="&#xad;" horiz-adv-x="381" d="M537 237Q536 229 532 227T518 224H289Q280 224 277 228T273 241L281 294Q283 301 285 303T291 305H534Q539 305 543 301T545 291L537 237Z" />
<glyph unicode="&#xae;" horiz-adv-x="545" d="M278 275Q211 275 161 308T85 396T69 519Q79 584 117 636T213 720T337 752Q403 752 453 719T529 631T545 507Q536 443 497 390T400 306T278 275V275ZM277 325Q333 325 378 348T455 416T493 519Q501 574 484 615T430
679T339 702Q283 702 237 678T160 610T121 507Q110 423 152 374T277 325V325ZM384 398Q385 395 385 394T382 393H342Q340 393 338 395T336 401L314 500Q313 502 313 502T307 501H266Q264 501 262 498T259 494L245 396Q245 394 245 394T241 393H206Q203 393 201
396T200 402L231 628Q232 631 232 631T233 630H336Q376 630 397 612T413 563Q410 539 395 526T363 505Q361 506 359 504T357 501L384 398V398ZM318 537Q336 537 349 545T365 571Q367 581 360 587T328 594H281Q278 594 276 593T272 587L265 538Q265 536 265 536T267
537H318V537Z" />
<glyph unicode="&#xaf;" horiz-adv-x="338" d="M385 669Q384 661 381 659T368 657H81Q73 657 70 662T68 674L74 721Q76 727 77 728T83 730H381Q386 730 389 726T391 716L385 669Z" />
<glyph unicode="&#xb0;" horiz-adv-x="464" d="M455 689Q448 642 423 607T359 551T274 531Q226 531 191 553T140 613T130 700Q137 747 162 782T226 838T311 858Q359 858 393 836T445 776T455 689V689ZM385 699Q391 740 371 765T308 790Q265 790 234 761T197 688Q192
647 212 622T273 596Q317 596 347 625T385 699V699Z" />
<glyph unicode="&#xb1;" horiz-adv-x="565" d="M481 69Q480 60 476 58T462 56L46 55Q37 55 34 60T31 72L38 125Q39 132 41 133T48 135L477 136Q482 136 485 132T488 121L481 69ZM531 426Q530 418 526 416T512 413H96Q88 413 84 417T81 430L88 483Q89 490 91 491T99
493L527 494Q532 494 536 489T539 479L531 426ZM257 228Q248 228 244 234T241 251L299 667Q301 676 303 677T313 679H365Q372 679 376 675T379 665L320 236Q319 231 317 230T309 228H257Z" />
<glyph unicode="&#xb2;" horiz-adv-x="452" d="M179 583Q218 614 244 639T283 688T297 736Q297 768 276 784T224 800Q197 800 166 784T111 734Q107 729 103 732L57 761Q53 764 60 774Q94 816 139 836T232 857Q271 857 303 844T353 805T371 741Q371 705 356 676T315
620T251 564L116 455Q112 452 112 450T117 447H326Q336 447 335 439L328 391Q327 388 326 386T319 384H16Q4 384 5 397L9 430Q11 437 14 442T33 459L179 583Z" />
<glyph unicode="&#xb3;" horiz-adv-x="467" d="M86 785Q84 788 84 791T88 797Q121 827 161 842T245 857Q316 857 355 828T395 750Q395 709 368 678T298 633Q294 632 294 630T298 627Q333 618 355 592T378 528Q378 483 354 449T284 397T177 378Q136 378 107 388T57
414T22 451Q18 458 21 460L61 488Q65 491 68 488Q91 459 119 447T182 434Q234 434 269 459T304 527Q304 551 291 566T255 590T207 599L149 600Q142 600 143 606L149 650Q149 654 157 654L201 655Q233 655 260 667T303 699T320 744Q320 770 299 786T243 802Q204
802 178 788T126 754Q119 748 114 755L86 785V785Z" />
<glyph unicode="&#xb4;" horiz-adv-x="292" d="M340 689Q341 683 340 679T328 671L89 603Q81 601 77 604T71 614L65 641Q63 653 69 655L315 751Q319 752 323 751T329 742L340 689Z" />
<glyph unicode="&#xb5;" horiz-adv-x="583" d="M231 70Q271 70 310 92T390 151L442 516Q444 525 447 527T461 530H533Q541 530 545 525T549 511L477 11Q476 5 474 3T465 0H387Q382 0 378 5T375 16L383 72Q384 78 381 77T372 69Q339 43 313 27T264 3T217 -8Q189
-8 169 -5T134 11L111 -149Q110 -160 107 -162T91 -165H23Q13 -165 9 -160T6 -146L99 515Q100 524 104 527T116 530H190Q198 530 202 525T204 511L154 151Q150 128 159 110T188 81T231 70V70Z" />
<glyph unicode="&#xb6;" horiz-adv-x="574" d="M516 678Q512 678 508 674T504 666L399 -78Q398 -81 398 -83T392 -85H343Q337 -85 334 -80T332 -72L436 674Q437 677 436 677T431 678H394Q390 678 387 674T382 666L277 -78Q277 -82 276 -83T269 -85H219Q215 -85
212 -82T209 -72L262 303Q262 306 262 306T260 307Q197 309 153 337T90 414T78 524Q86 581 119 630T208 711T342 742H566Q571 742 573 739T575 731L569 682Q568 678 567 678T562 678H516Z" />
<glyph unicode="&#xb7;" horiz-adv-x="216" d="M178 328Q177 318 174 316T159 313H70Q61 313 57 318T54 331L67 423Q68 431 70 432T77 434H180Q186 434 189 430T191 418L178 328Z" />
<glyph unicode="&#xb8;" horiz-adv-x="234" d="M167 -138Q162 -175 127 -194T48 -213Q20 -213 -3 -206T-45 -187Q-49 -187 -51 -184T-53 -177L-35 -149Q-34 -145 -33 -147T-29 -153Q-17 -159 -2 -164T32 -169Q61 -169 78 -158T97 -127Q100 -107 84 -98T24 -88Q18
-88 15 -85T13 -78L63 5H117L88 -53Q86 -55 86 -55T86 -56Q121 -58 139 -70T163 -101T167 -138V-138Z" />
<glyph unicode="&#xb9;" horiz-adv-x="367" d="M238 438Q246 438 245 431L239 386Q238 380 231 380H-1Q-9 380 -7 387L-1 433Q0 438 6 438H83Q87 438 89 444L134 764Q135 769 128 768L51 742Q41 739 42 749L47 782Q48 787 49 789T55 794L158 842Q165 845 169 846T180
847H214Q222 847 220 838L164 443Q163 438 168 438H238V438Z" />
<glyph unicode="&#xba;" horiz-adv-x="407" d="M267 751Q318 751 352 729T401 666T409 572Q402 524 378 487T316 428T228 407Q176 407 142 430T94 492T86 583Q94 634 118 672T181 730T267 751V751ZM268 699Q224 699 197 666T161 575Q153 519 169 490T226 460Q271
460 298 493T335 586Q342 639 326 669T268 699V699Z" />
<glyph unicode="&#xbb;" horiz-adv-x="458" d="M138 251Q141 255 143 259T143 269L77 444Q76 449 77 450T83 452H122Q128 452 133 443L229 267Q231 261 231 255T227 241L84 74Q82 72 80 72T73 71H36Q30 71 26 74T24 82L138 251V251ZM322 251Q325 255 327 259T327
269L261 444Q260 449 261 450T267 452H306Q312 452 316 443L413 267Q415 261 416 255T411 241L267 74Q266 72 264 72T257 71H220Q214 71 210 74T207 82L322 251V251Z" />
<glyph unicode="&#xbc;" horiz-adv-x="907" d="M287 334Q295 334 294 327L288 282Q287 276 280 276H48Q40 276 42 283L48 329Q49 334 55 334H132Q136 334 138 340L183 660Q184 665 177 664L100 638Q90 635 91 645L96 678Q97 683 98 685T104 690L207 738Q214 741
218 742T229 743H263Q271 743 269 734L213 339Q212 334 217 334H287V334ZM214 3Q209 -2 205 -3T193 -4H162Q151 -4 149 4T153 21L736 744Q741 751 745 751T754 750H793Q799 750 803 746T802 734L214 3ZM716 460Q720 464 723 465T733 467H790Q798 467 797 458L758
179Q758 175 761 175H820Q829 175 828 168L822 128Q822 123 820 122T813 121H755Q749 121 749 114L734 9Q733 3 731 2T722 0H666Q657 0 658 9L672 116Q674 121 668 121H466Q457 121 458 130L464 170Q465 176 468 180T478 194L716 460V460ZM674 175Q680 175 681
181L708 376Q709 380 707 380T700 374L531 183Q525 175 532 175H674Z" />
<glyph unicode="&#xbd;" horiz-adv-x="963" d="M302 334Q310 334 309 327L303 282Q302 276 295 276H63Q55 276 57 283L63 329Q64 334 70 334H147Q151 334 153 340L198 660Q199 665 192 664L115 638Q105 635 106 645L111 678Q112 683 113 685T119 690L222 738Q229
741 233 742T244 743H278Q286 743 284 734L228 339Q227 334 232 334H302V334ZM194 3Q189 -2 185 -3T173 -4H142Q131 -4 129 4T133 21L716 744Q721 751 725 751T734 750H773Q779 750 783 746T782 734L194 3ZM689 199Q728 230 754 255T793 304T807 352Q807 384 786
400T734 416Q707 416 676 400T621 350Q617 345 613 348L567 377Q563 380 570 390Q604 432 649 452T742 473Q781 473 813 460T863 421T881 357Q881 321 866 292T825 236T761 180L626 71Q622 68 622 66T627 63H836Q846 63 845 55L838 7Q837 4 836 2T829 0H526Q514
0 515 13L519 46Q521 53 524 58T543 75L689 199Z" />
<glyph unicode="&#xbe;" horiz-adv-x="957" d="M106 680Q104 683 104 686T108 692Q141 722 181 737T265 752Q336 752 375 723T415 645Q415 604 388 573T318 528Q314 527 314 525T318 522Q353 513 375 487T398 423Q398 378 374 344T304 292T197 273Q156 273 127
283T77 309T42 346Q38 353 41 355L81 383Q85 386 88 383Q111 354 139 342T202 329Q254 329 289 354T324 422Q324 446 311 461T275 485T227 494L169 495Q162 495 163 501L169 545Q169 549 177 549L221 550Q253 550 280 562T323 594T340 639Q340 665 319 681T263
697Q224 697 198 683T146 649Q139 643 134 650L106 680V680ZM268 3Q263 -2 259 -3T247 -4H216Q205 -4 203 4T207 21L790 744Q795 751 799 751T808 750H847Q853 750 857 746T856 734L268 3ZM784 460Q788 464 791 465T801 467H858Q866 467 865 458L826 179Q826 175
829 175H888Q897 175 896 168L890 128Q890 123 888 122T881 121H823Q817 121 817 114L802 9Q801 3 799 2T790 0H734Q725 0 726 9L740 116Q742 121 736 121H534Q525 121 526 130L532 170Q533 176 536 180T546 194L784 460V460ZM742 175Q748 175 749 181L776 376Q777
380 775 380T768 374L599 183Q593 175 600 175H742Z" />
<glyph unicode="&#xbf;" horiz-adv-x="522" d="M248 515Q249 525 253 527T269 530H354Q363 530 367 525T371 511L357 414Q356 407 354 405T346 402H246Q240 402 237 407T234 418L248 515ZM451 -20Q456 -21 458 -27T458 -41Q417 -104 350 -139T200 -175Q125 -175
76 -151T5 -86T-9 9Q-4 48 15 76T59 126T114 167T169 209T213 259T238 326Q240 335 251 335H311Q318 335 322 329T325 312Q318 260 295 224T240 162T178 113T125 64T97 2Q91 -43 120 -69T203 -95Q235 -95 268 -83T328 -49T368 -1Q372 3 372 3T380 0L451 -20Z" />
<glyph unicode="&#xc0;" horiz-adv-x="741" d="M12 0Q6 0 4 6T7 23L363 729Q368 737 373 739T388 742H489Q499 742 503 736T509 722L664 17Q665 11 663 6T653 0H558Q545 0 543 14L504 192Q503 199 494 199H218Q208 199 203 189L111 8Q109 3 106 2T96 0H12V0ZM476
293Q489 293 486 308L418 606Q417 616 413 615T404 604L252 306Q249 298 250 296T257 293H476ZM337 956Q340 961 343 962T351 961L570 865Q575 863 577 859T576 849L562 821Q560 815 557 815T545 816L325 883Q315 886 313 890T313 902L337 956V956Z" />
<glyph unicode="&#xc1;" horiz-adv-x="741" d="M12 0Q6 0 4 6T7 23L363 729Q368 737 373 739T388 742H489Q499 742 503 736T509 722L664 17Q665 11 663 6T653 0H558Q545 0 543 14L504 192Q503 199 494 199H218Q208 199 203 189L111 8Q109 3 106 2T96 0H12V0ZM476
293Q489 293 486 308L418 606Q417 616 413 615T404 604L252 306Q249 298 250 296T257 293H476ZM592 901Q593 895 592 891T580 883L341 815Q333 813 329 816T323 826L317 853Q315 865 321 867L567 963Q571 964 575 963T581 954L592 901Z" />
<glyph unicode="&#xc2;" horiz-adv-x="741" d="M12 0Q6 0 4 6T7 23L363 729Q368 737 373 739T388 742H489Q499 742 503 736T509 722L664 17Q665 11 663 6T653 0H558Q545 0 543 14L504 192Q503 199 494 199H218Q208 199 203 189L111 8Q109 3 106 2T96 0H12V0ZM476
293Q489 293 486 308L418 606Q417 616 413 615T404 604L252 306Q249 298 250 296T257 293H476ZM468 896Q461 904 458 904T446 895L381 843Q375 838 371 837T360 836H296Q289 836 289 840T293 850L412 949Q418 955 424 956T440 958H490Q498 958 501 954T509 946L599
847Q604 840 603 838T594 836H530Q524 836 521 838T513 846L468 896Z" />
<glyph unicode="&#xc3;" horiz-adv-x="741" d="M12 0Q6 0 4 6T7 23L363 729Q368 737 373 739T388 742H489Q499 742 503 736T509 722L664 17Q665 11 663 6T653 0H558Q545 0 543 14L504 192Q503 199 494 199H218Q208 199 203 189L111 8Q109 3 106 2T96 0H12V0ZM476
293Q489 293 486 308L418 606Q417 616 413 615T404 604L252 306Q249 298 250 296T257 293H476ZM608 877Q594 870 573 864T525 857Q497 857 477 864T438 877T396 884Q373 884 360 875T329 859Q321 856 318 859T313 870L305 902Q304 908 303 913T309 922Q327 934
346 941T391 949Q419 949 441 942T484 928T526 920Q540 920 551 925T571 936T591 945Q600 947 604 944T610 933L615 896Q616 890 616 885T608 877V877Z" />
<glyph unicode="&#xc4;" horiz-adv-x="741" d="M12 0Q6 0 4 6T7 23L363 729Q368 737 373 739T388 742H489Q499 742 503 736T509 722L664 17Q665 11 663 6T653 0H558Q545 0 543 14L504 192Q503 199 494 199H218Q208 199 203 189L111 8Q109 3 106 2T96 0H12V0ZM476
293Q489 293 486 308L418 606Q417 616 413 615T404 604L252 306Q249 298 250 296T257 293H476ZM418 851Q417 842 414 840T400 837H334Q325 837 322 842T319 855L331 943Q333 951 335 952T343 954H419Q425 954 428 949T430 938L418 851ZM583 851Q582 842 579 840T564
837H498Q489 837 486 842T483 855L496 943Q497 951 499 952T507 954H583Q589 954 592 949T595 938L583 851Z" />
<glyph unicode="&#xc5;" horiz-adv-x="741" d="M12 0Q6 0 4 6T7 23L363 729Q368 737 373 739T388 742H489Q499 742 503 736T509 722L664 17Q665 11 663 6T653 0H558Q545 0 543 14L504 192Q503 199 494 199H218Q208 199 203 189L111 8Q109 3 106 2T96 0H12V0ZM476
293Q489 293 486 308L418 606Q417 616 413 615T404 604L252 306Q249 298 250 296T257 293H476ZM554 851Q548 808 514 779T437 750Q407 750 384 765T349 806T342 865Q348 906 382 934T458 962Q490 962 513 947T547 907T554 851V851ZM501 862Q505 884 493 897T459
910Q436 910 416 893T391 850Q389 831 402 816T435 801Q459 801 478 819T501 862V862Z" />
<glyph unicode="&#xc6;" horiz-adv-x="1030" d="M945 91Q952 91 956 88T959 76L950 10Q949 4 947 2T937 0H481Q472 0 468 5T465 19L490 194Q490 198 489 198T484 199H252Q247 199 243 196T235 188L110 8Q105 0 92 0H15Q8 0 5 7T7 23L496 729Q502 737 506 739T520
742H1026Q1032 742 1035 738T1038 726L1028 663Q1027 656 1025 654T1013 651H691Q683 651 678 647T672 635L643 429Q642 422 644 421T652 419H884Q891 419 895 415T897 403L887 337Q887 332 886 331T877 329H643Q638 329 633 325T627 315L597 99Q596 92 597 92T603
91H945V91ZM489 293Q495 293 500 298T506 309L549 622Q551 637 544 635T526 617L305 304Q300 296 299 295T304 293H489V293Z" />
<glyph unicode="&#xc7;" horiz-adv-x="712" d="M444 752Q517 752 573 723T663 645T696 536Q697 522 685 522L595 516Q585 516 584 534Q578 592 542 628T442 664Q386 664 344 640T273 574T226 483T200 379T192 275Q192 178 232 130T355 82Q424 82 476 115T564 222Q569
231 583 227L656 207Q664 205 657 186Q646 161 627 134T580 81T517 35T439 2T347 -10Q259 -10 196 27T101 132T68 293Q68 359 82 425T126 550T199 655T305 726T444 752V752ZM425 -138Q420 -175 385 -194T306 -213Q278 -213 255 -206T213 -187Q209 -187 207 -184T205
-177L223 -149Q224 -145 225 -147T229 -153Q241 -159 256 -164T290 -169Q319 -169 336 -158T355 -127Q358 -107 342 -98T282 -88Q276 -88 273 -85T271 -78L321 5H375L346 -53Q344 -55 344 -55T344 -56Q379 -58 397 -70T421 -101T425 -138V-138Z" />
<glyph unicode="&#xc8;" horiz-adv-x="636" d="M154 730Q155 738 157 740T166 742H636Q648 742 644 726L636 664Q635 657 632 654T619 651H275Q269 651 266 649T262 639L232 429Q231 423 233 421T240 419H490Q497 419 498 416T498 407L489 338Q488 329 477 329H228Q218
329 216 317L186 101Q185 91 193 91H555Q562 91 564 89T565 79L557 10Q556 4 554 2T543 0H69Q51 0 54 19L154 730V730ZM310 956Q313 961 316 962T324 961L543 865Q548 863 550 859T549 849L535 821Q533 815 530 815T518 816L298 883Q288 886 286 890T286 902L310
956V956Z" />
<glyph unicode="&#xc9;" horiz-adv-x="636" d="M154 730Q155 738 157 740T166 742H636Q648 742 644 726L636 664Q635 657 632 654T619 651H275Q269 651 266 649T262 639L232 429Q231 423 233 421T240 419H490Q497 419 498 416T498 407L489 338Q488 329 477 329H228Q218
329 216 317L186 101Q185 91 193 91H555Q562 91 564 89T565 79L557 10Q556 4 554 2T543 0H69Q51 0 54 19L154 730V730ZM565 901Q566 895 565 891T553 883L314 815Q306 813 302 816T296 826L290 853Q288 865 294 867L540 963Q544 964 548 963T554 954L565 901Z"
/>
<glyph unicode="&#xca;" horiz-adv-x="636" d="M154 730Q155 738 157 740T166 742H636Q648 742 644 726L636 664Q635 657 632 654T619 651H275Q269 651 266 649T262 639L232 429Q231 423 233 421T240 419H490Q497 419 498 416T498 407L489 338Q488 329 477 329H228Q218
329 216 317L186 101Q185 91 193 91H555Q562 91 564 89T565 79L557 10Q556 4 554 2T543 0H69Q51 0 54 19L154 730V730ZM441 896Q434 904 431 904T419 895L354 843Q348 838 344 837T333 836H269Q262 836 262 840T266 850L385 949Q391 955 397 956T413 958H463Q471
958 474 954T482 946L572 847Q577 840 576 838T567 836H503Q497 836 494 838T486 846L441 896Z" />
<glyph unicode="&#xcb;" horiz-adv-x="636" d="M154 730Q155 738 157 740T166 742H636Q648 742 644 726L636 664Q635 657 632 654T619 651H275Q269 651 266 649T262 639L232 429Q231 423 233 421T240 419H490Q497 419 498 416T498 407L489 338Q488 329 477 329H228Q218
329 216 317L186 101Q185 91 193 91H555Q562 91 564 89T565 79L557 10Q556 4 554 2T543 0H69Q51 0 54 19L154 730V730ZM391 851Q390 842 387 840T373 837H307Q298 837 295 842T292 855L304 943Q306 951 308 952T316 954H392Q398 954 401 949T403 938L391 851ZM556
851Q555 842 552 840T537 837H471Q462 837 459 842T456 855L469 943Q470 951 472 952T480 954H556Q562 954 565 949T568 938L556 851Z" />
<glyph unicode="&#xcc;" horiz-adv-x="298" d="M263 742Q276 742 273 724L174 16Q172 5 169 3T154 0H68Q58 0 56 5T54 19L154 730Q155 738 157 740T166 742H263ZM119 956Q122 961 125 962T133 961L352 865Q357 863 359 859T358 849L344 821Q342 815 339 815T327
816L107 883Q97 886 95 890T95 902L119 956V956Z" />
<glyph unicode="&#xcd;" horiz-adv-x="298" d="M263 742Q276 742 273 724L174 16Q172 5 169 3T154 0H68Q58 0 56 5T54 19L154 730Q155 738 157 740T166 742H263ZM375 901Q376 895 375 891T363 883L124 815Q116 813 112 816T106 826L100 853Q98 865 104 867L350
963Q354 964 358 963T364 954L375 901Z" />
<glyph unicode="&#xce;" horiz-adv-x="298" d="M263 742Q276 742 273 724L174 16Q172 5 169 3T154 0H68Q58 0 56 5T54 19L154 730Q155 738 157 740T166 742H263ZM250 896Q243 904 240 904T228 895L163 843Q157 838 153 837T142 836H78Q71 836 71 840T75 850L194
949Q200 955 206 956T222 958H272Q280 958 283 954T291 946L381 847Q386 840 385 838T376 836H312Q306 836 303 838T295 846L250 896Z" />
<glyph unicode="&#xcf;" horiz-adv-x="298" d="M263 742Q276 742 273 724L174 16Q172 5 169 3T154 0H68Q58 0 56 5T54 19L154 730Q155 738 157 740T166 742H263ZM200 851Q199 842 196 840T182 837H116Q107 837 104 842T101 855L113 943Q115 951 117 952T125 954H201Q207
954 210 949T212 938L200 851ZM365 851Q364 842 361 840T346 837H280Q271 837 268 842T265 855L278 943Q279 951 281 952T289 954H365Q371 954 374 949T377 938L365 851Z" />
<glyph unicode="&#xd0;" horiz-adv-x="702" d="M370 343Q369 333 365 331T349 328H38Q28 328 25 333T22 348L29 399Q31 407 33 409T41 411H366Q371 411 375 406T377 395L370 343ZM42 0Q34 0 29 6T25 21L125 730Q126 737 130 739T142 742H311Q432 742 510 708T626
608T665 450Q665 309 614 209T462 54T215 0H42V0ZM225 88Q337 88 406 132T507 259T539 456Q539 528 514 571T437 634T309 653H247Q234 653 232 638L159 104Q158 95 160 92T170 88H225Z" />
<glyph unicode="&#xd1;" horiz-adv-x="757" d="M724 742Q735 742 734 729L633 10Q632 0 620 0H554Q548 0 543 2T534 12L241 537Q238 544 234 543T228 532L155 13Q154 5 151 3T139 0H65Q58 0 55 5T53 17L154 730Q155 738 157 740T168 742H245Q254 742 258 739T266
728L545 221Q550 212 556 213T563 225L634 731Q635 738 637 740T647 742H724ZM628 877Q614 870 593 864T545 857Q517 857 497 864T458 877T416 884Q393 884 380 875T349 859Q341 856 338 859T333 870L325 902Q324 908 323 913T329 922Q347 934 366 941T411 949Q439
949 461 942T504 928T546 920Q560 920 571 925T591 936T611 945Q620 947 624 944T630 933L635 896Q636 890 636 885T628 877V877Z" />
<glyph unicode="&#xd2;" horiz-adv-x="767" d="M349 -10Q260 -10 197 24T101 126T68 287Q68 307 69 329T74 374Q91 494 142 578T271 707T448 752Q536 752 599 717T695 614T728 450Q728 430 727 408T722 363Q705 245 655 162T527 34T349 -10V-10ZM354 79Q456 79
516 150T598 373Q602 401 603 426T605 472Q605 570 565 617T445 664Q345 664 283 590T199 362Q195 336 193 312T191 268Q191 171 232 125T354 79V79ZM352 956Q355 961 358 962T366 961L585 865Q590 863 592 859T591 849L577 821Q575 815 572 815T560 816L340 883Q330
886 328 890T328 902L352 956V956Z" />
<glyph unicode="&#xd3;" horiz-adv-x="767" d="M349 -10Q260 -10 197 24T101 126T68 287Q68 307 69 329T74 374Q91 494 142 578T271 707T448 752Q536 752 599 717T695 614T728 450Q728 430 727 408T722 363Q705 245 655 162T527 34T349 -10V-10ZM354 79Q456 79
516 150T598 373Q602 401 603 426T605 472Q605 570 565 617T445 664Q345 664 283 590T199 362Q195 336 193 312T191 268Q191 171 232 125T354 79V79ZM607 901Q608 895 607 891T595 883L356 815Q348 813 344 816T338 826L332 853Q330 865 336 867L582 963Q586 964
590 963T596 954L607 901Z" />
<glyph unicode="&#xd4;" horiz-adv-x="767" d="M349 -10Q260 -10 197 24T101 126T68 287Q68 307 69 329T74 374Q91 494 142 578T271 707T448 752Q536 752 599 717T695 614T728 450Q728 430 727 408T722 363Q705 245 655 162T527 34T349 -10V-10ZM354 79Q456 79
516 150T598 373Q602 401 603 426T605 472Q605 570 565 617T445 664Q345 664 283 590T199 362Q195 336 193 312T191 268Q191 171 232 125T354 79V79ZM483 896Q476 904 473 904T461 895L396 843Q390 838 386 837T375 836H311Q304 836 304 840T308 850L427 949Q433
955 439 956T455 958H505Q513 958 516 954T524 946L614 847Q619 840 618 838T609 836H545Q539 836 536 838T528 846L483 896Z" />
<glyph unicode="&#xd5;" horiz-adv-x="767" d="M349 -10Q260 -10 197 24T101 126T68 287Q68 307 69 329T74 374Q91 494 142 578T271 707T448 752Q536 752 599 717T695 614T728 450Q728 430 727 408T722 363Q705 245 655 162T527 34T349 -10V-10ZM354 79Q456 79
516 150T598 373Q602 401 603 426T605 472Q605 570 565 617T445 664Q345 664 283 590T199 362Q195 336 193 312T191 268Q191 171 232 125T354 79V79ZM623 877Q609 870 588 864T540 857Q512 857 492 864T453 877T411 884Q388 884 375 875T344 859Q336 856 333 859T328
870L320 902Q319 908 318 913T324 922Q342 934 361 941T406 949Q434 949 456 942T499 928T541 920Q555 920 566 925T586 936T606 945Q615 947 619 944T625 933L630 896Q631 890 631 885T623 877V877Z" />
<glyph unicode="&#xd6;" horiz-adv-x="767" d="M349 -10Q260 -10 197 24T101 126T68 287Q68 307 69 329T74 374Q91 494 142 578T271 707T448 752Q536 752 599 717T695 614T728 450Q728 430 727 408T722 363Q705 245 655 162T527 34T349 -10V-10ZM354 79Q456 79
516 150T598 373Q602 401 603 426T605 472Q605 570 565 617T445 664Q345 664 283 590T199 362Q195 336 193 312T191 268Q191 171 232 125T354 79V79ZM433 851Q432 842 429 840T415 837H349Q340 837 337 842T334 855L346 943Q348 951 350 952T358 954H434Q440 954
443 949T445 938L433 851ZM598 851Q597 842 594 840T579 837H513Q504 837 501 842T498 855L511 943Q512 951 514 952T522 954H598Q604 954 607 949T610 938L598 851Z" />
<glyph unicode="&#xd7;" horiz-adv-x="551" d="M436 165Q428 159 423 161T411 171L107 524Q102 531 101 535T106 546L148 583Q154 587 158 586T165 580L477 218Q480 215 481 211T478 202L436 165ZM64 203Q58 209 58 215T65 229L468 582Q475 588 479 586T488 578L521
541Q525 536 526 532T525 524L111 162Q107 158 103 160T96 166L64 203Z" />
<glyph unicode="&#xd8;" horiz-adv-x="740" d="M783 708Q786 704 787 700T784 690L687 601Q707 556 713 497T709 363Q692 245 642 162T513 34T336 -10Q265 -10 212 12T124 75L46 -1Q38 -9 32 -7T18 2L-5 28Q-11 36 -13 41T-9 52L83 136Q63 182 57 241T61 374Q78
494 128 578T257 707T435 752Q505 752 558 729T647 663L730 745Q736 750 741 749T750 744L783 708V708ZM187 362Q181 322 182 289T189 228L567 592Q548 630 514 646T431 663Q330 663 270 590T187 362V362ZM582 373Q588 414 588 448T580 510L204 147Q223 112 258
96T341 80Q442 80 501 151T582 373V373Z" />
<glyph unicode="&#xd9;" horiz-adv-x="713" d="M632 253Q619 158 579 100T474 16T322 -10Q193 -10 134 44T75 204Q75 221 76 239T81 276L145 729Q146 737 148 739T157 742H251Q259 742 262 737T264 724L198 249Q197 237 196 227T194 205Q194 140 229 110T334 80Q389
80 430 99T497 157T532 258L598 730Q600 738 602 740T610 742H686Q693 742 696 737T698 725L632 253V253ZM334 956Q337 961 340 962T348 961L567 865Q572 863 574 859T573 849L559 821Q557 815 554 815T542 816L322 883Q312 886 310 890T310 902L334 956V956Z"
/>
<glyph unicode="&#xda;" horiz-adv-x="713" d="M632 253Q619 158 579 100T474 16T322 -10Q193 -10 134 44T75 204Q75 221 76 239T81 276L145 729Q146 737 148 739T157 742H251Q259 742 262 737T264 724L198 249Q197 237 196 227T194 205Q194 140 229 110T334 80Q389
80 430 99T497 157T532 258L598 730Q600 738 602 740T610 742H686Q693 742 696 737T698 725L632 253V253ZM590 901Q591 895 590 891T578 883L339 815Q331 813 327 816T321 826L315 853Q313 865 319 867L565 963Q569 964 573 963T579 954L590 901Z" />
<glyph unicode="&#xdb;" horiz-adv-x="713" d="M632 253Q619 158 579 100T474 16T322 -10Q193 -10 134 44T75 204Q75 221 76 239T81 276L145 729Q146 737 148 739T157 742H251Q259 742 262 737T264 724L198 249Q197 237 196 227T194 205Q194 140 229 110T334 80Q389
80 430 99T497 157T532 258L598 730Q600 738 602 740T610 742H686Q693 742 696 737T698 725L632 253V253ZM465 896Q458 904 455 904T443 895L378 843Q372 838 368 837T357 836H293Q286 836 286 840T290 850L409 949Q415 955 421 956T437 958H487Q495 958 498 954T506
946L596 847Q601 840 600 838T591 836H527Q521 836 518 838T510 846L465 896Z" />
<glyph unicode="&#xdc;" horiz-adv-x="713" d="M632 253Q619 158 579 100T474 16T322 -10Q193 -10 134 44T75 204Q75 221 76 239T81 276L145 729Q146 737 148 739T157 742H251Q259 742 262 737T264 724L198 249Q197 237 196 227T194 205Q194 140 229 110T334 80Q389
80 430 99T497 157T532 258L598 730Q600 738 602 740T610 742H686Q693 742 696 737T698 725L632 253V253ZM415 851Q414 842 411 840T397 837H331Q322 837 319 842T316 855L328 943Q330 951 332 952T340 954H416Q422 954 425 949T427 938L415 851ZM580 851Q579 842
576 840T561 837H495Q486 837 483 842T480 855L493 943Q494 951 496 952T504 954H580Q586 954 589 949T592 938L580 851Z" />
<glyph unicode="&#xdd;" horiz-adv-x="694" d="M713 742Q721 742 723 737T721 725L427 330Q422 323 419 316T414 290L375 17Q374 6 369 3T352 0H267Q258 0 256 4T254 17L294 295Q296 306 295 311T291 325L107 726Q103 734 105 738T117 742H214Q224 742 228 738T236
725L368 424Q375 408 386 424L605 731Q611 738 615 740T629 742H713V742ZM575 901Q576 895 575 891T563 883L324 815Q316 813 312 816T306 826L300 853Q298 865 304 867L550 963Q554 964 558 963T564 954L575 901Z" />
<glyph unicode="&#xde;" horiz-adv-x="702" d="M670 377Q660 304 620 258T517 189T376 166H207Q202 166 198 162T193 153L174 14Q172 5 169 3T156 0H69Q61 0 57 5T54 18L154 730Q155 738 157 740T166 742H261Q268 742 271 737T273 724L256 596Q255 592 255 592T260
591H417Q497 591 558 568T649 497T670 377V377ZM548 390Q557 451 517 476T403 501H260Q252 501 247 497T240 485L209 267Q208 259 209 257T217 255H370Q442 255 490 288T548 390V390Z" />
<glyph unicode="&#xdf;" horiz-adv-x="621" d="M388 742Q454 742 493 722T548 667T557 592Q553 555 534 531T486 489T417 453Q386 439 372 429T355 401Q353 387 362 381T396 363Q426 353 458 338T518 301T559 245T566 161Q558 105 526 67T447 9T341 -10Q302 -10
269 -1T216 23Q210 25 208 28T207 37L241 88Q244 92 247 90T253 84Q271 75 290 69T336 63Q389 63 425 89T469 162Q474 194 460 212T422 243T367 268Q341 278 317 292T279 330T271 391Q276 427 299 452T365 503Q386 515 406 527T442 556T460 600Q464 631 444 649T379
668Q321 668 281 633T231 532L157 12Q158 5 156 3T148 0H66Q61 0 57 5T54 16L113 433Q114 438 113 439T107 440H60Q54 440 51 444T48 454L55 506Q56 511 58 513T67 516H112Q119 516 122 521T127 534Q133 579 152 616T205 682T283 726T388 742V742Z" />
<glyph unicode="&#xe0;" horiz-adv-x="552" d="M347 58Q309 23 263 7T167 -10Q96 -10 56 25T16 117Q16 171 43 208T113 269T209 304T312 318L378 323Q397 324 399 341L403 366Q404 371 404 376T404 386Q404 425 379 447T309 469Q269 469 232 451T165 393Q162 389
159 388T148 389L83 409Q78 411 76 416T80 433Q115 484 175 512T316 540Q381 540 423 523T486 473T506 397Q506 390 506 383T504 367L455 14Q453 4 451 2T440 0H373Q365 0 362 5T359 19L363 60Q362 75 347 58V58ZM386 252Q387 260 386 262T376 264L317 260Q290
258 257 252T193 232T143 194T123 133Q123 101 146 83T210 64Q242 64 270 75T322 102Q345 119 359 138T376 174L386 252ZM217 744Q220 749 223 750T231 749L450 653Q455 651 457 647T456 637L442 609Q440 603 437 603T425 604L205 671Q195 674 193 678T193 690L217
744V744Z" />
<glyph unicode="&#xe1;" horiz-adv-x="552" d="M347 58Q309 23 263 7T167 -10Q96 -10 56 25T16 117Q16 171 43 208T113 269T209 304T312 318L378 323Q397 324 399 341L403 366Q404 371 404 376T404 386Q404 425 379 447T309 469Q269 469 232 451T165 393Q162 389
159 388T148 389L83 409Q78 411 76 416T80 433Q115 484 175 512T316 540Q381 540 423 523T486 473T506 397Q506 390 506 383T504 367L455 14Q453 4 451 2T440 0H373Q365 0 362 5T359 19L363 60Q362 75 347 58V58ZM386 252Q387 260 386 262T376 264L317 260Q290
258 257 252T193 232T143 194T123 133Q123 101 146 83T210 64Q242 64 270 75T322 102Q345 119 359 138T376 174L386 252ZM473 689Q474 683 473 679T461 671L222 603Q214 601 210 604T204 614L198 641Q196 653 202 655L448 751Q452 752 456 751T462 742L473 689Z"
/>
<glyph unicode="&#xe2;" horiz-adv-x="552" d="M347 58Q309 23 263 7T167 -10Q96 -10 56 25T16 117Q16 171 43 208T113 269T209 304T312 318L378 323Q397 324 399 341L403 366Q404 371 404 376T404 386Q404 425 379 447T309 469Q269 469 232 451T165 393Q162 389
159 388T148 389L83 409Q78 411 76 416T80 433Q115 484 175 512T316 540Q381 540 423 523T486 473T506 397Q506 390 506 383T504 367L455 14Q453 4 451 2T440 0H373Q365 0 362 5T359 19L363 60Q362 75 347 58V58ZM386 252Q387 260 386 262T376 264L317 260Q290
258 257 252T193 232T143 194T123 133Q123 101 146 83T210 64Q242 64 270 75T322 102Q345 119 359 138T376 174L386 252ZM348 684Q341 692 338 692T326 683L261 631Q255 626 251 625T240 624H176Q169 624 169 628T173 638L292 737Q298 743 304 744T320 746H370Q378
746 381 742T389 734L479 635Q484 628 483 626T474 624H410Q404 624 401 626T393 634L348 684Z" />
<glyph unicode="&#xe3;" horiz-adv-x="552" d="M347 58Q309 23 263 7T167 -10Q96 -10 56 25T16 117Q16 171 43 208T113 269T209 304T312 318L378 323Q397 324 399 341L403 366Q404 371 404 376T404 386Q404 425 379 447T309 469Q269 469 232 451T165 393Q162 389
159 388T148 389L83 409Q78 411 76 416T80 433Q115 484 175 512T316 540Q381 540 423 523T486 473T506 397Q506 390 506 383T504 367L455 14Q453 4 451 2T440 0H373Q365 0 362 5T359 19L363 60Q362 75 347 58V58ZM386 252Q387 260 386 262T376 264L317 260Q290
258 257 252T193 232T143 194T123 133Q123 101 146 83T210 64Q242 64 270 75T322 102Q345 119 359 138T376 174L386 252ZM488 665Q474 658 453 652T405 645Q377 645 357 652T318 665T276 672Q253 672 240 663T209 647Q201 644 198 647T193 658L185 690Q184 696
183 701T189 710Q207 722 226 729T271 737Q299 737 321 730T364 716T406 708Q420 708 431 713T451 724T471 733Q480 735 484 732T490 721L495 684Q496 678 496 673T488 665V665Z" />
<glyph unicode="&#xe4;" horiz-adv-x="552" d="M347 58Q309 23 263 7T167 -10Q96 -10 56 25T16 117Q16 171 43 208T113 269T209 304T312 318L378 323Q397 324 399 341L403 366Q404 371 404 376T404 386Q404 425 379 447T309 469Q269 469 232 451T165 393Q162 389
159 388T148 389L83 409Q78 411 76 416T80 433Q115 484 175 512T316 540Q381 540 423 523T486 473T506 397Q506 390 506 383T504 367L455 14Q453 4 451 2T440 0H373Q365 0 362 5T359 19L363 60Q362 75 347 58V58ZM386 252Q387 260 386 262T376 264L317 260Q290
258 257 252T193 232T143 194T123 133Q123 101 146 83T210 64Q242 64 270 75T322 102Q345 119 359 138T376 174L386 252ZM298 639Q297 630 294 628T280 625H214Q205 625 202 630T199 643L211 731Q213 739 215 740T223 742H299Q305 742 308 737T310 726L298 639ZM463
639Q462 630 459 628T444 625H378Q369 625 366 630T363 643L376 731Q377 739 379 740T387 742H463Q469 742 472 737T475 726L463 639Z" />
<glyph unicode="&#xe5;" horiz-adv-x="552" d="M347 58Q309 23 263 7T167 -10Q96 -10 56 25T16 117Q16 171 43 208T113 269T209 304T312 318L378 323Q397 324 399 341L403 366Q404 371 404 376T404 386Q404 425 379 447T309 469Q269 469 232 451T165 393Q162 389
159 388T148 389L83 409Q78 411 76 416T80 433Q115 484 175 512T316 540Q381 540 423 523T486 473T506 397Q506 390 506 383T504 367L455 14Q453 4 451 2T440 0H373Q365 0 362 5T359 19L363 60Q362 75 347 58V58ZM386 252Q387 260 386 262T376 264L317 260Q290
258 257 252T193 232T143 194T123 133Q123 101 146 83T210 64Q242 64 270 75T322 102Q345 119 359 138T376 174L386 252ZM445 691Q439 648 405 619T328 590Q298 590 275 605T240 646T233 705Q239 746 273 774T349 802Q381 802 404 787T438 747T445 691V691ZM392
702Q396 724 384 737T350 750Q327 750 307 733T282 690Q280 671 293 656T326 641Q350 641 369 659T392 702V702Z" />
<glyph unicode="&#xe6;" horiz-adv-x="923" d="M509 243Q498 243 493 237T485 216Q479 177 495 143T543 88T620 67Q659 67 687 78T738 108T781 149Q786 152 788 151T796 146L843 122Q847 120 849 115T847 102Q817 64 780 39T699 2T605 -10Q551 -10 514 7T452 48T412
97Q410 98 407 95T403 88Q376 64 344 41T268 4T169 -10Q86 -10 47 32T17 145Q28 219 97 264T299 317L375 323Q382 324 389 328T398 341L402 366Q408 415 384 442T305 469Q267 469 231 450T163 390Q158 385 156 386T146 389L82 409Q78 411 77 418T79 433Q104 467
137 491T214 527T314 540Q387 540 428 518T482 454Q520 498 569 519T674 540Q748 540 800 507T875 412T886 260Q885 251 882 248T867 244L509 243V243ZM674 469Q633 469 596 449T533 393T500 305L768 307Q779 307 784 312T790 328Q795 364 783 396T744 449T674
469V469ZM385 248Q387 256 385 258T373 260L310 256Q258 252 217 237T152 198T122 140Q117 103 139 82T210 62Q251 63 287 78T347 119T374 173L385 248V248Z" />
<glyph unicode="&#xe7;" horiz-adv-x="545" d="M331 540Q388 540 427 521T492 470T528 401Q529 395 528 393T519 388L450 377Q446 376 443 380T438 392Q424 416 410 432T378 457T334 466Q287 466 252 443T193 381T157 297T145 210Q145 139 179 101T273 63Q322
63 358 86T427 156Q432 162 441 158L491 142Q495 141 497 136T496 122Q481 98 459 75T407 32T342 2T262 -10Q194 -10 144 18T66 98T38 219Q38 280 58 337T117 440T209 513T331 540V540ZM340 -138Q335 -175 300 -194T221 -213Q193 -213 170 -206T128 -187Q124 -187
122 -184T120 -177L138 -149Q139 -145 140 -147T144 -153Q156 -159 171 -164T205 -169Q234 -169 251 -158T270 -127Q273 -107 257 -98T197 -88Q191 -88 188 -85T186 -78L236 5H290L261 -53Q259 -55 259 -55T259 -56Q294 -58 312 -70T336 -101T340 -138V-138Z" />
<glyph unicode="&#xe8;" horiz-adv-x="582" d="M266 -10Q198 -10 147 18T67 98T38 217Q38 279 59 336T118 440T211 513T334 540Q400 540 448 514T522 438T549 317Q549 304 548 290T545 260Q544 252 539 248T524 244H158Q150 244 147 234T144 199Q144 137 182 102T280
67Q327 67 366 86T438 145Q443 150 447 150T456 146L503 122Q517 115 508 102Q473 61 436 37T358 1T266 -10V-10ZM428 305Q438 305 444 313T451 348Q451 400 420 434T333 469Q286 469 249 446T188 385T159 305H428ZM237 744Q240 749 243 750T251 749L470 653Q475
651 477 647T476 637L462 609Q460 603 457 603T445 604L225 671Q215 674 213 678T213 690L237 744V744Z" />
<glyph unicode="&#xe9;" horiz-adv-x="582" d="M266 -10Q198 -10 147 18T67 98T38 217Q38 279 59 336T118 440T211 513T334 540Q400 540 448 514T522 438T549 317Q549 304 548 290T545 260Q544 252 539 248T524 244H158Q150 244 147 234T144 199Q144 137 182 102T280
67Q327 67 366 86T438 145Q443 150 447 150T456 146L503 122Q517 115 508 102Q473 61 436 37T358 1T266 -10V-10ZM428 305Q438 305 444 313T451 348Q451 400 420 434T333 469Q286 469 249 446T188 385T159 305H428ZM493 689Q494 683 493 679T481 671L242 603Q234
601 230 604T224 614L218 641Q216 653 222 655L468 751Q472 752 476 751T482 742L493 689Z" />
<glyph unicode="&#xea;" horiz-adv-x="582" d="M266 -10Q198 -10 147 18T67 98T38 217Q38 279 59 336T118 440T211 513T334 540Q400 540 448 514T522 438T549 317Q549 304 548 290T545 260Q544 252 539 248T524 244H158Q150 244 147 234T144 199Q144 137 182 102T280
67Q327 67 366 86T438 145Q443 150 447 150T456 146L503 122Q517 115 508 102Q473 61 436 37T358 1T266 -10V-10ZM428 305Q438 305 444 313T451 348Q451 400 420 434T333 469Q286 469 249 446T188 385T159 305H428ZM368 684Q361 692 358 692T346 683L281 631Q275
626 271 625T260 624H196Q189 624 189 628T193 638L312 737Q318 743 324 744T340 746H390Q398 746 401 742T409 734L499 635Q504 628 503 626T494 624H430Q424 624 421 626T413 634L368 684Z" />
<glyph unicode="&#xeb;" horiz-adv-x="582" d="M266 -10Q198 -10 147 18T67 98T38 217Q38 279 59 336T118 440T211 513T334 540Q400 540 448 514T522 438T549 317Q549 304 548 290T545 260Q544 252 539 248T524 244H158Q150 244 147 234T144 199Q144 137 182 102T280
67Q327 67 366 86T438 145Q443 150 447 150T456 146L503 122Q517 115 508 102Q473 61 436 37T358 1T266 -10V-10ZM428 305Q438 305 444 313T451 348Q451 400 420 434T333 469Q286 469 249 446T188 385T159 305H428ZM318 639Q317 630 314 628T300 625H234Q225 625
222 630T219 643L231 731Q233 739 235 740T243 742H319Q325 742 328 737T330 726L318 639ZM483 639Q482 630 479 628T464 625H398Q389 625 386 630T383 643L396 731Q397 739 399 740T407 742H483Q489 742 492 737T495 726L483 639Z" />
<glyph unicode="&#xec;" horiz-adv-x="247" d="M141 16Q140 5 137 3T121 0H53Q43 0 39 5T36 19L106 518Q107 526 109 528T118 530H198Q205 530 209 525T212 513L141 16ZM62 744Q65 749 68 750T76 749L295 653Q300 651 302 647T301 637L287 609Q285 603 282 603T270
604L50 671Q40 674 38 678T38 690L62 744V744Z" />
<glyph unicode="&#xed;" horiz-adv-x="247" d="M141 16Q140 5 137 3T121 0H53Q43 0 39 5T36 19L106 518Q107 526 109 528T118 530H198Q205 530 209 525T212 513L141 16ZM317 689Q318 683 317 679T305 671L66 603Q58 601 54 604T48 614L42 641Q40 653 46 655L292
751Q296 752 300 751T306 742L317 689Z" />
<glyph unicode="&#xee;" horiz-adv-x="247" d="M141 16Q140 5 137 3T121 0H53Q43 0 39 5T36 19L106 518Q107 526 109 528T118 530H198Q205 530 209 525T212 513L141 16ZM193 684Q186 692 183 692T171 683L106 631Q100 626 96 625T85 624H21Q14 624 14 628T18 638L137
737Q143 743 149 744T165 746H215Q223 746 226 742T234 734L324 635Q329 628 328 626T319 624H255Q249 624 246 626T238 634L193 684Z" />
<glyph unicode="&#xef;" horiz-adv-x="247" d="M141 16Q140 5 137 3T121 0H53Q43 0 39 5T36 19L106 518Q107 526 109 528T118 530H198Q205 530 209 525T212 513L141 16ZM143 639Q142 630 139 628T125 625H59Q50 625 47 630T44 643L56 731Q58 739 60 740T68 742H144Q150
742 153 737T155 726L143 639ZM308 639Q307 630 304 628T289 625H223Q214 625 211 630T208 643L221 731Q222 739 224 740T232 742H308Q314 742 317 737T320 726L308 639Z" />
<glyph unicode="&#xf0;" horiz-adv-x="599" d="M556 260Q546 180 506 119T404 24T263 -10Q186 -10 133 24T55 120T40 258Q51 335 92 394T194 486T326 520Q360 520 386 511T428 486Q414 525 390 559T322 626L172 545Q166 542 162 545T156 554L147 573Q141 584 147
587L280 655Q260 667 237 678T189 701Q184 702 182 706T183 713L234 749Q239 753 242 752T251 747Q284 737 311 725T363 696L463 751Q467 754 471 751T475 746L488 717Q489 714 490 712T488 707L406 667Q503 594 538 490T556 260V260ZM268 65Q314 65 352 90T415
159T449 261Q457 316 445 358T403 423T330 447Q284 447 246 422T181 352T147 249Q140 195 152 153T195 88T268 65V65Z" />
<glyph unicode="&#xf1;" horiz-adv-x="588" d="M48 0Q40 0 38 5T36 19L106 518Q107 526 109 528T118 530H201Q206 530 208 528T209 519L201 464Q200 452 210 461Q256 498 302 519T398 540Q468 540 505 505T542 411Q542 405 542 398T540 384L488 15Q487 6 484 3T470
0H394Q386 0 384 5T383 19L432 367Q433 374 433 380T434 391Q434 424 415 442T355 460Q327 460 302 451T251 425T194 382L141 14Q140 5 136 3T122 0H48V0ZM513 665Q499 658 478 652T430 645Q402 645 382 652T343 665T301 672Q278 672 265 663T234 647Q226 644 223
647T218 658L210 690Q209 696 208 701T214 710Q232 722 251 729T296 737Q324 737 346 730T389 716T431 708Q445 708 456 713T476 724T496 733Q505 735 509 732T515 721L520 684Q521 678 521 673T513 665V665Z" />
<glyph unicode="&#xf2;" horiz-adv-x="599" d="M264 -10Q195 -10 144 18T66 98T38 218Q38 289 61 348T126 450T220 516T335 540Q404 540 454 511T532 429T559 307Q559 215 520 144T415 31T264 -10V-10ZM268 65Q321 65 363 96T429 186T454 325Q454 392 423 429T333
467Q281 467 238 435T170 345T145 205Q145 139 177 102T268 65V65ZM239 744Q242 749 245 750T253 749L472 653Q477 651 479 647T478 637L464 609Q462 603 459 603T447 604L227 671Q217 674 215 678T215 690L239 744V744Z" />
<glyph unicode="&#xf3;" horiz-adv-x="599" d="M264 -10Q195 -10 144 18T66 98T38 218Q38 289 61 348T126 450T220 516T335 540Q404 540 454 511T532 429T559 307Q559 215 520 144T415 31T264 -10V-10ZM268 65Q321 65 363 96T429 186T454 325Q454 392 423 429T333
467Q281 467 238 435T170 345T145 205Q145 139 177 102T268 65V65ZM494 689Q495 683 494 679T482 671L243 603Q235 601 231 604T225 614L219 641Q217 653 223 655L469 751Q473 752 477 751T483 742L494 689Z" />
<glyph unicode="&#xf4;" horiz-adv-x="599" d="M264 -10Q195 -10 144 18T66 98T38 218Q38 289 61 348T126 450T220 516T335 540Q404 540 454 511T532 429T559 307Q559 215 520 144T415 31T264 -10V-10ZM268 65Q321 65 363 96T429 186T454 325Q454 392 423 429T333
467Q281 467 238 435T170 345T145 205Q145 139 177 102T268 65V65ZM370 684Q363 692 360 692T348 683L283 631Q277 626 273 625T262 624H198Q191 624 191 628T195 638L314 737Q320 743 326 744T342 746H392Q400 746 403 742T411 734L501 635Q506 628 505 626T496
624H432Q426 624 423 626T415 634L370 684Z" />
<glyph unicode="&#xf5;" horiz-adv-x="599" d="M264 -10Q195 -10 144 18T66 98T38 218Q38 289 61 348T126 450T220 516T335 540Q404 540 454 511T532 429T559 307Q559 215 520 144T415 31T264 -10V-10ZM268 65Q321 65 363 96T429 186T454 325Q454 392 423 429T333
467Q281 467 238 435T170 345T145 205Q145 139 177 102T268 65V65ZM510 665Q496 658 475 652T427 645Q399 645 379 652T340 665T298 672Q275 672 262 663T231 647Q223 644 220 647T215 658L207 690Q206 696 205 701T211 710Q229 722 248 729T293 737Q321 737 343
730T386 716T428 708Q442 708 453 713T473 724T493 733Q502 735 506 732T512 721L517 684Q518 678 518 673T510 665V665Z" />
<glyph unicode="&#xf6;" horiz-adv-x="599" d="M264 -10Q195 -10 144 18T66 98T38 218Q38 289 61 348T126 450T220 516T335 540Q404 540 454 511T532 429T559 307Q559 215 520 144T415 31T264 -10V-10ZM268 65Q321 65 363 96T429 186T454 325Q454 392 423 429T333
467Q281 467 238 435T170 345T145 205Q145 139 177 102T268 65V65ZM320 639Q319 630 316 628T302 625H236Q227 625 224 630T221 643L233 731Q235 739 237 740T245 742H321Q327 742 330 737T332 726L320 639ZM485 639Q484 630 481 628T466 625H400Q391 625 388 630T385
643L398 731Q399 739 401 740T409 742H485Q491 742 494 737T497 726L485 639Z" />
<glyph unicode="&#xf7;" horiz-adv-x="566" d="M330 142Q328 132 325 130T310 127H219Q210 127 207 132T204 145L217 238Q218 246 220 247T227 249H332Q337 249 340 245T343 234L330 142ZM519 346Q519 338 515 336T501 333L84 332Q76 332 73 337T69 350L77 402Q79
409 80 411T87 413H516Q521 413 524 409T528 399L519 346ZM381 511Q380 502 377 500T362 497H271Q262 497 258 502T256 515L269 608Q270 615 272 616T279 618H384Q389 618 392 614T395 603L381 511Z" />
<glyph unicode="&#xf8;" horiz-adv-x="587" d="M34 5Q26 -2 20 0T8 10L-5 25Q-11 32 -12 38T-6 51L553 525Q561 531 566 530T575 522L594 500Q597 495 599 491T594 480L34 5ZM255 -10Q186 -10 135 18T57 98T29 218Q29 289 52 348T116 450T211 516T325 540Q395
540 445 511T523 429T550 307Q550 215 511 144T405 31T255 -10V-10ZM259 65Q311 65 353 96T420 186T445 325Q445 392 414 429T323 467Q271 467 229 435T161 345T135 205Q135 139 167 102T259 65V65Z" />
<glyph unicode="&#xf9;" horiz-adv-x="583" d="M187 -10Q124 -10 85 26T46 122Q46 129 46 135T47 148L99 515Q100 524 104 527T116 530H190Q198 530 202 525T204 511L155 165Q154 160 154 155T154 145Q154 106 174 88T230 70Q272 70 311 92T390 151L442 516Q444
525 447 527T461 530H533Q541 530 545 525T549 511L477 11Q476 5 474 3T465 0H387Q382 0 378 2T375 12L383 66Q384 71 381 72T372 68Q316 23 273 7T187 -10V-10ZM219 744Q222 749 225 750T233 749L452 653Q457 651 459 647T458 637L444 609Q442 603 439 603T427
604L207 671Q197 674 195 678T195 690L219 744V744Z" />
<glyph unicode="&#xfa;" horiz-adv-x="583" d="M187 -10Q124 -10 85 26T46 122Q46 129 46 135T47 148L99 515Q100 524 104 527T116 530H190Q198 530 202 525T204 511L155 165Q154 160 154 155T154 145Q154 106 174 88T230 70Q272 70 311 92T390 151L442 516Q444
525 447 527T461 530H533Q541 530 545 525T549 511L477 11Q476 5 474 3T465 0H387Q382 0 378 2T375 12L383 66Q384 71 381 72T372 68Q316 23 273 7T187 -10V-10ZM475 689Q476 683 475 679T463 671L224 603Q216 601 212 604T206 614L200 641Q198 653 204 655L450
751Q454 752 458 751T464 742L475 689Z" />
<glyph unicode="&#xfb;" horiz-adv-x="583" d="M187 -10Q124 -10 85 26T46 122Q46 129 46 135T47 148L99 515Q100 524 104 527T116 530H190Q198 530 202 525T204 511L155 165Q154 160 154 155T154 145Q154 106 174 88T230 70Q272 70 311 92T390 151L442 516Q444
525 447 527T461 530H533Q541 530 545 525T549 511L477 11Q476 5 474 3T465 0H387Q382 0 378 2T375 12L383 66Q384 71 381 72T372 68Q316 23 273 7T187 -10V-10ZM350 684Q343 692 340 692T328 683L263 631Q257 626 253 625T242 624H178Q171 624 171 628T175 638L294
737Q300 743 306 744T322 746H372Q380 746 383 742T391 734L481 635Q486 628 485 626T476 624H412Q406 624 403 626T395 634L350 684Z" />
<glyph unicode="&#xfc;" horiz-adv-x="583" d="M187 -10Q124 -10 85 26T46 122Q46 129 46 135T47 148L99 515Q100 524 104 527T116 530H190Q198 530 202 525T204 511L155 165Q154 160 154 155T154 145Q154 106 174 88T230 70Q272 70 311 92T390 151L442 516Q444
525 447 527T461 530H533Q541 530 545 525T549 511L477 11Q476 5 474 3T465 0H387Q382 0 378 2T375 12L383 66Q384 71 381 72T372 68Q316 23 273 7T187 -10V-10ZM300 639Q299 630 296 628T282 625H216Q207 625 204 630T201 643L213 731Q215 739 217 740T225 742H301Q307
742 310 737T312 726L300 639ZM465 639Q464 630 461 628T446 625H380Q371 625 368 630T365 643L378 731Q379 739 381 740T389 742H465Q471 742 474 737T477 726L465 639Z" />
<glyph unicode="&#xfd;" horiz-adv-x="541" d="M41 -165Q13 -165 -1 -163T-14 -149L-7 -99Q-6 -92 2 -89T27 -85H89Q110 -85 129 -73T161 -42T181 -4T183 32L58 508Q53 530 70 530H160Q173 530 174 520L262 160Q265 149 270 149T281 162L465 515Q469 523 473 526T484
530H545Q559 530 550 515L257 -30Q235 -70 213 -96T165 -138T109 -159T41 -165V-165ZM478 689Q479 683 478 679T466 671L227 603Q219 601 215 604T209 614L203 641Q201 653 207 655L453 751Q457 752 461 751T467 742L478 689Z" />
<glyph unicode="&#xfe;" horiz-adv-x="599" d="M224 742Q232 742 236 737T240 723L204 472Q203 465 206 467T216 477Q231 488 252 503T304 529T377 540Q439 540 484 510T550 419T557 266Q545 176 508 115T417 22T298 -10Q252 -10 220 5T166 44Q147 57 143 31L118
-154Q117 -161 115 -163T106 -165H25Q20 -165 16 -160T13 -148L135 727Q137 737 140 739T153 742H224V742ZM154 121Q178 93 204 78T266 62Q312 62 350 86T414 158T451 278Q461 347 448 388T406 449T337 468Q299 468 267 451T214 410T190 361L154 121V121Z" />
<glyph unicode="&#xff;" horiz-adv-x="541" d="M41 -165Q13 -165 -1 -163T-14 -149L-7 -99Q-6 -92 2 -89T27 -85H89Q110 -85 129 -73T161 -42T181 -4T183 32L58 508Q53 530 70 530H160Q173 530 174 520L262 160Q265 149 270 149T281 162L465 515Q469 523 473 526T484
530H545Q559 530 550 515L257 -30Q235 -70 213 -96T165 -138T109 -159T41 -165V-165ZM304 639Q303 630 300 628T286 625H220Q211 625 208 630T205 643L217 731Q219 739 221 740T229 742H305Q311 742 314 737T316 726L304 639ZM469 639Q468 630 465 628T450 625H384Q375
625 372 630T369 643L382 731Q383 739 385 740T393 742H469Q475 742 478 737T481 726L469 639Z" />
<glyph unicode="&#x2013;" horiz-adv-x="566" d="M503 230Q503 221 499 219T484 216H68Q59 216 56 221T53 233L61 287Q62 293 64 295T71 297L499 298Q504 298 508 293T511 283L503 230Z" />
<glyph unicode="&#x2014;" horiz-adv-x="889" d="M827 230Q826 221 822 219T807 216H68Q59 216 56 221T53 233L61 287Q62 293 64 295T71 297L822 298Q827 298 831 293T834 283L827 230Z" />
<glyph unicode="&#x2018;" horiz-adv-x="228" d="M278 742Q288 742 283 731L225 635Q214 614 230 612H247Q256 611 257 609T258 601L245 506Q244 500 239 495T229 490H126Q121 490 120 491T119 498L131 587Q132 590 133 592T136 597L236 728Q240 734 247 738T261
742H278V742Z" />
<glyph unicode="&#x2019;" horiz-adv-x="228" d="M86 490Q77 490 81 501L139 598Q150 618 133 620L117 621Q109 622 107 623T106 632L119 727Q120 733 124 737T134 742H238Q243 742 244 741T245 734L233 645Q232 642 231 640T228 636L128 505Q125 499 118 495T102
490H86V490Z" />
<glyph unicode="&#x201a;" horiz-adv-x="228" d="M-1 -131Q-12 -131 -6 -120L53 -24Q62 -3 46 -1L30 0Q22 0 20 2T19 11L32 106Q33 112 37 116T47 121H150Q155 121 157 120T158 113L146 24Q145 21 144 19T140 14L41 -117Q38 -123 31 -127T15 -131H-1V-131Z" />
<glyph unicode="&#x201c;" horiz-adv-x="419" d="M280 490Q275 490 274 491T272 498L285 587Q286 590 287 592T290 597L389 728Q394 734 401 738T415 742H432Q443 742 437 731L378 635Q368 614 385 612H401Q410 611 411 609T412 601L398 506Q398 500 393 495T383
490H280V490ZM88 490Q83 490 82 491T81 498L94 587Q94 590 96 592T99 597L198 728Q202 734 209 738T224 742H240Q251 742 245 731L187 635Q177 614 193 612H210Q218 611 220 609T221 601L207 506Q206 500 202 495T192 490H88V490Z" />
<glyph unicode="&#x201d;" horiz-adv-x="421" d="M277 490Q268 490 273 501L331 598Q341 618 325 620L308 621Q301 622 299 623T297 632L310 727Q312 733 316 737T326 742H429Q434 742 436 741T436 734L425 645Q424 642 422 640T419 636L319 505Q316 499 309 495T294
490H277V490ZM86 490Q77 490 81 501L139 598Q150 618 133 620L117 621Q109 622 107 623T106 632L119 727Q120 733 124 737T134 742H238Q243 742 244 741T245 734L233 645Q232 642 231 640T228 636L128 505Q125 499 118 495T102 490H86V490Z" />
<glyph unicode="&#x201e;" horiz-adv-x="384" d="M153 -131Q142 -131 148 -120L207 -24Q216 -3 200 -1L184 0Q176 0 174 2T173 11L186 106Q187 112 191 116T201 121H304Q309 121 311 120T312 113L300 24Q299 21 298 19T294 14L195 -117Q192 -123 185 -127T169
-131H153V-131ZM218 -131Q207 -131 213 -120L272 -24Q281 -3 265 -1L249 0Q241 0 239 2T238 11L251 106Q252 112 256 116T266 121H369Q374 121 376 120T377 113L365 24Q364 21 363 19T359 14L260 -117Q257 -123 250 -127T234 -131H218V-131Z" />
<glyph unicode="&#x2022;" horiz-adv-x="320" d="M164 271Q135 271 112 286T77 326T70 383Q74 411 90 433T132 469T185 483Q216 483 238 468T272 428T279 371Q276 344 259 321T218 285T164 271V271Z" />
<glyph unicode="&#x2039;" horiz-adv-x="274" d="M196 76Q198 72 197 72T188 71H151Q147 71 144 74T140 80L44 246Q42 253 41 259T44 272L190 449Q193 453 195 453T201 452H240Q244 452 248 448T249 438L134 263Q131 259 130 255T129 245L196 76Z" />
<glyph unicode="&#x203a;" horiz-adv-x="275" d="M139 251Q142 255 143 259T144 269L77 444Q76 449 77 450T83 452H122Q129 452 133 443L229 267Q232 261 232 255T228 241L84 74Q82 72 80 72T74 71H37Q30 71 26 74T24 82L139 251V251Z" />
</font>
</defs>
</svg>
