<?xml version="1.0" standalone="no"?>
<!DOCTYPE svg PUBLIC "-//W3C//DTD SVG 1.1//EN" "http://www.w3.org/Graphics/SVG/1.1/DTD/svg11.dtd">
<svg xmlns="http://www.w3.org/2000/svg">
<defs >
<font id="LibreFranklin" horiz-adv-x="567" ><font-face
    font-family="Libre Franklin Thin SemiBold"
    units-per-em="1000"
    panose-1="0 0 0 0 0 0 0 0 0 0"
    ascent="966"
    descent="-246"
    alphabetic="0" />
<glyph unicode=" " horiz-adv-x="209" />
<glyph unicode="!" horiz-adv-x="257" d="M165 17Q163 6 159 3T141 0H40Q29 0 24 6T20 22L36 133Q38 141 40 143T49 145H167Q174 145 178 140T181 127L165 17ZM167 230Q164 220 160 217T144 214H99Q89 214 85 220T82 235L119 730Q119 738 121 740T130 742H255Q261
742 265 736T268 724L167 230Z" />
<glyph unicode="&quot;" horiz-adv-x="449" d="M360 488Q357 478 353 475T337 472H305Q295 472 291 478T287 493L290 731Q290 738 293 740T302 742H411Q417 742 421 737T424 724L360 488ZM412 488Q409 478 405 475T389 472H357Q347 472 343 478T339 493L342 731Q342
738 345 740T354 742H463Q469 742 473 737T476 724L412 488Z" />
<glyph unicode="#" horiz-adv-x="603" d="M146 17Q143 5 140 2T125 1L94 5Q84 7 79 11T74 25L279 729Q282 737 284 739T292 741L336 736Q343 735 347 730T350 717L146 17ZM361 17Q358 5 355 2T340 1L309 5Q298 7 293 11T289 25L493 729Q497 737 499 739T507 741L551
736Q558 735 562 730T565 717L361 17ZM545 250Q544 240 540 237T523 234H39Q29 234 25 240T21 255L26 293Q28 301 31 303T41 305H540Q546 305 549 300T551 287L545 250ZM608 460Q607 450 602 447T585 444H101Q91 444 87 450T84 465L89 503Q91 511 94 513T104 515H603Q609
515 611 510T613 497L608 460Z" />
<glyph unicode="$" horiz-adv-x="638" d="M593 197Q585 142 553 98T468 27T350 -5Q339 -6 334 -10T327 -23L322 -66Q320 -76 317 -79T301 -82H253Q243 -82 239 -76T235 -61L242 -14Q243 -6 243 -6T236 -5Q158 -2 108 24T21 98Q11 105 8 112T11 125L69 178Q78 185
84 182T94 170Q121 138 155 117T239 91Q249 90 254 94T260 105L288 302Q289 310 287 314T279 322Q201 343 157 374T98 447T90 541Q97 593 127 634T209 704T327 743Q335 744 343 749T352 761L358 803Q359 808 361 809T367 811H425Q434 811 438 806T442 790L435 747Q435
744 436 743T441 740Q496 731 536 710T607 659Q614 657 617 651T613 637L558 581Q551 575 547 577T536 590Q520 608 494 622T437 645Q430 646 425 641T418 631L391 434Q390 428 391 428T399 424L447 410Q497 393 532 363T583 290T593 197V197ZM335 640Q336 646
335 646T328 645Q274 638 241 609T202 540Q199 520 206 504T231 474T283 446Q294 444 302 450T311 468L335 640ZM343 94Q343 90 345 91T350 94Q403 97 438 125T478 194Q483 229 464 253T391 296Q372 298 369 281L343 94V94Z" />
<glyph unicode="%" horiz-adv-x="935" d="M293 753Q346 753 384 725T439 647T449 534Q440 475 411 429T339 357T244 331Q190 331 151 359T94 436T85 548Q94 608 123 654T197 726T293 753V753ZM241 399Q272 399 295 417T333 469T353 547Q363 611 348 648T292 685Q263
685 240 666T202 613T180 533Q171 471 185 435T241 399V399ZM723 412Q776 412 814 384T870 306T879 193Q871 134 842 88T769 16T674 -10Q620 -10 582 18T525 95T516 207Q525 267 554 313T628 385T723 412V412ZM672 58Q702 58 725 76T763 128T784 206Q790 249 786
279T766 327T723 344Q694 344 671 325T633 272T611 192Q605 152 610 122T630 75T672 58V58ZM217 3Q213 -3 208 -3T194 -4L158 -3Q146 -3 144 6T147 25L727 744Q732 751 736 751T748 750H793Q800 750 805 745T803 732L217 3Z" />
<glyph unicode="&amp;" horiz-adv-x="818" d="M426 753Q489 753 535 733T604 676T620 590Q616 558 594 524T532 459T438 402Q417 399 425 386L530 247Q535 241 539 244T551 259Q567 272 584 290T618 328T648 368T669 405Q673 409 677 409T689 406L750 385Q758
382 762 374T763 356Q749 331 727 302T677 239T618 173Q610 168 607 165T609 155Q625 143 646 134T692 118T742 111Q753 111 758 105T762 91L753 19Q751 8 747 4T735 0Q690 0 648 10T570 38T509 78Q500 82 495 79T484 68Q428 31 369 13T244 -5Q130 -5 74 49T30
199Q38 256 81 304T216 403Q229 408 232 413T229 431Q203 462 191 499T183 576Q191 628 225 667T311 730T426 753V753ZM430 671Q398 671 373 657T333 621T313 572Q311 557 316 540T333 505L360 469Q363 466 369 469T379 475Q437 500 468 530T506 599Q511 635 489
653T430 671V671ZM305 327Q299 336 293 333T279 324Q235 306 206 272T170 197Q164 153 193 123T273 93Q309 93 346 108T410 147Q418 150 422 155T422 168L305 327V327Z" />
<glyph unicode="&apos;" horiz-adv-x="245" d="M193 488Q190 478 186 475T170 472H138Q128 472 124 478T120 493L123 731Q123 738 126 740T135 742H244Q250 742 254 737T257 724L193 488Z" />
<glyph unicode="(" horiz-adv-x="304" d="M149 -165Q137 -165 135 -149Q103 -80 82 -12T53 130T58 292Q75 414 129 528T258 737Q267 742 280 742H342Q349 742 351 736T352 724Q310 660 274 588T212 437T174 277Q159 167 171 62T219 -159Q226 -165 215 -165H149V-165Z" />
<glyph unicode=")" horiz-adv-x="304" d="M-31 -165Q-38 -165 -40 -159T-41 -147Q1 -83 37 -11T100 140T137 300Q152 411 140 516T92 736Q85 742 96 742H162Q174 742 176 726Q208 657 229 589T257 447T252 285Q235 163 182 50T53 -160Q44 -165 31 -165H-31V-165Z" />
<glyph unicode="*" horiz-adv-x="436" d="M258 490Q257 493 254 490T250 484L157 361Q154 357 150 359T140 365L96 399Q92 403 90 407T92 417L197 524Q199 527 200 529T197 532L80 567Q75 569 73 574T72 587L99 638Q102 643 104 643T112 640L222 591Q226 589 230
593T236 602L245 735Q245 738 246 740T254 742H318Q323 742 327 737T329 727L300 593Q299 589 299 590T305 592L431 644Q438 648 442 644T447 632L457 582Q458 575 457 572T450 567L325 530Q321 529 318 525T316 518L387 416Q390 411 390 406T382 395L335 366Q328
361 322 364T314 372L258 490Z" />
<glyph unicode="+" horiz-adv-x="574" d="M532 341Q532 331 527 328T510 325H82Q72 325 68 331T64 346L74 409Q75 417 77 419T85 421H528Q534 421 538 416T542 404L532 341ZM245 139Q234 139 229 146T226 166L286 594Q287 604 290 606T302 608H365Q373 608 378
603T381 591L320 148Q319 142 317 141T307 139H245Z" />
<glyph unicode="," horiz-adv-x="239" d="M-9 -151Q-20 -151 -12 -136L51 -26Q59 -12 56 -6T43 0H25Q15 0 12 3T11 14L27 127Q28 135 32 140T43 146H163Q176 146 174 131L158 29Q157 23 156 19T151 11L41 -133Q32 -143 25 -147T10 -151H-9V-151Z" />
<glyph unicode="-" horiz-adv-x="380" d="M322 232Q320 221 316 219T300 216H68Q57 216 53 222T49 237L59 300Q60 308 62 310T71 312H318Q324 312 328 307T331 295L322 232Z" />
<glyph unicode="." horiz-adv-x="237" d="M155 17Q153 6 149 3T131 0H30Q18 0 14 6T10 22L26 135Q28 144 30 146T39 148H157Q164 148 168 143T170 129L155 17Z" />
<glyph unicode="/" horiz-adv-x="357" d="M-19 -26Q-27 -26 -31 -21T-32 -10L323 733Q326 738 330 740T340 742H400Q410 742 413 735T412 716L65 -11Q60 -22 55 -24T40 -26H-19V-26Z" />
<glyph unicode="0" horiz-adv-x="701" d="M415 753Q491 753 548 716T637 611T669 448Q669 428 668 407T663 362Q647 245 598 162T476 35T318 -9Q240 -9 183 27T93 130T61 290Q61 310 63 331T68 375Q80 463 112 533T190 652T294 727T415 753V753ZM323 97Q372 97
410 125T474 215T515 376Q519 408 521 435T524 485Q524 571 494 609T410 648Q362 648 324 618T258 525T216 361Q212 331 210 305T207 257Q207 172 238 135T323 97V97Z" />
<glyph unicode="1" horiz-adv-x="494" d="M421 111Q436 111 434 97L422 12Q421 5 418 3T406 0H22Q13 0 11 3T9 14L21 101Q22 107 25 109T35 111H149Q159 111 160 122L225 586Q226 590 225 591T217 591L103 556Q83 551 86 570L95 633Q96 643 99 646T109 654L280
733Q293 739 301 740T319 742H382Q395 742 393 726L307 118Q306 111 314 111H421V111Z" />
<glyph unicode="2" horiz-adv-x="628" d="M282 320Q346 372 388 411T450 484T470 552Q470 582 457 602T420 632T365 643Q322 643 276 616T192 536Q187 528 179 533L89 587Q85 589 85 595T94 611Q147 681 222 716T378 752Q448 752 500 730T583 665T613 561Q613
505 591 460T527 376T431 293L225 135Q219 130 219 126T225 122H543Q561 122 558 108L546 13Q545 6 542 3T529 0H27Q4 0 7 23L16 88Q17 94 20 99T32 114T60 137L282 320Z" />
<glyph unicode="3" horiz-adv-x="658" d="M119 636Q111 646 122 656Q156 686 197 707T286 740T381 752Q500 752 565 704T630 579Q630 536 610 500T556 436T479 395Q474 393 474 390T479 385Q535 371 569 330T604 230Q604 154 564 100T450 18T278 -10Q211 -10 162
6T77 51T19 114Q12 126 18 131L95 182Q100 186 103 186T109 182Q146 136 188 116T286 96Q334 96 374 112T437 159T460 230Q460 263 442 285T392 320T322 332L229 333Q217 333 219 344L230 429Q231 437 244 437L314 438Q360 439 399 456T461 502T485 567Q485 602
456 625T375 648Q337 648 308 638T251 612T195 572Q184 564 176 574L119 636V636Z" />
<glyph unicode="4" horiz-adv-x="675" d="M435 728Q443 737 449 739T469 742H578Q593 742 591 726L530 293Q529 286 537 286H626Q634 286 637 284T640 273L629 196Q628 189 625 186T612 183H525Q514 183 512 171L492 16Q490 6 486 3T469 0H360Q340 0 342 17L364
176Q366 183 357 183H44Q27 183 29 199L40 276Q42 285 47 294T66 319L435 728V728ZM369 286Q380 286 381 297L421 575Q423 591 408 573L166 298Q160 291 161 289T167 286H369Z" />
<glyph unicode="5" horiz-adv-x="669" d="M626 742Q638 742 640 738T641 723L624 635Q622 628 619 625T605 622H278Q270 622 267 620T261 609L225 447Q224 442 226 441T233 440Q273 455 309 465T390 475Q456 475 509 453T592 386T622 276Q622 188 579 124T462
25T294 -10Q233 -10 182 5T92 47T25 111Q19 121 20 125T27 134L102 184Q108 188 113 185T124 175Q152 144 187 120T281 95Q339 95 383 117T451 179T476 266Q476 299 461 322T418 357T352 369Q323 369 298 362T248 344T201 319Q194 317 189 317T178 322L103 367Q96
372 96 380T97 399L172 725Q175 737 180 739T203 742H626Z" />
<glyph unicode="6" horiz-adv-x="677" d="M433 751Q473 751 509 740T573 711T620 668T644 618Q645 610 637 607L545 576Q537 573 525 593Q510 617 489 631T431 646Q372 646 328 617T257 537T221 421Q220 417 220 414T219 409Q219 406 222 406T232 408Q268 425
310 437T403 450Q474 450 525 426T603 358T630 258Q630 200 605 151T537 66T439 11T322 -9Q239 -9 181 26T91 126T60 280Q60 299 61 320T66 364Q83 485 133 571T261 704T433 751V751ZM372 351Q348 351 320 345T267 330T226 311Q208 300 204 283T199 236Q199 208
206 182T228 135T266 103T322 91Q366 91 403 113T462 172T485 251Q485 297 454 324T372 351V351Z" />
<glyph unicode="7" horiz-adv-x="612" d="M621 742Q634 742 637 735T639 720L631 672Q628 658 622 645T604 620Q559 564 516 500T434 369T364 237T310 116T277 18Q275 8 271 4T258 0H126Q116 0 112 8T112 29Q134 83 165 146T237 281T334 435T460 610Q465 616 464
619T454 622H102Q92 622 89 627T88 641L110 730Q112 737 116 739T130 742H621Z" />
<glyph unicode="8" horiz-adv-x="678" d="M399 752Q471 752 525 729T610 663T641 565Q641 529 628 501T595 452T554 417T516 392Q510 388 510 385T516 378Q530 370 548 359T584 330T613 286T625 220Q625 163 600 120T529 49T424 5T297 -10Q218 -10 159 10T68 71T35
168Q35 214 54 249T105 312T179 363Q186 366 187 370T180 379Q161 393 144 408T115 448T104 508Q104 575 141 630T245 718T399 752V752ZM399 652Q353 652 318 635T264 589T244 527Q244 500 260 482T311 454L392 430Q411 425 432 435T472 465T503 511T515 562Q515
603 484 627T399 652V652ZM303 90Q359 90 398 105T458 148T479 211Q479 241 462 261T403 295L298 326Q284 331 261 321T216 290T179 241T164 181Q164 139 200 115T303 90V90Z" />
<glyph unicode="9" horiz-adv-x="675" d="M274 -9Q227 -9 190 3T127 35T83 77T59 121Q56 131 66 135L156 165Q170 170 178 152Q193 125 215 111T277 96Q335 96 378 125T448 204T484 321Q485 332 482 334T469 331Q432 315 393 304T304 292Q233 292 182 316T104
384T77 485Q77 544 102 592T170 676T269 731T385 751Q468 751 526 716T614 617T645 463Q645 370 620 285T547 134T430 30T274 -9V-9ZM334 391Q359 391 384 397T434 413T478 435Q497 446 502 463T507 508Q507 536 500 561T478 607T440 640T386 652Q342 652 305 629T245
570T223 492Q223 446 253 419T334 391V391Z" />
<glyph unicode=":" horiz-adv-x="237" d="M206 386Q205 375 201 372T183 369H81Q70 369 66 375T62 392L77 502Q79 510 82 512T91 514H209Q216 514 220 509T222 496L206 386ZM155 20Q154 9 150 6T131 3H30Q18 3 14 9T11 26L26 136Q28 144 30 146T39 148H157Q164
148 168 143T170 130L155 20Z" />
<glyph unicode=";" horiz-adv-x="249" d="M-3 -154Q-10 -154 -14 -147T-15 -132L49 -19Q55 -8 56 -4T47 0H31Q21 0 16 6T12 21L28 135Q29 142 32 144T41 146H160Q166 146 170 141T173 128L157 21Q156 13 154 8L44 -141Q37 -149 29 -151T13 -154H-3V-154ZM81 365Q70
365 65 371T61 387L77 500Q79 508 81 510T90 512H208Q215 512 219 507T222 494L206 382Q204 370 200 368T182 365H81V365Z" />
<glyph unicode="&lt;" horiz-adv-x="566" d="M487 146Q485 131 478 129T460 132L71 291Q63 295 58 301T54 317L64 395Q65 406 70 410T84 417L517 578Q530 583 538 575T545 555L536 490Q535 479 528 473T504 460L204 352L467 244Q483 237 490 229T496 209L487 146Z" />
<glyph unicode="=" horiz-adv-x="574" d="M547 439Q545 428 541 426T524 423H96Q86 423 82 429T78 444L87 506Q89 514 91 516T99 519H542Q548 519 552 514T555 501L547 439ZM514 207Q513 197 509 194T492 191H64Q54 191 50 197T46 212L54 275Q56 283 58 285T67
287H510Q515 287 519 282T523 270L514 207Z" />
<glyph unicode="&gt;" horiz-adv-x="566" d="M55 216Q57 229 63 234T88 246L387 352L123 463Q91 476 94 497L104 563Q107 586 131 576L519 415Q527 412 533 405T537 388L526 310Q525 301 521 297T507 289L74 129Q62 125 53 132T46 153L55 216V216Z" />
<glyph unicode="?" horiz-adv-x="531" d="M286 17Q285 6 281 3T263 0H161Q150 0 146 6T142 22L157 133Q159 141 161 143T170 145H288Q295 145 299 140T302 127L286 17ZM71 588Q64 590 62 597T63 613Q105 680 173 716T327 752Q401 752 451 728T527 662T545 569Q538
521 513 487T455 426T388 370T329 308T297 227Q295 217 281 217H210Q202 217 197 224T193 244Q200 297 223 336T277 405T338 461T389 514T416 577Q421 616 396 638T324 661Q294 661 264 649T210 616T170 567Q167 563 164 563T153 566L71 588Z" />
<glyph unicode="@" horiz-adv-x="834" d="M620 -51Q577 -77 517 -95T384 -113Q292 -113 223 -83T109 -1T48 121T42 269Q53 349 91 419T190 544T329 630T500 661Q568 661 630 642T739 582T808 480T818 332Q808 258 775 201T695 113T592 81Q563 81 544 89T514 109T501
136Q499 140 496 136T489 124Q462 99 427 83T347 67Q305 67 274 90T227 154T220 251Q228 311 259 362T339 444T446 475Q489 475 513 458T549 415Q553 414 557 418T563 427L570 446Q572 450 573 450T578 449H639Q644 449 646 446T648 438L582 223Q570 184 575 171T600
158Q629 158 657 179T706 241T736 340Q746 409 730 456T678 531T597 572T499 585Q417 585 352 559T239 487T164 382T125 255Q116 188 129 133T177 39T267 -21T398 -42Q443 -42 474 -34T531 -13T582 16Q591 20 596 17T602 8L626 -29Q630 -35 628 -40T620 -51V-51ZM315
245Q309 203 322 176T371 149Q402 149 431 168T481 217T510 283Q519 318 513 342T491 380T451 393Q419 393 390 374T341 320T315 245V245Z" />
<glyph unicode="A" horiz-adv-x="756" d="M8 0Q0 0 -1 7T4 28L356 728Q361 737 367 739T384 742H510Q520 742 524 735T531 719L683 20Q685 13 682 7T671 0H550Q537 0 534 16L499 177Q498 185 488 185H229Q219 185 214 174L130 8Q128 3 125 2T113 0H8V0ZM468 298Q482
298 479 314L419 579Q418 589 414 589T404 578L271 313Q267 304 268 301T276 298H468Z" />
<glyph unicode="B" horiz-adv-x="715" d="M56 0Q48 0 46 4T45 20L144 726Q146 742 162 742H419Q549 742 619 699T689 571Q689 497 647 451T534 382Q527 381 527 378T532 372Q594 355 626 319T658 225Q658 158 631 115T558 46T454 11T335 0H56V0ZM334 102Q365 102
395 109T451 132T492 173T507 236Q507 266 491 285T447 313T380 323H250Q242 323 238 320T233 307L206 115Q205 107 207 105T216 102H334ZM389 427Q429 427 463 442T519 486T541 555Q541 598 507 619T413 640H296Q287 640 283 637T277 624L252 440Q251 433 253
430T261 427H389Z" />
<glyph unicode="C" horiz-adv-x="719" d="M445 752Q521 752 579 722T671 642T706 530Q707 513 693 513L583 506Q571 505 570 527Q565 580 534 613T443 647Q390 647 352 624T286 560T243 472T220 372T213 276Q213 186 249 144T358 101Q423 101 473 132T558 234Q563
245 579 241L668 218Q678 215 669 192Q659 170 641 143T595 89T530 40T448 4T349 -10Q258 -10 194 28T96 136T62 299Q62 366 76 432T121 555T197 657T305 727T445 752V752Z" />
<glyph unicode="D" horiz-adv-x="741" d="M65 0Q55 0 50 7T45 25L144 728Q146 737 149 739T163 742H353Q474 742 553 706T671 604T710 445Q710 307 658 207T505 54T261 0H65V0ZM275 106Q375 106 437 149T528 269T557 452Q557 518 534 558T466 617T354 636H293Q279
636 276 620L208 122Q207 114 210 110T220 106H275Z" />
<glyph unicode="E" horiz-adv-x="645" d="M145 729Q146 737 148 739T158 742H647Q660 742 657 723L646 648Q645 639 641 636T627 632H292Q285 632 282 630T277 619L252 439Q251 432 253 430T260 428H494Q502 428 504 425T505 415L493 330Q492 320 480 320H245Q234
320 232 306L207 121Q206 110 213 110H568Q576 110 578 107T579 96L568 12Q567 5 565 3T553 0H62Q42 0 45 22L145 729V729Z" />
<glyph unicode="F" horiz-adv-x="621" d="M145 728Q146 737 149 739T159 742H640Q651 742 649 728L637 648Q636 639 633 636T620 632H290Q283 632 281 629T276 616L250 429Q249 422 251 420T259 417H499Q506 417 508 415T509 407L498 322Q497 316 494 314T482
311H244Q238 311 236 308T231 294L192 16Q191 5 187 3T173 0H58Q47 0 45 4T45 22L145 728V728Z" />
<glyph unicode="G" horiz-adv-x="747" d="M343 -10Q254 -10 191 27T95 132T61 294Q61 387 87 469T164 616T286 716T447 752Q526 752 585 721T677 642T711 537Q711 521 704 520L588 503Q584 502 582 507T577 525Q574 558 558 585T513 629T441 646Q380 646 337 614T267
527T226 406T213 274Q213 180 250 138T357 96Q396 96 427 108T481 141T519 186T543 236L550 274Q556 286 541 286H404Q395 286 396 298L404 368Q405 377 413 377L688 376Q698 376 701 373T702 361L653 12Q651 0 638 0H611Q596 0 592 14L581 94Q580 100 576 100T564
92Q545 67 515 44T442 5T343 -10V-10Z" />
<glyph unicode="H" horiz-adv-x="746" d="M247 327Q242 327 239 324T234 312L192 16Q191 6 186 3T170 0H59Q48 0 46 4T44 17L145 729Q146 737 148 739T158 742H282Q289 742 291 739T291 728L254 455Q253 446 255 444T263 441H532Q539 441 542 447T546 460L584
730Q586 738 589 740T598 742H721Q728 742 730 738T731 721L631 15Q630 5 627 3T613 0H503Q491 0 487 4T485 20L526 320Q527 327 516 327H247Z" />
<glyph unicode="I" horiz-adv-x="306" d="M279 742Q294 742 291 722L192 18Q191 6 187 3T169 0H61Q49 0 47 6T45 22L145 729Q146 737 148 739T158 742H279Z" />
<glyph unicode="J" horiz-adv-x="437" d="M351 178Q342 112 316 71T246 10T138 -10Q100 -10 70 -3T21 9Q8 13 4 17T1 28L24 115Q25 122 28 125T40 125Q53 122 69 118T107 113Q152 113 176 138T209 222L280 729Q282 737 284 739T294 742H417Q430 742 427 722L351 178V178Z" />
<glyph unicode="K" horiz-adv-x="729" d="M654 19Q663 0 644 0H518Q502 0 498 17L362 350Q360 357 356 353T345 341L231 226Q226 222 223 217T218 205L192 16Q191 7 186 4T170 0H59Q50 0 47 6T45 22L145 729Q146 737 148 739T158 742H278Q284 742 288 737T291
723L246 401Q245 392 247 395T256 405L573 731Q580 738 586 740T604 742H717Q729 742 730 737T725 725L480 482Q476 477 474 473T472 461L654 19V19Z" />
<glyph unicode="L" horiz-adv-x="619" d="M144 727Q146 742 159 742H281Q295 742 291 722L207 123Q205 110 216 110H546Q560 110 558 92L547 12Q546 4 543 2T531 0H62Q42 0 45 22L144 727V727Z" />
<glyph unicode="M" horiz-adv-x="934" d="M56 0Q48 0 46 4T45 24L145 729Q146 738 148 740T159 742H329Q338 742 342 738T348 726L458 254Q460 247 463 247T471 256L710 726Q717 742 730 742H909Q922 742 920 728L820 17Q819 6 815 3T799 0H692Q681 0 676 4T673
22L745 537Q747 543 745 543T739 536L474 12Q471 5 467 3T454 0H381Q373 0 369 3T363 18L248 533Q246 540 243 540T238 534L165 13Q164 5 161 3T149 0H56V0Z" />
<glyph unicode="N" horiz-adv-x="758" d="M734 742Q746 742 744 728L643 11Q642 0 628 0H544Q538 0 533 3T523 14L248 500Q244 507 240 506T235 495L167 14Q166 6 163 3T149 0H57Q49 0 46 5T44 19L145 729Q146 737 148 739T160 742H259Q269 742 274 738T283 726L540
263Q545 255 551 256T558 268L623 730Q625 738 627 740T638 742H734Z" />
<glyph unicode="O" horiz-adv-x="770" d="M352 -10Q260 -10 195 25T96 129T61 292Q61 311 62 332T67 375Q84 494 136 578T268 707T449 752Q539 752 604 716T703 611T738 445Q738 426 737 405T732 362Q716 245 665 162T533 34T352 -10V-10ZM357 96Q450 96 504 163T580
374Q584 403 585 427T587 473Q587 563 552 605T446 647Q353 647 297 578T220 360Q216 334 214 310T212 266Q212 178 248 137T357 96V96Z" />
<glyph unicode="P" horiz-adv-x="706" d="M244 293Q236 293 233 289T229 279L192 16Q191 6 187 3T171 0H58Q41 0 45 21L145 728Q146 736 148 739T158 742H441Q515 742 573 721T666 657T700 546Q700 465 661 409T555 323T401 293H244ZM549 546Q549 594 516 614T423
635H295Q286 635 282 631T276 618L248 414Q247 405 249 403T257 400H392Q439 400 474 418T529 470T549 546V546Z" />
<glyph unicode="Q" horiz-adv-x="772" d="M67 376Q84 495 136 579T268 707T448 752Q540 752 605 716T704 611T739 446Q739 427 738 406T733 362Q718 255 676 179T566 55Q556 48 558 41Q561 30 576 18T613 -5T661 -19Q669 -20 671 -23T673 -32L662 -109Q661 -119
655 -122T631 -125Q599 -125 565 -114T500 -75T445 -5Q440 3 427 -1Q408 -6 389 -8T352 -10Q261 -10 196 25T96 128T61 292Q61 312 62 333T67 376V376ZM220 360Q216 333 214 309T212 264Q212 177 248 137T356 96Q449 96 504 163T580 375Q584 403 586 427T588 473Q588
561 553 604T445 647Q352 647 297 577T220 360V360Z" />
<glyph unicode="R" horiz-adv-x="713" d="M622 21Q629 0 608 0H487Q479 0 475 4T468 19L393 311Q392 317 389 319T377 321H247Q235 321 233 309L192 17Q191 6 186 3T167 0H62Q51 0 48 6T45 22L145 729Q146 737 148 739T158 742H459Q577 742 641 697T706 568Q706
515 686 471T629 393T542 344Q533 340 531 337T529 329L622 21V21ZM393 423Q442 423 477 438T532 484T552 558Q552 600 523 620T441 641H292Q281 641 278 626L250 435Q249 427 251 425T259 423H393V423Z" />
<glyph unicode="S" horiz-adv-x="665" d="M545 586Q524 610 487 628T392 647Q348 647 314 634T260 595T240 536Q240 519 248 505T275 478T319 455L466 404Q543 378 579 338T615 238Q615 158 573 103T460 19T300 -10Q197 -10 129 25T25 124Q21 132 21 138T29 148L94
188Q105 195 113 192T127 181Q150 152 172 132T227 101T312 91Q356 91 392 102T449 139T470 204Q470 231 451 250T386 286L241 337Q169 361 135 406T100 508Q100 564 124 608T189 685T284 735T399 752Q456 752 502 738T584 700T642 646Q648 638 648 633T643 624L567
573Q563 571 558 574T545 586V586Z" />
<glyph unicode="T" horiz-adv-x="669" d="M102 730Q103 737 106 739T118 742H686Q695 742 697 739T697 729L685 645Q684 639 681 637T670 634H478Q470 634 467 631T462 621L377 15Q376 6 373 3T362 0H244Q234 0 231 4T230 19L315 622Q316 634 305 634H103Q88 634
90 646L102 730Z" />
<glyph unicode="U" horiz-adv-x="717" d="M646 262Q632 162 590 102T481 16T325 -10Q189 -10 128 46T67 212Q67 229 69 248T73 287L136 728Q137 737 140 739T149 742H268Q276 742 280 736T282 722L217 258Q216 246 215 236T214 214Q214 153 246 126T340 98Q389
98 427 115T491 170T524 268L589 729Q591 737 593 739T602 742H697Q704 742 708 736T711 722L646 262V262Z" />
<glyph unicode="V" horiz-adv-x="724" d="M745 742Q763 742 755 724L408 16Q403 6 397 3T380 0H275Q263 0 257 3T248 16L103 725Q99 742 116 742H237Q250 742 253 723L357 187Q360 170 368 186L624 730Q627 738 631 740T643 742H745V742Z" />
<glyph unicode="W" horiz-adv-x="1071" d="M1086 742Q1100 742 1101 736T1096 712L793 16Q788 6 783 3T765 0H674Q662 0 656 3T648 17L576 500Q575 507 573 507T567 500L358 16Q354 6 349 3T331 0H235Q213 0 210 18L104 718Q102 730 106 736T123 742H228Q240 742
244 737T250 723L321 228Q323 218 325 218T332 227L546 730Q549 738 553 740T570 742H662Q674 742 677 737T681 723L754 222Q755 216 758 216T765 225L977 730Q980 738 984 740T1000 742H1086V742Z" />
<glyph unicode="X" horiz-adv-x="715" d="M635 30Q645 11 643 6T626 0H509Q500 0 494 2T485 13L360 263Q356 273 352 273T340 263L144 10Q139 3 132 2T116 0H15Q1 0 -1 8T11 36L275 365Q283 374 285 380T283 395L112 725Q109 732 111 737T122 742H245Q256 742
261 740T269 728L380 502Q387 488 397 502L575 732Q580 739 585 740T600 742H711Q722 742 722 734T716 718L460 401Q453 392 453 387T454 376L635 30V30Z" />
<glyph unicode="Y" horiz-adv-x="715" d="M736 742Q746 742 748 736T745 723L452 331Q446 324 443 315T437 285L399 18Q397 6 392 3T374 0H266Q255 0 253 4T251 19L290 295Q292 307 292 313T287 328L104 724Q99 733 101 737T115 742H239Q250 742 254 737T263 723L385
442Q391 427 401 442L605 730Q611 738 615 740T631 742H736V742Z" />
<glyph unicode="Z" horiz-adv-x="664" d="M23 0Q12 0 8 4T4 18L9 53Q10 63 13 70T26 88L459 623Q464 629 464 630T457 632H131Q114 632 116 652L127 731Q129 738 131 740T139 742H677Q689 742 687 727L682 688Q681 680 679 675T669 660L226 119Q218 111 227 111H584Q592
111 594 109T596 99L583 12Q582 5 580 3T568 0H23V0Z" />
<glyph unicode="[" horiz-adv-x="306" d="M36 -165Q27 -165 21 -159T15 -143L138 731Q139 738 142 740T155 742H344Q350 742 354 738T356 729L349 672Q348 667 346 667T339 666H257Q248 666 242 660T234 643L132 -78Q131 -87 132 -88T143 -89H225Q232 -89 236
-94T239 -105L232 -155Q231 -163 230 -164T220 -165H36V-165Z" />
<glyph unicode="\" horiz-adv-x="357" d="M239 -26Q220 -26 217 -5L74 722Q71 734 73 738T85 742H145Q151 742 156 737T162 726L308 -17Q309 -23 308 -24T299 -26H239V-26Z" />
<glyph unicode="]" horiz-adv-x="306" d="M-31 -165Q-37 -165 -40 -161T-43 -152L-35 -95Q-34 -90 -33 -90T-26 -89H56Q65 -89 71 -83T79 -66L181 655Q182 665 181 665T170 666H88Q81 666 77 671T74 682L81 732Q83 740 84 741T93 742H278Q288 742 293 736T298
720L176 -154Q175 -161 172 -163T159 -165H-31V-165Z" />
<glyph unicode="^" horiz-adv-x="475" d="M263 385Q261 393 255 390T246 378L111 133Q108 128 105 128T94 128H33Q26 128 23 135T23 149L224 507Q237 530 255 537T290 535T313 501L415 140Q417 132 416 130T406 127H348Q341 127 335 130T328 139L263 385Z" />
<glyph unicode="_" horiz-adv-x="535" d="M428 -119Q427 -129 423 -131T406 -134L17 -135Q7 -135 3 -129T0 -114L9 -51Q11 -43 13 -41T21 -38H424Q430 -38 434 -43T437 -56L428 -119Z" />
<glyph unicode="`" horiz-adv-x="299" d="M97 743Q100 748 104 749T114 749L333 652Q339 649 341 645T341 634L325 601Q322 595 318 594T305 596L84 660Q72 663 70 668T70 681L97 743V743Z" />
<glyph unicode="a" horiz-adv-x="558" d="M334 53Q299 20 255 5T162 -10Q91 -10 52 26T12 119Q12 174 40 212T113 273T212 308T317 322L367 325Q386 326 389 344L392 367Q393 372 393 376T394 385Q394 420 373 438T311 456Q275 456 242 441T181 388Q178 383 174
382T162 383L81 404Q75 406 73 412T76 432Q111 486 173 513T319 540Q389 540 433 522T498 472T519 397Q519 390 519 383T517 368L467 16Q466 5 463 3T450 0H365Q356 0 353 6T350 22L352 56Q351 73 334 53V53ZM375 246Q376 255 375 257T365 259L318 255Q294 253
264 247T205 229T159 194T141 139Q141 111 161 95T218 78Q247 78 273 87T318 111Q338 125 350 142T365 175L375 246Z" />
<glyph unicode="b" horiz-adv-x="606" d="M49 0Q37 0 33 6T29 24L128 729Q130 737 133 739T142 742H248Q255 742 256 736T257 722L225 490Q224 481 227 481T238 487Q254 499 276 511T327 531T390 540Q451 540 491 514T551 440T571 328Q571 269 556 210T509 100T427
20T306 -10Q267 -10 238 2T189 34T157 72Q154 77 149 76T141 64L127 17Q125 7 121 4T106 0H49ZM180 178Q177 146 188 122T223 85T275 72Q320 72 351 98T402 164T431 249T440 334Q440 395 416 425T345 455Q305 455 272 437T212 392L180 178Z" />
<glyph unicode="c" horiz-adv-x="548" d="M331 540Q392 540 433 519T499 463T533 391Q534 384 532 381T521 377L436 367Q431 366 428 371T423 384Q412 405 401 420T374 444T334 453Q290 453 258 430T205 369T174 290T163 208Q163 143 193 110T276 76Q324 76 357
98T421 166Q425 171 435 168L496 151Q502 150 504 144T503 128Q490 106 469 82T418 37T350 3T264 -10Q194 -10 142 19T62 100T33 222Q33 283 54 340T114 442T208 514T331 540V540Z" />
<glyph unicode="d" horiz-adv-x="606" d="M399 0Q392 0 386 4T381 17L387 50Q389 58 385 59T373 53Q358 40 336 25T284 0T218 -10Q136 -10 85 43T33 202Q33 265 51 325T103 434T186 511T297 540Q342 540 371 524T423 482Q430 474 436 476T446 499L479 728Q480
736 484 739T496 742H597Q609 742 607 721L507 17Q506 7 502 4T485 0H399ZM434 402Q413 428 390 441T335 454Q289 454 257 429T204 365T174 282T164 198Q164 154 177 127T214 87T268 74Q301 74 330 90T378 129T400 177L434 402Z" />
<glyph unicode="e" horiz-adv-x="584" d="M268 -10Q197 -10 145 19T63 99T33 219Q33 281 54 338T116 441T211 513T333 540Q400 540 450 513T527 436T555 312Q555 299 554 285T551 256Q550 248 545 244T529 240H178Q168 240 165 229T162 196Q162 141 196 111T285
81Q328 81 364 98T432 153Q437 158 442 158T453 154L510 126Q527 119 515 104Q478 61 441 36T361 1T268 -10V-10ZM412 311Q422 311 429 319T436 352Q436 396 410 427T333 458Q293 458 260 438T206 384T179 311H412Z" />
<glyph unicode="f" horiz-adv-x="394" d="M396 530Q404 530 407 527T408 517L399 451Q397 439 385 439H288Q280 439 278 425L220 13Q219 5 216 3T206 0H104Q98 0 94 6T90 19L148 432Q150 439 142 439H58Q51 439 50 444T48 456L57 519Q59 525 61 527T72 530H148Q155
530 159 535T165 547L174 612Q183 676 221 709T328 742H423Q432 742 437 738T442 725L434 664Q433 654 420 654H362Q337 654 319 637T298 592L290 540Q289 530 300 530H396V530Z" />
<glyph unicode="g" horiz-adv-x="622" d="M219 -174Q100 -174 34 -142T-32 -53Q-32 -12 -2 15T73 59Q83 63 84 67T78 75Q57 85 47 99T36 135Q36 159 51 177T90 207T135 227Q144 231 146 235T141 243Q105 259 86 287T67 353Q67 401 87 435T143 493T222 527T312
538Q382 538 421 523T480 489Q486 483 494 488T509 500Q523 515 541 525T579 541T614 548Q625 548 630 545T635 530L627 474Q626 461 622 457T608 453Q592 453 577 452T553 448Q520 441 528 423Q531 417 533 407T535 384Q535 337 513 304T453 250T372 219T284 209Q276
209 256 208T212 203T173 190T157 167Q157 156 172 152T222 144L359 136Q448 131 489 97T531 3Q531 -39 513 -69T462 -120T390 -152T306 -169T219 -174V-174ZM225 -108Q265 -108 299 -103T358 -87T398 -59T412 -16Q412 9 395 20T336 34L180 43Q157 39 134 29T95
2T79 -39Q79 -75 116 -91T225 -108V-108ZM287 277Q322 277 351 289T399 328T418 393Q418 428 392 448T314 469Q279 469 250 455T202 414T183 350Q183 317 211 297T287 277V277Z" />
<glyph unicode="h" horiz-adv-x="592" d="M48 0Q38 0 33 6T29 22L129 729Q130 737 134 739T145 742H244Q258 742 255 726L220 477Q218 463 227 469Q265 495 295 510T353 533T410 540Q480 540 517 505T554 410Q554 402 554 395T551 379L500 17Q498 7 495 4T480
0H387Q367 0 370 22L419 366Q420 371 420 376T421 385Q421 414 404 429T352 444Q327 444 304 436T259 412T210 372L159 16Q157 6 153 3T137 0H48Z" />
<glyph unicode="i" horiz-adv-x="256" d="M158 18Q156 6 152 3T135 0H48Q37 0 33 6T29 22L98 517Q100 525 102 527T112 530H217Q224 530 226 524T228 511L158 18ZM246 624Q244 613 239 609T221 605H125Q115 605 113 612T112 629L126 724Q128 742 143 742H249Q255
742 258 736T259 721L246 624Z" />
<glyph unicode="j" horiz-adv-x="256" d="M155 -10Q143 -92 101 -131T-30 -170Q-75 -170 -88 -165T-99 -148L-90 -82Q-89 -76 -87 -72T-77 -67L-31 -63Q-8 -61 6 -46T27 4L99 517Q100 525 103 527T113 530H214Q221 530 225 524T228 511L155 -10V-10ZM246 624Q244
613 239 609T221 605H125Q115 605 113 612T112 629L126 724Q128 742 143 742H249Q255 742 258 736T259 721L246 624Z" />
<glyph unicode="k" horiz-adv-x="590" d="M530 18Q533 11 532 6T519 0H410Q400 0 396 6T388 21L299 243Q295 256 283 245L189 160Q185 156 181 151T175 136L159 18Q157 6 153 3T136 0H49Q37 0 33 6T29 22L129 729Q130 737 133 739T142 742H248Q255 742 257 736T257
722L198 293Q197 287 198 288T206 296L447 519Q454 526 460 528T472 530H563Q577 530 580 522T574 504L406 356Q400 351 397 346T397 331L530 18V18Z" />
<glyph unicode="l" horiz-adv-x="257" d="M159 18Q157 6 153 3T135 0H48Q37 0 32 6T28 22L131 729Q132 737 134 739T144 742H248Q261 742 258 725L159 18Z" />
<glyph unicode="m" horiz-adv-x="914" d="M47 0Q38 0 33 6T29 22L98 517Q100 525 102 527T111 530H216Q223 530 224 527T225 515L218 470Q217 458 226 465Q258 489 287 506T345 532T405 541Q461 541 493 515T534 450Q536 445 540 447T553 457Q584 482 614 500T676
529T738 540Q803 540 839 505T875 408Q875 401 875 394T873 378L823 17Q821 7 817 4T802 0H710Q689 0 693 22L741 361Q743 367 743 374T743 385Q743 414 728 429T679 444Q655 444 633 435T591 413T556 385Q549 378 544 371T538 355L490 17Q488 7 485 4T470 0H378Q370
0 365 6T361 22L410 366Q415 405 400 424T347 444Q323 444 301 436T257 412T209 372L158 16Q156 6 152 3T136 0H47V0Z" />
<glyph unicode="n" horiz-adv-x="592" d="M42 0Q33 0 31 6T29 22L98 517Q100 525 102 527T111 530H217Q222 530 224 528T226 518L218 465Q217 454 228 463Q271 498 316 519T409 540Q478 540 515 504T553 408Q553 402 553 395T551 381L500 17Q498 7 494 4T479 0H383Q374
0 372 6T370 22L419 363Q420 369 420 374T421 384Q421 414 404 429T352 444Q326 444 304 436T259 412T209 372L158 16Q156 6 152 3T135 0H42V0Z" />
<glyph unicode="o" horiz-adv-x="599" d="M265 -10Q194 -10 142 19T62 100T33 221Q33 291 57 349T122 450T218 516T334 540Q405 540 457 510T537 427T565 305Q565 214 525 143T418 31T265 -10V-10ZM269 79Q316 79 354 108T414 193T436 329Q436 389 410 421T332
454Q285 454 247 424T186 338T163 202Q163 143 190 111T269 79V79Z" />
<glyph unicode="p" horiz-adv-x="605" d="M15 -165Q8 -165 6 -159T6 -145L98 514Q99 524 102 527T118 530H208Q218 530 222 527T226 514L221 480Q220 474 225 474T237 481Q254 493 274 507T323 530T390 540Q469 540 520 488T571 330Q571 273 557 213T511 103T431
21T314 -10Q270 -10 237 5T181 47Q172 56 167 50T160 31L134 -153Q133 -161 131 -163T122 -165H15V-165ZM270 75Q316 75 348 100T401 166T431 251T441 335Q441 379 428 405T391 443T338 455Q304 455 275 441T228 404T206 360L172 127Q192 102 215 89T270 75V75Z"
/>
<glyph unicode="q" horiz-adv-x="606" d="M365 -165Q353 -165 355 -145L380 29Q382 39 380 40T368 35Q338 16 301 3T225 -10Q134 -10 84 48T34 208Q34 263 49 321T96 429T178 510T298 541Q344 541 374 528T423 497T452 460Q456 455 460 456T469 470L487 514Q491
524 495 527T509 530H564Q573 530 576 526T577 506L485 -152Q484 -160 479 -162T466 -165H365V-165ZM267 74Q302 74 334 89T392 129L426 352Q430 382 420 406T387 445T333 459Q288 459 257 434T205 370T175 286T165 202Q165 137 193 106T267 74V74Z" />
<glyph unicode="r" horiz-adv-x="411" d="M47 0Q37 0 33 6T29 22L98 517Q100 525 102 527T111 530H210Q217 530 220 526T223 511L215 462Q214 453 217 453T227 458Q252 484 280 502T335 530T385 540Q405 540 415 537T424 526L411 432Q410 423 408 421T401 419Q385
421 369 422T341 423Q320 423 297 415T252 391T217 358T201 322L158 16Q156 6 152 3T136 0H47V0Z" />
<glyph unicode="s" horiz-adv-x="524" d="M231 -10Q139 -10 82 24T4 105Q-3 119 9 125L66 153Q74 157 80 156T92 146Q108 116 139 96T228 75Q243 75 265 78T307 89T342 111T356 149Q356 167 340 181T285 205L186 231Q120 249 89 279T58 357Q58 417 91 457T179
519T296 540Q371 540 420 511T494 440Q497 435 497 430T489 421L433 395Q426 392 422 394T409 405Q394 428 365 443T293 458Q267 458 241 451T196 429T178 388Q178 372 189 361T233 338L347 308Q414 291 444 255T474 171Q474 125 453 91T396 35T318 1T231 -10V-10Z"
/>
<glyph unicode="t" horiz-adv-x="417" d="M225 0Q164 0 130 26T96 103Q96 110 96 117T98 131L140 428Q141 435 137 437T127 439H58Q46 439 48 458L57 521Q59 527 61 528T71 530H145Q150 530 154 534T159 544L194 698Q197 710 211 710H300Q306 710 309 706T310
689L288 541Q287 536 290 534T297 531H407Q414 531 419 528T422 518L413 450Q412 443 409 441T397 439H284Q272 439 269 425L232 157Q231 151 231 146T230 136Q230 110 244 101T287 92H345Q352 92 356 87T359 74L351 22Q349 6 335 4Q320 3 300 2T259 1T225 0V0Z"
/>
<glyph unicode="u" horiz-adv-x="588" d="M179 -10Q116 -10 78 26T39 124Q39 131 39 138T41 152L91 513Q93 523 97 526T112 530H204Q214 530 218 524T221 508L173 168Q172 163 172 158T171 149Q171 116 189 101T237 85Q275 85 310 105T378 157L430 514Q431 524
436 527T452 530H542Q552 530 557 524T560 508L488 13Q487 5 485 3T475 0H377Q371 0 367 3T364 13L372 64Q373 70 370 70T359 66Q308 23 265 7T179 -10V-10Z" />
<glyph unicode="v" horiz-adv-x="564" d="M562 530Q571 530 575 522T576 507L306 16Q301 6 295 3T278 0H219Q207 0 200 6T191 22L59 513Q56 530 73 530H177Q184 530 190 525T196 512L280 183Q285 167 296 191L470 519Q477 530 489 530H562V530Z" />
<glyph unicode="w" horiz-adv-x="811" d="M806 530Q815 530 819 522T820 507L590 12Q587 3 583 2T570 0H500Q478 0 477 20L422 329Q420 339 417 336T409 322L268 12Q265 3 262 2T248 0H175Q154 0 153 20L61 513Q58 530 74 530H172Q179 530 184 525T190 512L246
193Q248 183 252 186T260 200L404 519Q408 530 422 530H493Q500 530 505 525T511 512L567 193Q568 183 572 186T580 200L722 519Q729 530 742 530H806V530Z" />
<glyph unicode="x" horiz-adv-x="575" d="M508 26Q518 10 517 5T501 0H395Q385 0 378 5T367 17L274 177Q268 187 264 185T250 173L108 10Q103 4 94 2T74 0H-2Q-16 0 -17 9T-1 38L200 256Q208 264 210 270T208 284L73 510Q68 517 70 523T84 530H187Q199 530 205
526T213 513L300 364Q303 358 307 360T317 371L441 520Q447 527 452 528T470 530H552Q565 530 565 522T559 507L372 297Q364 289 363 283T365 269L508 26V26Z" />
<glyph unicode="y" horiz-adv-x="554" d="M39 -165Q11 -165 -2 -162T-13 -147L-5 -83Q-4 -77 4 -73T30 -69H94Q114 -69 131 -59T161 -33T179 0T181 30L55 505Q49 530 68 530H182Q196 530 198 519L276 189Q279 178 284 178T296 191L462 512Q467 522 472 526T485
530H558Q574 530 564 513L279 -13Q254 -59 229 -88T176 -134T115 -158T39 -165V-165Z" />
<glyph unicode="z" horiz-adv-x="506" d="M6 0Q-4 0 -7 3T-8 17L-4 49Q-2 60 2 67T18 87L328 430Q333 437 332 441T319 446H86Q78 446 76 450T75 464L83 517Q85 524 90 527T101 530H499Q510 530 509 518L503 480Q502 472 497 465T484 448L172 102Q166 95 169 90T179
85H438Q452 85 449 71L442 15Q441 9 438 5T425 0H6V0Z" />
<glyph unicode="{" horiz-adv-x="345" d="M209 -165Q179 -165 153 -157T107 -133T78 -96T73 -44L103 169Q106 193 98 213T70 245T13 257Q8 257 4 262T1 275L7 317Q9 324 9 325T12 327Q70 327 101 354T139 426L168 630Q173 668 196 692T255 729T329 742H383Q389
742 393 738T395 729L388 672Q387 667 385 667T378 666H348Q320 666 305 658T283 637T273 609L244 400Q238 363 219 341T177 308T129 294Q121 293 117 291T117 287Q143 286 166 275T203 239T211 172L182 -39Q178 -67 189 -78T237 -89H265Q271 -89 275 -94T279 -105L271
-155Q270 -163 269 -164T259 -165H209V-165Z" />
<glyph unicode="|" horiz-adv-x="255" d="M41 -165Q31 -165 26 -158T22 -140L159 833Q161 843 164 845T175 847H238Q247 847 251 841T254 828L117 -155Q116 -161 114 -163T104 -165H41Z" />
<glyph unicode="}" horiz-adv-x="345" d="M-31 -165Q-37 -165 -40 -161T-43 -152L-35 -95Q-34 -90 -33 -90T-26 -89H4Q33 -89 48 -81T71 -60T79 -32L108 177Q115 214 133 236T176 270T223 283Q232 284 235 286T235 290Q210 291 187 302T150 338T141 405L170 616Q174
645 164 655T115 666H88Q81 666 77 671T74 682L81 732Q83 740 84 741T93 742H143Q173 742 199 734T245 710T274 673T279 621L250 408Q247 384 254 364T282 332T338 320Q343 320 347 315T350 302L344 261Q343 253 342 252T339 250Q281 250 251 223T214 151L185 -53Q180
-90 156 -115T97 -152T23 -165H-31V-165Z" />
<glyph unicode="~" horiz-adv-x="595" d="M550 366Q524 336 487 319T409 302Q378 302 354 311T311 332T271 353T226 362Q188 362 160 342T108 298Q103 296 99 299T93 309L72 355Q70 361 70 365T76 378Q113 406 148 425T227 445Q258 445 281 436T325 416T365 395T409
386Q444 386 470 403T514 444Q522 449 527 445T535 432L552 392Q557 382 550 366V366Z" />
<glyph unicode="&#xa0;" horiz-adv-x="209" />
<glyph unicode="&#xa1;" horiz-adv-x="257" d="M220 396Q219 388 217 387T208 385H90Q84 385 80 390T76 405L92 515Q93 525 96 527T110 530H212Q225 530 231 524T235 505L220 396V396ZM145 -154Q145 -161 143 -163T135 -165H10Q4 -165 0 -159T-3 -145L92 302Q95
311 97 313T110 316H154Q166 316 172 310T176 293L145 -154V-154Z" />
<glyph unicode="&#xa2;" horiz-adv-x="558" d="M306 18Q305 7 301 4T284 0H239Q227 0 223 7T219 24L236 147Q237 157 241 160T257 163H305Q316 163 320 157T324 141L306 18V18ZM388 597Q386 586 382 583T364 579H320Q308 579 304 586T300 603L318 726Q319 736
323 739T338 742H387Q397 742 401 736T405 720L388 597V597ZM309 651Q370 651 411 630T477 574T511 502Q512 495 510 492T499 488L414 478Q409 477 406 482T401 495Q390 516 379 531T352 555T312 564Q268 564 236 541T183 480T152 401T141 319Q141 254 171 221T254
187Q302 187 335 209T399 277Q403 282 413 279L474 262Q480 261 482 255T481 239Q468 217 447 193T396 148T328 114T242 101Q172 101 120 130T40 211T11 333Q11 394 32 451T92 553T186 625T309 651V651Z" />
<glyph unicode="&#xa3;" horiz-adv-x="635" d="M-9 0Q-15 0 -19 6T-23 19L-11 101Q-10 107 -9 108T-1 109H24Q63 108 93 138T134 234Q136 250 137 277T141 348Q140 350 139 350T133 350H47Q42 350 39 354T37 364L44 419Q45 423 46 423T51 424H121Q126 424 131
428T136 438L135 518Q134 575 154 618T211 691T292 736T387 752Q434 752 477 737T553 691T595 617Q599 613 598 612T590 608L499 581Q493 579 488 583T482 594Q472 617 454 632T401 647Q372 647 348 635T306 599T284 543Q281 518 282 487T284 427Q286 425 293 425H430Q435
425 438 421T441 412L433 356Q432 351 431 351T426 350H302Q296 350 292 346T286 334Q284 307 281 283T272 231Q265 201 254 179T232 142T210 116Q203 112 202 111T207 110H344Q390 110 422 128T473 187Q477 190 480 190T491 188L568 170Q575 169 579 163T580 146Q548
74 487 37T343 0H-9V0Z" />
<glyph unicode="&#xa4;" horiz-adv-x="562" d="M272 160Q240 160 213 169T165 196Q158 197 153 194T146 188L89 139Q84 135 80 137T71 145L38 183Q34 188 33 192T36 201L93 251Q101 259 100 272Q89 294 84 320T84 380Q88 408 99 435T128 489Q137 495 133 501L90
550Q87 554 86 559T89 569L133 607Q138 612 142 610T150 603L194 553Q196 550 199 553T207 559Q234 571 263 578T319 585Q352 585 380 576T428 549Q434 549 437 552T444 557L501 607Q505 609 507 606T511 601L551 555Q553 552 554 549T553 543L494 493Q488 487
489 479Q501 456 506 428T507 366Q503 338 492 309T461 254Q458 254 457 252T457 248L500 198Q503 194 504 191T503 185L452 140Q449 137 446 139T441 146L398 196Q395 198 392 195T387 189Q359 176 330 168T272 160V160ZM274 249Q310 249 342 267T395 316T421
380Q426 411 414 438T378 481T319 497Q282 497 250 479T198 431T172 366Q168 335 179 308T215 265T274 249V249Z" />
<glyph unicode="&#xa5;" horiz-adv-x="641" d="M696 742Q706 742 710 736T709 721L419 335Q413 327 410 319T404 288L365 18Q364 6 359 3T341 0H238Q226 0 222 6T218 23L257 297Q258 309 258 315T253 330L71 724Q66 733 68 737T83 742H207Q219 742 223 737T231
723L353 442Q357 433 360 435T370 447L572 730Q579 739 583 740T599 742H696V742ZM559 295Q557 285 553 283T536 280L121 279Q111 279 107 285T103 300L108 341Q110 349 112 351T120 353H551Q557 353 561 348T564 336L559 295ZM536 138Q535 128 531 126T514 123H99Q88
123 84 128T80 144L86 184Q88 192 90 194T98 196H528Q534 196 538 191T542 179L536 138Z" />
<glyph unicode="&#xa6;" horiz-adv-x="255" d="M124 432Q114 432 110 439T107 456L159 833Q161 843 164 845T175 847H238Q247 847 251 841T254 828L200 442Q199 435 197 434T187 432H124ZM41 -165Q31 -165 26 -158T22 -140L75 236Q76 246 79 248T91 250H154Q162
250 167 245T171 231L117 -155Q116 -161 114 -163T104 -165H41Z" />
<glyph unicode="&#xa7;" horiz-adv-x="500" d="M372 209Q413 184 432 153T444 76Q438 31 409 -3T330 -58T213 -78Q131 -78 76 -46T4 32Q-2 40 -2 43T0 48L67 78Q74 82 78 78T85 66Q103 41 133 23T212 5Q258 5 290 23T327 74Q330 94 316 111T253 148L175 179Q101
209 70 248T48 344Q54 390 84 422T160 475Q129 494 113 514T92 557T90 606Q97 648 125 681T199 733T307 752Q381 752 430 722T496 651Q501 644 501 641T498 635L433 605Q425 602 421 606T414 617Q396 638 372 654T311 670Q267 670 239 652T207 604Q205 590 215
575T264 544L339 513Q418 480 451 440T475 338Q469 292 441 262T372 209V209ZM278 256Q300 255 319 265T350 292T366 329Q369 344 366 357T348 383T299 411L252 429Q227 427 206 415T172 386T156 348Q153 327 165 313T226 277L278 256V256Z" />
<glyph unicode="&#xa8;" horiz-adv-x="322" d="M180 634Q179 623 175 621T159 619H80Q70 619 66 624T63 639L76 730Q77 738 79 740T88 742H180Q187 742 190 737T193 724L180 634ZM364 634Q363 623 359 621T343 619H263Q253 619 250 624T247 639L259 730Q261 738
263 740T271 742H363Q370 742 374 737T376 724L364 634Z" />
<glyph unicode="&#xa9;" horiz-adv-x="830" d="M381 -10Q301 -10 236 20T125 103T59 227T50 378Q61 456 99 523T196 642T327 723T478 752Q557 752 623 722T734 638T800 515T810 364Q799 286 760 218T662 99T531 19T381 -10V-10ZM382 66Q447 66 505 88T610 151T688
249T729 378Q739 446 725 501T676 595T591 656T478 677Q412 677 354 655T249 591T171 492T131 364Q121 296 135 241T183 146T268 87T382 66V66ZM458 587Q505 587 537 569T589 524T616 466Q618 462 617 461T611 458L538 448Q534 447 531 451T528 464Q519 485 505
500T462 515Q431 515 405 498T362 448T337 367Q328 298 349 265T416 231Q454 231 480 252T528 306Q530 306 532 305T540 301L587 288Q596 286 593 269Q583 252 566 233T527 197T474 170T408 160Q348 160 305 188T243 265T232 379Q241 441 273 487T353 560T458 587V587Z"
/>
<glyph unicode="&#xaa;" horiz-adv-x="393" d="M252 751Q304 751 334 737T375 698T382 639L358 470Q356 456 356 446T357 419Q360 414 355 414T341 413H289Q281 413 279 417T275 428V447Q274 452 272 449T263 439Q235 422 214 415T165 407Q111 407 85 435T64 508Q71
555 116 581T248 614L282 617Q289 618 293 622T299 631L301 644Q304 670 292 682T252 694Q229 694 209 684T172 649Q170 647 168 648T160 651L105 666Q104 667 103 673T102 685Q125 717 159 734T252 751V751ZM148 498Q146 481 157 472T194 462Q212 462 228 469T256
488Q267 494 274 502T283 521L289 562Q290 568 289 568T281 568L251 566Q224 564 202 556T166 533T148 498V498Z" />
<glyph unicode="&#xab;" horiz-adv-x="473" d="M394 74Q396 69 395 69T385 68H338Q334 68 330 72T326 79L237 245Q234 253 234 260T237 275L376 451Q380 456 382 456T388 455H436Q442 455 446 451T447 439L340 264Q337 258 336 254T335 244L394 74ZM204 74Q206
69 205 69T195 68H148Q144 68 140 72T136 79L47 245Q44 253 44 260T47 275L186 451Q190 456 192 456T198 455H246Q251 455 255 451T257 439L150 264Q147 258 146 254T145 244L204 74Z" />
<glyph unicode="&#xac;" horiz-adv-x="574" d="M532 341Q532 331 527 328T510 325H82Q72 325 68 331T64 346L74 409Q75 417 77 419T85 421H528Q534 421 538 416T542 404L532 341ZM511 187Q510 178 507 176T492 173H423Q414 173 410 178T406 192L432 379Q433 387
435 388T443 390H525Q531 390 534 384T537 371L511 187Z" />
<glyph unicode="&#xad;" horiz-adv-x="380" d="M541 232Q539 221 535 219T519 216H287Q276 216 272 222T268 237L278 300Q279 308 281 310T290 312H537Q543 312 547 307T550 295L541 232Z" />
<glyph unicode="&#xae;" horiz-adv-x="545" d="M279 275Q212 275 161 308T86 397T70 520Q79 585 117 637T213 721T336 752Q403 752 453 719T529 630T545 506Q536 442 497 390T401 306T279 275V275ZM276 330Q331 330 375 353T450 420T487 520Q495 574 479 613T427
675T339 697Q284 697 239 673T165 606T128 506Q116 425 157 378T276 330V330ZM388 398Q389 395 389 395T386 394H340Q338 394 336 396T334 402L313 498Q312 500 312 500T306 499H271Q269 499 267 496T263 491L250 397Q249 393 249 393T245 394H205Q202 394 200
397T198 403L229 628Q230 631 230 631T231 630H336Q377 630 399 612T416 560Q413 538 399 525T368 503Q365 504 363 502T361 499L388 398V398ZM319 537Q335 537 347 546T362 571Q364 581 357 586T329 591H286Q282 591 280 589T276 583L270 539Q269 536 269 536T271
537H319V537Z" />
<glyph unicode="&#xaf;" horiz-adv-x="361" d="M407 661Q406 652 402 650T387 647H82Q73 647 69 653T66 667L74 723Q75 730 77 731T84 733H403Q408 733 412 728T415 717L407 661Z" />
<glyph unicode="&#xb0;" horiz-adv-x="464" d="M459 682Q452 635 426 599T360 542T273 521Q224 521 188 544T135 606T125 697Q131 744 157 780T223 837T310 857Q359 857 395 835T448 773T459 682V682ZM379 696Q384 733 366 756T308 779Q266 779 237 752T201 681Q197
644 215 621T272 597Q314 597 343 624T379 696V696Z" />
<glyph unicode="&#xb1;" horiz-adv-x="574" d="M494 61Q492 50 488 48T471 45H43Q33 45 29 51T25 66L34 129Q35 136 37 138T46 141H489Q495 141 499 136T502 123L494 61ZM545 425Q543 415 539 412T522 409H94Q84 409 80 415T76 430L85 493Q86 501 89 503T98 505H541Q546
505 550 500T554 488L545 425ZM256 223Q246 223 241 230T238 250L298 678Q300 688 302 690T314 692H377Q385 692 390 687T393 675L331 232Q330 226 328 225T319 223H256Z" />
<glyph unicode="&#xb2;" horiz-adv-x="452" d="M175 586Q216 618 242 642T280 688T293 731Q293 759 275 773T227 788Q201 788 172 772T119 721Q115 716 111 719L54 753Q48 756 57 769Q91 812 138 834T236 857Q279 857 312 843T365 802T384 737Q384 702 370 674T330
621T269 568L140 469Q135 466 135 464T140 461H340Q350 461 349 452L341 392Q340 388 339 386T331 384H15Q1 384 2 398L8 439Q10 446 14 451T36 470L175 586Z" />
<glyph unicode="&#xb3;" horiz-adv-x="467" d="M83 784Q81 786 81 790T85 797Q117 825 159 841T248 857Q322 857 363 827T405 748Q405 708 378 677T309 632Q306 631 306 629T309 626Q344 617 366 591T388 529Q388 481 363 447T291 396T183 378Q141 378 110 388T56
416T20 456Q16 463 19 466L67 499Q73 503 76 499Q100 470 127 458T188 445Q234 445 265 468T297 529Q297 549 286 563T255 585T210 593H152Q145 593 146 600L153 654Q153 659 162 659H205Q235 660 259 671T298 700T313 741Q313 763 295 777T244 792Q208 792 183
778T131 744Q124 738 119 745L83 784V784Z" />
<glyph unicode="&#xb4;" horiz-adv-x="299" d="M345 680Q347 672 345 668T332 660L93 594Q83 592 78 596T72 608L65 638Q62 652 69 654L317 750Q322 753 326 751T332 740L345 680Z" />
<glyph unicode="&#xb5;" horiz-adv-x="588" d="M238 85Q274 85 309 105T378 157L430 514Q431 524 436 527T452 530H542Q552 530 557 524T560 508L488 13Q487 5 485 3T475 0H377Q371 0 367 5T363 19L371 72Q372 77 369 76T358 67Q330 42 307 28T262 5T218 -7Q194
-8 178 -7T150 1L129 -147Q127 -159 123 -162T105 -165H19Q8 -165 3 -159T-1 -143L91 513Q93 523 97 526T112 530H204Q214 530 218 524T221 508L171 157Q169 136 176 120T200 95T238 85V85Z" />
<glyph unicode="&#xb6;" horiz-adv-x="589" d="M537 667Q532 667 528 662T523 653L420 -76Q419 -81 419 -83T412 -85H354Q347 -85 343 -79T340 -69L443 662Q443 666 442 666T436 667H399Q395 667 391 662T385 653L282 -77Q282 -82 280 -83T273 -85H214Q209 -85
205 -81T202 -69L254 304Q254 307 254 307T252 309Q193 311 149 338T85 414T73 527Q82 585 115 633T204 712T338 742H586Q591 742 594 739T596 729L589 672Q588 667 587 667T581 667H537Z" />
<glyph unicode="&#xb7;" horiz-adv-x="232" d="M193 322Q192 311 188 309T172 306H71Q61 306 57 312T53 326L68 430Q69 438 71 439T79 441H195Q201 441 204 436T207 424L193 322Z" />
<glyph unicode="&#xb8;" horiz-adv-x="247" d="M180 -141Q175 -178 139 -197T56 -216Q26 -216 1 -209T-44 -189Q-49 -188 -51 -185T-53 -178L-35 -146Q-33 -142 -31 -145T-28 -151Q-14 -157 2 -162T36 -167Q64 -167 81 -156T100 -126Q103 -108 87 -99T26 -90Q18
-90 15 -87T13 -78L63 5H124L96 -52Q94 -55 93 -55T94 -55Q130 -56 149 -69T176 -102T180 -141V-141Z" />
<glyph unicode="&#xb9;" horiz-adv-x="367" d="M250 449Q259 449 258 441L250 387Q249 380 241 380H-1Q-11 380 -9 389L-2 444Q-1 449 7 449H79Q84 449 86 457L127 749Q128 754 121 752L49 730Q37 726 39 739L44 778Q46 784 47 786T54 791L161 841Q169 845 174
846T186 847H225Q234 847 232 837L178 454Q177 449 182 449H250V449Z" />
<glyph unicode="&#xba;" horiz-adv-x="403" d="M264 752Q316 752 351 729T401 665T410 571Q403 523 378 486T315 429T227 408Q175 408 140 430T90 493T81 585Q89 636 114 673T178 731T264 752V752ZM266 692Q226 692 202 661T169 574Q161 521 174 494T224 467Q265
467 290 498T324 588Q331 639 317 665T266 692V692Z" />
<glyph unicode="&#xbb;" horiz-adv-x="472" d="M130 250Q133 256 135 260T135 270L77 446Q76 452 77 453T84 455H132Q140 455 144 445L234 268Q237 261 237 254T232 238L95 72Q93 69 91 69T84 68H38Q30 68 26 71T23 81L130 250V250ZM320 250Q323 256 325 260T325
270L267 446Q266 452 267 453T274 455H322Q330 455 335 445L424 268Q427 261 427 254T422 238L286 72Q283 69 281 69T274 68H228Q220 68 216 71T214 81L320 250V250Z" />
<glyph unicode="&#xbc;" horiz-adv-x="924" d="M299 345Q308 345 307 337L299 283Q298 276 290 276H48Q38 276 40 285L47 340Q48 345 56 345H128Q133 345 135 353L176 645Q177 650 170 648L98 626Q86 622 88 635L93 674Q95 680 96 682T103 687L210 737Q218 741
223 742T235 743H274Q283 743 281 733L227 350Q226 345 231 345H299V345ZM229 3Q225 -3 220 -3T207 -4L170 -3Q158 -3 156 6T159 25L739 744Q745 751 749 751T760 750H805Q812 750 817 745T816 732L229 3ZM723 458Q729 464 732 465T745 467H814Q824 467 822 457L783
184Q783 180 787 180H844Q853 180 853 172L845 123Q845 118 843 117T835 115H780Q773 115 773 108L760 10Q759 4 756 2T745 0H676Q664 0 665 11L679 110Q680 115 674 115H478Q467 115 468 125L475 173Q476 180 479 185T491 200L723 458V458ZM683 180Q689 180 690
187L714 362Q716 367 714 367T706 360L554 188Q548 180 555 180H683Z" />
<glyph unicode="&#xbd;" horiz-adv-x="978" d="M312 345Q321 345 320 337L312 283Q311 276 303 276H61Q51 276 53 285L60 340Q61 345 69 345H141Q146 345 148 353L189 645Q190 650 183 648L111 626Q99 622 101 635L106 674Q108 680 109 682T116 687L223 737Q231
741 236 742T248 743H287Q296 743 294 733L240 350Q239 345 244 345H312V345ZM208 3Q204 -3 199 -3T186 -4L149 -3Q137 -3 135 6T138 25L718 744Q724 751 728 751T739 750H784Q791 750 796 745T795 732L208 3ZM696 202Q737 234 763 258T801 304T814 347Q814 375
796 389T748 404Q722 404 693 388T640 337Q636 332 632 335L575 369Q569 372 578 385Q612 428 659 450T757 473Q800 473 833 459T886 418T905 353Q905 318 891 290T851 237T790 184L661 85Q656 82 656 80T661 77H861Q871 77 870 68L862 8Q861 4 860 2T852 0H536Q522
0 523 14L529 55Q531 62 535 67T557 86L696 202Z" />
<glyph unicode="&#xbe;" horiz-adv-x="984" d="M104 679Q102 681 102 685T106 692Q138 720 180 736T269 752Q343 752 384 722T426 643Q426 603 399 572T330 527Q327 526 327 524T330 521Q365 512 387 486T409 424Q409 376 384 342T312 291T204 273Q162 273 131
283T77 311T41 351Q37 358 40 361L88 394Q94 398 97 394Q121 365 148 353T209 340Q255 340 286 363T318 424Q318 444 307 458T276 480T231 488H173Q166 488 167 495L174 549Q174 554 183 554H226Q256 555 280 566T319 595T334 636Q334 658 316 672T265 687Q229
687 204 673T152 639Q145 633 140 640L104 679V679ZM285 3Q281 -3 276 -3T263 -4L226 -3Q214 -3 212 6T215 25L795 744Q801 751 805 751T816 750H861Q868 750 873 745T872 732L285 3ZM796 458Q802 464 805 465T818 467H887Q897 467 895 457L856 184Q856 180 860
180H917Q926 180 926 172L918 123Q918 118 916 117T908 115H853Q846 115 846 108L833 10Q832 4 829 2T818 0H749Q737 0 738 11L752 110Q753 115 747 115H551Q540 115 541 125L548 173Q549 180 552 185T564 200L796 458V458ZM756 180Q762 180 763 187L787 362Q789
367 787 367T779 360L627 188Q621 180 628 180H756Z" />
<glyph unicode="&#xbf;" horiz-adv-x="527" d="M241 513Q243 524 247 527T265 530H367Q377 530 382 524T386 508L370 397Q369 389 367 387T357 385H239Q233 385 229 390T225 403L241 513ZM464 -11Q470 -12 472 -19T471 -36Q429 -103 361 -139T206 -175Q128 -175
77 -151T4 -85T-10 8Q-5 47 13 74T57 123T110 162T164 200T208 247T231 309Q233 319 247 319H318Q327 319 332 312T335 291Q328 243 306 209T254 150T195 104T144 58T118 1Q113 -36 139 -58T210 -81Q240 -81 270 -69T325 -37T364 10Q368 14 368 14T376 11L464 -11Z"
/>
<glyph unicode="&#xc0;" horiz-adv-x="756" d="M8 0Q0 0 -1 7T4 28L356 728Q361 737 367 739T384 742H510Q520 742 524 735T531 719L683 20Q685 13 682 7T671 0H550Q537 0 534 16L499 177Q498 185 488 185H229Q219 185 214 174L130 8Q128 3 125 2T113 0H8V0ZM468
298Q482 298 479 314L419 579Q418 589 414 589T404 578L271 313Q267 304 268 301T276 298H468ZM345 955Q348 960 352 961T362 961L581 864Q587 861 589 857T589 846L573 813Q570 807 566 806T553 808L332 872Q320 875 318 880T318 893L345 955V955Z" />
<glyph unicode="&#xc1;" horiz-adv-x="756" d="M8 0Q0 0 -1 7T4 28L356 728Q361 737 367 739T384 742H510Q520 742 524 735T531 719L683 20Q685 13 682 7T671 0H550Q537 0 534 16L499 177Q498 185 488 185H229Q219 185 214 174L130 8Q128 3 125 2T113 0H8V0ZM468
298Q482 298 479 314L419 579Q418 589 414 589T404 578L271 313Q267 304 268 301T276 298H468ZM601 892Q603 884 601 880T588 872L349 806Q339 804 334 808T328 820L321 850Q318 864 325 866L573 962Q578 965 582 963T588 952L601 892Z" />
<glyph unicode="&#xc2;" horiz-adv-x="756" d="M8 0Q0 0 -1 7T4 28L356 728Q361 737 367 739T384 742H510Q520 742 524 735T531 719L683 20Q685 13 682 7T671 0H550Q537 0 534 16L499 177Q498 185 488 185H229Q219 185 214 174L130 8Q128 3 125 2T113 0H8V0ZM468
298Q482 298 479 314L419 579Q418 589 414 589T404 578L271 313Q267 304 268 301T276 298H468ZM475 891Q468 900 465 900T451 890L388 837Q382 831 378 830T366 828H292Q284 828 284 833T288 843L410 950Q417 956 423 958T441 960H502Q511 960 515 955T523 946L614
840Q620 833 618 831T608 828H536Q529 828 525 831T517 839L475 891Z" />
<glyph unicode="&#xc3;" horiz-adv-x="756" d="M8 0Q0 0 -1 7T4 28L356 728Q361 737 367 739T384 742H510Q520 742 524 735T531 719L683 20Q685 13 682 7T671 0H550Q537 0 534 16L499 177Q498 185 488 185H229Q219 185 214 174L130 8Q128 3 125 2T113 0H8V0ZM468
298Q482 298 479 314L419 579Q418 589 414 589T404 578L271 313Q267 304 268 301T276 298H468ZM623 868Q607 861 585 854T535 847Q507 847 485 854T443 868T399 875Q375 875 362 866T329 848Q321 845 317 849T311 862L303 899Q302 906 300 911T307 923Q326 935
346 943T394 951Q423 951 447 944T492 929T535 921Q550 921 562 926T584 939T605 949Q614 951 619 947T626 934L631 890Q632 884 632 878T623 868V868Z" />
<glyph unicode="&#xc4;" horiz-adv-x="756" d="M8 0Q0 0 -1 7T4 28L356 728Q361 737 367 739T384 742H510Q520 742 524 735T531 719L683 20Q685 13 682 7T671 0H550Q537 0 534 16L499 177Q498 185 488 185H229Q219 185 214 174L130 8Q128 3 125 2T113 0H8V0ZM468
298Q482 298 479 314L419 579Q418 589 414 589T404 578L271 313Q267 304 268 301T276 298H468ZM424 846Q423 835 419 833T403 831H324Q314 831 310 836T307 851L320 942Q321 950 323 952T332 954H424Q431 954 434 949T437 936L424 846ZM608 846Q607 835 603 833T587
831H507Q497 831 494 836T491 851L503 942Q505 950 507 952T515 954H607Q614 954 618 949T620 936L608 846Z" />
<glyph unicode="&#xc5;" horiz-adv-x="756" d="M8 0Q0 0 -1 7T4 28L356 728Q361 737 367 739T384 742H510Q520 742 524 735T531 719L683 20Q685 13 682 7T671 0H550Q537 0 534 16L499 177Q498 185 488 185H229Q219 185 214 174L130 8Q128 3 125 2T113 0H8V0ZM468
298Q482 298 479 314L419 579Q418 589 414 589T404 578L271 313Q267 304 268 301T276 298H468ZM564 846Q557 801 523 772T445 743Q414 743 390 759T354 802T347 862Q352 904 387 932T465 960Q497 960 521 945T556 904T564 846V846ZM507 859Q510 880 499 892T467
904Q444 904 424 887T399 845Q397 826 409 812T441 798Q465 798 484 816T507 859V859Z" />
<glyph unicode="&#xc6;" horiz-adv-x="1053" d="M972 110Q980 110 984 106T988 92L977 12Q976 5 973 3T961 0H485Q475 0 470 6T466 22L489 179Q489 184 489 184T482 185H258Q253 185 248 181T241 173L128 8Q122 0 108 0H12Q4 0 1 8T4 28L483 728Q489 737 494 739T509
742H1052Q1058 742 1062 737T1065 723L1054 647Q1053 638 1050 635T1036 632H719Q711 632 705 627T697 614L673 439Q672 431 674 430T682 428H901Q909 428 913 423T917 410L905 328Q904 323 903 322T893 320H672Q666 320 661 315T654 304L628 118Q627 111 627 111T634
110H972V110ZM488 298Q496 298 501 304T508 317L548 601Q550 619 541 616T520 595L322 310Q317 303 316 301T321 298H488V298Z" />
<glyph unicode="&#xc7;" horiz-adv-x="719" d="M445 752Q521 752 579 722T671 642T706 530Q707 513 693 513L583 506Q571 505 570 527Q565 580 534 613T443 647Q390 647 352 624T286 560T243 472T220 372T213 276Q213 186 249 144T358 101Q423 101 473 132T558
234Q563 245 579 241L668 218Q678 215 669 192Q659 170 641 143T595 89T530 40T448 4T349 -10Q258 -10 194 28T96 136T62 299Q62 366 76 432T121 555T197 657T305 727T445 752V752ZM435 -141Q430 -178 394 -197T311 -216Q281 -216 256 -209T211 -189Q206 -188 204
-185T202 -178L220 -146Q222 -142 224 -145T227 -151Q241 -157 257 -162T291 -167Q319 -167 336 -156T355 -126Q358 -108 342 -99T281 -90Q273 -90 270 -87T268 -78L318 5H379L351 -52Q349 -55 348 -55T349 -55Q385 -56 404 -69T431 -102T435 -141V-141Z" />
<glyph unicode="&#xc8;" horiz-adv-x="645" d="M145 729Q146 737 148 739T158 742H647Q660 742 657 723L646 648Q645 639 641 636T627 632H292Q285 632 282 630T277 619L252 439Q251 432 253 430T260 428H494Q502 428 504 425T505 415L493 330Q492 320 480 320H245Q234
320 232 306L207 121Q206 110 213 110H568Q576 110 578 107T579 96L568 12Q567 5 565 3T553 0H62Q42 0 45 22L145 729V729ZM310 955Q313 960 317 961T327 961L546 864Q552 861 554 857T554 846L538 813Q535 807 531 806T518 808L297 872Q285 875 283 880T283 893L310
955V955Z" />
<glyph unicode="&#xc9;" horiz-adv-x="645" d="M145 729Q146 737 148 739T158 742H647Q660 742 657 723L646 648Q645 639 641 636T627 632H292Q285 632 282 630T277 619L252 439Q251 432 253 430T260 428H494Q502 428 504 425T505 415L493 330Q492 320 480 320H245Q234
320 232 306L207 121Q206 110 213 110H568Q576 110 578 107T579 96L568 12Q567 5 565 3T553 0H62Q42 0 45 22L145 729V729ZM565 892Q567 884 565 880T552 872L313 806Q303 804 298 808T292 820L285 850Q282 864 289 866L537 962Q542 965 546 963T552 952L565 892Z"
/>
<glyph unicode="&#xca;" horiz-adv-x="645" d="M145 729Q146 737 148 739T158 742H647Q660 742 657 723L646 648Q645 639 641 636T627 632H292Q285 632 282 630T277 619L252 439Q251 432 253 430T260 428H494Q502 428 504 425T505 415L493 330Q492 320 480 320H245Q234
320 232 306L207 121Q206 110 213 110H568Q576 110 578 107T579 96L568 12Q567 5 565 3T553 0H62Q42 0 45 22L145 729V729ZM440 891Q433 900 430 900T416 890L353 837Q347 831 343 830T331 828H257Q249 828 249 833T253 843L375 950Q382 956 388 958T406 960H467Q476
960 480 955T488 946L579 840Q585 833 583 831T573 828H501Q494 828 490 831T482 839L440 891Z" />
<glyph unicode="&#xcb;" horiz-adv-x="645" d="M145 729Q146 737 148 739T158 742H647Q660 742 657 723L646 648Q645 639 641 636T627 632H292Q285 632 282 630T277 619L252 439Q251 432 253 430T260 428H494Q502 428 504 425T505 415L493 330Q492 320 480 320H245Q234
320 232 306L207 121Q206 110 213 110H568Q576 110 578 107T579 96L568 12Q567 5 565 3T553 0H62Q42 0 45 22L145 729V729ZM388 846Q387 835 383 833T367 831H288Q278 831 274 836T271 851L284 942Q285 950 287 952T296 954H388Q395 954 398 949T401 936L388 846ZM572
846Q571 835 567 833T551 831H471Q461 831 458 836T455 851L467 942Q469 950 471 952T479 954H571Q578 954 582 949T584 936L572 846Z" />
<glyph unicode="&#xcc;" horiz-adv-x="306" d="M279 742Q294 742 291 722L192 18Q191 6 187 3T169 0H61Q49 0 47 6T45 22L145 729Q146 737 148 739T158 742H279ZM124 955Q127 960 131 961T141 961L360 864Q366 861 368 857T368 846L352 813Q349 807 345 806T332
808L111 872Q99 875 97 880T97 893L124 955V955Z" />
<glyph unicode="&#xcd;" horiz-adv-x="306" d="M279 742Q294 742 291 722L192 18Q191 6 187 3T169 0H61Q49 0 47 6T45 22L145 729Q146 737 148 739T158 742H279ZM380 892Q382 884 380 880T367 872L128 806Q118 804 113 808T107 820L100 850Q97 864 104 866L352
962Q357 965 361 963T367 952L380 892Z" />
<glyph unicode="&#xce;" horiz-adv-x="306" d="M279 742Q294 742 291 722L192 18Q191 6 187 3T169 0H61Q49 0 47 6T45 22L145 729Q146 737 148 739T158 742H279ZM255 891Q248 900 245 900T231 890L168 837Q162 831 158 830T146 828H72Q64 828 64 833T68 843L190
950Q197 956 203 958T221 960H282Q291 960 295 955T303 946L394 840Q400 833 398 831T388 828H316Q309 828 305 831T297 839L255 891Z" />
<glyph unicode="&#xcf;" horiz-adv-x="306" d="M279 742Q294 742 291 722L192 18Q191 6 187 3T169 0H61Q49 0 47 6T45 22L145 729Q146 737 148 739T158 742H279ZM203 846Q202 835 198 833T182 831H103Q93 831 89 836T86 851L99 942Q100 950 102 952T111 954H203Q210
954 213 949T216 936L203 846ZM387 846Q386 835 382 833T366 831H286Q276 831 273 836T270 851L282 942Q284 950 286 952T294 954H386Q393 954 397 949T399 936L387 846Z" />
<glyph unicode="&#xd0;" horiz-adv-x="716" d="M383 336Q381 325 376 322T359 319H38Q27 319 23 325T19 342L28 404Q30 412 32 414T41 417H378Q384 417 388 411T391 398L383 336ZM39 0Q29 0 24 7T20 25L118 728Q120 737 124 739T137 742H327Q448 742 527 706T645
604T685 445Q685 307 632 207T479 54T235 0H39V0ZM249 106Q349 106 411 149T502 269T531 452Q531 518 508 558T440 617T328 636H267Q253 636 251 620L182 122Q181 114 184 110T194 106H249Z" />
<glyph unicode="&#xd1;" horiz-adv-x="758" d="M734 742Q746 742 744 728L643 11Q642 0 628 0H544Q538 0 533 3T523 14L248 500Q244 507 240 506T235 495L167 14Q166 6 163 3T149 0H57Q49 0 46 5T44 19L145 729Q146 737 148 739T160 742H259Q269 742 274 738T283
726L540 263Q545 255 551 256T558 268L623 730Q625 738 627 740T638 742H734ZM634 868Q618 861 596 854T546 847Q518 847 496 854T454 868T410 875Q386 875 373 866T340 848Q332 845 328 849T322 862L314 899Q313 906 311 911T318 923Q337 935 357 943T405 951Q434
951 458 944T503 929T546 921Q561 921 573 926T595 939T616 949Q625 951 630 947T637 934L642 890Q643 884 643 878T634 868V868Z" />
<glyph unicode="&#xd2;" horiz-adv-x="770" d="M352 -10Q260 -10 195 25T96 129T61 292Q61 311 62 332T67 375Q84 494 136 578T268 707T449 752Q539 752 604 716T703 611T738 445Q738 426 737 405T732 362Q716 245 665 162T533 34T352 -10V-10ZM357 96Q450 96
504 163T580 374Q584 403 585 427T587 473Q587 563 552 605T446 647Q353 647 297 578T220 360Q216 334 214 310T212 266Q212 178 248 137T357 96V96ZM355 955Q358 960 362 961T372 961L591 864Q597 861 599 857T599 846L583 813Q580 807 576 806T563 808L342 872Q330
875 328 880T328 893L355 955V955Z" />
<glyph unicode="&#xd3;" horiz-adv-x="770" d="M352 -10Q260 -10 195 25T96 129T61 292Q61 311 62 332T67 375Q84 494 136 578T268 707T449 752Q539 752 604 716T703 611T738 445Q738 426 737 405T732 362Q716 245 665 162T533 34T352 -10V-10ZM357 96Q450 96
504 163T580 374Q584 403 585 427T587 473Q587 563 552 605T446 647Q353 647 297 578T220 360Q216 334 214 310T212 266Q212 178 248 137T357 96V96ZM611 892Q613 884 611 880T598 872L359 806Q349 804 344 808T338 820L331 850Q328 864 335 866L583 962Q588 965
592 963T598 952L611 892Z" />
<glyph unicode="&#xd4;" horiz-adv-x="770" d="M352 -10Q260 -10 195 25T96 129T61 292Q61 311 62 332T67 375Q84 494 136 578T268 707T449 752Q539 752 604 716T703 611T738 445Q738 426 737 405T732 362Q716 245 665 162T533 34T352 -10V-10ZM357 96Q450 96
504 163T580 374Q584 403 585 427T587 473Q587 563 552 605T446 647Q353 647 297 578T220 360Q216 334 214 310T212 266Q212 178 248 137T357 96V96ZM485 891Q478 900 475 900T461 890L398 837Q392 831 388 830T376 828H302Q294 828 294 833T298 843L420 950Q427
956 433 958T451 960H512Q521 960 525 955T533 946L624 840Q630 833 628 831T618 828H546Q539 828 535 831T527 839L485 891Z" />
<glyph unicode="&#xd5;" horiz-adv-x="770" d="M352 -10Q260 -10 195 25T96 129T61 292Q61 311 62 332T67 375Q84 494 136 578T268 707T449 752Q539 752 604 716T703 611T738 445Q738 426 737 405T732 362Q716 245 665 162T533 34T352 -10V-10ZM357 96Q450 96
504 163T580 374Q584 403 585 427T587 473Q587 563 552 605T446 647Q353 647 297 578T220 360Q216 334 214 310T212 266Q212 178 248 137T357 96V96ZM633 868Q617 861 595 854T545 847Q517 847 495 854T453 868T409 875Q385 875 372 866T339 848Q331 845 327 849T321
862L313 899Q312 906 310 911T317 923Q336 935 356 943T404 951Q433 951 457 944T502 929T545 921Q560 921 572 926T594 939T615 949Q624 951 629 947T636 934L641 890Q642 884 642 878T633 868V868Z" />
<glyph unicode="&#xd6;" horiz-adv-x="770" d="M352 -10Q260 -10 195 25T96 129T61 292Q61 311 62 332T67 375Q84 494 136 578T268 707T449 752Q539 752 604 716T703 611T738 445Q738 426 737 405T732 362Q716 245 665 162T533 34T352 -10V-10ZM357 96Q450 96
504 163T580 374Q584 403 585 427T587 473Q587 563 552 605T446 647Q353 647 297 578T220 360Q216 334 214 310T212 266Q212 178 248 137T357 96V96ZM434 846Q433 835 429 833T413 831H334Q324 831 320 836T317 851L330 942Q331 950 333 952T342 954H434Q441 954
444 949T447 936L434 846ZM618 846Q617 835 613 833T597 831H517Q507 831 504 836T501 851L513 942Q515 950 517 952T525 954H617Q624 954 628 949T630 936L618 846Z" />
<glyph unicode="&#xd7;" horiz-adv-x="564" d="M442 157Q434 150 428 153T413 165L105 522Q99 530 98 535T104 547L155 592Q162 597 167 595T175 588L492 220Q496 217 497 212T493 202L442 157ZM63 203Q56 210 56 217T64 233L472 591Q481 598 486 595T496 586L535
541Q540 536 541 531T540 521L119 153Q114 149 110 151T101 158L63 203Z" />
<glyph unicode="&#xd8;" horiz-adv-x="752" d="M795 701Q799 697 801 692T797 681L701 596Q721 551 727 493T723 362Q707 245 656 162T524 34T343 -10Q272 -10 218 12T128 73L53 0Q43 -9 36 -7T22 4L-4 34Q-12 42 -14 48T-9 61L81 141Q61 186 54 245T58 375Q75
494 127 578T259 707T440 752Q511 752 565 729T655 665L737 744Q743 750 749 749T759 742L795 701V701ZM212 360Q207 329 207 302T212 252L557 580Q540 616 510 631T436 647Q343 647 288 578T212 360V360ZM569 374Q573 406 573 434T568 484L225 158Q242 125 273
111T348 97Q441 97 495 163T569 374V374Z" />
<glyph unicode="&#xd9;" horiz-adv-x="717" d="M646 262Q632 162 590 102T481 16T325 -10Q189 -10 128 46T67 212Q67 229 69 248T73 287L136 728Q137 737 140 739T149 742H268Q276 742 280 736T282 722L217 258Q216 246 215 236T214 214Q214 153 246 126T340 98Q389
98 427 115T491 170T524 268L589 729Q591 737 593 739T602 742H697Q704 742 708 736T711 722L646 262V262ZM339 955Q342 960 346 961T356 961L575 864Q581 861 583 857T583 846L567 813Q564 807 560 806T547 808L326 872Q314 875 312 880T312 893L339 955V955Z"
/>
<glyph unicode="&#xda;" horiz-adv-x="717" d="M646 262Q632 162 590 102T481 16T325 -10Q189 -10 128 46T67 212Q67 229 69 248T73 287L136 728Q137 737 140 739T149 742H268Q276 742 280 736T282 722L217 258Q216 246 215 236T214 214Q214 153 246 126T340 98Q389
98 427 115T491 170T524 268L589 729Q591 737 593 739T602 742H697Q704 742 708 736T711 722L646 262V262ZM595 892Q597 884 595 880T582 872L343 806Q333 804 328 808T322 820L315 850Q312 864 319 866L567 962Q572 965 576 963T582 952L595 892Z" />
<glyph unicode="&#xdb;" horiz-adv-x="717" d="M646 262Q632 162 590 102T481 16T325 -10Q189 -10 128 46T67 212Q67 229 69 248T73 287L136 728Q137 737 140 739T149 742H268Q276 742 280 736T282 722L217 258Q216 246 215 236T214 214Q214 153 246 126T340 98Q389
98 427 115T491 170T524 268L589 729Q591 737 593 739T602 742H697Q704 742 708 736T711 722L646 262V262ZM470 891Q463 900 460 900T446 890L383 837Q377 831 373 830T361 828H287Q279 828 279 833T283 843L405 950Q412 956 418 958T436 960H497Q506 960 510 955T518
946L609 840Q615 833 613 831T603 828H531Q524 828 520 831T512 839L470 891Z" />
<glyph unicode="&#xdc;" horiz-adv-x="717" d="M646 262Q632 162 590 102T481 16T325 -10Q189 -10 128 46T67 212Q67 229 69 248T73 287L136 728Q137 737 140 739T149 742H268Q276 742 280 736T282 722L217 258Q216 246 215 236T214 214Q214 153 246 126T340 98Q389
98 427 115T491 170T524 268L589 729Q591 737 593 739T602 742H697Q704 742 708 736T711 722L646 262V262ZM418 846Q417 835 413 833T397 831H318Q308 831 304 836T301 851L314 942Q315 950 317 952T326 954H418Q425 954 428 949T431 936L418 846ZM602 846Q601
835 597 833T581 831H501Q491 831 488 836T485 851L497 942Q499 950 501 952T509 954H601Q608 954 612 949T614 936L602 846Z" />
<glyph unicode="&#xdd;" horiz-adv-x="715" d="M736 742Q746 742 748 736T745 723L452 331Q446 324 443 315T437 285L399 18Q397 6 392 3T374 0H266Q255 0 253 4T251 19L290 295Q292 307 292 313T287 328L104 724Q99 733 101 737T115 742H239Q250 742 254 737T263
723L385 442Q391 427 401 442L605 730Q611 738 615 740T631 742H736V742ZM590 892Q592 884 590 880T577 872L338 806Q328 804 323 808T317 820L310 850Q307 864 314 866L562 962Q567 965 571 963T577 952L590 892Z" />
<glyph unicode="&#xde;" horiz-adv-x="712" d="M685 373Q675 301 635 254T532 184T390 160H225Q219 160 215 156T210 146L192 16Q191 6 187 3T171 0H63Q53 0 49 6T45 21L145 729Q146 737 148 739T158 742H277Q284 742 288 736T291 722L274 600Q273 596 274 596T279
595H428Q508 595 570 571T664 497T685 373V373ZM536 389Q544 442 509 465T410 488H278Q269 488 263 483T256 469L229 280Q228 272 229 270T237 267H380Q442 267 485 298T536 389V389Z" />
<glyph unicode="&#xdf;" horiz-adv-x="635" d="M392 742Q461 742 503 722T563 666T575 586Q570 551 552 526T504 483T430 445Q406 435 394 426T380 402Q379 392 385 387T411 373Q443 361 477 346T538 307T579 248T586 163Q578 106 546 68T465 10T355 -10Q315 -10
283 -1T232 22Q225 24 223 29T222 39L261 99Q265 104 268 102T274 94Q290 88 308 82T351 76Q397 76 429 98T468 164Q473 191 461 206T427 234T377 258Q350 268 326 283T289 324T281 388Q286 424 308 449T367 500Q387 512 406 524T440 553T457 594Q460 622 442 638T383
655Q329 655 293 622T248 531L175 14Q176 5 174 3T164 0H62Q56 0 52 5T48 19L104 413Q105 418 105 419T99 420H57Q50 420 46 425T42 437L51 500Q52 506 54 508T66 511H104Q111 511 115 517T120 532Q127 575 146 613T199 680T280 725T392 742V742Z" />
<glyph unicode="&#xe0;" horiz-adv-x="558" d="M334 53Q299 20 255 5T162 -10Q91 -10 52 26T12 119Q12 174 40 212T113 273T212 308T317 322L367 325Q386 326 389 344L392 367Q393 372 393 376T394 385Q394 420 373 438T311 456Q275 456 242 441T181 388Q178 383
174 382T162 383L81 404Q75 406 73 412T76 432Q111 486 173 513T319 540Q389 540 433 522T498 472T519 397Q519 390 519 383T517 368L467 16Q466 5 463 3T450 0H365Q356 0 353 6T350 22L352 56Q351 73 334 53V53ZM375 246Q376 255 375 257T365 259L318 255Q294
253 264 247T205 229T159 194T141 139Q141 111 161 95T218 78Q247 78 273 87T318 111Q338 125 350 142T365 175L375 246ZM223 743Q226 748 230 749T240 749L459 652Q465 649 467 645T467 634L451 601Q448 595 444 594T431 596L210 660Q198 663 196 668T196 681L223
743V743Z" />
<glyph unicode="&#xe1;" horiz-adv-x="558" d="M334 53Q299 20 255 5T162 -10Q91 -10 52 26T12 119Q12 174 40 212T113 273T212 308T317 322L367 325Q386 326 389 344L392 367Q393 372 393 376T394 385Q394 420 373 438T311 456Q275 456 242 441T181 388Q178 383
174 382T162 383L81 404Q75 406 73 412T76 432Q111 486 173 513T319 540Q389 540 433 522T498 472T519 397Q519 390 519 383T517 368L467 16Q466 5 463 3T450 0H365Q356 0 353 6T350 22L352 56Q351 73 334 53V53ZM375 246Q376 255 375 257T365 259L318 255Q294
253 264 247T205 229T159 194T141 139Q141 111 161 95T218 78Q247 78 273 87T318 111Q338 125 350 142T365 175L375 246ZM479 680Q481 672 479 668T466 660L227 594Q217 592 212 596T206 608L199 638Q196 652 203 654L451 750Q456 753 460 751T466 740L479 680Z"
/>
<glyph unicode="&#xe2;" horiz-adv-x="558" d="M334 53Q299 20 255 5T162 -10Q91 -10 52 26T12 119Q12 174 40 212T113 273T212 308T317 322L367 325Q386 326 389 344L392 367Q393 372 393 376T394 385Q394 420 373 438T311 456Q275 456 242 441T181 388Q178 383
174 382T162 383L81 404Q75 406 73 412T76 432Q111 486 173 513T319 540Q389 540 433 522T498 472T519 397Q519 390 519 383T517 368L467 16Q466 5 463 3T450 0H365Q356 0 353 6T350 22L352 56Q351 73 334 53V53ZM375 246Q376 255 375 257T365 259L318 255Q294
253 264 247T205 229T159 194T141 139Q141 111 161 95T218 78Q247 78 273 87T318 111Q338 125 350 142T365 175L375 246ZM354 679Q347 688 344 688T330 678L267 625Q261 619 257 618T245 616H171Q163 616 163 621T167 631L289 738Q296 744 302 746T320 748H381Q390
748 394 743T402 734L493 628Q499 621 497 619T487 616H415Q408 616 404 619T396 627L354 679Z" />
<glyph unicode="&#xe3;" horiz-adv-x="558" d="M334 53Q299 20 255 5T162 -10Q91 -10 52 26T12 119Q12 174 40 212T113 273T212 308T317 322L367 325Q386 326 389 344L392 367Q393 372 393 376T394 385Q394 420 373 438T311 456Q275 456 242 441T181 388Q178 383
174 382T162 383L81 404Q75 406 73 412T76 432Q111 486 173 513T319 540Q389 540 433 522T498 472T519 397Q519 390 519 383T517 368L467 16Q466 5 463 3T450 0H365Q356 0 353 6T350 22L352 56Q351 73 334 53V53ZM375 246Q376 255 375 257T365 259L318 255Q294
253 264 247T205 229T159 194T141 139Q141 111 161 95T218 78Q247 78 273 87T318 111Q338 125 350 142T365 175L375 246ZM501 656Q485 649 463 642T413 635Q385 635 363 642T321 656T277 663Q253 663 240 654T207 636Q199 633 195 637T189 650L181 687Q180 694
178 699T185 711Q204 723 224 731T272 739Q301 739 325 732T370 717T413 709Q428 709 440 714T462 727T483 737Q492 739 497 735T504 722L509 678Q510 672 510 666T501 656V656Z" />
<glyph unicode="&#xe4;" horiz-adv-x="558" d="M334 53Q299 20 255 5T162 -10Q91 -10 52 26T12 119Q12 174 40 212T113 273T212 308T317 322L367 325Q386 326 389 344L392 367Q393 372 393 376T394 385Q394 420 373 438T311 456Q275 456 242 441T181 388Q178 383
174 382T162 383L81 404Q75 406 73 412T76 432Q111 486 173 513T319 540Q389 540 433 522T498 472T519 397Q519 390 519 383T517 368L467 16Q466 5 463 3T450 0H365Q356 0 353 6T350 22L352 56Q351 73 334 53V53ZM375 246Q376 255 375 257T365 259L318 255Q294
253 264 247T205 229T159 194T141 139Q141 111 161 95T218 78Q247 78 273 87T318 111Q338 125 350 142T365 175L375 246ZM302 634Q301 623 297 621T281 619H202Q192 619 188 624T185 639L198 730Q199 738 201 740T210 742H302Q309 742 312 737T315 724L302 634ZM486
634Q485 623 481 621T465 619H385Q375 619 372 624T369 639L381 730Q383 738 385 740T393 742H485Q492 742 496 737T498 724L486 634Z" />
<glyph unicode="&#xe5;" horiz-adv-x="558" d="M334 53Q299 20 255 5T162 -10Q91 -10 52 26T12 119Q12 174 40 212T113 273T212 308T317 322L367 325Q386 326 389 344L392 367Q393 372 393 376T394 385Q394 420 373 438T311 456Q275 456 242 441T181 388Q178 383
174 382T162 383L81 404Q75 406 73 412T76 432Q111 486 173 513T319 540Q389 540 433 522T498 472T519 397Q519 390 519 383T517 368L467 16Q466 5 463 3T450 0H365Q356 0 353 6T350 22L352 56Q351 73 334 53V53ZM375 246Q376 255 375 257T365 259L318 255Q294
253 264 247T205 229T159 194T141 139Q141 111 161 95T218 78Q247 78 273 87T318 111Q338 125 350 142T365 175L375 246ZM453 688Q446 643 412 614T334 585Q303 585 279 601T243 644T236 704Q241 746 276 774T354 802Q386 802 410 787T445 746T453 688V688ZM396
701Q399 722 388 734T356 746Q333 746 313 729T288 687Q286 668 298 654T330 640Q354 640 373 658T396 701V701Z" />
<glyph unicode="&#xe6;" horiz-adv-x="921" d="M523 240Q513 240 508 234T500 212Q494 176 508 146T552 99T621 81Q655 81 681 91T729 119T772 158Q777 161 779 159T789 154L846 126Q851 124 853 119T851 104Q817 63 779 38T698 2T603 -10Q551 -10 514 5T451 44T409
93Q406 93 403 89T397 81Q369 56 336 35T262 2T166 -10Q82 -10 43 33T13 147Q24 222 95 267T302 321L364 325Q371 326 379 331T388 344L391 367Q397 411 377 433T308 456Q273 456 240 439T179 383Q174 378 171 379T160 383L80 404Q75 406 74 414T75 432Q101 468
133 492T210 528T316 540Q388 539 430 520T487 465Q525 504 571 522T669 540Q745 540 798 507T875 410T887 256Q886 247 884 244T869 240H523V240ZM671 458Q635 458 602 440T545 389T516 311L748 314Q759 314 764 319T770 336Q775 365 765 393T732 439T671 458V458ZM373
241Q375 250 373 252T361 254L311 250Q267 247 230 233T170 196T141 141Q136 110 156 91T218 73Q254 75 285 88T338 123T364 171L373 241V241Z" />
<glyph unicode="&#xe7;" horiz-adv-x="548" d="M331 540Q392 540 433 519T499 463T533 391Q534 384 532 381T521 377L436 367Q431 366 428 371T423 384Q412 405 401 420T374 444T334 453Q290 453 258 430T205 369T174 290T163 208Q163 143 193 110T276 76Q324
76 357 98T421 166Q425 171 435 168L496 151Q502 150 504 144T503 128Q490 106 469 82T418 37T350 3T264 -10Q194 -10 142 19T62 100T33 222Q33 283 54 340T114 442T208 514T331 540V540ZM350 -141Q345 -178 309 -197T226 -216Q196 -216 171 -209T126 -189Q121
-188 119 -185T117 -178L135 -146Q137 -142 139 -145T142 -151Q156 -157 172 -162T206 -167Q234 -167 251 -156T270 -126Q273 -108 257 -99T196 -90Q188 -90 185 -87T183 -78L233 5H294L266 -52Q264 -55 263 -55T264 -55Q300 -56 319 -69T346 -102T350 -141V-141Z"
/>
<glyph unicode="&#xe8;" horiz-adv-x="584" d="M268 -10Q197 -10 145 19T63 99T33 219Q33 281 54 338T116 441T211 513T333 540Q400 540 450 513T527 436T555 312Q555 299 554 285T551 256Q550 248 545 244T529 240H178Q168 240 165 229T162 196Q162 141 196 111T285
81Q328 81 364 98T432 153Q437 158 442 158T453 154L510 126Q527 119 515 104Q478 61 441 36T361 1T268 -10V-10ZM412 311Q422 311 429 319T436 352Q436 396 410 427T333 458Q293 458 260 438T206 384T179 311H412ZM239 743Q242 748 246 749T256 749L475 652Q481
649 483 645T483 634L467 601Q464 595 460 594T447 596L226 660Q214 663 212 668T212 681L239 743V743Z" />
<glyph unicode="&#xe9;" horiz-adv-x="584" d="M268 -10Q197 -10 145 19T63 99T33 219Q33 281 54 338T116 441T211 513T333 540Q400 540 450 513T527 436T555 312Q555 299 554 285T551 256Q550 248 545 244T529 240H178Q168 240 165 229T162 196Q162 141 196 111T285
81Q328 81 364 98T432 153Q437 158 442 158T453 154L510 126Q527 119 515 104Q478 61 441 36T361 1T268 -10V-10ZM412 311Q422 311 429 319T436 352Q436 396 410 427T333 458Q293 458 260 438T206 384T179 311H412ZM495 680Q497 672 495 668T482 660L243 594Q233
592 228 596T222 608L215 638Q212 652 219 654L467 750Q472 753 476 751T482 740L495 680Z" />
<glyph unicode="&#xea;" horiz-adv-x="584" d="M268 -10Q197 -10 145 19T63 99T33 219Q33 281 54 338T116 441T211 513T333 540Q400 540 450 513T527 436T555 312Q555 299 554 285T551 256Q550 248 545 244T529 240H178Q168 240 165 229T162 196Q162 141 196 111T285
81Q328 81 364 98T432 153Q437 158 442 158T453 154L510 126Q527 119 515 104Q478 61 441 36T361 1T268 -10V-10ZM412 311Q422 311 429 319T436 352Q436 396 410 427T333 458Q293 458 260 438T206 384T179 311H412ZM369 679Q362 688 359 688T345 678L282 625Q276
619 272 618T260 616H186Q178 616 178 621T182 631L304 738Q311 744 317 746T335 748H396Q405 748 409 743T417 734L508 628Q514 621 512 619T502 616H430Q423 616 419 619T411 627L369 679Z" />
<glyph unicode="&#xeb;" horiz-adv-x="584" d="M268 -10Q197 -10 145 19T63 99T33 219Q33 281 54 338T116 441T211 513T333 540Q400 540 450 513T527 436T555 312Q555 299 554 285T551 256Q550 248 545 244T529 240H178Q168 240 165 229T162 196Q162 141 196 111T285
81Q328 81 364 98T432 153Q437 158 442 158T453 154L510 126Q527 119 515 104Q478 61 441 36T361 1T268 -10V-10ZM412 311Q422 311 429 319T436 352Q436 396 410 427T333 458Q293 458 260 438T206 384T179 311H412ZM318 634Q317 623 313 621T297 619H218Q208 619
204 624T201 639L214 730Q215 738 217 740T226 742H318Q325 742 328 737T331 724L318 634ZM502 634Q501 623 497 621T481 619H401Q391 619 388 624T385 639L397 730Q399 738 401 740T409 742H501Q508 742 512 737T514 724L502 634Z" />
<glyph unicode="&#xec;" horiz-adv-x="256" d="M158 18Q156 6 152 3T135 0H48Q37 0 33 6T29 22L98 517Q100 525 102 527T112 530H213Q220 530 224 524T228 511L158 18ZM68 743Q71 748 75 749T85 749L304 652Q310 649 312 645T312 634L296 601Q293 595 289 594T276
596L55 660Q43 663 41 668T41 681L68 743V743Z" />
<glyph unicode="&#xed;" horiz-adv-x="256" d="M158 18Q156 6 152 3T135 0H48Q37 0 33 6T29 22L98 517Q100 525 102 527T112 530H213Q220 530 224 524T228 511L158 18ZM323 680Q325 672 323 668T310 660L71 594Q61 592 56 596T50 608L43 638Q40 652 47 654L295
750Q300 753 304 751T310 740L323 680Z" />
<glyph unicode="&#xee;" horiz-adv-x="256" d="M158 18Q156 6 152 3T135 0H48Q37 0 33 6T29 22L98 517Q100 525 102 527T112 530H213Q220 530 224 524T228 511L158 18ZM198 679Q191 688 188 688T174 678L111 625Q105 619 101 618T89 616H15Q7 616 7 621T11 631L133
738Q140 744 146 746T164 748H225Q234 748 238 743T246 734L337 628Q343 621 341 619T331 616H259Q252 616 248 619T240 627L198 679Z" />
<glyph unicode="&#xef;" horiz-adv-x="256" d="M158 18Q156 6 152 3T135 0H48Q37 0 33 6T29 22L98 517Q100 525 102 527T112 530H213Q220 530 224 524T228 511L158 18ZM146 634Q145 623 141 621T125 619H46Q36 619 32 624T29 639L42 730Q43 738 45 740T54 742H146Q153
742 156 737T159 724L146 634ZM330 634Q329 623 325 621T309 619H229Q219 619 216 624T213 639L225 730Q227 738 229 740T237 742H329Q336 742 340 737T342 724L330 634Z" />
<glyph unicode="&#xf0;" horiz-adv-x="599" d="M563 263Q551 181 511 120T407 24T265 -10Q186 -10 131 25T50 121T35 259Q46 336 87 395T191 487T326 520Q353 520 373 515T406 498Q393 531 371 560T313 618L174 542Q168 539 164 543T157 553L146 572Q140 585 146
588L267 649Q247 660 226 671T180 692Q175 693 172 697T173 705L235 749Q241 753 244 752T252 747Q285 738 313 726T366 698L461 752Q466 755 470 752T475 745L488 714Q490 711 491 709T488 703L413 667Q507 596 543 492T563 263V263ZM269 79Q311 79 344 101T400
165T430 262Q438 315 428 353T393 413T329 434Q288 434 254 411T197 346T166 248Q159 196 169 158T204 100T269 79V79Z" />
<glyph unicode="&#xf1;" horiz-adv-x="592" d="M42 0Q33 0 31 6T29 22L98 517Q100 525 102 527T111 530H217Q222 530 224 528T226 518L218 465Q217 454 228 463Q271 498 316 519T409 540Q478 540 515 504T553 408Q553 402 553 395T551 381L500 17Q498 7 494 4T479
0H383Q374 0 372 6T370 22L419 363Q420 369 420 374T421 384Q421 414 404 429T352 444Q326 444 304 436T259 412T209 372L158 16Q156 6 152 3T135 0H42V0ZM521 656Q505 649 483 642T433 635Q405 635 383 642T341 656T297 663Q273 663 260 654T227 636Q219 633 215
637T209 650L201 687Q200 694 198 699T205 711Q224 723 244 731T292 739Q321 739 345 732T390 717T433 709Q448 709 460 714T482 727T503 737Q512 739 517 735T524 722L529 678Q530 672 530 666T521 656V656Z" />
<glyph unicode="&#xf2;" horiz-adv-x="599" d="M265 -10Q194 -10 142 19T62 100T33 221Q33 291 57 349T122 450T218 516T334 540Q405 540 457 510T537 427T565 305Q565 214 525 143T418 31T265 -10V-10ZM269 79Q316 79 354 108T414 193T436 329Q436 389 410 421T332
454Q285 454 247 424T186 338T163 202Q163 143 190 111T269 79V79ZM240 743Q243 748 247 749T257 749L476 652Q482 649 484 645T484 634L468 601Q465 595 461 594T448 596L227 660Q215 663 213 668T213 681L240 743V743Z" />
<glyph unicode="&#xf3;" horiz-adv-x="599" d="M265 -10Q194 -10 142 19T62 100T33 221Q33 291 57 349T122 450T218 516T334 540Q405 540 457 510T537 427T565 305Q565 214 525 143T418 31T265 -10V-10ZM269 79Q316 79 354 108T414 193T436 329Q436 389 410 421T332
454Q285 454 247 424T186 338T163 202Q163 143 190 111T269 79V79ZM496 680Q498 672 496 668T483 660L244 594Q234 592 229 596T223 608L216 638Q213 652 220 654L468 750Q473 753 477 751T483 740L496 680Z" />
<glyph unicode="&#xf4;" horiz-adv-x="599" d="M265 -10Q194 -10 142 19T62 100T33 221Q33 291 57 349T122 450T218 516T334 540Q405 540 457 510T537 427T565 305Q565 214 525 143T418 31T265 -10V-10ZM269 79Q316 79 354 108T414 193T436 329Q436 389 410 421T332
454Q285 454 247 424T186 338T163 202Q163 143 190 111T269 79V79ZM371 679Q364 688 361 688T347 678L284 625Q278 619 274 618T262 616H188Q180 616 180 621T184 631L306 738Q313 744 319 746T337 748H398Q407 748 411 743T419 734L510 628Q516 621 514 619T504
616H432Q425 616 421 619T413 627L371 679Z" />
<glyph unicode="&#xf5;" horiz-adv-x="599" d="M265 -10Q194 -10 142 19T62 100T33 221Q33 291 57 349T122 450T218 516T334 540Q405 540 457 510T537 427T565 305Q565 214 525 143T418 31T265 -10V-10ZM269 79Q316 79 354 108T414 193T436 329Q436 389 410 421T332
454Q285 454 247 424T186 338T163 202Q163 143 190 111T269 79V79ZM518 656Q502 649 480 642T430 635Q402 635 380 642T338 656T294 663Q270 663 257 654T224 636Q216 633 212 637T206 650L198 687Q197 694 195 699T202 711Q221 723 241 731T289 739Q318 739 342
732T387 717T430 709Q445 709 457 714T479 727T500 737Q509 739 514 735T521 722L526 678Q527 672 527 666T518 656V656Z" />
<glyph unicode="&#xf6;" horiz-adv-x="599" d="M265 -10Q194 -10 142 19T62 100T33 221Q33 291 57 349T122 450T218 516T334 540Q405 540 457 510T537 427T565 305Q565 214 525 143T418 31T265 -10V-10ZM269 79Q316 79 354 108T414 193T436 329Q436 389 410 421T332
454Q285 454 247 424T186 338T163 202Q163 143 190 111T269 79V79ZM319 634Q318 623 314 621T298 619H219Q209 619 205 624T202 639L215 730Q216 738 218 740T227 742H319Q326 742 329 737T332 724L319 634ZM503 634Q502 623 498 621T482 619H402Q392 619 389 624T386
639L398 730Q400 738 402 740T410 742H502Q509 742 513 737T515 724L503 634Z" />
<glyph unicode="&#xf7;" horiz-adv-x="575" d="M340 126Q339 116 335 113T318 110H216Q206 110 202 116T198 131L213 236Q215 244 217 245T224 247H343Q349 247 352 242T355 230L340 126ZM532 341Q532 331 527 328T510 325H82Q72 325 68 331T64 346L74 409Q75
417 77 419T85 421H528Q534 421 538 416T542 404L532 341ZM395 514Q394 504 390 502T373 499H271Q261 499 256 505T253 520L268 624Q269 633 271 634T279 636H397Q403 636 407 631T410 618L395 514Z" />
<glyph unicode="&#xf8;" horiz-adv-x="591" d="M41 6Q32 -2 25 0T11 11L-3 28Q-9 36 -11 43T-5 57L551 524Q560 531 565 529T575 522L597 496Q601 491 603 486T598 475L41 6ZM257 -10Q185 -10 133 19T53 100T25 221Q25 291 48 349T113 450T209 516T325 540Q397
540 448 510T528 427T556 305Q556 214 517 143T409 31T257 -10V-10ZM260 79Q307 79 345 108T405 193T427 329Q427 389 401 421T323 454Q277 454 239 424T177 338T154 202Q154 143 181 111T260 79V79Z" />
<glyph unicode="&#xf9;" horiz-adv-x="588" d="M179 -10Q116 -10 78 26T39 124Q39 131 39 138T41 152L91 513Q93 523 97 526T112 530H204Q214 530 218 524T221 508L173 168Q172 163 172 158T171 149Q171 116 189 101T237 85Q275 85 310 105T378 157L430 514Q431
524 436 527T452 530H542Q552 530 557 524T560 508L488 13Q487 5 485 3T475 0H377Q371 0 367 3T364 13L372 64Q373 70 370 70T359 66Q308 23 265 7T179 -10V-10ZM225 743Q228 748 232 749T242 749L461 652Q467 649 469 645T469 634L453 601Q450 595 446 594T433
596L212 660Q200 663 198 668T198 681L225 743V743Z" />
<glyph unicode="&#xfa;" horiz-adv-x="588" d="M179 -10Q116 -10 78 26T39 124Q39 131 39 138T41 152L91 513Q93 523 97 526T112 530H204Q214 530 218 524T221 508L173 168Q172 163 172 158T171 149Q171 116 189 101T237 85Q275 85 310 105T378 157L430 514Q431
524 436 527T452 530H542Q552 530 557 524T560 508L488 13Q487 5 485 3T475 0H377Q371 0 367 3T364 13L372 64Q373 70 370 70T359 66Q308 23 265 7T179 -10V-10ZM481 680Q483 672 481 668T468 660L229 594Q219 592 214 596T208 608L201 638Q198 652 205 654L453
750Q458 753 462 751T468 740L481 680Z" />
<glyph unicode="&#xfb;" horiz-adv-x="588" d="M179 -10Q116 -10 78 26T39 124Q39 131 39 138T41 152L91 513Q93 523 97 526T112 530H204Q214 530 218 524T221 508L173 168Q172 163 172 158T171 149Q171 116 189 101T237 85Q275 85 310 105T378 157L430 514Q431
524 436 527T452 530H542Q552 530 557 524T560 508L488 13Q487 5 485 3T475 0H377Q371 0 367 3T364 13L372 64Q373 70 370 70T359 66Q308 23 265 7T179 -10V-10ZM356 679Q349 688 346 688T332 678L269 625Q263 619 259 618T247 616H173Q165 616 165 621T169 631L291
738Q298 744 304 746T322 748H383Q392 748 396 743T404 734L495 628Q501 621 499 619T489 616H417Q410 616 406 619T398 627L356 679Z" />
<glyph unicode="&#xfc;" horiz-adv-x="588" d="M179 -10Q116 -10 78 26T39 124Q39 131 39 138T41 152L91 513Q93 523 97 526T112 530H204Q214 530 218 524T221 508L173 168Q172 163 172 158T171 149Q171 116 189 101T237 85Q275 85 310 105T378 157L430 514Q431
524 436 527T452 530H542Q552 530 557 524T560 508L488 13Q487 5 485 3T475 0H377Q371 0 367 3T364 13L372 64Q373 70 370 70T359 66Q308 23 265 7T179 -10V-10ZM304 634Q303 623 299 621T283 619H204Q194 619 190 624T187 639L200 730Q201 738 203 740T212 742H304Q311
742 314 737T317 724L304 634ZM488 634Q487 623 483 621T467 619H387Q377 619 374 624T371 639L383 730Q385 738 387 740T395 742H487Q494 742 498 737T500 724L488 634Z" />
<glyph unicode="&#xfd;" horiz-adv-x="554" d="M39 -165Q11 -165 -2 -162T-13 -147L-5 -83Q-4 -77 4 -73T30 -69H94Q114 -69 131 -59T161 -33T179 0T181 30L55 505Q49 530 68 530H182Q196 530 198 519L276 189Q279 178 284 178T296 191L462 512Q467 522 472 526T485
530H558Q574 530 564 513L279 -13Q254 -59 229 -88T176 -134T115 -158T39 -165V-165ZM490 680Q492 672 490 668T477 660L238 594Q228 592 223 596T217 608L210 638Q207 652 214 654L462 750Q467 753 471 751T477 740L490 680Z" />
<glyph unicode="&#xfe;" horiz-adv-x="603" d="M238 742Q248 742 253 736T256 720L222 474Q221 467 225 470T234 481Q250 493 271 507T322 530T390 540Q451 540 495 510T559 418T566 263Q553 172 517 111T429 20T314 -10Q270 -10 238 4T185 46Q164 59 160 31L134
-153Q133 -161 131 -163T122 -165H20Q14 -165 9 -159T6 -145L127 726Q129 736 132 739T148 742H238V742ZM172 127Q192 102 215 89T270 75Q311 75 345 96T403 163T436 279Q446 345 435 383T399 438T338 455Q304 455 275 441T228 404T206 360L172 127V127Z" />
<glyph unicode="&#xff;" horiz-adv-x="554" d="M39 -165Q11 -165 -2 -162T-13 -147L-5 -83Q-4 -77 4 -73T30 -69H94Q114 -69 131 -59T161 -33T179 0T181 30L55 505Q49 530 68 530H182Q196 530 198 519L276 189Q279 178 284 178T296 191L462 512Q467 522 472 526T485
530H558Q574 530 564 513L279 -13Q254 -59 229 -88T176 -134T115 -158T39 -165V-165ZM313 634Q312 623 308 621T292 619H213Q203 619 199 624T196 639L209 730Q210 738 212 740T221 742H313Q320 742 323 737T326 724L313 634ZM497 634Q496 623 492 621T476 619H396Q386
619 383 624T380 639L392 730Q394 738 396 740T404 742H496Q503 742 507 737T509 724L497 634Z" />
<glyph unicode="&#x2013;" horiz-adv-x="575" d="M516 223Q515 213 510 211T493 208H65Q55 208 51 213T48 228L57 292Q59 300 61 302T69 304H512Q518 304 522 299T525 287L516 223Z" />
<glyph unicode="&#x2014;" horiz-adv-x="899" d="M840 223Q839 213 834 211T817 208H65Q55 208 51 213T48 228L57 292Q59 300 61 302T69 304H836Q841 304 845 299T849 287L840 223Z" />
<glyph unicode="&#x2018;" horiz-adv-x="234" d="M284 742Q295 742 289 730L231 632Q220 609 238 607L255 606Q265 605 266 603T267 593L253 488Q252 481 247 476T235 470H120Q114 470 113 471T112 479L125 578Q126 581 128 584T132 589L237 725Q242 732 251 737T268
742H284V742Z" />
<glyph unicode="&#x2019;" horiz-adv-x="234" d="M84 470Q73 470 78 482L136 580Q148 603 129 605L113 607Q104 608 102 609T100 619L115 724Q116 731 121 736T133 742H247Q253 742 255 741T255 733L242 635Q241 631 240 628T236 623L131 487Q126 480 117 475T100
470H84V470Z" />
<glyph unicode="&#x201a;" horiz-adv-x="234" d="M-2 -137Q-13 -137 -7 -125L52 -27Q62 -4 44 -2L28 -1Q19 1 17 2T15 12L30 117Q31 124 36 129T47 135H162Q168 135 169 134T171 126L157 27Q156 24 154 21T151 16L46 -120Q42 -127 33 -132T15 -137H-2V-137Z" />
<glyph unicode="&#x201c;" horiz-adv-x="442" d="M291 470Q285 470 283 471T282 479L296 578Q297 581 299 584T302 589L407 725Q412 732 421 737T438 742H454Q466 742 460 730L401 632Q391 609 409 607L425 606Q435 605 437 603T438 593L423 488Q422 481 417 476T405
470H291V470ZM83 470Q77 470 76 471T74 479L88 578Q89 581 91 584T94 589L199 725Q204 732 213 737T230 742H247Q259 742 252 730L193 632Q183 609 201 607L217 606Q227 605 229 603T230 593L215 488Q214 481 209 476T197 470H83V470Z" />
<glyph unicode="&#x201d;" horiz-adv-x="444" d="M291 470Q281 470 286 482L344 580Q355 603 337 605L321 607Q312 608 310 609T308 619L323 724Q324 731 329 736T341 742H455Q461 742 463 741T463 733L450 635Q449 631 447 628T444 623L338 487Q334 480 325 475T308
470H291V470ZM84 470Q73 470 78 482L136 580Q148 603 129 605L113 607Q104 608 102 609T100 619L115 724Q116 731 121 736T133 742H247Q253 742 255 741T255 733L242 635Q241 631 240 628T236 623L131 487Q126 480 117 475T100 470H84V470Z" />
<glyph unicode="&#x201e;" horiz-adv-x="407" d="M169 -137Q158 -137 164 -125L223 -27Q233 -4 215 -2L199 -1Q190 1 188 2T186 12L201 117Q202 124 207 129T218 135H333Q339 135 340 134T342 126L328 27Q327 24 325 21T322 16L217 -120Q213 -127 204 -132T186
-137H169V-137ZM217 -137Q206 -137 212 -125L271 -27Q281 -4 263 -2L247 -1Q238 1 236 2T234 12L249 117Q250 124 255 129T266 135H381Q387 135 388 134T390 126L376 27Q375 24 373 21T370 16L265 -120Q261 -127 252 -132T234 -137H217V-137Z" />
<glyph unicode="&#x2022;" horiz-adv-x="329" d="M168 259Q134 259 108 276T70 321T62 384Q66 415 85 440T131 480T190 495Q225 495 250 478T288 433T296 370Q292 339 274 314T228 274T168 259V259Z" />
<glyph unicode="&#x2039;" horiz-adv-x="282" d="M204 74Q206 69 205 69T195 68H148Q144 68 140 72T136 79L47 245Q44 253 44 260T47 275L186 451Q190 456 192 456T198 455H246Q251 455 255 451T257 439L150 264Q147 258 146 254T145 244L204 74Z" />
<glyph unicode="&#x203a;" horiz-adv-x="283" d="M131 250Q134 256 135 260T136 270L78 446Q77 452 78 453T85 455H133Q140 455 145 445L234 268Q237 261 237 254T232 238L96 72Q94 69 92 69T84 68H38Q31 68 27 71T24 81L131 250V250Z" />
</font>
</defs>
</svg>
