<?xml version="1.0" standalone="no"?>
<!DOCTYPE svg PUBLIC "-//W3C//DTD SVG 1.1//EN" "http://www.w3.org/Graphics/SVG/1.1/DTD/svg11.dtd">
<svg xmlns="http://www.w3.org/2000/svg">
<defs >
<font id="LibreFranklin" horiz-adv-x="568" ><font-face
    font-family="Libre Franklin Thin"
    units-per-em="1000"
    panose-1="0 0 0 0 0 0 0 0 0 0"
    ascent="966"
    descent="-246"
    alphabetic="0" />
<glyph unicode=" " horiz-adv-x="206" />
<glyph unicode="!" horiz-adv-x="264" d="M214 24Q214 0 187 0H69Q47 0 47 21V145Q47 163 62 163H199Q214 163 214 147V24ZM182 254Q181 242 175 237T155 232H102Q90 232 87 236T81 252L43 724Q42 733 46 737T58 742H205Q221 742 219 725L182 254Z" />
<glyph unicode="&quot;" horiz-adv-x="469" d="M390 474Q388 462 383 457T363 451H328Q316 451 312 455T307 471L273 725Q272 733 277 737T288 742H409Q426 742 424 726L390 474ZM168 474Q166 462 161 457T141 451H106Q94 451 90 455T85 471L51 725Q50 733 55
737T66 742H187Q204 742 202 726L168 474Z" />
<glyph unicode="#" horiz-adv-x="603" d="M184 24Q182 10 178 4T159 0L125 5Q113 6 108 9T102 24L207 723Q208 732 212 737T222 742L273 737Q289 735 287 719L184 24ZM402 24Q400 10 396 4T377 0L343 5Q331 6 326 9T320 24L425 723Q426 732 430 737T440 742L491
737Q507 735 505 719L402 24ZM554 252Q554 230 527 230H37Q25 230 21 234T16 250V291Q16 309 31 309H539Q554 309 554 293V252ZM587 462Q587 440 560 440H70Q58 440 54 444T49 460V501Q49 519 64 519H572Q587 519 587 503V462Z" />
<glyph unicode="$" horiz-adv-x="655" d="M620 214Q620 156 593 109T515 33T397 -4Q386 -4 383 -7T380 -20V-56Q380 -79 356 -79H301Q280 -79 280 -59V-19Q280 -10 277 -7T266 -4Q192 0 139 23T40 88Q17 106 30 120L90 185Q98 193 105 193T119 187Q148 156 183
135T267 108Q281 106 281 118L282 289Q282 297 279 301T267 309Q185 328 137 359T67 434T46 528Q46 581 71 624T145 697T263 739Q269 741 275 745T282 756V794Q282 801 286 804T294 808H362Q371 808 375 804T380 789V749Q380 742 393 740Q447 729 488 710T566 665Q581
655 569 640L516 572Q509 566 504 565T488 573Q471 589 447 603T392 626Q385 627 382 625T379 618V449Q379 440 391 436L447 421Q499 406 538 377T598 306T620 214V214ZM282 619Q282 634 269 631Q223 623 200 600T176 544Q176 524 184 508T212 480T262 458Q272
456 277 460T282 476V619ZM379 114Q379 105 392 107Q438 113 463 136T489 191Q489 225 467 248T392 286Q386 287 383 286T379 276V114V114Z" />
<glyph unicode="%" horiz-adv-x="944" d="M229 753Q282 753 324 725T391 648T416 541Q416 482 392 435T325 360T229 332Q175 332 132 359T65 434T40 541Q40 600 65 648T133 724T229 753V753ZM228 410Q268 410 285 445T303 540Q303 604 285 639T228 675Q203 675
187 659T162 612T153 540Q153 500 161 471T186 426T228 410V410ZM717 411Q770 411 812 383T879 306T904 199Q904 140 880 93T813 18T717 -10Q664 -10 621 17T553 92T528 199Q528 258 553 306T621 382T717 411V411ZM716 68Q742 68 758 84T783 129T791 198Q791 240
783 270T758 317T716 333Q691 333 675 317T650 270T642 198Q642 158 650 129T674 84T716 68V68ZM274 7Q266 -4 249 -4L207 -3Q194 -3 192 6T196 25L670 739Q676 748 681 749T694 750H746Q753 750 757 747T755 733L274 7Z" />
<glyph unicode="&amp;" horiz-adv-x="838" d="M375 753Q441 753 491 733T571 678T600 594Q600 562 582 527T529 461T448 407Q441 403 440 400T445 390L551 274Q557 268 561 268T572 276Q584 290 596 305T619 338T639 371T653 403Q660 417 677 412L754 387Q762
385 766 377T767 361Q757 335 741 309T704 253T657 192Q651 183 651 180T659 172Q674 160 694 152T737 138T785 131Q805 130 805 112V25Q805 13 800 7T783 0Q736 0 693 8T613 33T545 71Q536 76 532 76T518 70Q469 32 412 14T284 -5Q168 -5 104 47T39 193Q39 252
78 302T206 401Q216 407 216 411T208 426Q178 460 162 497T145 569Q145 622 175 663T257 729T375 753V753ZM382 660Q356 660 337 649T308 620T298 583Q298 568 305 553T326 522L359 483Q363 479 368 479T379 482Q422 503 443 529T465 587Q465 622 442 641T382 660V660ZM307
315Q300 323 294 323T280 319Q246 300 226 271T205 210Q205 183 220 160T260 123T317 109Q346 109 377 120T429 150Q435 156 437 161T432 175L307 315V315Z" />
<glyph unicode="&apos;" horiz-adv-x="248" d="M168 474Q166 462 161 457T141 451H106Q94 451 90 455T85 471L51 725Q50 733 55 737T66 742H187Q204 742 202 726L168 474Z" />
<glyph unicode="(" horiz-adv-x="314" d="M287 742Q295 742 296 738T295 729Q246 631 216 517T185 284Q185 171 212 67T292 -151Q295 -156 293 -160T283 -165H202Q192 -165 185 -154Q144 -83 113 -15T65 126T48 285Q48 410 86 523T187 730Q196 742 210 742H287V742Z" />
<glyph unicode=")" horiz-adv-x="314" d="M27 742V742H104Q118 742 127 730Q189 636 227 523T266 285Q266 200 249 127T201 -15T129 -154Q121 -165 111 -165H31Q23 -165 21 -161T21 -151Q74 -38 101 66T129 284Q129 403 99 517T18 729Q16 733 17 737T27 742Z" />
<glyph unicode="*" horiz-adv-x="465" d="M239 464Q238 468 235 468T230 464L156 340Q153 336 147 335T133 339L79 377Q67 386 76 397L166 505Q169 508 168 511T161 516L35 551Q22 555 28 572L49 631Q55 644 66 638L186 586Q191 584 194 585T197 592L186 729Q185
733 188 737T199 742H272Q278 742 281 738T284 729L272 592Q271 581 281 585L403 639Q418 645 423 629L441 571Q446 556 431 552L308 516Q304 515 304 512T306 504L392 401Q396 396 395 390T385 377L337 343Q329 338 322 338T312 344L239 464Z" />
<glyph unicode="+" horiz-adv-x="583" d="M536 340Q536 318 509 318L69 317Q58 317 54 322T49 337V410Q49 429 64 429H521Q536 429 536 413V340ZM259 130Q237 130 237 156V596Q237 608 241 612T257 617H330Q348 617 348 602V145Q348 130 332 130H259Z" />
<glyph unicode="," horiz-adv-x="253" d="M54 -156Q46 -156 43 -150T42 -135L90 -26Q101 0 81 0H63Q41 0 41 20V146Q41 164 57 164H194Q209 164 209 148V27Q209 20 206 13L108 -138Q102 -147 92 -151T72 -156H54V-156Z" />
<glyph unicode="-" horiz-adv-x="380" d="M331 230Q331 208 305 208H70Q58 208 54 212T49 228V301Q49 319 64 319H316Q331 319 331 304V230Z" />
<glyph unicode="." horiz-adv-x="251" d="M208 24Q208 0 180 0H62Q40 0 40 21V148Q40 166 56 166H193Q208 166 208 149V24Z" />
<glyph unicode="/" horiz-adv-x="365" d="M18 -17Q1 -17 6 -2L255 727Q261 742 276 742H343Q366 742 357 716L114 4Q110 -8 103 -12T86 -17H18V-17Z" />
<glyph unicode="0" horiz-adv-x="708" d="M355 753Q422 753 478 726T576 648T641 527T664 369Q664 254 624 169T515 38T355 -9Q265 -9 195 37T85 168T45 368Q45 456 68 526T133 648T231 726T355 753V753ZM355 115Q399 115 428 140T471 221T486 368Q486 463 471
520T427 604T354 631Q311 631 282 605T238 520T222 368Q222 277 237 221T282 140T355 115V115Z" />
<glyph unicode="1" horiz-adv-x="509" d="M457 129Q475 129 475 114V17Q475 11 471 6T455 0H60Q41 0 41 17V114Q41 129 58 129H162Q173 129 173 136V556Q173 571 159 567L62 538Q40 533 40 557V623Q40 634 43 638T55 647L222 730Q236 737 244 739T264 742H333Q348
742 348 724V139Q348 129 357 129H457V129Z" />
<glyph unicode="2" horiz-adv-x="644" d="M269 321Q317 363 347 392T394 444T417 485T424 527Q424 558 409 579T370 613T313 625Q286 625 262 615T214 582T167 520Q164 514 157 513T140 516L51 562Q41 568 40 577T44 595Q96 676 165 714T323 752Q403 752 464 725T559
648T594 527Q594 487 580 451T535 379T450 301L265 156Q258 152 258 148T271 144H582Q601 144 601 128V18Q601 10 597 5T581 0H60Q47 0 42 4T37 21V98Q37 103 39 109T52 125T83 153L269 321Z" />
<glyph unicode="3" horiz-adv-x="667" d="M65 626Q57 635 65 648Q92 680 133 703T223 739T324 752Q412 752 474 728T570 660T604 558Q604 511 574 468T486 406Q475 402 475 397T485 388Q527 375 559 350T609 290T627 215Q627 144 592 94T487 17T312 -10Q255 -10
202 5T106 48T35 114Q29 122 31 129T41 143L119 198Q127 204 132 204T141 199Q172 168 199 150T255 122T322 113Q385 113 420 140T455 211Q455 245 436 269T386 306T316 319L230 321Q213 321 213 335V429Q213 441 230 443L299 446Q339 447 369 460T416 496T433
547Q433 571 419 590T379 620T322 632Q276 632 238 615T160 558Q154 552 150 552T138 558L65 626V626Z" />
<glyph unicode="4" horiz-adv-x="689" d="M363 723Q373 735 380 738T404 742H529Q545 742 545 724V305Q545 294 555 294H637Q656 294 656 279V193Q656 175 636 175H556Q545 175 545 163V23Q545 0 519 0H389Q368 0 368 20V166Q368 175 356 175H56Q35 175 35 193V276Q35
286 41 297T61 325L363 723V723ZM360 294Q369 294 369 301V550Q369 563 366 564T355 554L176 307Q166 294 183 294H360Z" />
<glyph unicode="5" horiz-adv-x="676" d="M562 742Q579 742 582 738T585 719L580 620Q579 609 575 606T558 602H243Q226 602 225 587L213 460Q212 452 217 449T228 447Q267 461 298 469T371 478Q446 478 506 452T601 373T637 242Q637 163 599 107T493 20T335 -10Q239
-10 161 23T42 110Q36 119 34 127T44 144L126 202Q140 212 152 198Q175 174 198 155T249 124T316 113Q363 113 396 129T447 173T465 237Q465 272 449 298T403 339T330 354Q296 354 266 343T202 315Q193 311 190 311T176 316L85 366Q75 372 75 378T75 398L103 718Q104
732 110 737T139 742H562Z" />
<glyph unicode="6" horiz-adv-x="685" d="M372 751Q421 751 461 738T531 705T582 661T609 615Q611 609 610 603T600 593L491 558Q483 555 479 559T472 568Q454 595 432 612T372 629Q322 629 288 605T236 537T218 437Q218 419 222 415T240 417Q274 431 308 442T391
454Q469 454 526 426T616 348T648 234Q648 164 609 109T505 22T358 -9Q262 -9 192 36T83 162T45 355Q45 479 85 567T200 703T372 751V751ZM355 339Q335 339 312 334T268 322T234 305Q226 300 223 294T220 271Q220 239 229 210T255 157T296 120T353 106Q387 106
415 122T459 165T475 228Q475 262 459 287T416 325T355 339V339Z" />
<glyph unicode="7" horiz-adv-x="619" d="M558 742Q572 742 579 736T586 720L583 666Q582 657 574 640T558 610Q522 555 490 493T430 365T383 238T350 123T333 28Q332 0 312 0H154Q130 0 137 24Q153 80 173 139T224 267T298 413T399 585Q404 593 403 597T391 602H53Q31
602 33 621L44 728Q45 742 68 742H558Z" />
<glyph unicode="8" horiz-adv-x="683" d="M337 752Q416 752 478 725T575 652T611 545Q611 504 587 470T515 407Q499 398 514 389Q563 363 591 336T632 278T644 210Q644 141 605 92T495 16T332 -10Q245 -10 180 12T78 78T41 183Q41 232 66 272T156 347Q165 352
166 355T158 365Q133 383 111 404T75 454T61 524Q61 586 94 637T189 720T337 752V752ZM340 637Q308 637 282 626T240 593T225 545Q225 484 294 464L374 441Q388 437 403 444T433 467T455 502T464 541Q464 581 432 609T340 637V637ZM342 105Q403 105 437 130T471
197Q471 227 454 249T390 284L295 312Q280 316 262 311T228 291T201 255T190 209Q190 161 226 133T342 105V105Z" />
<glyph unicode="9" horiz-adv-x="684" d="M314 -9Q264 -9 224 4T152 37T102 81T74 127Q73 133 73 139T82 149L191 184Q199 187 203 183T211 174Q229 147 252 130T314 113Q363 113 397 137T448 205T465 305Q465 324 462 327T443 325Q410 311 377 300T294 288Q217
288 160 316T70 394T38 508Q38 579 76 634T181 720T328 751Q424 751 493 706T601 580T639 387Q639 264 599 175T485 39T314 -9V-9ZM329 403Q351 403 374 408T417 421T450 439Q458 445 461 451T464 473Q464 505 456 534T430 586T389 622T332 636Q298 636 271 620T227
577T211 515Q211 481 227 456T270 417T329 403V403Z" />
<glyph unicode=":" horiz-adv-x="251" d="M208 379Q208 355 180 355H62Q40 355 40 376V499Q40 518 56 518H193Q208 518 208 501V379ZM208 27Q208 3 180 3H62Q40 3 40 24V148Q40 166 56 166H193Q208 166 208 150V27Z" />
<glyph unicode=";" horiz-adv-x="259" d="M54 -159Q46 -159 43 -153T42 -138L90 -26Q100 0 81 0H63Q41 0 41 20V146Q41 164 57 164H194Q209 164 209 148V27Q209 20 206 13L108 -141Q102 -150 92 -154T72 -159H54V-159ZM62 350Q40 350 40 370V497Q40 516 56 516H193Q208
516 208 499V374Q208 350 180 350H62V350Z" />
<glyph unicode="&lt;" horiz-adv-x="577" d="M518 137Q518 121 509 116T486 116L64 279Q55 284 49 290T42 307V396Q42 408 48 414T64 424L487 589Q500 594 509 587T518 568V492Q518 469 482 455L210 351L482 249Q501 241 509 234T518 212V137Z" />
<glyph unicode="=" horiz-adv-x="583" d="M536 437Q536 415 509 415H69Q58 415 54 419T49 434V508Q49 526 64 526H521Q536 526 536 510V437ZM536 202Q536 180 509 180H69Q58 180 54 184T49 199V273Q49 291 64 291H521Q536 291 536 275V202Z" />
<glyph unicode="&gt;" horiz-adv-x="577" d="M60 212Q60 226 68 233T95 249L367 351L95 455Q59 469 59 492V568Q59 580 68 587T91 589L513 424Q523 421 529 415T535 396V307Q535 296 529 290T513 279L91 116Q78 111 69 116T60 137V212V212Z" />
<glyph unicode="?" horiz-adv-x="537" d="M333 24Q333 0 306 0H187Q175 0 171 5T166 21V145Q166 163 182 163H319Q333 163 333 147V24ZM17 578Q9 580 8 587T9 600Q41 673 107 712T264 752Q339 752 393 729T478 666T509 577Q509 530 489 497T440 438T382 387T332
330T312 254Q312 246 307 241T292 235H210Q189 235 189 258Q189 311 206 349T248 415T297 468T339 516T357 569Q357 605 330 626T263 647Q237 647 212 637T168 608T138 564Q134 556 130 555T117 554L17 578Z" />
<glyph unicode="@" horiz-adv-x="834" d="M664 -46Q629 -73 568 -93T431 -113Q338 -113 266 -84T142 -4T65 116T39 262Q39 343 67 415T150 542T279 629T450 661Q518 661 582 643T699 585T781 485T811 339Q811 263 786 205T717 114T614 81Q570 81 548 96T517 128Q514
134 512 134T504 128Q482 101 449 84T371 67Q328 67 294 89T239 150T219 244Q219 305 243 357T314 442T422 475Q463 475 488 460T530 424Q532 422 534 422T538 428L542 443Q543 449 552 449H622Q631 449 630 442L594 229Q588 194 597 181T624 167Q648 167 669 185T705
240T719 333Q719 401 697 448T636 523T549 564T449 577Q368 577 308 552T210 484T152 384T133 263Q133 193 154 138T216 45T315 -14T446 -35Q490 -35 519 -28T572 -9T619 18Q632 27 639 17L671 -26Q676 -32 673 -37T664 -46V-46ZM327 254Q327 214 344 187T398 159Q427
159 450 176T487 220T504 278Q507 309 498 332T471 369T429 383Q401 383 378 366T341 320T327 254V254Z" />
<glyph unicode="A" horiz-adv-x="771" d="M48 0Q39 0 35 8T35 29L284 722Q288 733 293 737T310 742H460Q482 742 490 720L737 27Q740 19 737 10T725 0H578Q563 0 559 14L507 160Q506 165 504 168T494 171H250Q240 171 237 161L184 13Q182 7 178 4T163 0H48V0ZM453
304Q467 304 462 321L378 555Q375 561 372 561T365 554L280 321Q273 304 289 304H453Z" />
<glyph unicode="B" horiz-adv-x="723" d="M89 0Q80 0 75 5T70 18V721Q70 730 75 736T90 742H361Q508 742 585 693T663 547Q663 492 634 454T532 385Q529 384 529 381T532 377Q611 351 646 310T681 201Q681 99 604 50T374 0H89V0ZM369 118Q434 118 466 145T499
217Q499 249 483 270T440 303T376 314H264Q245 314 245 297V137Q245 118 259 118H369ZM376 436Q399 436 419 441T455 458T480 487T490 527Q490 574 456 599T367 624H264Q245 624 245 607V454Q245 436 259 436H376Z" />
<glyph unicode="C" horiz-adv-x="725" d="M382 752Q440 752 490 736T581 689T646 619T680 532Q684 516 682 511T670 505L535 496Q526 496 524 499T519 511Q508 563 476 596T387 630Q312 630 270 570T227 374Q227 240 267 180T389 119Q447 119 489 148T558 247Q562
256 580 253L678 232Q683 231 687 227T689 207Q684 186 670 158T631 101T572 46T489 6T382 -10Q279 -10 203 39T85 175T44 377Q44 493 85 576T202 706T382 752V752Z" />
<glyph unicode="D" horiz-adv-x="751" d="M92 742Q110 742 140 742T204 742T268 742T315 741Q450 738 537 692T665 566T707 374Q707 260 664 176T532 46T310 0H93Q70 0 70 24V721Q70 733 75 737T92 742V742ZM255 618Q245 618 245 604V137Q245 123 258 123H277Q359
123 414 147T496 227T524 373Q524 461 499 514T421 593T287 618H255V618Z" />
<glyph unicode="E" horiz-adv-x="654" d="M70 723Q70 742 86 742H590Q605 742 605 725L604 635Q604 614 583 614H264Q245 614 245 598V453Q245 436 260 436H472Q489 436 489 420V324Q489 318 486 314T473 310H259Q245 310 245 298V141Q245 128 256 128H598Q616
128 616 113V18Q616 10 612 5T596 0H92Q70 0 70 21V723V723Z" />
<glyph unicode="F" horiz-adv-x="631" d="M70 723Q70 742 86 742H582Q597 742 597 725L596 635Q596 614 576 614H264Q245 614 245 598V443Q245 427 260 427H477Q493 427 493 411V316Q493 302 478 302H259Q245 302 245 289V23Q245 0 219 0H92Q79 0 75 5T70 21V723V723Z" />
<glyph unicode="G" horiz-adv-x="752" d="M378 -10Q277 -10 202 37T85 169T44 368Q44 486 87 572T207 705T388 752Q469 752 533 721T636 642T686 540Q690 525 688 520T675 513L543 493Q534 493 532 497T527 509Q521 542 503 569T455 612T384 629Q335 629 300 603T246
521T227 374Q227 278 246 221T302 139T390 113Q422 113 446 122T488 148T517 184T533 227L535 256Q539 271 525 271H404Q396 271 392 274T388 288V363Q388 377 404 377L671 376Q686 376 693 370T700 352V15Q700 8 696 4T685 0H653Q645 0 639 3T627 16L598 88Q597
91 595 91T588 86Q570 64 543 42T476 5T378 -10V-10Z" />
<glyph unicode="H" horiz-adv-x="751" d="M258 317Q245 317 245 304V23Q245 0 218 0H92Q79 0 75 5T70 21V723Q70 742 86 742H229Q245 742 245 724V468Q245 451 260 451H491Q507 451 507 467V724Q507 742 522 742H665Q682 742 682 723V21Q682 10 678 5T660 0H533Q507
0 507 23V304Q507 317 493 317H258Z" />
<glyph unicode="I" horiz-adv-x="315" d="M229 742Q245 742 245 724V24Q245 11 239 6T218 0H92Q79 0 75 5T70 21V723Q70 742 86 742H229Z" />
<glyph unicode="J" horiz-adv-x="447" d="M382 192Q382 84 331 37T175 -10Q141 -10 112 -5T56 6Q43 8 38 15T33 39L42 129Q43 150 61 147Q74 144 89 139T127 134Q167 134 187 156T207 235V723Q207 742 224 742H367Q382 742 382 724V192V192Z" />
<glyph unicode="K" horiz-adv-x="744" d="M710 24Q715 15 713 8T699 0H549Q527 0 520 16L359 330Q352 341 340 326L251 220Q245 212 245 199V23Q245 0 218 0H92Q79 0 75 5T70 20V723Q70 742 86 742H230Q245 742 245 725V426Q245 417 248 417T257 422L499 726Q505
734 512 738T532 742H652Q665 742 670 735T668 719L476 494Q468 484 474 470L710 24V24Z" />
<glyph unicode="L" horiz-adv-x="627" d="M70 723Q70 742 86 742H229Q245 742 245 724V141Q245 128 256 128H575Q593 128 593 113V18Q593 10 589 5T574 0H92Q79 0 75 5T70 21V723V723Z" />
<glyph unicode="M" horiz-adv-x="949" d="M91 0Q70 0 70 23V723Q70 742 87 742H294Q305 742 310 739T318 727L469 308Q472 299 476 299T483 308L627 719Q633 742 649 742H864Q879 742 879 724V24Q879 0 854 0H725Q713 0 709 5T704 20V518Q704 525 701 525T695
517L520 16Q514 0 499 0H416Q399 0 394 16L221 510Q218 519 215 518T211 509V18Q211 8 208 4T193 0H91V0Z" />
<glyph unicode="N" horiz-adv-x="759" d="M676 742Q689 742 689 727V16Q689 9 684 5T670 0H569Q561 0 556 2T544 12L225 460Q221 465 218 464T214 458V18Q215 0 194 0H90Q70 0 70 17V723Q70 742 88 742H209Q220 742 225 739T238 727L532 308Q538 300 542 301T547
311V724Q547 742 565 742H676Z" />
<glyph unicode="O" horiz-adv-x="774" d="M388 -10Q282 -10 205 35T87 166T45 368Q45 487 87 573T207 705T388 752Q492 752 568 706T687 574T729 369Q729 252 688 167T569 36T388 -10V-10ZM388 113Q470 113 508 172T546 367Q546 505 508 567T388 630Q306 630 267
567T228 367Q228 233 266 173T388 113V113Z" />
<glyph unicode="P" horiz-adv-x="715" d="M677 511Q677 437 642 387T547 310T406 284H256Q245 284 245 273V23Q245 0 219 0H91Q79 0 75 5T70 20V723Q70 742 86 742H386Q466 742 532 717T638 641T677 511V511ZM497 514Q497 549 482 571T439 605T375 616H264Q245
616 245 599V428Q245 409 259 409H382Q435 409 466 437T497 514V514Z" />
<glyph unicode="Q" horiz-adv-x="775" d="M45 369Q45 488 87 573T206 705T388 752Q492 752 569 706T688 574T730 369Q730 266 699 192T611 68Q608 66 608 60Q608 51 623 38T663 13T713 -2Q722 -3 724 -7T727 -16V-100Q727 -116 719 -121T690 -126Q627 -126 574
-97T476 -9Q472 -2 461 -5Q443 -7 426 -8T388 -10Q283 -10 206 35T87 165T45 369V369ZM228 367Q228 232 266 173T388 113Q470 113 508 172T546 368Q546 504 508 567T388 630Q305 630 267 567T228 367V367Z" />
<glyph unicode="R" horiz-adv-x="722" d="M672 27Q676 16 672 8T657 0H510Q493 0 488 18L380 298Q374 312 352 312H257Q250 312 248 308T245 301V24Q245 0 218 0H91Q79 0 75 5T70 20V723Q70 742 86 742H398Q532 742 606 689T681 538Q681 487 662 447T612 381T544
341Q535 338 540 326L672 27V27ZM382 430Q439 430 469 454T500 526Q500 575 469 600T387 625H264Q245 625 245 608V447Q245 430 259 430H382V430Z" />
<glyph unicode="S" horiz-adv-x="677" d="M496 567Q474 591 442 610T349 629Q286 629 255 607T224 549Q224 537 230 523T254 496T305 473L463 428Q555 403 597 348T639 219Q639 149 603 98T500 18T341 -10Q273 -10 214 5T109 50T37 119Q32 129 33 135T43 149L120
202Q132 209 139 208T153 200Q177 170 200 150T255 121T329 112Q394 112 433 132T472 196Q472 213 464 227T439 253T389 275L238 318Q179 335 139 366T79 439T58 527Q58 591 93 642T193 722T344 752Q401 752 450 739T540 703T605 647Q609 642 611 636T605 622L521
560Q515 556 510 557T496 567V567Z" />
<glyph unicode="T" horiz-adv-x="681" d="M33 724Q33 732 38 737T53 742H627Q638 742 642 737T647 724V631Q647 616 629 616H442Q431 616 431 606V19Q431 0 414 0H271Q256 0 256 17V603Q256 616 245 616H52Q33 616 33 631V724Z" />
<glyph unicode="U" horiz-adv-x="721" d="M659 275Q659 170 623 107T520 17T360 -10Q251 -10 186 24T91 126T61 293V722Q61 742 77 742H221Q236 742 236 724V271Q236 189 271 152T373 115Q415 115 447 130T497 181T515 274V723Q515 742 530 742H644Q659 742 659
724V275V275Z" />
<glyph unicode="V" horiz-adv-x="733" d="M685 742Q695 742 699 735T700 719L460 21Q454 0 429 0H304Q278 0 272 21L34 718Q31 728 35 735T50 742H194Q210 742 215 725L379 219Q385 203 391 220L550 725Q554 742 572 742H685V742Z" />
<glyph unicode="W" horiz-adv-x="1084" d="M1026 742Q1041 742 1047 733T1049 711L845 21Q838 0 815 0H707Q682 0 676 21L550 458Q548 467 545 467T538 456L411 21Q405 0 381 0H270Q246 0 239 21L35 711Q32 724 38 733T59 742H184Q197 742 202 738T210 725L339
270Q342 259 345 259T351 267L480 725Q482 733 487 737T506 742H613Q626 742 631 738T640 725L771 263Q773 256 777 256T782 262L909 725Q911 733 917 737T936 742H1026V742Z" />
<glyph unicode="X" horiz-adv-x="729" d="M687 39Q702 17 697 9T676 0H537Q514 0 505 15L364 242Q356 254 351 254T338 242L198 15Q194 7 186 4T165 0H54Q38 0 34 8T44 39L254 360Q260 369 260 375T253 392L43 715Q37 723 39 732T55 742H201Q214 742 220 738T232
726L356 523Q361 515 366 515T377 523L501 726Q506 734 512 738T531 742H653Q667 742 668 734T663 717L461 411Q455 402 456 396T462 380L687 39V39Z" />
<glyph unicode="Y" horiz-adv-x="735" d="M690 742Q700 742 703 737T701 722L466 337Q460 328 459 319T458 284V24Q458 0 430 0H305Q292 0 288 5T283 21V290Q283 304 280 311T271 327L34 719Q28 729 32 735T49 742H199Q212 742 217 738T228 724L376 464Q382 454
386 454T395 462L541 724Q547 735 552 738T570 742H690V742Z" />
<glyph unicode="Z" horiz-adv-x="681" d="M55 0Q43 0 39 4T34 20V56Q34 69 37 75T51 97L392 600Q400 613 384 613H78Q68 613 65 617T61 632V725Q61 742 75 742H628Q643 742 643 726V685Q643 676 640 670T629 652L280 142Q275 135 279 133T289 130H621Q639 130
639 115V18Q639 10 635 5T620 0H55V0Z" />
<glyph unicode="[" horiz-adv-x="316" d="M63 725Q63 742 84 742H289Q301 742 301 731V667Q301 655 289 655H209Q189 655 189 634V-61Q189 -72 192 -75T206 -78H286Q301 -78 301 -92V-150Q301 -165 286 -165H87Q64 -165 64 -144L63 725V725Z" />
<glyph unicode="\" horiz-adv-x="365" d="M278 -17Q268 -17 261 -13T250 4L7 716Q-2 742 21 742H88Q104 742 109 727L358 -2Q363 -17 346 -17H278V-17Z" />
<glyph unicode="]" horiz-adv-x="316" d="M253 725V725V-144Q253 -165 230 -165H30Q15 -165 15 -150V-92Q15 -78 30 -78H111Q121 -78 124 -75T128 -61L127 634Q127 655 107 655H28Q15 655 15 667V731Q15 742 28 742H232Q253 742 253 725Z" />
<glyph unicode="^" horiz-adv-x="475" d="M246 360Q243 369 237 369T226 360L135 134Q132 128 127 127T113 125H45Q27 125 36 145L188 504Q198 527 217 535T255 537T285 505L438 142Q444 125 425 125H360Q353 125 346 126T337 134L246 360Z" />
<glyph unicode="_" horiz-adv-x="544" d="M496 -121Q496 -143 469 -143H69Q58 -143 54 -139T49 -124V-50Q49 -32 64 -32H481Q496 -32 496 -48V-121Z" />
<glyph unicode="`" horiz-adv-x="306" d="M35 742Q41 756 52 751L288 655Q300 650 295 635L283 600Q280 592 275 590T259 589L28 651Q6 657 12 677L35 742V742Z" />
<glyph unicode="a" horiz-adv-x="563" d="M340 51Q309 23 271 7T182 -10Q106 -10 63 31T19 136Q19 192 54 234T154 299T309 325L344 328Q350 328 355 331T360 342V363Q360 401 338 422T275 444Q245 444 218 431T171 384Q168 377 164 375T149 375L49 398Q43 400
41 404T44 424Q69 483 130 511T282 540Q365 540 414 519T485 461T507 373V22Q507 10 503 5T488 0H385Q374 0 370 8T364 28L362 50Q360 68 340 51V51ZM360 236Q360 253 345 253L317 251Q291 250 265 244T218 226T184 197T170 156Q170 126 191 109T249 91Q274 91
293 99T327 118Q342 131 351 144T360 171V236V236Z" />
<glyph unicode="b" horiz-adv-x="609" d="M78 0Q65 0 60 5T55 22V723Q55 742 71 742H194Q209 742 209 724V491Q209 479 214 479T227 484Q243 499 263 511T310 532T367 540Q435 540 481 506T552 411T576 268Q576 141 517 66T348 -10Q312 -10 282 1T229 32T190 71Q186
76 183 76T178 68L166 20Q161 0 143 0H78ZM209 183Q209 153 223 131T259 97T309 84Q342 84 367 102T405 160T419 266Q419 358 392 400T313 442Q281 442 255 428T209 389V183Z" />
<glyph unicode="c" horiz-adv-x="551" d="M297 540Q362 540 407 518T482 460T523 388Q530 368 511 367L406 357Q395 356 391 368Q382 387 371 403T344 429T302 439Q268 439 242 420T202 363T187 265Q187 205 202 166T244 108T310 89Q354 89 379 112T428 174Q431
179 434 180T445 179L519 162Q530 159 526 143Q518 121 501 94T457 44T390 6T297 -10Q220 -10 160 24T66 120T31 263Q31 345 66 407T161 505T297 540V540Z" />
<glyph unicode="d" horiz-adv-x="609" d="M423 0Q415 0 409 4T402 20V48Q402 55 398 56T388 52Q372 37 352 23T305 -1T242 -10Q181 -10 134 20T60 110T33 261Q33 345 62 407T142 505T252 540Q292 540 323 527T383 487Q391 481 395 482T400 495V724Q400 742 416
742H538Q554 742 554 723V21Q554 10 549 5T531 0H423V0ZM400 392Q378 416 356 428T304 441Q271 441 245 423T204 365T189 263Q189 199 203 160T243 104T302 86Q330 86 352 99T387 132T400 174V392V392Z" />
<glyph unicode="e" horiz-adv-x="586" d="M190 220Q190 183 207 155T254 111T321 95Q357 95 387 110T449 162Q453 166 456 166T467 163L539 133Q553 127 542 113Q510 67 475 40T398 2T302 -10Q224 -10 163 24T67 118T31 257Q31 343 67 406T165 505T299 540Q376
540 434 507T525 411T559 260Q559 249 557 243T542 236H202Q196 236 193 232T190 220V220ZM391 320Q402 320 405 322T408 334Q408 359 397 385T363 428T305 446Q272 446 246 430T206 386T192 321L391 320Z" />
<glyph unicode="f" horiz-adv-x="402" d="M363 530Q373 530 377 525T382 513V439Q382 424 365 424H282Q272 424 272 413V19Q272 0 256 0H133Q118 0 118 17V415Q118 424 110 424H38Q20 424 20 439V513Q20 520 24 525T39 530H106Q118 530 118 545V606Q118 670 156
706T263 742H364Q386 742 386 721L387 656Q387 649 384 644T372 639H318Q296 639 282 623T268 580V541Q268 530 280 530H363V530Z" />
<glyph unicode="g" horiz-adv-x="633" d="M591 553Q600 553 605 548T611 531V463Q611 449 605 444T588 440Q575 442 563 442T541 441Q514 437 521 418Q523 409 526 398T530 373Q530 328 504 291T423 231T289 209Q249 209 225 205T191 193T180 176Q180 163 195
158T243 150L386 142Q488 136 535 97T582 -3Q582 -79 510 -127T298 -175Q153 -175 80 -143T7 -46Q7 -11 34 11T103 48Q116 53 103 59Q78 71 62 88T45 133Q45 153 58 169T93 200T142 224Q147 226 149 229T144 236Q97 258 72 292T47 372Q47 446 111 492T300 538Q355
538 395 526T460 493Q467 488 474 488T487 495Q500 511 518 524T556 545T591 553V553ZM288 285Q341 285 365 309T390 370Q390 410 366 435T288 461Q239 461 212 436T185 370Q185 334 212 310T288 285V285ZM214 30Q194 31 176 24T146 4T134 -26Q134 -49 151 -66T206
-92T308 -101Q376 -101 411 -83T447 -30Q447 -9 428 6T368 23L214 30Z" />
<glyph unicode="h" horiz-adv-x="597" d="M77 0Q56 0 56 20V723Q56 742 72 742H192Q207 742 207 725V469Q207 463 210 462T219 465Q250 493 277 509T332 532T388 540Q464 540 505 498T546 380V24Q546 0 522 0H411Q401 0 397 4T392 20V358Q392 392 374 410T320
429Q299 429 281 422T246 402T210 367V23Q210 0 184 0H77V0Z" />
<glyph unicode="i" horiz-adv-x="265" d="M209 24Q209 11 203 6T182 0H77Q64 0 60 5T55 21V511Q55 530 71 530H194Q209 530 209 513V24ZM211 619Q211 594 184 594H76Q63 594 59 600T54 617V722Q54 742 71 742H195Q211 742 211 723V619Z" />
<glyph unicode="j" horiz-adv-x="265" d="M210 6Q210 -82 167 -126T28 -170Q-15 -170 -27 -167T-39 -150L-40 -71Q-40 -64 -36 -58T-24 -50L18 -45Q36 -43 46 -31T56 12V511Q56 530 73 530H195Q210 530 210 513V6V6ZM212 619Q212 594 185 594H77Q55 594 55 617V722Q55
742 72 742H195Q212 742 212 723V619Z" />
<glyph unicode="k" horiz-adv-x="604" d="M583 23Q588 16 584 8T568 0H437Q427 0 421 5T410 21L307 227Q304 235 300 236T290 231L219 161Q215 157 213 152T210 136V24Q210 11 204 6T184 0H78Q65 0 61 5T56 21V723Q56 742 72 742H195Q210 742 210 724V314Q210
308 213 306T222 311L410 515Q425 530 437 530H544Q558 530 561 523T554 505L414 363Q408 357 408 352T412 335L583 23V23Z" />
<glyph unicode="l" horiz-adv-x="266" d="M210 24Q210 11 204 6T183 0H77Q55 0 55 21L58 723Q58 742 74 742H195Q210 742 210 724V24Z" />
<glyph unicode="m" horiz-adv-x="919" d="M76 0Q55 0 55 20V511Q55 530 71 530H191Q206 530 206 513V464Q206 458 209 456T218 460Q244 484 270 502T325 530T385 541Q439 541 475 516T527 448Q529 444 532 444T540 449Q564 475 592 495T653 528T716 540Q786 540
827 497T869 379V24Q869 0 845 0H734Q724 0 720 4T715 20V358Q715 392 697 410T646 429Q627 429 609 421T576 402T550 378Q543 371 541 365T539 350V24Q539 0 515 0H405Q395 0 391 4T386 20V358Q386 392 368 410T316 429Q286 429 261 414T209 367V23Q209 0 183
0H76V0Z" />
<glyph unicode="n" horiz-adv-x="596" d="M76 0Q55 0 55 20V511Q55 530 71 530H192Q207 530 207 513V464Q207 458 210 456T219 460Q245 484 271 502T326 530T388 540Q461 540 503 497T546 382V24Q546 0 522 0H411Q401 0 397 4T392 20V358Q392 392 374 410T319
429Q298 429 280 422T245 402T209 367V23Q209 0 183 0H76V0Z" />
<glyph unicode="o" horiz-adv-x="599" d="M299 -10Q220 -10 160 25T65 121T31 262Q31 345 66 407T162 505T300 540Q381 540 441 505T534 407T568 263Q568 183 534 122T440 25T299 -10V-10ZM300 92Q337 92 362 111T399 170T412 265Q412 324 400 362T362 421T300
441Q264 441 239 421T200 363T187 265Q187 208 200 170T238 112T300 92V92Z" />
<glyph unicode="p" horiz-adv-x="609" d="M188 530Q210 530 210 510V480Q210 474 214 474T224 478Q240 493 259 507T306 530T370 540Q429 540 475 511T548 422T575 269Q575 173 547 111T471 20T362 -10Q323 -10 290 2T228 41Q218 51 214 50T209 35V-148Q209 -165
194 -165H71Q55 -165 55 -147V508Q55 519 60 524T78 530H188V530ZM209 137Q229 115 252 101T305 87Q340 87 365 105T405 164T419 272Q419 337 405 374T366 427T308 443Q280 443 258 432T222 402T209 363V137V137Z" />
<glyph unicode="q" horiz-adv-x="609" d="M532 530Q545 530 549 525T554 508V-146Q554 -165 538 -165H415Q400 -165 400 -148V30Q400 43 396 45T383 40Q356 19 322 5T250 -10Q183 -10 134 22T59 116T33 265Q33 349 60 410T137 506T258 541Q300 541 331 530T385
500T423 462Q432 452 435 465L448 509Q451 520 456 525T470 530H532ZM400 347Q400 375 388 398T353 434T302 448Q270 448 245 429T204 370T189 266Q189 203 203 164T242 105T300 86Q330 86 355 98T400 132V347Z" />
<glyph unicode="r" horiz-adv-x="426" d="M76 0Q65 0 60 5T55 20V511Q55 530 71 530H188Q204 530 204 513V454Q204 448 208 447T218 451Q238 478 263 498T316 529T367 540Q403 540 403 523V407Q403 391 388 394Q370 399 351 400T318 402Q300 402 281 395T245 375T219
347T209 315V23Q209 0 183 0H76V0Z" />
<glyph unicode="s" horiz-adv-x="530" d="M382 392Q365 414 336 430T265 446Q228 446 203 432T177 392Q177 379 187 368T233 347L348 319Q431 300 466 257T501 161Q501 107 471 69T386 11T262 -10Q173 -10 111 21T24 100Q20 107 20 113T26 123L94 158Q104 163
109 163T119 157Q132 139 150 123T195 98T263 89Q291 89 313 95T349 114T362 144Q362 161 348 173T296 195L193 217Q118 234 80 270T41 366Q41 417 67 456T145 517T267 540Q343 540 398 512T478 445Q482 439 484 433T477 421L405 386Q398 383 393 384T382 392V392Z"
/>
<glyph unicode="t" horiz-adv-x="432" d="M278 424Q267 424 267 412V171Q267 137 283 123T334 108H388Q395 108 399 103T403 91L402 30Q402 11 380 6Q362 4 342 3T301 1T261 0Q193 0 153 32T113 129V409Q113 424 100 424H39Q20 424 20 441V515Q20 530 38 530H107Q116
530 117 541L131 693Q132 710 146 710H255Q271 710 271 691V541Q271 531 281 531H386Q404 531 404 515V441Q404 424 384 424H278Z" />
<glyph unicode="u" horiz-adv-x="592" d="M274 101Q305 101 332 117T383 160V507Q383 530 409 530H517Q538 530 538 509L536 18Q536 0 520 0H401Q386 0 386 17V66Q386 72 383 73T375 70Q333 27 292 9T203 -10Q159 -10 125 9T70 64T50 151V506Q50 530 74 530H185Q204
530 204 509V173Q204 140 222 121T274 101V101Z" />
<glyph unicode="v" horiz-adv-x="573" d="M538 530Q548 530 551 523T552 507L354 21Q345 0 322 0H251Q227 0 219 21L22 506Q18 516 22 523T37 530H164Q172 530 178 526T186 513L301 218Q308 199 317 219L430 514Q433 521 438 525T452 530H538V530Z" />
<glyph unicode="w" horiz-adv-x="818" d="M781 530Q791 530 795 523T795 507L632 16Q629 7 625 4T611 0H529Q509 0 503 19L417 294Q413 304 409 304T403 294L315 16Q313 7 309 4T294 0H209Q190 0 184 19L23 506Q20 516 24 523T39 530H156Q163 530 169 526T178
513L267 230Q269 221 273 221T281 231L367 514Q369 521 375 525T389 530H473Q480 530 486 526T494 513L581 230Q584 221 588 221T596 231L682 514Q686 521 691 525T705 530H781V530Z" />
<glyph unicode="x" horiz-adv-x="591" d="M561 34Q574 15 573 8T554 0H426Q402 0 392 16L289 161Q281 173 278 173T265 162L160 16Q150 0 127 0H45Q28 0 22 9T33 40L197 251Q203 260 203 266T196 282L34 502Q27 511 31 520T49 530H171Q184 530 191 527T203 514L296
383Q305 369 313 383L401 514Q407 523 413 526T434 530H524Q539 530 540 523T535 507L386 305Q379 296 380 290T387 275L561 34V34Z" />
<glyph unicode="y" horiz-adv-x="566" d="M104 -165Q73 -165 59 -162T45 -146V-69Q45 -63 51 -58T74 -53H142Q161 -53 176 -44T201 -22T215 6T213 33L21 506Q17 515 21 522T37 530H163Q171 530 177 526T185 513L296 215Q299 206 304 206T313 216L423 514Q427 521
432 525T445 530H531Q541 530 545 523T545 507L340 0Q319 -52 297 -84T247 -134T186 -158T104 -165V-165Z" />
<glyph unicode="z" horiz-adv-x="519" d="M44 0Q32 0 28 4T24 20V59Q24 71 27 78T41 101L285 419Q295 433 277 433H64Q53 433 50 437T46 451V514Q46 530 60 530H474Q489 530 489 515V470Q489 461 486 454T474 435L227 114Q215 98 233 98H473Q491 98 491 83V18Q491
10 487 5T471 0H44V0Z" />
<glyph unicode="{" horiz-adv-x="366" d="M116 619Q116 660 139 687T200 728T275 742H338Q351 742 351 731V667Q351 655 338 655H306Q277 655 263 648T246 629T242 602V400Q241 364 224 342T183 310T134 296Q128 295 128 293T134 289Q158 287 182 277T224 245T242
180V-25Q242 -53 255 -65T306 -78H336Q351 -78 351 -92V-150Q351 -165 336 -165H278Q237 -165 200 -152T140 -110T116 -42V166Q116 190 105 210T71 242T10 254Q0 254 0 270V316Q0 332 10 332Q66 332 91 355T116 423V619V619Z" />
<glyph unicode="|" horiz-adv-x="251" d="M92 -165Q70 -165 70 -140V826Q70 838 74 842T89 847H163Q182 847 182 831V-150Q182 -165 165 -165H92Z" />
<glyph unicode="}" horiz-adv-x="366" d="M250 619V619V423Q250 378 275 355T356 332Q366 332 366 316V270Q366 254 356 254Q319 254 296 242T261 210T250 166V-42Q250 -82 227 -110T166 -151T88 -165H30Q15 -165 15 -150V-92Q15 -78 30 -78H60Q98 -78 111 -66T124
-25V180Q126 222 142 244T184 277T232 289Q239 290 239 292T232 296Q208 299 184 309T143 342T124 400V602Q124 617 121 629T104 648T60 655H28Q15 655 15 667V731Q15 742 28 742H91Q130 742 166 729T226 688T250 619Z" />
<glyph unicode="~" horiz-adv-x="609" d="M549 373Q525 334 487 314T407 293Q376 293 352 302T305 324T261 347T213 357Q178 357 153 337T105 294Q101 289 96 289T88 295L56 349Q50 360 63 372Q98 407 133 430T214 453Q246 453 270 444T315 422T358 400T404 390Q437
390 461 406T502 446Q514 462 526 443L552 399Q556 393 555 386T549 373V373Z" />
<glyph unicode="&#xa0;" horiz-adv-x="206" />
<glyph unicode="&#xa1;" horiz-adv-x="264" d="M216 383Q216 367 201 367H64Q49 367 49 385V509Q49 530 71 530H189Q216 530 216 506V383V383ZM221 -148Q223 -156 218 -160T207 -165H60Q53 -165 49 -161T45 -147L84 278Q85 289 89 293T104 298H158Q171 298 177
293T184 276L221 -148V-148Z" />
<glyph unicode="&#xa2;" horiz-adv-x="558" d="M351 24Q351 0 325 0H272Q250 0 250 22V151Q250 174 274 174H329Q351 174 351 154V24V24ZM351 592Q351 568 325 568H272Q250 568 250 590V719Q250 742 274 742H329Q351 742 351 721V592V592ZM297 651Q362 651 407
629T482 571T523 499Q530 479 511 478L406 468Q395 467 391 479Q382 498 371 514T344 540T302 550Q268 550 242 531T202 474T187 376Q187 316 202 277T244 219T310 200Q354 200 379 223T428 285Q431 290 434 291T445 290L519 273Q530 270 526 254Q518 232 501 205T457
155T390 117T297 101Q220 101 160 135T66 231T31 374Q31 456 66 518T161 616T297 651V651Z" />
<glyph unicode="&#xa3;" horiz-adv-x="645" d="M27 0Q12 0 12 17V115Q12 127 25 127H47Q85 127 109 151T134 230Q134 247 133 271T125 338Q124 347 115 347H30Q19 347 19 359V421Q19 432 30 432H96Q107 432 106 443L97 525Q89 580 105 622T156 693T235 737T330
752Q377 752 423 737T508 692T567 613Q569 607 566 604T556 598L452 567Q438 562 433 572Q422 596 404 613T352 630Q329 630 311 620T283 591T272 545Q272 523 276 496T286 442Q288 432 298 432H427Q437 432 437 423V358Q437 348 427 348H311Q301 348 301 338Q303
310 302 286T297 240Q294 214 287 195T270 163T251 141Q245 135 246 132T255 128H373Q417 128 443 144T483 197Q488 210 503 206L597 186Q616 182 612 166Q590 85 530 43T384 0H27V0Z" />
<glyph unicode="&#xa4;" horiz-adv-x="575" d="M289 148Q225 148 173 181Q163 186 156 179L105 127Q96 119 85 129L40 174Q31 183 40 192L92 244Q99 251 93 262Q78 288 71 314T63 372Q63 405 70 432T94 486Q98 496 92 502L41 554Q32 563 41 573L86 619Q96 629
105 619L157 567Q163 561 173 566Q198 580 227 588T286 597Q350 597 404 564Q412 561 416 565L468 617Q473 622 479 617L530 563Q536 557 530 551L479 500Q475 496 478 489Q494 464 502 435T511 373Q511 342 503 312T477 256Q474 251 477 248L530 195Q536 189 531
183L479 131Q473 125 468 131L416 182Q412 186 405 183Q379 167 350 158T289 148V148ZM288 249Q323 249 351 266T395 312T411 373Q411 406 395 434T351 479T288 497Q253 497 225 480T180 434T164 373Q164 341 180 313T224 267T288 249V249Z" />
<glyph unicode="&#xa5;" horiz-adv-x="658" d="M654 742Q665 742 668 737T666 722L431 339Q425 331 424 321T423 286V24Q423 0 395 0H270Q257 0 253 5T248 21V291Q248 305 245 312T236 328L0 719Q-6 729 -2 735T15 742H166Q179 742 184 738T195 724L343 463Q348
454 351 454T360 462L507 724Q512 735 518 738T536 742H654V742ZM575 297Q575 275 549 275L116 274Q104 274 100 279T95 294V339Q95 357 110 357L561 358Q575 358 575 342V297ZM575 136Q575 113 549 113H116Q104 113 100 118T95 133V178Q95 196 110 196H561Q575
196 575 180V136Z" />
<glyph unicode="&#xa6;" horiz-adv-x="251" d="M92 429Q70 429 70 454V826Q70 838 74 842T89 847H163Q182 847 182 831V444Q182 429 165 429H92ZM92 -165Q70 -165 70 -140V233Q70 244 74 248T89 253H163Q182 253 182 237V-150Q182 -165 165 -165H92Z" />
<glyph unicode="&#xa7;" horiz-adv-x="506" d="M392 218Q439 192 460 161T481 88Q481 39 455 1T380 -58T257 -80Q172 -80 113 -51T30 20Q23 32 25 37T30 44L102 80Q110 84 115 82T126 74Q145 50 175 32T254 13Q294 13 319 27T345 68Q345 88 329 105T266 139L188
168Q105 199 68 236T31 333Q31 380 55 414T121 467Q90 486 72 505T46 546T38 592Q38 638 63 673T135 730T246 752Q321 752 375 723T452 657Q459 645 458 640T452 633L381 598Q373 595 368 597T356 604Q337 625 312 642T251 659Q216 659 196 645T175 608Q175 593
187 579T234 551L310 522Q397 489 435 450T474 351Q474 303 451 271T392 218V218ZM284 265Q306 264 320 271T341 293T349 323Q349 344 336 363T271 402L226 420Q204 418 188 409T164 385T155 355Q155 333 170 319T234 285L284 265V265Z" />
<glyph unicode="&#xa8;" horiz-adv-x="359" d="M146 632Q146 621 141 617T122 612H29Q17 612 14 616T10 630V725Q10 742 24 742H132Q146 742 146 726V632ZM349 632Q349 621 344 617T325 612H232Q220 612 217 616T213 630V725Q213 742 227 742H335Q349 742 349 726V632Z" />
<glyph unicode="&#xa9;" horiz-adv-x="830" d="M415 -10Q336 -10 267 19T146 101T64 222T34 371Q34 450 63 519T145 640T267 722T415 752Q494 752 563 723T684 641T766 519T796 371Q796 292 767 223T685 101T563 20T415 -10V-10ZM415 75Q477 75 530 95T622 155T682
248T703 371Q703 438 682 492T622 586T530 647T415 668Q351 668 298 647T207 587T148 493T127 371Q127 303 147 249T206 155T298 96T415 75V75ZM418 586Q467 586 502 568T560 523T593 466Q596 458 593 455T583 450L500 442Q492 440 489 450Q480 471 466 488T422
505Q383 505 360 473T336 374Q336 305 361 273T428 240Q462 240 482 259T518 306Q521 312 532 309L589 295Q598 294 594 281Q588 264 575 244T541 204T489 172T418 160Q358 160 312 187T239 261T213 372Q213 436 239 483T312 558T418 586V586Z" />
<glyph unicode="&#xaa;" horiz-adv-x="392" d="M183 751Q264 750 295 722T327 645V474Q327 461 329 451T335 428Q338 419 330 416T310 413H251Q243 413 241 416T237 426L234 440Q232 450 219 440Q196 424 176 416T128 407Q76 407 48 433T19 502Q19 551 63 581T194
616L221 619Q233 619 233 629V640Q233 688 180 688Q162 688 146 681T117 653Q114 645 103 647L38 662Q34 663 34 668T35 678Q52 713 85 732T183 751V751ZM117 508Q117 491 130 480T167 469Q196 469 217 487Q225 493 229 500T233 516V555Q233 567 221 566L197 564Q165
561 141 547T117 508V508Z" />
<glyph unicode="&#xab;" horiz-adv-x="487" d="M436 76Q440 65 422 65H367Q357 65 353 73L248 239Q237 256 247 274L353 450Q357 455 360 456T367 458H425Q431 458 434 455T435 444L361 268Q357 257 361 246L436 76ZM239 76Q243 65 226 65H170Q161 65 157 73L52
239Q41 256 51 274L157 450Q160 455 163 456T171 458H229Q234 458 237 455T239 444L165 268Q161 257 165 246L239 76Z" />
<glyph unicode="&#xac;" horiz-adv-x="583" d="M536 340Q536 318 509 318L69 317Q58 317 54 322T49 337V410Q49 429 64 429H521Q536 429 536 413V340ZM536 183Q536 162 512 162H430Q411 162 411 180V374Q411 391 425 391H522Q536 391 536 375V183Z" />
<glyph unicode="&#xad;" horiz-adv-x="380" d="M331 230Q331 208 305 208H70Q58 208 54 212T49 228V301Q49 319 64 319H316Q331 319 331 304V230Z" />
<glyph unicode="&#xae;" horiz-adv-x="545" d="M273 275Q207 275 153 307T66 393T34 513Q34 579 66 633T152 719T273 752Q339 752 393 720T479 633T511 513Q511 447 479 393T393 307T273 275V275ZM273 336Q325 336 363 357T423 419T445 513Q445 567 424 607T364
669T273 691Q221 691 182 669T122 607T100 513Q100 459 121 419T182 358T273 336V336ZM374 402Q376 399 374 397T369 394H318Q313 394 310 400L278 492Q277 494 276 495T269 496H240Q236 496 236 492V401Q236 394 227 394H183Q176 394 176 400V624Q176 630 181
630H287Q330 630 354 614T378 566Q378 542 365 527T334 505Q332 504 333 500L374 402V402ZM283 538Q298 538 307 544T316 563Q316 575 308 581T282 588H242Q238 588 237 588T236 583V544Q236 538 240 538H283V538Z" />
<glyph unicode="&#xaf;" horiz-adv-x="385" d="M375 657Q375 638 351 638H27Q17 638 14 642T10 656V720Q10 736 23 736H362Q375 736 375 722V657Z" />
<glyph unicode="&#xb0;" horiz-adv-x="464" d="M405 685Q405 634 382 595T320 534T232 512Q183 512 144 533T82 594T59 684Q59 735 81 774T143 835T232 857Q281 857 320 835T382 774T405 685V685ZM313 683Q313 721 291 744T230 768Q193 768 170 745T148 683Q149
646 171 622T231 598Q268 598 290 621T313 683V683Z" />
<glyph unicode="&#xb1;" horiz-adv-x="583" d="M536 57Q536 35 509 35H69Q58 35 54 39T49 54V128Q49 146 64 146H521Q536 146 536 130V57ZM536 428Q536 405 509 405H69Q58 405 54 410T49 425V498Q49 517 64 517H521Q536 517 536 501V428ZM259 218Q237 218 237
244V684Q237 696 241 700T257 705H330Q348 705 348 690V233Q348 218 332 218H259Z" />
<glyph unicode="&#xb2;" horiz-adv-x="452" d="M187 586Q228 621 249 643T277 681T285 715Q285 735 276 748T251 770T215 778Q190 778 168 763T123 711Q119 702 106 709L50 737Q44 741 43 746T45 758Q78 809 122 833T222 857Q272 857 310 840T370 792T392 716Q392
690 383 668T354 623T301 574L184 482Q181 479 181 477T188 474H384Q397 474 397 464V395Q397 384 384 384H55Q48 384 45 386T41 398V445Q41 451 45 457T70 481L187 586Z" />
<glyph unicode="&#xb3;" horiz-adv-x="467" d="M69 778Q64 784 69 791Q94 822 138 839T232 857Q315 857 361 823T408 735Q408 705 389 678T334 640Q327 637 327 634T334 628Q373 615 397 587T422 519Q422 452 373 415T224 378Q170 378 124 399T50 456Q47 460 47
465T54 474L103 509Q112 515 117 509Q146 480 171 468T231 455Q270 455 292 472T314 516Q314 538 303 553T271 576T227 585L172 586Q162 586 162 595V653Q162 661 172 663L216 664Q253 666 277 683T301 728Q301 750 281 765T231 781Q202 781 178 770T129 735Q125
731 122 731T114 735L69 778V778Z" />
<glyph unicode="&#xb4;" horiz-adv-x="306" d="M295 676Q302 656 280 650L49 588Q38 586 33 588T25 599L13 634Q8 649 19 654L256 750Q268 755 273 741L295 676Z" />
<glyph unicode="&#xb5;" horiz-adv-x="592" d="M274 101Q305 101 332 117T383 160V507Q383 530 409 530H517Q538 530 538 509L536 18Q536 0 520 0H401Q386 0 386 17V67Q386 72 383 73T375 70Q342 38 313 21T253 -3Q234 -6 223 -6T204 -5V-141Q204 -154 198 -159T177
-165H72Q50 -165 50 -144V506Q50 530 74 530H185Q204 530 204 509V167Q204 148 213 133T238 110T274 101V101Z" />
<glyph unicode="&#xb6;" horiz-adv-x="603" d="M499 655Q489 655 489 644V-71Q489 -76 487 -80T477 -85H410Q395 -85 395 -71V645Q395 655 384 655H346Q336 655 336 644V-71Q336 -85 323 -85H254Q241 -85 241 -71V300Q241 307 233 308Q177 312 131 338T58 410T31
522Q31 582 58 632T139 712T270 742H541Q553 742 553 732V665Q553 655 541 655H499Z" />
<glyph unicode="&#xb7;" horiz-adv-x="248" d="M200 320Q200 298 176 298H64Q44 298 44 317V431Q44 449 58 449H187Q200 449 200 434V320Z" />
<glyph unicode="&#xb8;" horiz-adv-x="261" d="M251 -135Q251 -161 234 -179T189 -208T127 -219Q98 -219 70 -214T16 -195Q8 -190 11 -182L26 -147Q28 -140 36 -143Q51 -152 69 -158T109 -165Q133 -165 146 -157T159 -133Q159 -113 140 -103T72 -92Q66 -92 64
-90T64 -82L101 5H169L148 -47Q145 -54 154 -54Q190 -55 211 -67T242 -98T251 -135V-135Z" />
<glyph unicode="&#xb9;" horiz-adv-x="367" d="M294 461Q305 461 305 451V391Q305 380 292 380H44Q32 380 32 390V451Q32 461 43 461H108Q114 461 114 466V730Q114 739 106 737L45 719Q31 715 31 730V772Q31 778 33 781T40 786L146 839Q154 844 159 845T172 847H215Q224
847 224 836V468Q224 461 231 461H294V461Z" />
<glyph unicode="&#xba;" horiz-adv-x="399" d="M199 752Q251 752 288 730T347 668T368 578Q368 529 347 491T288 430T199 408Q149 408 111 430T52 490T31 578Q31 630 52 669T112 730T199 752V752ZM199 686Q165 686 149 660T133 581Q133 527 149 501T199 474Q234
474 250 500T266 581Q266 633 250 659T199 686V686Z" />
<glyph unicode="&#xbb;" horiz-adv-x="486" d="M125 246Q129 257 125 268L51 444Q49 451 52 454T61 458H119Q124 458 127 457T133 450L240 274Q250 256 239 239L133 73Q129 65 120 65H64Q47 65 51 76L125 246V246ZM321 246Q325 257 321 268L248 444Q245 451 248
454T258 458H315Q320 458 323 457T329 450L436 274Q446 256 435 239L330 73Q325 65 316 65H260Q244 65 247 76L321 246V246Z" />
<glyph unicode="&#xbc;" horiz-adv-x="941" d="M293 357Q304 357 304 347V287Q304 276 291 276H43Q31 276 31 286V347Q31 357 42 357H107Q113 357 113 362V626Q113 635 105 633L44 615Q30 611 30 626V668Q30 674 32 677T39 682L145 735Q153 740 158 741T171 743H214Q223
743 223 732V364Q223 357 230 357H293V357ZM287 7Q280 -4 262 -4L220 -3Q207 -3 205 6T209 25L684 739Q689 748 694 749T707 750H760Q767 750 770 747T768 733L287 7ZM718 455Q724 462 729 464T744 467H823Q833 467 833 456V192Q833 185 839 185H891Q902 185 902
176V122Q902 110 890 110H840Q833 110 833 103V15Q833 0 816 0H735Q721 0 721 13V105Q721 110 714 110H525Q512 110 512 122V174Q512 180 516 187T528 205L718 455V455ZM717 185Q722 185 722 189V346Q722 355 720 355T713 348L600 193Q595 185 605 185H717Z" />
<glyph unicode="&#xbd;" horiz-adv-x="992" d="M297 357Q308 357 308 347V287Q308 276 295 276H47Q35 276 35 286V347Q35 357 46 357H111Q117 357 117 362V626Q117 635 109 633L48 615Q34 611 34 626V668Q34 674 36 677T43 682L149 735Q157 740 162 741T175 743H218Q227
743 227 732V364Q227 357 234 357H297V357ZM274 7Q267 -4 249 -4L207 -3Q194 -3 192 6T196 25L671 739Q676 748 681 749T694 750H747Q754 750 757 747T755 733L274 7ZM731 202Q772 237 793 259T821 297T829 331Q829 351 820 364T795 386T759 394Q734 394 712 379T667
327Q663 318 650 325L594 353Q588 357 587 362T589 374Q622 425 666 449T766 473Q816 473 854 456T914 408T936 332Q936 306 927 284T898 239T845 190L728 98Q725 95 725 93T732 90H928Q941 90 941 80V11Q941 0 928 0H599Q592 0 589 2T585 14V61Q585 67 589 73T614
97L731 202Z" />
<glyph unicode="&#xbe;" horiz-adv-x="1011" d="M55 673Q50 679 55 686Q80 717 124 734T218 752Q301 752 347 718T394 630Q394 600 375 573T320 535Q313 532 313 529T320 523Q359 510 383 482T408 414Q408 347 359 310T210 273Q156 273 110 294T36 351Q33 355
33 360T40 369L89 404Q98 410 103 404Q132 375 157 363T217 350Q256 350 278 367T300 411Q300 433 289 448T257 471T213 480L158 481Q148 481 148 490V548Q148 556 158 558L202 559Q239 561 263 578T287 623Q287 645 267 660T217 676Q188 676 164 665T115 630Q111
626 108 626T100 630L55 673V673ZM344 7Q337 -4 319 -4L277 -3Q264 -3 262 6T266 25L741 739Q746 748 751 749T764 750H817Q824 750 827 747T825 733L344 7ZM786 455Q792 462 797 464T812 467H891Q901 467 901 456V192Q901 185 907 185H959Q970 185 970 176V122Q970
110 958 110H908Q901 110 901 103V15Q901 0 884 0H803Q789 0 789 13V105Q789 110 782 110H593Q580 110 580 122V174Q580 180 584 187T596 205L786 455V455ZM785 185Q790 185 790 189V346Q790 355 788 355T781 348L668 193Q663 185 673 185H785Z" />
<glyph unicode="&#xbf;" horiz-adv-x="533" d="M200 506Q200 530 227 530H346Q358 530 362 525T367 509V385Q367 367 352 367H214Q200 367 200 383V506ZM516 -1Q524 -3 525 -10T524 -23Q492 -96 427 -135T269 -175Q188 -175 134 -152T52 -88T24 0Q24 38 38 65T75
113T123 151T170 187T206 228T221 283Q221 291 227 296T241 302H323Q344 302 344 279Q344 240 332 211T301 160T261 121T220 86T189 50T176 8Q176 -25 203 -46T270 -67Q296 -67 321 -57T365 -29T395 13Q400 21 403 22T416 22L516 -1Z" />
<glyph unicode="&#xc0;" horiz-adv-x="771" d="M48 0Q39 0 35 8T35 29L284 722Q288 733 293 737T310 742H460Q482 742 490 720L737 27Q740 19 737 10T725 0H578Q563 0 559 14L507 160Q506 165 504 168T494 171H250Q240 171 237 161L184 13Q182 7 178 4T163 0H48V0ZM453
304Q467 304 462 321L378 555Q375 561 372 561T365 554L280 321Q273 304 289 304H453ZM266 954Q272 968 283 963L519 867Q531 862 526 847L514 812Q511 804 506 802T490 801L259 863Q237 869 243 889L266 954V954Z" />
<glyph unicode="&#xc1;" horiz-adv-x="771" d="M48 0Q39 0 35 8T35 29L284 722Q288 733 293 737T310 742H460Q482 742 490 720L737 27Q740 19 737 10T725 0H578Q563 0 559 14L507 160Q506 165 504 168T494 171H250Q240 171 237 161L184 13Q182 7 178 4T163 0H48V0ZM453
304Q467 304 462 321L378 555Q375 561 372 561T365 554L280 321Q273 304 289 304H453ZM524 888Q531 868 509 862L278 800Q267 798 262 800T254 811L242 846Q237 861 248 866L485 962Q497 967 502 953L524 888Z" />
<glyph unicode="&#xc2;" horiz-adv-x="771" d="M48 0Q39 0 35 8T35 29L284 722Q288 733 293 737T310 742H460Q482 742 490 720L737 27Q740 19 737 10T725 0H578Q563 0 559 14L507 160Q506 165 504 168T494 171H250Q240 171 237 161L184 13Q182 7 178 4T163 0H48V0ZM453
304Q467 304 462 321L378 555Q375 561 372 561T365 554L280 321Q273 304 289 304H453ZM395 881Q386 893 382 893T366 881L315 829Q309 823 305 822T292 821H211Q203 821 203 825T208 837L317 948Q323 955 330 958T349 961H422Q431 961 436 958T446 950L553 837Q569
821 552 821H465Q458 821 452 822T442 829L395 881Z" />
<glyph unicode="&#xc3;" horiz-adv-x="771" d="M48 0Q39 0 35 8T35 29L284 722Q288 733 293 737T310 742H460Q482 742 490 720L737 27Q740 19 737 10T725 0H578Q563 0 559 14L507 160Q506 165 504 168T494 171H250Q240 171 237 161L184 13Q182 7 178 4T163 0H48V0ZM453
304Q467 304 462 321L378 555Q375 561 372 561T365 554L280 321Q273 304 289 304H453ZM549 866Q535 857 512 848T458 839Q430 839 406 846T360 861T310 868Q289 868 275 862T244 845Q237 840 232 841T224 852L210 895Q208 902 208 907T216 919Q234 934 254 945T305
956Q335 956 361 948T411 932T458 924Q480 924 497 932T527 949Q534 953 540 952T548 942L560 890Q564 877 549 866V866Z" />
<glyph unicode="&#xc4;" horiz-adv-x="771" d="M48 0Q39 0 35 8T35 29L284 722Q288 733 293 737T310 742H460Q482 742 490 720L737 27Q740 19 737 10T725 0H578Q563 0 559 14L507 160Q506 165 504 168T494 171H250Q240 171 237 161L184 13Q182 7 178 4T163 0H48V0ZM453
304Q467 304 462 321L378 555Q375 561 372 561T365 554L280 321Q273 304 289 304H453ZM348 844Q348 833 343 829T324 824H231Q219 824 216 828T212 842V937Q212 954 226 954H334Q348 954 348 938V844ZM551 844Q551 833 546 829T527 824H434Q422 824 419 828T415
842V937Q415 954 429 954H537Q551 954 551 938V844Z" />
<glyph unicode="&#xc5;" horiz-adv-x="771" d="M48 0Q39 0 35 8T35 29L284 722Q288 733 293 737T310 742H460Q482 742 490 720L737 27Q740 19 737 10T725 0H578Q563 0 559 14L507 160Q506 165 504 168T494 171H250Q240 171 237 161L184 13Q182 7 178 4T163 0H48V0ZM453
304Q467 304 462 321L378 555Q375 561 372 561T365 554L280 321Q273 304 289 304H453ZM493 849Q493 802 461 770T381 737Q334 737 302 770T269 852Q269 882 284 906T324 945T381 959Q412 959 437 945T478 905T493 849V849ZM431 848Q431 870 416 884T380 899Q360
899 344 885T328 848Q328 828 344 812T380 796Q401 796 416 812T431 848V848Z" />
<glyph unicode="&#xc6;" horiz-adv-x="1080" d="M1023 128Q1041 128 1041 113V18Q1041 10 1037 5T1022 0H526Q504 0 504 21V160Q504 171 494 171H277Q266 171 262 161L183 13Q180 7 175 4T161 0H45Q36 0 33 8T37 29L408 722Q413 733 419 737T437 742H1016Q1031
742 1031 725L1030 635Q1030 614 1009 614H698Q679 614 679 598V453Q679 436 695 436H900Q917 436 917 420V324Q917 318 914 314T902 310H693Q679 310 679 298V141Q679 128 690 128H1023V128ZM488 304Q504 304 504 320V576Q504 595 493 596T471 577L333 321Q323
304 338 304H488V304Z" />
<glyph unicode="&#xc7;" horiz-adv-x="725" d="M382 752Q440 752 490 736T581 689T646 619T680 532Q684 516 682 511T670 505L535 496Q526 496 524 499T519 511Q508 563 476 596T387 630Q312 630 270 570T227 374Q227 240 267 180T389 119Q447 119 489 148T558
247Q562 256 580 253L678 232Q683 231 687 227T689 207Q684 186 670 158T631 101T572 46T489 6T382 -10Q279 -10 203 39T85 175T44 377Q44 493 85 576T202 706T382 752V752ZM502 -135Q502 -161 485 -179T440 -208T378 -219Q349 -219 321 -214T267 -195Q259 -190
262 -182L277 -147Q279 -140 287 -143Q302 -152 320 -158T360 -165Q384 -165 397 -157T410 -133Q410 -113 391 -103T323 -92Q317 -92 315 -90T315 -82L352 5H420L399 -47Q396 -54 405 -54Q441 -55 462 -67T493 -98T502 -135V-135Z" />
<glyph unicode="&#xc8;" horiz-adv-x="654" d="M70 723Q70 742 86 742H590Q605 742 605 725L604 635Q604 614 583 614H264Q245 614 245 598V453Q245 436 260 436H472Q489 436 489 420V324Q489 318 486 314T473 310H259Q245 310 245 298V141Q245 128 256 128H598Q616
128 616 113V18Q616 10 612 5T596 0H92Q70 0 70 21V723V723ZM223 954Q229 968 240 963L476 867Q488 862 483 847L471 812Q468 804 463 802T447 801L216 863Q194 869 200 889L223 954V954Z" />
<glyph unicode="&#xc9;" horiz-adv-x="654" d="M70 723Q70 742 86 742H590Q605 742 605 725L604 635Q604 614 583 614H264Q245 614 245 598V453Q245 436 260 436H472Q489 436 489 420V324Q489 318 486 314T473 310H259Q245 310 245 298V141Q245 128 256 128H598Q616
128 616 113V18Q616 10 612 5T596 0H92Q70 0 70 21V723V723ZM481 888Q488 868 466 862L235 800Q224 798 219 800T211 811L199 846Q194 861 205 866L442 962Q454 967 459 953L481 888Z" />
<glyph unicode="&#xca;" horiz-adv-x="654" d="M70 723Q70 742 86 742H590Q605 742 605 725L604 635Q604 614 583 614H264Q245 614 245 598V453Q245 436 260 436H472Q489 436 489 420V324Q489 318 486 314T473 310H259Q245 310 245 298V141Q245 128 256 128H598Q616
128 616 113V18Q616 10 612 5T596 0H92Q70 0 70 21V723V723ZM351 881Q342 893 338 893T322 881L271 829Q265 823 261 822T248 821H167Q159 821 159 825T164 837L273 948Q279 955 286 958T305 961H378Q387 961 392 958T402 950L509 837Q525 821 508 821H421Q414
821 408 822T398 829L351 881Z" />
<glyph unicode="&#xcb;" horiz-adv-x="654" d="M70 723Q70 742 86 742H590Q605 742 605 725L604 635Q604 614 583 614H264Q245 614 245 598V453Q245 436 260 436H472Q489 436 489 420V324Q489 318 486 314T473 310H259Q245 310 245 298V141Q245 128 256 128H598Q616
128 616 113V18Q616 10 612 5T596 0H92Q70 0 70 21V723V723ZM305 844Q305 833 300 829T281 824H188Q176 824 173 828T169 842V937Q169 954 183 954H291Q305 954 305 938V844ZM508 844Q508 833 503 829T484 824H391Q379 824 376 828T372 842V937Q372 954 386 954H494Q508
954 508 938V844Z" />
<glyph unicode="&#xcc;" horiz-adv-x="315" d="M229 742Q245 742 245 724V24Q245 11 239 6T218 0H92Q79 0 75 5T70 21V723Q70 742 86 742H229ZM43 954Q49 968 60 963L296 867Q308 862 303 847L291 812Q288 804 283 802T267 801L36 863Q14 869 20 889L43 954V954Z" />
<glyph unicode="&#xcd;" horiz-adv-x="315" d="M229 742Q245 742 245 724V24Q245 11 239 6T218 0H92Q79 0 75 5T70 21V723Q70 742 86 742H229ZM301 888Q308 868 286 862L55 800Q44 798 39 800T31 811L19 846Q14 861 25 866L262 962Q274 967 279 953L301 888Z" />
<glyph unicode="&#xce;" horiz-adv-x="315" d="M229 742Q245 742 245 724V24Q245 11 239 6T218 0H92Q79 0 75 5T70 21V723Q70 742 86 742H229ZM171 881Q162 893 158 893T142 881L91 829Q85 823 81 822T68 821H-13Q-21 821 -21 825T-16 837L93 948Q99 955 106 958T125
961H198Q207 961 212 958T222 950L329 837Q345 821 328 821H241Q234 821 228 822T218 829L171 881Z" />
<glyph unicode="&#xcf;" horiz-adv-x="315" d="M229 742Q245 742 245 724V24Q245 11 239 6T218 0H92Q79 0 75 5T70 21V723Q70 742 86 742H229ZM125 844Q125 833 120 829T101 824H8Q-4 824 -7 828T-11 842V937Q-11 954 3 954H111Q125 954 125 938V844ZM328 844Q328
833 323 829T304 824H211Q199 824 196 828T192 842V937Q192 954 206 954H314Q328 954 328 938V844Z" />
<glyph unicode="&#xd0;" horiz-adv-x="766" d="M406 333Q406 310 379 310H49Q36 310 32 315T27 331V404Q27 423 43 423H391Q406 423 406 406V333ZM106 742Q124 742 154 742T219 742T282 742T329 741Q465 738 551 692T679 566T721 374Q721 260 678 176T546 46T324
0H107Q84 0 84 24V721Q84 733 89 737T106 742V742ZM269 618Q259 618 259 604V137Q259 123 272 123H292Q374 123 428 147T510 227T538 373Q538 461 513 514T435 593T301 618H269V618Z" />
<glyph unicode="&#xd1;" horiz-adv-x="759" d="M676 742Q689 742 689 727V16Q689 9 684 5T670 0H569Q561 0 556 2T544 12L225 460Q221 465 218 464T214 458V18Q215 0 194 0H90Q70 0 70 17V723Q70 742 88 742H209Q220 742 225 739T238 727L532 308Q538 300 542
301T547 311V724Q547 742 565 742H676ZM552 866Q538 857 515 848T461 839Q433 839 409 846T363 861T313 868Q292 868 278 862T247 845Q240 840 235 841T227 852L213 895Q211 902 211 907T219 919Q237 934 257 945T308 956Q338 956 364 948T414 932T461 924Q483
924 500 932T530 949Q537 953 543 952T551 942L563 890Q567 877 552 866V866Z" />
<glyph unicode="&#xd2;" horiz-adv-x="774" d="M388 -10Q282 -10 205 35T87 166T45 368Q45 487 87 573T207 705T388 752Q492 752 568 706T687 574T729 369Q729 252 688 167T569 36T388 -10V-10ZM388 113Q470 113 508 172T546 367Q546 505 508 567T388 630Q306
630 267 567T228 367Q228 233 266 173T388 113V113ZM272 954Q278 968 289 963L525 867Q537 862 532 847L520 812Q517 804 512 802T496 801L265 863Q243 869 249 889L272 954V954Z" />
<glyph unicode="&#xd3;" horiz-adv-x="774" d="M388 -10Q282 -10 205 35T87 166T45 368Q45 487 87 573T207 705T388 752Q492 752 568 706T687 574T729 369Q729 252 688 167T569 36T388 -10V-10ZM388 113Q470 113 508 172T546 367Q546 505 508 567T388 630Q306
630 267 567T228 367Q228 233 266 173T388 113V113ZM530 888Q537 868 515 862L284 800Q273 798 268 800T260 811L248 846Q243 861 254 866L491 962Q503 967 508 953L530 888Z" />
<glyph unicode="&#xd4;" horiz-adv-x="774" d="M388 -10Q282 -10 205 35T87 166T45 368Q45 487 87 573T207 705T388 752Q492 752 568 706T687 574T729 369Q729 252 688 167T569 36T388 -10V-10ZM388 113Q470 113 508 172T546 367Q546 505 508 567T388 630Q306
630 267 567T228 367Q228 233 266 173T388 113V113ZM400 881Q391 893 387 893T371 881L320 829Q314 823 310 822T297 821H216Q208 821 208 825T213 837L322 948Q328 955 335 958T354 961H427Q436 961 441 958T451 950L558 837Q574 821 557 821H470Q463 821 457
822T447 829L400 881Z" />
<glyph unicode="&#xd5;" horiz-adv-x="774" d="M388 -10Q282 -10 205 35T87 166T45 368Q45 487 87 573T207 705T388 752Q492 752 568 706T687 574T729 369Q729 252 688 167T569 36T388 -10V-10ZM388 113Q470 113 508 172T546 367Q546 505 508 567T388 630Q306
630 267 567T228 367Q228 233 266 173T388 113V113ZM555 866Q541 857 518 848T464 839Q436 839 412 846T366 861T316 868Q295 868 281 862T250 845Q243 840 238 841T230 852L216 895Q214 902 214 907T222 919Q240 934 260 945T311 956Q341 956 367 948T417 932T464
924Q486 924 503 932T533 949Q540 953 546 952T554 942L566 890Q570 877 555 866V866Z" />
<glyph unicode="&#xd6;" horiz-adv-x="774" d="M388 -10Q282 -10 205 35T87 166T45 368Q45 487 87 573T207 705T388 752Q492 752 568 706T687 574T729 369Q729 252 688 167T569 36T388 -10V-10ZM388 113Q470 113 508 172T546 367Q546 505 508 567T388 630Q306
630 267 567T228 367Q228 233 266 173T388 113V113ZM353 844Q353 833 348 829T329 824H236Q224 824 221 828T217 842V937Q217 954 231 954H339Q353 954 353 938V844ZM556 844Q556 833 551 829T532 824H439Q427 824 424 828T420 842V937Q420 954 434 954H542Q556
954 556 938V844Z" />
<glyph unicode="&#xd7;" horiz-adv-x="576" d="M462 152Q446 136 428 155L66 516Q58 525 58 531T66 545L117 597Q131 611 141 600L515 225Q519 221 519 215T514 204L462 152ZM68 199Q52 215 71 234L432 596Q441 604 447 604T461 596L513 545Q525 532 516 521L141
147Q131 137 120 148L68 199Z" />
<glyph unicode="&#xd8;" horiz-adv-x="764" d="M750 698Q761 686 749 675L671 594Q697 550 710 493T724 369Q724 252 683 167T564 36T383 -10Q314 -10 257 10T156 68L95 4Q86 -5 78 -5T59 4L26 37Q9 54 22 67L94 142Q67 187 53 244T39 368Q39 487 82 573T202 705T383
752Q452 752 509 731T610 670L678 740Q693 755 704 744L750 698V698ZM224 367Q224 342 226 321T235 281L503 564Q466 630 383 630Q301 630 263 567T224 367V367ZM540 367Q540 393 538 414T529 455L262 173Q300 114 383 114Q465 114 502 173T540 367V367Z" />
<glyph unicode="&#xd9;" horiz-adv-x="721" d="M659 275Q659 170 623 107T520 17T360 -10Q251 -10 186 24T91 126T61 293V722Q61 742 77 742H221Q236 742 236 724V271Q236 189 271 152T373 115Q415 115 447 130T497 181T515 274V723Q515 742 530 742H644Q659 742
659 724V275V275ZM258 954Q264 968 275 963L511 867Q523 862 518 847L506 812Q503 804 498 802T482 801L251 863Q229 869 235 889L258 954V954Z" />
<glyph unicode="&#xda;" horiz-adv-x="721" d="M659 275Q659 170 623 107T520 17T360 -10Q251 -10 186 24T91 126T61 293V722Q61 742 77 742H221Q236 742 236 724V271Q236 189 271 152T373 115Q415 115 447 130T497 181T515 274V723Q515 742 530 742H644Q659 742
659 724V275V275ZM516 888Q523 868 501 862L270 800Q259 798 254 800T246 811L234 846Q229 861 240 866L477 962Q489 967 494 953L516 888Z" />
<glyph unicode="&#xdb;" horiz-adv-x="721" d="M659 275Q659 170 623 107T520 17T360 -10Q251 -10 186 24T91 126T61 293V722Q61 742 77 742H221Q236 742 236 724V271Q236 189 271 152T373 115Q415 115 447 130T497 181T515 274V723Q515 742 530 742H644Q659 742
659 724V275V275ZM386 881Q377 893 373 893T357 881L306 829Q300 823 296 822T283 821H202Q194 821 194 825T199 837L308 948Q314 955 321 958T340 961H413Q422 961 427 958T437 950L544 837Q560 821 543 821H456Q449 821 443 822T433 829L386 881Z" />
<glyph unicode="&#xdc;" horiz-adv-x="721" d="M659 275Q659 170 623 107T520 17T360 -10Q251 -10 186 24T91 126T61 293V722Q61 742 77 742H221Q236 742 236 724V271Q236 189 271 152T373 115Q415 115 447 130T497 181T515 274V723Q515 742 530 742H644Q659 742
659 724V275V275ZM340 844Q340 833 335 829T316 824H223Q211 824 208 828T204 842V937Q204 954 218 954H326Q340 954 340 938V844ZM543 844Q543 833 538 829T519 824H426Q414 824 411 828T407 842V937Q407 954 421 954H529Q543 954 543 938V844Z" />
<glyph unicode="&#xdd;" horiz-adv-x="735" d="M690 742Q700 742 703 737T701 722L466 337Q460 328 459 319T458 284V24Q458 0 430 0H305Q292 0 288 5T283 21V290Q283 304 280 311T271 327L34 719Q28 729 32 735T49 742H199Q212 742 217 738T228 724L376 464Q382
454 386 454T395 462L541 724Q547 735 552 738T570 742H690V742ZM520 888Q527 868 505 862L274 800Q263 798 258 800T250 811L238 846Q233 861 244 866L481 962Q493 967 498 953L520 888Z" />
<glyph unicode="&#xde;" horiz-adv-x="724" d="M686 377Q686 305 651 255T556 179T415 153H256Q245 153 245 143V23Q245 0 219 0H91Q79 0 75 5T70 20V723Q70 742 86 742H229Q245 742 245 724V610Q245 600 254 600H395Q476 600 542 576T647 502T686 377V377ZM507
379Q507 427 473 450T385 474H264Q245 474 245 457V298Q245 279 259 279H391Q444 279 475 305T507 379V379Z" />
<glyph unicode="&#xdf;" horiz-adv-x="649" d="M336 742Q405 742 452 724T523 671T548 589Q548 553 533 527T488 480T413 440Q398 432 392 427T386 412Q386 404 392 399T414 389Q451 373 487 356T553 315T601 257T620 173Q620 113 592 73T516 11T402 -10Q362 -10
331 -3T277 18Q265 25 271 36L304 107Q311 118 322 111Q336 103 353 96T397 89Q433 89 457 106T482 157Q482 181 470 195T436 221T384 243Q355 255 330 272T289 315T273 376Q273 416 292 442T340 490Q357 504 372 517T397 545T408 581Q408 607 388 624T329 642Q281
642 255 614T228 535V19Q233 0 215 0H92Q77 0 77 17V390Q77 400 69 400H32Q15 400 15 415V488Q15 495 19 500T34 506H65Q73 506 74 510T76 521Q78 565 92 604T137 675T217 724T336 742V742Z" />
<glyph unicode="&#xe0;" horiz-adv-x="563" d="M340 51Q309 23 271 7T182 -10Q106 -10 63 31T19 136Q19 192 54 234T154 299T309 325L344 328Q350 328 355 331T360 342V363Q360 401 338 422T275 444Q245 444 218 431T171 384Q168 377 164 375T149 375L49 398Q43
400 41 404T44 424Q69 483 130 511T282 540Q365 540 414 519T485 461T507 373V22Q507 10 503 5T488 0H385Q374 0 370 8T364 28L362 50Q360 68 340 51V51ZM360 236Q360 253 345 253L317 251Q291 250 265 244T218 226T184 197T170 156Q170 126 191 109T249 91Q274
91 293 99T327 118Q342 131 351 144T360 171V236V236ZM165 742Q171 756 182 751L418 655Q430 650 425 635L413 600Q410 592 405 590T389 589L158 651Q136 657 142 677L165 742V742Z" />
<glyph unicode="&#xe1;" horiz-adv-x="563" d="M340 51Q309 23 271 7T182 -10Q106 -10 63 31T19 136Q19 192 54 234T154 299T309 325L344 328Q350 328 355 331T360 342V363Q360 401 338 422T275 444Q245 444 218 431T171 384Q168 377 164 375T149 375L49 398Q43
400 41 404T44 424Q69 483 130 511T282 540Q365 540 414 519T485 461T507 373V22Q507 10 503 5T488 0H385Q374 0 370 8T364 28L362 50Q360 68 340 51V51ZM360 236Q360 253 345 253L317 251Q291 250 265 244T218 226T184 197T170 156Q170 126 191 109T249 91Q274
91 293 99T327 118Q342 131 351 144T360 171V236V236ZM423 676Q430 656 408 650L177 588Q166 586 161 588T153 599L141 634Q136 649 147 654L384 750Q396 755 401 741L423 676Z" />
<glyph unicode="&#xe2;" horiz-adv-x="563" d="M340 51Q309 23 271 7T182 -10Q106 -10 63 31T19 136Q19 192 54 234T154 299T309 325L344 328Q350 328 355 331T360 342V363Q360 401 338 422T275 444Q245 444 218 431T171 384Q168 377 164 375T149 375L49 398Q43
400 41 404T44 424Q69 483 130 511T282 540Q365 540 414 519T485 461T507 373V22Q507 10 503 5T488 0H385Q374 0 370 8T364 28L362 50Q360 68 340 51V51ZM360 236Q360 253 345 253L317 251Q291 250 265 244T218 226T184 197T170 156Q170 126 191 109T249 91Q274
91 293 99T327 118Q342 131 351 144T360 171V236V236ZM294 669Q285 681 281 681T265 669L214 617Q208 611 204 610T191 609H110Q102 609 102 613T107 625L216 736Q222 743 229 746T248 749H321Q330 749 335 746T345 738L452 625Q468 609 451 609H364Q357 609 351
610T341 617L294 669Z" />
<glyph unicode="&#xe3;" horiz-adv-x="563" d="M340 51Q309 23 271 7T182 -10Q106 -10 63 31T19 136Q19 192 54 234T154 299T309 325L344 328Q350 328 355 331T360 342V363Q360 401 338 422T275 444Q245 444 218 431T171 384Q168 377 164 375T149 375L49 398Q43
400 41 404T44 424Q69 483 130 511T282 540Q365 540 414 519T485 461T507 373V22Q507 10 503 5T488 0H385Q374 0 370 8T364 28L362 50Q360 68 340 51V51ZM360 236Q360 253 345 253L317 251Q291 250 265 244T218 226T184 197T170 156Q170 126 191 109T249 91Q274
91 293 99T327 118Q342 131 351 144T360 171V236V236ZM448 654Q434 645 411 636T357 627Q329 627 305 634T259 649T209 656Q188 656 174 650T143 633Q136 628 131 629T123 640L109 683Q107 690 107 695T115 707Q133 722 153 733T204 744Q234 744 260 736T310 720T357
712Q379 712 396 720T426 737Q433 741 439 740T447 730L459 678Q463 665 448 654V654Z" />
<glyph unicode="&#xe4;" horiz-adv-x="563" d="M340 51Q309 23 271 7T182 -10Q106 -10 63 31T19 136Q19 192 54 234T154 299T309 325L344 328Q350 328 355 331T360 342V363Q360 401 338 422T275 444Q245 444 218 431T171 384Q168 377 164 375T149 375L49 398Q43
400 41 404T44 424Q69 483 130 511T282 540Q365 540 414 519T485 461T507 373V22Q507 10 503 5T488 0H385Q374 0 370 8T364 28L362 50Q360 68 340 51V51ZM360 236Q360 253 345 253L317 251Q291 250 265 244T218 226T184 197T170 156Q170 126 191 109T249 91Q274
91 293 99T327 118Q342 131 351 144T360 171V236V236ZM247 632Q247 621 242 617T223 612H130Q118 612 115 616T111 630V725Q111 742 125 742H233Q247 742 247 726V632ZM450 632Q450 621 445 617T426 612H333Q321 612 318 616T314 630V725Q314 742 328 742H436Q450
742 450 726V632Z" />
<glyph unicode="&#xe5;" horiz-adv-x="563" d="M340 51Q309 23 271 7T182 -10Q106 -10 63 31T19 136Q19 192 54 234T154 299T309 325L344 328Q350 328 355 331T360 342V363Q360 401 338 422T275 444Q245 444 218 431T171 384Q168 377 164 375T149 375L49 398Q43
400 41 404T44 424Q69 483 130 511T282 540Q365 540 414 519T485 461T507 373V22Q507 10 503 5T488 0H385Q374 0 370 8T364 28L362 50Q360 68 340 51V51ZM360 236Q360 253 345 253L317 251Q291 250 265 244T218 226T184 197T170 156Q170 126 191 109T249 91Q274
91 293 99T327 118Q342 131 351 144T360 171V236V236ZM393 693Q393 646 361 614T281 581Q234 581 202 614T169 696Q169 726 184 750T224 789T281 803Q312 803 337 789T378 749T393 693V693ZM331 692Q331 714 316 728T280 743Q260 743 244 729T228 692Q228 672 244
656T280 640Q301 640 316 656T331 692V692Z" />
<glyph unicode="&#xe6;" horiz-adv-x="912" d="M532 236Q524 236 520 232T516 217Q516 190 526 168T554 130T595 104T647 95Q674 95 695 103T736 126T775 162Q779 166 782 166T793 163L864 133Q879 127 867 113Q837 68 802 41T724 2T627 -10Q579 -10 541 2T472
36T420 82Q416 87 410 82Q384 54 353 34T282 2T190 -10Q107 -10 63 31T19 141Q19 219 87 268T293 324L342 328Q349 328 354 331T360 342V363Q360 401 339 422T274 444Q245 444 218 431T171 384Q167 376 163 375T149 375L49 398Q43 400 42 408T44 424Q64 462 93
487T167 526T280 540Q349 539 393 524T462 477Q494 509 535 524T625 540Q701 540 759 507T851 412T885 260Q885 248 882 243T867 236H532V236ZM630 446Q600 446 575 432T534 389T519 321L717 320Q728 320 731 323T734 335Q734 359 722 385T687 428T630 446V446ZM360
230Q360 239 356 243T343 247L306 244Q270 242 240 231T190 200T170 151Q170 121 191 103T251 85Q280 86 304 96T344 124T360 165V230V230Z" />
<glyph unicode="&#xe7;" horiz-adv-x="551" d="M297 540Q362 540 407 518T482 460T523 388Q530 368 511 367L406 357Q395 356 391 368Q382 387 371 403T344 429T302 439Q268 439 242 420T202 363T187 265Q187 205 202 166T244 108T310 89Q354 89 379 112T428 174Q431
179 434 180T445 179L519 162Q530 159 526 143Q518 121 501 94T457 44T390 6T297 -10Q220 -10 160 24T66 120T31 263Q31 345 66 407T161 505T297 540V540ZM416 -135Q416 -161 399 -179T354 -208T292 -219Q263 -219 235 -214T181 -195Q173 -190 176 -182L191 -147Q193
-140 201 -143Q216 -152 234 -158T274 -165Q298 -165 311 -157T324 -133Q324 -113 305 -103T237 -92Q231 -92 229 -90T229 -82L266 5H334L313 -47Q310 -54 319 -54Q355 -55 376 -67T407 -98T416 -135V-135Z" />
<glyph unicode="&#xe8;" horiz-adv-x="586" d="M190 220Q190 183 207 155T254 111T321 95Q357 95 387 110T449 162Q453 166 456 166T467 163L539 133Q553 127 542 113Q510 67 475 40T398 2T302 -10Q224 -10 163 24T67 118T31 257Q31 343 67 406T165 505T299 540Q376
540 434 507T525 411T559 260Q559 249 557 243T542 236H202Q196 236 193 232T190 220V220ZM391 320Q402 320 405 322T408 334Q408 359 397 385T363 428T305 446Q272 446 246 430T206 386T192 321L391 320ZM184 742Q190 756 201 751L437 655Q449 650 444 635L432
600Q429 592 424 590T408 589L177 651Q155 657 161 677L184 742V742Z" />
<glyph unicode="&#xe9;" horiz-adv-x="586" d="M190 220Q190 183 207 155T254 111T321 95Q357 95 387 110T449 162Q453 166 456 166T467 163L539 133Q553 127 542 113Q510 67 475 40T398 2T302 -10Q224 -10 163 24T67 118T31 257Q31 343 67 406T165 505T299 540Q376
540 434 507T525 411T559 260Q559 249 557 243T542 236H202Q196 236 193 232T190 220V220ZM391 320Q402 320 405 322T408 334Q408 359 397 385T363 428T305 446Q272 446 246 430T206 386T192 321L391 320ZM442 676Q449 656 427 650L196 588Q185 586 180 588T172
599L160 634Q155 649 166 654L403 750Q415 755 420 741L442 676Z" />
<glyph unicode="&#xea;" horiz-adv-x="586" d="M190 220Q190 183 207 155T254 111T321 95Q357 95 387 110T449 162Q453 166 456 166T467 163L539 133Q553 127 542 113Q510 67 475 40T398 2T302 -10Q224 -10 163 24T67 118T31 257Q31 343 67 406T165 505T299 540Q376
540 434 507T525 411T559 260Q559 249 557 243T542 236H202Q196 236 193 232T190 220V220ZM391 320Q402 320 405 322T408 334Q408 359 397 385T363 428T305 446Q272 446 246 430T206 386T192 321L391 320ZM313 669Q304 681 300 681T284 669L233 617Q227 611 223
610T210 609H129Q121 609 121 613T126 625L235 736Q241 743 248 746T267 749H340Q349 749 354 746T364 738L471 625Q487 609 470 609H383Q376 609 370 610T360 617L313 669Z" />
<glyph unicode="&#xeb;" horiz-adv-x="586" d="M190 220Q190 183 207 155T254 111T321 95Q357 95 387 110T449 162Q453 166 456 166T467 163L539 133Q553 127 542 113Q510 67 475 40T398 2T302 -10Q224 -10 163 24T67 118T31 257Q31 343 67 406T165 505T299 540Q376
540 434 507T525 411T559 260Q559 249 557 243T542 236H202Q196 236 193 232T190 220V220ZM391 320Q402 320 405 322T408 334Q408 359 397 385T363 428T305 446Q272 446 246 430T206 386T192 321L391 320ZM266 632Q266 621 261 617T242 612H149Q137 612 134 616T130
630V725Q130 742 144 742H252Q266 742 266 726V632ZM469 632Q469 621 464 617T445 612H352Q340 612 337 616T333 630V725Q333 742 347 742H455Q469 742 469 726V632Z" />
<glyph unicode="&#xec;" horiz-adv-x="265" d="M209 24Q209 11 203 6T182 0H77Q64 0 60 5T55 21V511Q55 530 71 530H194Q209 530 209 513V24ZM19 742Q25 756 36 751L272 655Q284 650 279 635L267 600Q264 592 259 590T243 589L12 651Q-10 657 -4 677L19 742V742Z" />
<glyph unicode="&#xed;" horiz-adv-x="265" d="M209 24Q209 11 203 6T182 0H77Q64 0 60 5T55 21V511Q55 530 71 530H194Q209 530 209 513V24ZM277 676Q284 656 262 650L31 588Q20 586 15 588T7 599L-5 634Q-10 649 1 654L238 750Q250 755 255 741L277 676Z" />
<glyph unicode="&#xee;" horiz-adv-x="265" d="M209 24Q209 11 203 6T182 0H77Q64 0 60 5T55 21V511Q55 530 71 530H194Q209 530 209 513V24ZM148 669Q139 681 135 681T119 669L68 617Q62 611 58 610T45 609H-36Q-44 609 -44 613T-39 625L70 736Q76 743 83 746T102
749H175Q184 749 189 746T199 738L306 625Q322 609 305 609H218Q211 609 205 610T195 617L148 669Z" />
<glyph unicode="&#xef;" horiz-adv-x="265" d="M209 24Q209 11 203 6T182 0H77Q64 0 60 5T55 21V511Q55 530 71 530H194Q209 530 209 513V24ZM101 632Q101 621 96 617T77 612H-16Q-28 612 -31 616T-35 630V725Q-35 742 -21 742H87Q101 742 101 726V632ZM304 632Q304
621 299 617T280 612H187Q175 612 172 616T168 630V725Q168 742 182 742H290Q304 742 304 726V632Z" />
<glyph unicode="&#xf0;" horiz-adv-x="599" d="M568 274Q568 188 535 124T441 25T298 -10Q219 -10 159 24T65 117T31 252Q31 331 66 391T161 485T297 520Q314 520 327 516T348 504Q332 534 309 558T252 607L136 541Q123 534 115 547L102 568Q96 576 97 581T103
587L198 640Q178 651 156 661T108 681Q104 683 103 686T106 694L171 746Q176 751 179 751T191 750Q223 741 253 729T311 703L394 749Q403 755 409 748L428 714Q432 707 425 702L366 669Q466 600 517 498T568 274V274ZM300 92Q336 92 361 111T399 168T412 255Q412
308 399 345T361 401T300 421Q265 421 240 402T201 345T187 255Q187 204 200 168T239 112T300 92V92Z" />
<glyph unicode="&#xf1;" horiz-adv-x="596" d="M76 0Q55 0 55 20V511Q55 530 71 530H192Q207 530 207 513V464Q207 458 210 456T219 460Q245 484 271 502T326 530T388 540Q461 540 503 497T546 382V24Q546 0 522 0H411Q401 0 397 4T392 20V358Q392 392 374 410T319
429Q298 429 280 422T245 402T209 367V23Q209 0 183 0H76V0ZM471 654Q457 645 434 636T380 627Q352 627 328 634T282 649T232 656Q211 656 197 650T166 633Q159 628 154 629T146 640L132 683Q130 690 130 695T138 707Q156 722 176 733T227 744Q257 744 283 736T333
720T380 712Q402 712 419 720T449 737Q456 741 462 740T470 730L482 678Q486 665 471 654V654Z" />
<glyph unicode="&#xf2;" horiz-adv-x="599" d="M299 -10Q220 -10 160 25T65 121T31 262Q31 345 66 407T162 505T300 540Q381 540 441 505T534 407T568 263Q568 183 534 122T440 25T299 -10V-10ZM300 92Q337 92 362 111T399 170T412 265Q412 324 400 362T362 421T300
441Q264 441 239 421T200 363T187 265Q187 208 200 170T238 112T300 92V92ZM184 742Q190 756 201 751L437 655Q449 650 444 635L432 600Q429 592 424 590T408 589L177 651Q155 657 161 677L184 742V742Z" />
<glyph unicode="&#xf3;" horiz-adv-x="599" d="M299 -10Q220 -10 160 25T65 121T31 262Q31 345 66 407T162 505T300 540Q381 540 441 505T534 407T568 263Q568 183 534 122T440 25T299 -10V-10ZM300 92Q337 92 362 111T399 170T412 265Q412 324 400 362T362 421T300
441Q264 441 239 421T200 363T187 265Q187 208 200 170T238 112T300 92V92ZM442 676Q449 656 427 650L196 588Q185 586 180 588T172 599L160 634Q155 649 166 654L403 750Q415 755 420 741L442 676Z" />
<glyph unicode="&#xf4;" horiz-adv-x="599" d="M299 -10Q220 -10 160 25T65 121T31 262Q31 345 66 407T162 505T300 540Q381 540 441 505T534 407T568 263Q568 183 534 122T440 25T299 -10V-10ZM300 92Q337 92 362 111T399 170T412 265Q412 324 400 362T362 421T300
441Q264 441 239 421T200 363T187 265Q187 208 200 170T238 112T300 92V92ZM313 669Q304 681 300 681T284 669L233 617Q227 611 223 610T210 609H129Q121 609 121 613T126 625L235 736Q241 743 248 746T267 749H340Q349 749 354 746T364 738L471 625Q487 609 470
609H383Q376 609 370 610T360 617L313 669Z" />
<glyph unicode="&#xf5;" horiz-adv-x="599" d="M299 -10Q220 -10 160 25T65 121T31 262Q31 345 66 407T162 505T300 540Q381 540 441 505T534 407T568 263Q568 183 534 122T440 25T299 -10V-10ZM300 92Q337 92 362 111T399 170T412 265Q412 324 400 362T362 421T300
441Q264 441 239 421T200 363T187 265Q187 208 200 170T238 112T300 92V92ZM467 654Q453 645 430 636T376 627Q348 627 324 634T278 649T228 656Q207 656 193 650T162 633Q155 628 150 629T142 640L128 683Q126 690 126 695T134 707Q152 722 172 733T223 744Q253
744 279 736T329 720T376 712Q398 712 415 720T445 737Q452 741 458 740T466 730L478 678Q482 665 467 654V654Z" />
<glyph unicode="&#xf6;" horiz-adv-x="599" d="M299 -10Q220 -10 160 25T65 121T31 262Q31 345 66 407T162 505T300 540Q381 540 441 505T534 407T568 263Q568 183 534 122T440 25T299 -10V-10ZM300 92Q337 92 362 111T399 170T412 265Q412 324 400 362T362 421T300
441Q264 441 239 421T200 363T187 265Q187 208 200 170T238 112T300 92V92ZM266 632Q266 621 261 617T242 612H149Q137 612 134 616T130 630V725Q130 742 144 742H252Q266 742 266 726V632ZM469 632Q469 621 464 617T445 612H352Q340 612 337 616T333 630V725Q333
742 347 742H455Q469 742 469 726V632Z" />
<glyph unicode="&#xf7;" horiz-adv-x="584" d="M373 115Q373 93 347 93H234Q214 93 214 112V229Q214 246 228 246H359Q373 246 373 230V115ZM536 340Q536 318 509 318L69 317Q58 317 54 322T49 337V410Q49 429 64 429H521Q536 429 536 413V340ZM373 522Q373 501
347 501H234Q214 501 214 520V636Q214 653 228 653H359Q373 653 373 638V522Z" />
<glyph unicode="&#xf8;" horiz-adv-x="596" d="M82 10Q72 1 64 1T46 10L30 27Q13 46 27 59L516 521Q532 536 543 525L571 495Q582 483 570 472L82 10ZM298 -10Q219 -10 159 25T64 121T30 262Q30 345 65 407T161 505T299 540Q380 540 440 505T534 407T568 263Q568
183 534 122T440 25T298 -10V-10ZM300 92Q337 92 362 111T399 170T412 265Q412 324 399 362T361 421T299 441Q263 441 238 421T199 363T186 265Q186 208 199 170T237 112T300 92V92Z" />
<glyph unicode="&#xf9;" horiz-adv-x="592" d="M274 101Q305 101 332 117T383 160V507Q383 530 409 530H517Q538 530 538 509L536 18Q536 0 520 0H401Q386 0 386 17V66Q386 72 383 73T375 70Q333 27 292 9T203 -10Q159 -10 125 9T70 64T50 151V506Q50 530 74 530H185Q204
530 204 509V173Q204 140 222 121T274 101V101ZM174 742Q180 756 191 751L427 655Q439 650 434 635L422 600Q419 592 414 590T398 589L167 651Q145 657 151 677L174 742V742Z" />
<glyph unicode="&#xfa;" horiz-adv-x="592" d="M274 101Q305 101 332 117T383 160V507Q383 530 409 530H517Q538 530 538 509L536 18Q536 0 520 0H401Q386 0 386 17V66Q386 72 383 73T375 70Q333 27 292 9T203 -10Q159 -10 125 9T70 64T50 151V506Q50 530 74 530H185Q204
530 204 509V173Q204 140 222 121T274 101V101ZM432 676Q439 656 417 650L186 588Q175 586 170 588T162 599L150 634Q145 649 156 654L393 750Q405 755 410 741L432 676Z" />
<glyph unicode="&#xfb;" horiz-adv-x="592" d="M274 101Q305 101 332 117T383 160V507Q383 530 409 530H517Q538 530 538 509L536 18Q536 0 520 0H401Q386 0 386 17V66Q386 72 383 73T375 70Q333 27 292 9T203 -10Q159 -10 125 9T70 64T50 151V506Q50 530 74 530H185Q204
530 204 509V173Q204 140 222 121T274 101V101ZM303 669Q294 681 290 681T274 669L223 617Q217 611 213 610T200 609H119Q111 609 111 613T116 625L225 736Q231 743 238 746T257 749H330Q339 749 344 746T354 738L461 625Q477 609 460 609H373Q366 609 360 610T350
617L303 669Z" />
<glyph unicode="&#xfc;" horiz-adv-x="592" d="M274 101Q305 101 332 117T383 160V507Q383 530 409 530H517Q538 530 538 509L536 18Q536 0 520 0H401Q386 0 386 17V66Q386 72 383 73T375 70Q333 27 292 9T203 -10Q159 -10 125 9T70 64T50 151V506Q50 530 74 530H185Q204
530 204 509V173Q204 140 222 121T274 101V101ZM256 632Q256 621 251 617T232 612H139Q127 612 124 616T120 630V725Q120 742 134 742H242Q256 742 256 726V632ZM459 632Q459 621 454 617T435 612H342Q330 612 327 616T323 630V725Q323 742 337 742H445Q459 742
459 726V632Z" />
<glyph unicode="&#xfd;" horiz-adv-x="566" d="M104 -165Q73 -165 59 -162T45 -146V-69Q45 -63 51 -58T74 -53H142Q161 -53 176 -44T201 -22T215 6T213 33L21 506Q17 515 21 522T37 530H163Q171 530 177 526T185 513L296 215Q299 206 304 206T313 216L423 514Q427
521 432 525T445 530H531Q541 530 545 523T545 507L340 0Q319 -52 297 -84T247 -134T186 -158T104 -165V-165ZM448 676Q455 656 433 650L202 588Q191 586 186 588T178 599L166 634Q161 649 172 654L409 750Q421 755 426 741L448 676Z" />
<glyph unicode="&#xfe;" horiz-adv-x="607" d="M188 742Q210 742 210 722V480Q210 474 214 474T224 478Q240 493 259 507T306 530T370 540Q429 540 475 511T548 422T575 269Q575 173 547 111T471 20T362 -10Q323 -10 290 2T228 41Q218 51 214 50T209 35V-148Q209
-165 194 -165H71Q55 -165 55 -147V720Q55 731 60 736T78 742H188V742ZM209 137Q229 115 252 101T305 87Q340 87 365 105T405 164T419 272Q419 337 405 374T366 427T308 443Q280 443 258 432T222 402T209 363V137V137Z" />
<glyph unicode="&#xff;" horiz-adv-x="566" d="M104 -165Q73 -165 59 -162T45 -146V-69Q45 -63 51 -58T74 -53H142Q161 -53 176 -44T201 -22T215 6T213 33L21 506Q17 515 21 522T37 530H163Q171 530 177 526T185 513L296 215Q299 206 304 206T313 216L423 514Q427
521 432 525T445 530H531Q541 530 545 523T545 507L340 0Q319 -52 297 -84T247 -134T186 -158T104 -165V-165ZM272 632Q272 621 267 617T248 612H155Q143 612 140 616T136 630V725Q136 742 150 742H258Q272 742 272 726V632ZM475 632Q475 621 470 617T451 612H358Q346
612 343 616T339 630V725Q339 742 353 742H461Q475 742 475 726V632Z" />
<glyph unicode="&#x2013;" horiz-adv-x="584" d="M536 222Q536 199 509 199H69Q58 199 54 204T49 219V292Q49 310 64 310L521 311Q536 311 536 295V222Z" />
<glyph unicode="&#x2014;" horiz-adv-x="909" d="M860 222Q860 199 834 199H69Q58 199 54 204T49 219V292Q49 310 64 310L846 311Q860 311 860 295V222Z" />
<glyph unicode="&#x2018;" horiz-adv-x="241" d="M182 742Q190 742 193 737T194 724L151 625Q146 614 147 608T158 600L175 599Q186 598 190 594T194 580V466Q194 450 180 450H54Q40 450 40 464V573Q40 579 43 584L134 726Q139 734 148 738T166 742H182V742Z" />
<glyph unicode="&#x2019;" horiz-adv-x="241" d="M58 450Q51 450 48 456T47 467L90 567Q94 579 93 584T82 592L66 593Q55 594 51 598T46 611V725Q46 742 61 742H187Q201 742 201 727V619Q201 613 197 607L107 466Q102 458 93 454T75 450H58V450Z" />
<glyph unicode="&#x201a;" horiz-adv-x="241" d="M58 -143Q51 -143 48 -137T47 -126L90 -26Q94 -14 93 -9T82 -1L66 0Q55 1 51 5T46 18V132Q46 149 61 149H187Q201 149 201 134V26Q201 20 197 14L107 -127Q102 -135 93 -139T75 -143H58V-143Z" />
<glyph unicode="&#x201c;" horiz-adv-x="465" d="M278 450Q264 450 264 464V573Q264 579 268 584L358 726Q364 734 373 738T390 742H407Q414 742 417 737T418 724L375 625Q371 614 372 608T383 600L399 599Q411 598 415 594T419 580V466Q419 450 404 450H278V450ZM54
450Q40 450 40 464V573Q40 579 43 584L134 726Q139 734 148 738T166 742H182Q190 742 193 737T194 724L151 625Q146 614 147 608T158 600L175 599Q186 598 190 594T194 580V466Q194 450 180 450H54V450Z" />
<glyph unicode="&#x201d;" horiz-adv-x="469" d="M283 450Q275 450 272 456T271 467L314 567Q319 579 318 584T307 592L290 593Q280 594 276 598T271 611V725Q271 742 285 742H411Q425 742 425 727V619Q425 613 422 607L331 466Q326 458 317 454T299 450H283V450ZM58
450Q51 450 48 456T47 467L90 567Q94 579 93 584T82 592L66 593Q55 594 51 598T46 611V725Q46 742 61 742H187Q201 742 201 727V619Q201 613 197 607L107 466Q102 458 93 454T75 450H58V450Z" />
<glyph unicode="&#x201e;" horiz-adv-x="469" d="M282 -143Q275 -143 272 -137T271 -126L314 -26Q318 -14 317 -9T306 -1L290 0Q279 1 275 5T270 18V132Q270 149 285 149H411Q425 149 425 134V26Q425 20 421 14L331 -127Q326 -135 317 -139T299 -143H282V-143ZM58
-143Q51 -143 48 -137T47 -126L90 -26Q94 -14 93 -9T82 -1L66 0Q55 1 51 5T46 18V132Q46 149 61 149H187Q201 149 201 134V26Q201 20 197 14L107 -127Q102 -135 93 -139T75 -143H58V-143Z" />
<glyph unicode="&#x2022;" horiz-adv-x="339" d="M168 247Q132 247 103 264T55 311T37 377Q37 413 55 442T102 489T168 507Q204 507 233 490T280 443T298 377Q298 341 281 312T234 265T168 247V247Z" />
<glyph unicode="&#x2039;" horiz-adv-x="290" d="M239 76Q243 65 226 65H170Q161 65 157 73L52 239Q41 256 51 274L157 450Q160 455 163 456T171 458H229Q234 458 237 455T239 444L165 268Q161 257 165 246L239 76Z" />
<glyph unicode="&#x203a;" horiz-adv-x="290" d="M125 246Q129 257 125 268L52 444Q49 451 52 454T62 458H119Q124 458 127 457T133 450L240 274Q250 257 239 239L134 73Q129 65 120 65H64Q48 65 51 76L125 246V246Z" />
</font>
</defs>
</svg>
