<?xml version="1.0" standalone="no"?>
<!DOCTYPE svg PUBLIC "-//W3C//DTD SVG 1.1//EN" "http://www.w3.org/Graphics/SVG/1.1/DTD/svg11.dtd">
<svg xmlns="http://www.w3.org/2000/svg">
<defs >
<font id="LibreFranklin" horiz-adv-x="568" ><font-face
    font-family="Libre Franklin Thin ExtraBold"
    units-per-em="1000"
    panose-1="0 0 0 0 0 0 0 0 0 0"
    ascent="966"
    descent="-246"
    alphabetic="0" />
<glyph unicode=" " horiz-adv-x="203" />
<glyph unicode="!" horiz-adv-x="271" d="M228 27Q228 0 198 0H63Q38 0 38 23V161Q38 181 56 181H212Q228 181 228 162V27ZM192 275Q192 262 185 256T163 250H101Q88 250 84 255T78 272L33 721Q32 731 37 736T50 742H219Q237 742 235 723L192 275Z" />
<glyph unicode="&quot;" horiz-adv-x="490" d="M414 456Q412 442 406 436T384 430H345Q332 430 328 435T321 453L284 722Q283 732 288 737T301 742H435Q454 742 451 724L414 456ZM175 456Q173 442 167 436T145 430H106Q93 430 89 435T82 453L45 722Q44 732 49
737T62 742H196Q215 742 212 724L175 456Z" />
<glyph unicode="#" horiz-adv-x="603" d="M187 28Q185 12 180 5T158 0L122 5Q109 7 103 10T97 26L199 720Q201 730 205 736T216 742L272 736Q291 734 288 718L187 28ZM408 28Q406 12 401 5T380 0L343 5Q330 7 324 10T318 26L420 720Q422 730 426 736T437 742L493
736Q512 734 509 718L408 28ZM559 251Q559 226 530 226H34Q21 226 16 231T11 248V293Q11 314 28 314H543Q559 314 559 296V251ZM592 461Q592 436 563 436H67Q54 436 49 441T44 458V503Q44 524 61 524H576Q592 524 592 506V461Z" />
<glyph unicode="$" horiz-adv-x="671" d="M638 225Q638 164 611 116T532 37T411 -2Q399 -3 396 -6T392 -21V-50Q392 -76 364 -76H303Q279 -76 279 -53V-19Q279 -9 276 -6T263 -2Q192 2 139 23T39 83Q13 102 28 119L96 195Q105 205 113 205T129 197Q155 171 188
151T264 124Q281 121 281 134L282 280Q282 288 279 292T268 298Q184 314 134 347T63 425T42 521Q42 573 67 617T140 692T260 736Q266 738 273 742T281 756V790Q281 797 285 801T295 805H372Q382 805 387 801T392 784V748Q392 741 407 737Q458 725 499 708T575 666Q593
657 580 639L519 561Q513 554 506 553T488 561Q474 575 453 588T404 609Q398 611 395 609T391 601V460Q391 451 404 448L465 432Q516 418 555 389T616 318T638 225V225ZM281 602Q281 618 268 615Q227 606 208 587T188 542Q188 523 196 509T220 485T261 468Q272
467 276 471T281 488V602ZM391 130Q391 120 405 123Q446 130 468 149T490 196Q490 226 470 246T403 277Q397 278 394 276T391 266V130V130Z" />
<glyph unicode="%" horiz-adv-x="954" d="M229 753Q283 753 326 724T395 646T421 541Q421 485 396 438T328 362T229 333Q174 333 130 361T60 437T35 541Q35 598 60 646T130 723T229 753V753ZM228 422Q264 422 277 452T291 540Q291 600 277 632T228 665Q205 665
192 650T172 608T165 540Q165 503 171 476T191 436T228 422V422ZM727 410Q781 410 824 381T893 303T919 198Q919 142 894 95T826 19T727 -10Q672 -10 628 18T558 94T533 198Q533 255 558 303T628 380T727 410V410ZM726 79Q749 79 763 92T783 133T789 197Q789 237
783 265T763 307T726 322Q704 322 690 307T670 265T663 197Q663 160 669 133T689 93T726 79V79ZM283 7Q276 -4 256 -4L209 -3Q194 -3 192 7T196 28L668 738Q674 747 680 748T694 750H754Q761 750 765 746T763 732L283 7Z" />
<glyph unicode="&amp;" horiz-adv-x="859" d="M388 753Q457 753 510 733T594 676T625 592Q625 561 607 526T557 460T481 409Q474 405 473 402T478 392L567 298Q574 291 578 291T590 301Q600 313 609 325T627 351T643 379T655 407Q663 423 681 417L770 389Q780
386 785 377T786 359Q775 335 762 312T730 262T687 205Q681 196 681 193T689 184Q703 174 720 167T758 156T801 150Q823 149 823 130V27Q823 15 817 8T800 0Q750 0 707 8T627 31T558 68Q549 74 544 74T530 67Q479 30 422 13T291 -5Q171 -5 105 47T39 194Q39 253
80 303T211 403Q221 408 221 413T213 428Q184 460 168 497T151 570Q151 623 181 664T266 729T388 753V753ZM397 648Q375 648 359 639T335 616T326 586Q326 575 333 562T349 537L384 495Q389 491 395 491T405 493Q437 509 454 532T471 582Q471 613 450 630T397 648V648ZM320
305Q312 314 306 314T293 309Q265 292 248 268T231 216Q231 192 244 171T280 138T330 125Q355 125 382 134T427 159Q434 164 436 169T430 184L320 305V305Z" />
<glyph unicode="&apos;" horiz-adv-x="251" d="M175 456Q173 442 167 436T145 430H106Q93 430 89 435T82 453L45 722Q44 732 49 737T62 742H196Q215 742 212 724L175 456Z" />
<glyph unicode="(" horiz-adv-x="323" d="M296 742Q305 742 307 738T306 728Q257 630 227 517T196 284Q196 171 224 68T304 -149Q307 -155 305 -160T294 -165H199Q188 -165 179 -153Q138 -82 107 -15T59 126T41 285Q41 410 79 522T179 729Q189 742 205 742H296V742Z" />
<glyph unicode=")" horiz-adv-x="323" d="M27 742V742H118Q134 742 144 729Q206 635 244 523T282 285Q282 200 265 127T216 -14T144 -153Q136 -165 125 -165H29Q21 -165 19 -160T19 -149Q72 -36 99 67T127 284Q127 403 98 516T18 728Q15 733 17 737T27 742Z" />
<glyph unicode="*" horiz-adv-x="494" d="M254 442Q252 445 249 445T243 442L169 316Q165 311 158 310T144 314L82 358Q68 368 79 380L171 488Q173 492 173 496T165 501L35 536Q20 541 27 560L52 627Q58 642 71 636L194 580Q199 578 203 579T206 587L194 728Q194
732 197 737T208 742H290Q297 742 301 737T304 728L291 586Q289 575 300 579L426 635Q443 642 448 623L469 558Q475 540 458 536L331 500Q326 499 326 495T329 487L417 383Q422 378 421 371T409 356L355 319Q346 312 338 313T327 319L254 442Z" />
<glyph unicode="+" horiz-adv-x="592" d="M549 335Q549 310 520 310H68Q54 310 49 315T44 332V416Q44 437 61 437H533Q549 437 549 419V335ZM259 121Q234 121 234 151V603Q234 617 239 621T256 626H340Q361 626 361 609V138Q361 121 343 121H259Z" />
<glyph unicode="," horiz-adv-x="266" d="M55 -161Q46 -161 42 -154T41 -138L90 -29Q103 0 81 0H61Q37 0 37 23V162Q37 182 54 182H210Q226 182 226 164V30Q226 22 222 15L116 -140Q109 -150 97 -155T75 -161H55V-161Z" />
<glyph unicode="-" horiz-adv-x="380" d="M335 226Q335 200 305 200H69Q55 200 50 205T45 223V306Q45 326 62 326L319 327Q335 327 335 308V226Z" />
<glyph unicode="." horiz-adv-x="266" d="M225 27Q225 0 195 0H61Q36 0 36 23V164Q36 184 53 184H209Q225 184 225 166V27Z" />
<glyph unicode="/" horiz-adv-x="373" d="M18 -8Q-2 -8 3 9L252 726Q259 742 276 742H352Q377 742 367 712L125 15Q121 2 113 -3T93 -8H18V-8Z" />
<glyph unicode="0" horiz-adv-x="716" d="M359 753Q428 753 486 725T587 646T654 524T678 369Q678 256 637 172T524 40T359 -8Q265 -8 192 39T79 171T38 369Q38 454 61 524T128 645T230 725T359 753V753ZM358 132Q398 132 423 155T461 230T473 368Q473 457 461
511T423 589T358 614Q318 614 293 590T255 511T243 368Q243 283 255 231T293 156T358 132V132Z" />
<glyph unicode="1" horiz-adv-x="523" d="M472 147Q493 147 493 130V20Q493 12 488 6T470 0H59Q38 0 38 19V130Q38 147 58 147H154Q165 147 165 156V531Q165 546 150 543L61 519Q37 514 37 540V616Q37 628 40 633T53 642L227 729Q242 737 251 739T273 742H350Q367
742 367 723V158Q367 147 377 147H472V147Z" />
<glyph unicode="2" horiz-adv-x="659" d="M262 325Q312 367 343 396T390 445T412 483T418 520Q418 546 406 566T371 596T320 607Q294 607 271 597T227 563T183 499Q179 493 172 492T153 496L48 549Q37 554 36 564T40 584Q94 671 165 711T331 752Q417 752 480 724T579
643T614 521Q614 482 601 447T558 379T477 308L297 177Q290 173 290 169T303 165H600Q621 165 621 148V20Q621 12 616 6T599 0H58Q44 0 39 4T33 23V111Q33 117 35 122T49 139T86 172L262 325Z" />
<glyph unicode="3" horiz-adv-x="677" d="M62 622Q52 632 62 646Q87 678 129 701T223 738T330 752Q421 752 485 728T585 659T620 556Q620 511 591 468T505 407Q494 403 494 397T504 387Q546 374 577 349T625 290T643 218Q643 144 607 93T498 16T318 -10Q259 -10
204 6T104 52T31 119Q25 129 27 138T38 153L128 216Q138 222 143 222T153 217Q184 186 210 167T264 139T329 130Q384 130 414 153T444 214Q444 243 429 263T385 296T322 309L237 310Q218 310 218 326V434Q218 447 237 450L305 453Q341 455 367 467T408 498T423
543Q423 563 410 579T376 605T327 615Q282 615 246 599T170 543Q163 536 159 536T147 542L62 622V622Z" />
<glyph unicode="4" horiz-adv-x="703" d="M355 720Q367 734 375 738T401 742H547Q565 742 565 723V314Q565 303 575 303H653Q673 303 673 285V187Q673 167 651 167H576Q565 167 565 154V26Q565 0 535 0H383Q359 0 359 23L360 157Q360 167 347 167H54Q31 167 31
187V281Q31 291 38 303T61 336L355 720V720ZM353 303Q362 303 362 310V529Q362 543 359 543T348 533L191 316Q181 303 198 303H353Z" />
<glyph unicode="5" horiz-adv-x="683" d="M567 742Q587 742 591 737T595 716L589 602Q588 590 583 586T564 581H257Q238 581 238 564L228 469Q227 460 231 457T243 455Q282 468 311 474T378 481Q456 481 517 454T614 373T650 242Q650 163 612 107T504 20T342 -10Q239
-10 158 25T37 116Q31 126 29 135T39 154L135 219Q151 231 165 216Q186 192 207 173T256 142T320 130Q363 130 392 144T436 182T451 236Q451 265 438 288T397 325T329 339Q300 339 275 331T215 306Q206 302 202 302T188 308L82 365Q71 371 70 379T70 400L99 715Q101
731 108 736T139 742H567Z" />
<glyph unicode="6" horiz-adv-x="693" d="M372 750Q426 750 469 736T545 699T598 651T624 602Q626 595 625 588T614 577L487 539Q478 536 473 541T466 551Q449 577 429 594T372 612Q330 612 300 591T254 533T238 445Q238 427 242 423T262 425Q293 439 324 448T400
458Q478 458 536 430T628 352T661 237Q661 167 622 111T514 24T361 -8Q262 -8 189 36T77 162T38 354Q38 478 80 566T197 702T372 750V750ZM356 328Q338 328 318 324T280 312T252 298Q245 293 243 288T240 267Q240 236 248 210T270 164T306 133T355 122Q385 122
409 135T447 173T462 229Q462 261 448 283T409 316T356 328V328Z" />
<glyph unicode="7" horiz-adv-x="626" d="M563 742Q580 742 588 735T596 717L593 656Q592 646 583 626T564 593Q529 540 499 480T443 358T399 236T369 124T355 30Q354 0 332 0H146Q120 0 128 27Q144 83 164 139T212 258T283 396T383 564Q388 571 387 576T374 581H54Q28
581 30 604L42 726Q44 742 69 742H563Z" />
<glyph unicode="8" horiz-adv-x="688" d="M338 752Q420 752 484 725T585 651T623 545Q623 504 599 471T528 413Q511 404 527 393Q577 366 605 338T644 280T656 215Q656 144 615 93T501 16T332 -10Q245 -10 178 12T72 77T34 182Q34 231 59 269T150 343Q158 347
159 350T152 359Q128 378 105 398T68 448T54 519Q54 583 87 635T184 720T338 752V752ZM341 621Q314 621 291 612T255 585T242 544Q242 494 301 476L372 453Q386 448 401 454T428 474T447 505T454 538Q454 572 425 596T341 621V621ZM345 121Q398 121 426 142T455
198Q455 223 441 242T382 275L300 301Q285 306 269 302T238 285T214 254T204 214Q204 171 237 146T345 121V121Z" />
<glyph unicode="9" horiz-adv-x="693" d="M321 -8Q268 -8 224 6T147 43T95 91T68 140Q67 147 68 154T79 165L205 203Q214 206 219 201T226 191Q244 165 264 148T321 130Q363 130 393 151T439 210T455 297Q455 315 451 319T431 317Q400 303 369 294T293 284Q216
284 157 312T65 390T32 505Q32 576 72 631T180 718T332 750Q432 750 504 706T616 580T655 388Q655 265 613 176T496 40T321 -8V-8ZM337 414Q356 414 376 418T413 430T441 445Q448 451 450 456T453 476Q453 507 446 533T423 579T387 609T339 620Q309 620 285 607T246
569T232 513Q232 481 246 459T285 426T337 414V414Z" />
<glyph unicode=":" horiz-adv-x="266" d="M225 367Q225 341 195 341H61Q36 341 36 365V501Q36 522 53 522H209Q225 522 225 503V367ZM225 30Q225 3 195 3H61Q36 3 36 27V163Q36 184 53 184H209Q225 184 225 166V30Z" />
<glyph unicode=";" horiz-adv-x="270" d="M55 -164Q46 -164 42 -157T41 -141L90 -29Q102 0 81 0H61Q37 0 37 23V162Q37 182 54 182H210Q226 182 226 164V30Q226 22 222 15L116 -144Q109 -153 97 -158T75 -164H55V-164ZM61 335Q36 335 36 358V499Q36 519 53 519H209Q225
519 225 501V361Q225 335 195 335H61V335Z" />
<glyph unicode="&lt;" horiz-adv-x="589" d="M531 125Q531 108 521 102T496 102L64 269Q53 273 46 280T38 299V400Q38 414 45 421T64 432L497 600Q511 606 521 599T531 577V491Q531 464 491 449L229 349L491 252Q512 244 521 236T531 211V125Z" />
<glyph unicode="=" horiz-adv-x="592" d="M549 432Q549 407 520 407L68 406Q54 406 49 411T44 429V512Q44 533 61 533H533Q549 533 549 515V432ZM549 194Q549 168 520 168H68Q54 168 49 173T44 191V274Q44 295 61 295H533Q549 295 549 277V194Z" />
<glyph unicode="&gt;" horiz-adv-x="589" d="M57 211Q57 227 66 235T98 252L360 349L98 449Q57 464 57 491V577Q57 591 67 598T91 600L525 432Q537 429 543 422T550 400V299Q550 288 543 281T525 269L92 102Q77 96 67 102T57 125V211V211Z" />
<glyph unicode="?" horiz-adv-x="542" d="M346 27Q346 0 315 0H180Q166 0 161 5T156 23V161Q156 181 173 181H329Q346 181 346 162V27ZM11 569Q2 571 1 578T2 594Q34 670 101 711T264 752Q340 752 396 728T484 665T516 579Q516 533 496 502T448 446T390 398T342
345T322 274Q322 265 316 259T299 253H205Q182 253 182 279Q182 330 198 366T237 430T285 480T325 523T341 569Q341 599 318 616T262 634Q239 634 217 625T178 597T149 554Q146 545 141 543T126 543L11 569Z" />
<glyph unicode="@" horiz-adv-x="834" d="M667 -46Q634 -72 572 -92T429 -113Q337 -113 264 -84T140 -4T63 116T36 262Q36 343 64 415T147 542T277 629T450 661Q519 661 584 643T701 585T783 485T814 338Q814 263 789 205T720 114T615 81Q570 81 548 97T516 126Q512
131 510 131T503 125Q481 100 448 84T371 67Q327 67 292 89T236 150T216 244Q216 305 241 357T312 442T422 475Q464 475 487 461T527 429Q530 426 533 427T537 433L539 442Q540 449 549 449H628Q637 449 636 441L601 232Q595 200 603 189T628 177Q649 177 668 193T700
244T713 332Q713 400 692 445T633 517T549 556T450 568Q367 568 309 544T213 478T158 381T140 264Q140 193 161 139T223 48T319 -8T446 -28Q489 -28 519 -21T572 -3T617 24Q631 33 638 23L674 -26Q679 -32 676 -36T667 -46V-46ZM336 256Q336 222 352 196T403 169Q430
169 452 185T486 227T500 281Q502 306 494 327T470 360T431 373Q406 373 385 358T350 316T336 256V256Z" />
<glyph unicode="A" horiz-adv-x="785" d="M45 0Q35 0 31 9T31 33L277 721Q281 732 287 737T305 742H479Q504 742 513 717L756 31Q759 22 756 11T742 0H570Q554 0 549 16L505 146Q503 150 501 153T490 157H263Q252 157 249 146L202 14Q200 8 195 4T180 0H45V0ZM445
309Q459 309 454 328L382 529Q380 534 376 534T370 529L297 328Q290 309 306 309H445Z" />
<glyph unicode="B" horiz-adv-x="731" d="M81 0Q72 0 67 6T61 20V718Q61 729 67 735T83 742H369Q519 742 598 693T678 547Q678 493 650 456T547 385Q545 384 545 382T547 378Q628 350 662 309T696 201Q696 99 618 50T383 0H81V0ZM378 135Q432 135 459 160T486
222Q486 248 473 267T437 296T384 306H284Q263 306 263 286V155Q263 135 278 135H378ZM384 444Q404 444 421 449T451 465T471 489T478 524Q478 563 449 585T376 607H284Q263 607 263 589V465Q263 444 278 444H384Z" />
<glyph unicode="C" horiz-adv-x="731" d="M384 752Q444 752 496 735T589 688T656 616T691 527Q696 508 693 503T679 496L523 485Q513 485 511 489T506 503Q497 551 470 582T389 613Q324 613 286 559T248 376Q248 247 283 192T389 137Q443 137 483 164T550 259Q555
270 575 266L688 244Q692 243 697 238T700 214Q696 196 683 168T645 109T584 51T497 7T383 -10Q277 -10 199 39T79 177T37 379Q37 493 79 576T199 706T384 752V752Z" />
<glyph unicode="D" horiz-adv-x="762" d="M85 742Q107 742 140 742T210 742T279 742T330 741Q465 737 552 691T682 563T724 373Q724 263 681 179T549 47T328 0H87Q61 0 61 27V719Q61 732 66 737T85 742V742ZM273 601Q263 601 263 587V155Q263 141 276 141H289Q361
141 410 163T486 237T512 374Q512 452 490 502T420 576T301 601H273V601Z" />
<glyph unicode="E" horiz-adv-x="663" d="M61 721Q61 742 78 742H601Q617 742 617 723V619Q617 595 593 595H284Q263 595 263 577V464Q263 445 279 445H474Q493 445 493 427V316Q493 310 490 306T477 301H278Q263 301 263 287V160Q263 147 274 147H607Q627 147
627 130V20Q627 12 622 6T606 0H85Q61 0 61 23V721V721Z" />
<glyph unicode="F" horiz-adv-x="641" d="M61 721Q61 742 78 742H594Q610 742 610 723L609 619Q609 595 587 595H284Q263 595 263 577V455Q263 436 279 436H478Q497 436 497 418V309Q497 294 480 294H278Q263 294 263 280V26Q263 0 233 0H85Q71 0 66 5T61 23V721V721Z" />
<glyph unicode="G" horiz-adv-x="757" d="M379 -10Q276 -10 199 37T79 170T37 368Q37 485 81 571T206 704T390 752Q477 752 542 721T647 640T699 537Q703 518 700 513T686 505L534 482Q523 482 520 486T515 500Q510 530 494 555T451 597T386 613Q343 613 312 590T265
514T248 374Q248 281 266 228T316 153T393 130Q419 130 439 137T475 156T501 185T518 221L520 240Q526 256 511 256H404Q395 256 391 260T386 276V362Q386 377 405 377L679 375Q695 375 703 368T712 348V16Q712 9 708 5T696 0H661Q652 0 645 4T632 18L597 82Q595
86 593 86T587 81Q568 61 543 40T478 5T379 -10V-10Z" />
<glyph unicode="H" horiz-adv-x="757" d="M277 306Q263 306 263 293V26Q263 0 233 0H85Q71 0 66 5T61 23V721Q61 742 78 742H246Q263 742 263 723V479Q263 460 279 460H478Q494 460 494 479V723Q494 742 511 742H679Q696 742 696 721V23Q696 11 691 6T672 0H524Q494
0 494 26V293Q494 306 480 306H277Z" />
<glyph unicode="I" horiz-adv-x="323" d="M246 742Q263 742 263 723V27Q263 12 256 6T233 0H85Q71 0 66 5T61 23V721Q61 742 78 742H246Z" />
<glyph unicode="J" horiz-adv-x="458" d="M402 203Q402 87 346 39T179 -10Q146 -10 117 -6T57 4Q42 7 36 15T30 42L39 145Q41 168 61 165Q73 163 87 160T121 156Q159 156 179 177T200 252V721Q200 742 218 742H385Q402 742 402 723V203V203Z" />
<glyph unicode="K" horiz-adv-x="759" d="M728 28Q734 17 732 9T716 0H542Q518 0 510 18L369 313Q361 325 348 309L269 210Q263 203 263 189V26Q263 0 233 0H85Q71 0 66 5T61 23V721Q61 742 78 742H246Q263 742 263 723V448Q263 437 267 437T277 444L488 723Q495
733 502 737T527 742H663Q678 742 684 734T681 716L504 504Q495 491 502 475L728 28V28Z" />
<glyph unicode="L" horiz-adv-x="635" d="M61 721Q61 742 78 742H246Q263 742 263 723V160Q263 147 274 147H584Q605 147 605 130V20Q605 12 600 6T582 0H85Q71 0 66 5T61 23V721V721Z" />
<glyph unicode="M" horiz-adv-x="964" d="M84 0Q61 0 61 26V721Q61 742 80 742H325Q337 742 342 739T351 725L477 359Q480 351 484 351T491 359L608 716Q616 742 633 742H886Q903 742 903 723V26Q903 0 874 0H725Q711 0 706 5T701 23V495Q701 502 697 502T690
494L532 17Q525 0 509 0H415Q397 0 391 17L233 487Q230 497 227 496T223 486V20Q223 8 219 4T202 0H84V0Z" />
<glyph unicode="N" horiz-adv-x="760" d="M685 742Q700 742 700 726V17Q700 9 694 5T679 0H558Q551 0 546 2T532 14L236 422Q232 428 229 427T226 421V20Q227 0 204 0H83Q61 0 61 19V721Q61 742 81 742H224Q236 742 242 739T255 726L521 351Q528 342 532 343T537
355V723Q537 742 557 742H685Z" />
<glyph unicode="O" horiz-adv-x="777" d="M389 -10Q282 -10 203 36T80 167T37 369Q37 486 81 572T204 705T389 752Q496 752 574 705T696 572T740 369Q740 253 697 168T575 37T389 -10V-10ZM390 130Q463 130 495 185T528 366Q528 497 495 555T389 613Q316 613 283
555T249 366Q249 240 282 185T390 130V130Z" />
<glyph unicode="P" horiz-adv-x="723" d="M690 506Q690 433 656 381T560 302T417 274H274Q263 274 263 264V26Q263 0 233 0H84Q71 0 66 5T61 23V721Q61 742 78 742H394Q476 742 543 717T650 639T690 506V506ZM484 509Q484 538 471 558T434 588T382 599H284Q263
599 263 579V438Q263 418 278 418H388Q432 418 458 443T484 509V509Z" />
<glyph unicode="Q" horiz-adv-x="779" d="M37 369Q37 486 81 572T204 705T389 752Q495 752 574 705T697 572T740 369Q740 273 711 200T629 78Q626 75 626 69Q626 61 640 49T677 28T723 15Q734 14 736 9T739 -1V-99Q739 -116 730 -121T698 -127Q629 -127 575 -97T477
-9Q473 -3 462 -5Q444 -8 427 -9T389 -10Q282 -10 203 36T81 167T37 369V369ZM249 367Q249 239 282 185T389 130Q463 130 496 184T529 367Q529 497 496 555T389 613Q316 613 283 555T249 367V367Z" />
<glyph unicode="R" horiz-adv-x="731" d="M687 30Q692 18 687 9T670 0H499Q480 0 474 19L374 288Q368 303 344 303H275Q268 303 266 299T263 292V27Q263 0 233 0H84Q71 0 66 5T61 23V721Q61 742 78 742H402Q542 742 619 688T696 534Q696 485 678 445T630 378T562
336Q553 332 558 318L687 30V30ZM389 437Q437 437 462 459T487 521Q487 564 459 586T389 609H284Q263 609 263 591V457Q263 437 278 437H389V437Z" />
<glyph unicode="S" horiz-adv-x="690" d="M495 555Q475 577 446 595T356 613Q297 613 270 594T243 548Q243 537 249 526T270 503T315 485L477 441Q571 416 614 359T657 227Q657 155 620 102T513 19T348 -10Q277 -10 215 6T105 51T33 121Q27 131 28 137T39 152L129
214Q142 223 150 222T164 213Q187 183 210 165T262 138T333 129Q393 129 429 146T465 199Q465 213 458 225T435 248T392 265L240 305Q181 321 139 353T75 428T52 521Q52 585 88 637T192 721T350 752Q408 752 460 739T554 702T620 646Q624 639 626 632T620 618L522
547Q516 542 511 543T495 555V555Z" />
<glyph unicode="T" horiz-adv-x="693" d="M31 721Q31 730 36 736T53 742H640Q651 742 656 736T662 721V615Q662 598 642 598H460Q448 598 448 588V20Q448 0 431 0H263Q246 0 246 19V584Q246 598 236 598H52Q31 598 31 615V721Z" />
<glyph unicode="U" horiz-adv-x="724" d="M672 284Q672 174 634 110T526 18T362 -10Q247 -10 179 25T82 131T52 304V721Q52 742 70 742H237Q254 742 254 723V280Q254 201 286 167T377 133Q413 133 442 147T488 194T505 283V721Q505 742 523 742H656Q672 742 672
723V284V284Z" />
<glyph unicode="V" horiz-adv-x="743" d="M696 742Q707 742 712 734T714 716L478 23Q471 0 444 0H299Q271 0 265 23L30 716Q26 726 31 734T47 742H217Q235 742 240 723L388 252Q394 236 399 253L541 723Q545 742 564 742H696V742Z" />
<glyph unicode="W" horiz-adv-x="1097" d="M1039 742Q1057 742 1064 732T1066 706L863 23Q854 0 829 0H706Q679 0 672 23L558 416Q555 426 552 426T543 414L429 23Q423 0 396 0H268Q243 0 235 23L31 706Q27 721 34 731T58 742H204Q218 742 224 737T233 723L350
312Q353 301 356 301T362 308L478 723Q480 732 486 737T508 742H632Q647 742 652 737T661 723L782 304Q784 297 787 297T793 302L907 723Q908 732 915 737T936 742H1039V742Z" />
<glyph unicode="X" horiz-adv-x="743" d="M704 45Q721 20 716 10T691 0H531Q503 0 494 18L368 224Q361 238 355 238T341 225L218 18Q213 8 203 4T180 0H53Q34 0 29 9T41 45L244 358Q252 368 252 375T244 392L38 711Q32 720 34 731T52 742H221Q236 742 243 738T256
723L363 542Q368 534 374 534T385 542L492 723Q497 733 504 737T526 742H666Q682 742 683 732T677 713L482 415Q476 406 476 399T484 382L704 45V45Z" />
<glyph unicode="Y" horiz-adv-x="755" d="M712 742Q724 742 727 736T725 721L490 339Q484 330 483 319T481 279V27Q481 0 451 0H303Q289 0 284 5T279 23V289Q279 304 276 311T266 330L31 716Q25 727 29 734T48 742H224Q238 742 243 738T256 723L391 482Q396 473
399 473T409 481L542 723Q547 735 553 738T573 742H712V742Z" />
<glyph unicode="Z" horiz-adv-x="698" d="M54 0Q40 0 35 4T30 23V63Q30 78 33 85T49 110L372 579Q382 594 364 594H80Q68 594 64 599T60 616V723Q60 742 76 742H647Q664 742 664 724V678Q664 668 661 661T649 641L314 162Q310 154 314 152T325 149H639Q659 149
659 132V20Q659 12 654 6T637 0H54V0Z" />
<glyph unicode="[" horiz-adv-x="327" d="M54 722Q54 742 78 742H298Q312 742 312 730V658Q312 645 298 645H220Q197 645 197 620V-49Q197 -60 201 -64T216 -68H295Q312 -68 312 -83V-148Q312 -165 295 -165H81Q54 -165 54 -141V722V722Z" />
<glyph unicode="\" horiz-adv-x="373" d="M279 -8Q267 -8 259 -3T247 15L5 712Q-5 742 20 742H96Q113 742 119 726L369 9Q374 -8 354 -8H279V-8Z" />
<glyph unicode="]" horiz-adv-x="327" d="M272 722V722V-141Q272 -165 246 -165H32Q15 -165 15 -148V-83Q15 -68 32 -68H110Q121 -68 125 -64T129 -49V620Q129 645 107 645H29Q15 645 15 658V730Q15 742 29 742H249Q272 742 272 722Z" />
<glyph unicode="^" horiz-adv-x="475" d="M247 339Q243 349 237 349T225 339L141 131Q138 125 132 124T117 123H41Q22 123 31 145L185 504Q195 527 215 535T257 537T288 505L443 142Q450 122 429 122H357Q348 122 341 123T332 131L247 339Z" />
<glyph unicode="_" horiz-adv-x="554" d="M509 -127Q509 -152 480 -152H68Q54 -152 49 -147T44 -129V-47Q44 -26 61 -26H493Q509 -26 509 -44V-127Z" />
<glyph unicode="`" horiz-adv-x="313" d="M38 740Q44 756 57 751L295 654Q308 649 302 632L288 593Q285 584 280 581T262 581L30 639Q5 646 12 669L38 740V740Z" />
<glyph unicode="a" d="M326 46Q297 22 260 6T175 -10Q99 -10 57 31T14 136Q14 194 50 237T153 304T312 329L333 330Q337 330 342 332T348 344V363Q348 396 330 414T277 432Q251 432 227 421T186 379Q182 372 178 370T162 369L45 393Q39 395 36 400T39 422Q64 484
127 512T285 540Q373 540 423 519T495 461T517 374V25Q517 11 513 6T496 0H376Q364 0 359 9T352 31L351 46Q348 65 326 46V46ZM348 230Q348 248 333 247L317 246Q299 246 277 241T234 225T200 198T187 160Q187 134 205 119T254 104Q277 104 293 111T320 127Q332
137 340 147T348 171V230V230Z" />
<glyph unicode="b" horiz-adv-x="613" d="M73 0Q58 0 53 5T48 23V721Q48 742 66 742H209Q226 742 226 722V494Q226 482 231 481T244 486Q263 504 283 515T327 533T377 540Q444 540 490 507T560 412T585 269Q585 142 526 66T358 -10Q324 -10 295 1T242 31T200 72Q196
77 193 76T188 69L174 22Q168 0 149 0H73ZM226 184Q226 157 237 137T267 107T310 96Q340 96 361 112T393 166T405 265Q405 355 382 392T314 430Q287 430 265 417T226 383V184Z" />
<glyph unicode="c" horiz-adv-x="553" d="M298 540Q366 540 414 516T491 454T530 379Q537 356 514 355L393 347Q380 345 377 359Q371 375 364 390T342 416T303 426Q274 426 252 409T218 357T206 265Q206 208 219 172T256 119T312 102Q354 102 376 125T420 184Q422
188 426 189T439 189L523 171Q536 168 531 150Q525 130 509 103T466 50T397 7T298 -10Q219 -10 158 24T61 120T26 263Q26 346 61 408T158 505T298 540V540Z" />
<glyph unicode="d" horiz-adv-x="613" d="M413 0Q403 0 397 4T390 21V45Q390 52 385 53T375 49Q358 32 338 19T291 -2T232 -10Q172 -10 126 20T54 111T28 262Q28 346 57 408T136 505T242 540Q279 540 309 528T369 488Q378 482 383 483T388 496V723Q388 742 404
742H547Q565 742 565 721V23Q565 11 560 6T540 0H413V0ZM387 385Q368 406 350 417T304 428Q277 428 255 412T220 360T208 263Q208 203 219 167T253 115T303 99Q327 99 345 109T375 137T387 175V385V385Z" />
<glyph unicode="e" horiz-adv-x="588" d="M209 216Q209 182 224 158T266 122T326 109Q356 109 384 122T444 170Q448 174 451 174T463 172L545 138Q561 131 549 116Q514 67 479 40T400 1T302 -10Q224 -10 161 24T62 118T26 257Q26 342 63 406T163 505T299 540Q377
540 436 507T530 410T565 257Q565 245 563 239T548 232H223Q217 232 213 228T209 216V216ZM375 326Q385 326 388 328T392 340Q392 359 383 380T355 418T307 434Q280 434 258 422T224 385T212 327L375 326Z" />
<glyph unicode="f" horiz-adv-x="411" d="M369 530Q381 530 386 524T391 510V426Q391 409 372 409H300Q289 409 289 397V20Q289 0 271 0H127Q111 0 111 19V399Q111 409 103 409H39Q19 409 19 426V510Q19 518 24 524T41 530H98Q111 530 111 546V603Q111 668 151
705T262 742H370Q396 742 396 719V643Q396 636 392 631T380 625H332Q312 625 298 609T284 570V542Q284 530 296 530H369V530Z" />
<glyph unicode="g" horiz-adv-x="643" d="M604 558Q612 558 618 553T624 534V455Q624 439 617 433T599 430Q588 433 576 434T553 434Q527 433 533 411Q536 404 538 395T541 373Q541 328 513 291T429 232T291 209Q255 209 233 205T201 195T191 179Q191 167 203
163T243 156L391 147Q498 140 547 101T597 0Q597 -76 523 -125T303 -175Q151 -175 76 -144T1 -49Q1 -15 29 5T98 38Q111 42 98 49Q73 61 55 79T36 127Q36 149 50 167T88 199T139 225Q144 227 146 230T141 237Q93 258 67 292T41 372Q41 446 107 492T302 538Q358
538 399 526T466 493Q474 487 482 488T495 495Q509 513 528 527T568 549T604 558V558ZM289 293Q337 293 358 316T379 370Q379 405 358 429T289 453Q247 453 224 429T200 370Q200 338 223 316T289 293V293ZM220 19Q200 20 183 14T156 -2T146 -26Q146 -47 161 -62T213
-85T312 -93Q376 -93 409 -77T442 -33Q442 -15 424 -2T369 12L220 19Z" />
<glyph unicode="h" horiz-adv-x="601" d="M72 0Q49 0 49 23V721Q49 742 66 742H207Q224 742 224 723V470Q224 464 227 463T236 466Q266 494 293 510T346 533T401 540Q476 540 517 498T558 377V27Q558 0 530 0H401Q389 0 385 5T380 23V355Q380 383 364 398T318
413Q300 413 284 407T255 389T227 357V26Q227 0 197 0H72V0Z" />
<glyph unicode="i" horiz-adv-x="274" d="M226 27Q226 12 219 6T196 0H72Q58 0 53 5T48 23V509Q48 530 66 530H209Q226 530 226 511V27ZM227 611Q227 584 196 584H71Q57 584 52 590T47 608V720Q47 742 65 742H209Q227 742 227 722V611Z" />
<glyph unicode="j" horiz-adv-x="275" d="M227 18Q227 -76 180 -123T30 -170Q-12 -170 -25 -166T-38 -147V-56Q-38 -49 -34 -42T-20 -32L18 -27Q32 -24 40 -14T49 25V509Q49 530 67 530H210Q227 530 227 511V18V18ZM227 611Q227 584 198 584H73Q48 584 48 608V720Q48
742 67 742H210Q227 742 227 722V611Z" />
<glyph unicode="k" horiz-adv-x="618" d="M600 26Q605 18 601 9T583 0H431Q419 0 412 6T401 23L314 212Q310 221 306 222T294 216L235 160Q231 156 229 150T227 133V27Q227 12 220 6T197 0H74Q59 0 54 5T49 23V721Q49 742 66 742H210Q227 742 227 723V331Q227
326 229 324T238 328L407 514Q423 530 436 530H559Q574 530 577 522T571 503L436 368Q430 361 429 355T435 336L600 26V26Z" />
<glyph unicode="l" horiz-adv-x="275" d="M227 27Q227 12 220 6T197 0H72Q47 0 47 23L51 721Q51 742 69 742H210Q227 742 227 723V27Z" />
<glyph unicode="m" horiz-adv-x="924" d="M72 0Q48 0 48 23V509Q48 530 65 530H206Q223 530 223 512V464Q223 458 226 457T235 460Q259 484 284 502T339 530T398 541Q450 541 487 516T540 446Q542 442 545 443T553 448Q574 474 603 494T664 527T727 540Q796 540
838 497T881 376V27Q881 0 853 0H724Q712 0 708 5T703 23V355Q703 383 687 398T643 413Q627 413 612 407T585 390T562 369Q557 362 555 356T553 341V27Q553 0 526 0H397Q386 0 381 5T376 23V355Q376 383 361 398T316 413Q290 413 268 400T226 357V26Q226 0 196
0H72V0Z" />
<glyph unicode="n" horiz-adv-x="600" d="M72 0Q48 0 48 23V509Q48 530 65 530H207Q224 530 224 512V464Q224 458 227 457T236 460Q259 484 285 502T339 530T400 540Q471 540 514 497T558 380V27Q558 0 530 0H401Q389 0 385 5T380 23V355Q380 383 364 398T317
413Q299 413 284 407T254 389T226 357V26Q226 0 196 0H72V0Z" />
<glyph unicode="o" horiz-adv-x="600" d="M299 -10Q218 -10 157 25T61 121T26 262Q26 346 62 408T160 505T300 540Q382 540 443 504T539 406T574 262Q574 183 539 122T443 25T299 -10V-10ZM300 106Q332 106 353 123T384 176T394 266Q394 321 384 357T353 410T300
428Q269 428 248 411T216 357T206 266Q206 211 216 176T247 123T300 106V106Z" />
<glyph unicode="p" horiz-adv-x="613" d="M203 530Q226 530 226 508V483Q226 476 231 476T241 480Q259 497 279 510T324 532T384 540Q441 540 486 511T558 421T585 268Q585 169 557 108T482 18T377 -10Q340 -10 309 1T246 41Q234 51 230 51T226 36V-146Q226 -165
209 -165H65Q48 -165 48 -145V506Q48 518 53 524T73 530H203V530ZM226 145Q242 124 261 112T308 100Q338 100 359 116T393 169T405 273Q405 334 394 368T361 416T309 430Q286 430 267 421T237 396T226 363V145V145Z" />
<glyph unicode="q" horiz-adv-x="613" d="M540 530Q555 530 560 524T565 506V-145Q565 -165 547 -165H404Q387 -165 387 -146V29Q387 42 383 44T370 39Q343 18 310 4T241 -10Q176 -10 128 22T54 115T28 265Q28 348 55 410T132 506T251 541Q291 541 321 530T375
501T417 459Q426 449 430 462L444 508Q447 519 452 524T467 530H540ZM387 345Q387 372 377 392T348 424T304 436Q276 436 254 419T220 364T208 266Q208 205 219 169T251 116T301 99Q327 99 348 109T387 138V345Z" />
<glyph unicode="r" horiz-adv-x="441" d="M72 0Q58 0 53 5T48 23V509Q48 530 65 530H203Q219 530 219 512V454Q219 447 224 446T235 451Q253 477 278 497T331 528T382 540Q419 540 419 521V387Q419 368 401 372Q381 377 359 379T323 382Q305 382 288 376T257 358T234
333T226 305V26Q226 0 196 0H72V0Z" />
<glyph unicode="s" horiz-adv-x="535" d="M377 385Q361 404 335 419T269 435Q238 435 216 424T194 390Q194 381 202 372T241 355L351 330Q440 311 476 266T512 165Q512 110 481 71T395 11T266 -10Q173 -10 110 22T22 99Q18 107 18 114T24 126L102 166Q114 171
120 170T130 164Q143 148 159 134T201 110T267 101Q291 102 311 107T342 122T354 147Q354 160 343 170T298 187L196 207Q120 222 80 260T38 362Q38 413 65 453T144 517T271 540Q350 540 406 512T486 445Q491 438 493 430T486 418L404 378Q395 374 389 376T377 385V385Z"
/>
<glyph unicode="t" horiz-adv-x="448" d="M299 409Q287 409 287 397V181Q287 151 303 137T356 123H404Q411 123 415 118T420 105L419 33Q419 12 393 7Q374 4 352 3T309 1T266 0Q196 0 153 33T109 131V392Q109 409 95 409H41Q19 409 19 429V513Q19 530 39 530H103Q113
530 114 541L129 691Q131 710 146 710H274Q292 710 292 690V541Q292 531 302 531H401Q421 531 421 514V429Q421 409 398 409H299Z" />
<glyph unicode="u" horiz-adv-x="597" d="M280 116Q306 116 329 130T371 166V504Q371 530 401 530H527Q551 530 551 506L547 20Q547 0 530 0H391Q374 0 374 18V65Q374 71 371 72T363 69Q325 28 284 9T194 -10Q150 -10 116 9T62 66T42 154V503Q42 530 70 530H199Q220
530 220 506V176Q220 148 236 132T280 116V116Z" />
<glyph unicode="v" horiz-adv-x="583" d="M548 530Q559 530 563 522T563 504L367 23Q358 0 333 0H250Q224 0 215 23L19 504Q16 514 21 522T37 530H185Q194 530 200 525T210 512L311 250Q317 231 326 251L424 512Q428 519 434 524T448 530H548V530Z" />
<glyph unicode="w" horiz-adv-x="825" d="M790 530Q801 530 805 522T806 504L639 17Q636 8 632 4T616 0H523Q502 0 496 20L421 261Q417 272 413 272T406 261L328 17Q325 8 320 4T305 0H208Q188 0 182 20L20 504Q16 514 21 522T37 530H174Q183 530 189 525T198
512L277 265Q279 255 283 255T292 266L367 512Q369 519 375 524T390 530H488Q495 530 502 525T511 512L585 265Q587 255 591 255T600 266L677 512Q681 519 687 524T701 530H790V530Z" />
<glyph unicode="x" horiz-adv-x="607" d="M578 39Q593 17 592 9T570 0H422Q396 0 384 18L294 147Q285 160 281 160T268 148L177 18Q166 0 139 0H45Q26 0 20 10T33 46L189 250Q197 260 197 266T189 283L31 499Q24 508 28 519T48 530H189Q205 530 212 526T226 512L304
398Q313 384 322 398L395 512Q402 522 409 526T432 530H536Q553 530 554 522T549 504L406 310Q399 300 400 294T407 277L578 39V39Z" />
<glyph unicode="y" horiz-adv-x="578" d="M103 -165Q72 -165 59 -162T46 -145V-55Q46 -48 52 -43T74 -37H143Q161 -37 176 -30T200 -13T212 9T212 32L18 503Q15 514 20 522T36 530H184Q193 530 199 525T209 512L306 244Q309 235 314 235T323 244L420 512Q424 519
430 524T444 530H544Q555 530 559 522T560 504L360 16Q336 -42 312 -77T259 -132T192 -158T103 -165V-165Z" />
<glyph unicode="z" horiz-adv-x="532" d="M45 0Q31 0 26 4T21 23V64Q21 79 24 86T41 111L268 405Q280 420 259 420H63Q52 420 48 424T43 441V512Q43 530 60 530H487Q504 530 504 513V465Q504 454 501 446T489 426L257 129Q244 112 264 112H486Q506 112 506 95V20Q506
12 501 6T484 0H45V0Z" />
<glyph unicode="{" horiz-adv-x="387" d="M116 612Q116 656 142 685T207 728T286 742H358Q372 742 372 730V658Q372 645 358 645H323Q292 645 279 637T262 617T259 592V396Q258 361 240 341T197 310T148 296Q142 295 142 293T148 290Q171 288 196 279T240 248T259
184V-14Q259 -42 272 -55T323 -68H355Q372 -68 372 -83V-148Q372 -165 355 -165H289Q248 -165 208 -151T142 -108T116 -35V167Q116 191 105 210T71 240T11 251Q0 251 0 269V318Q0 336 11 336Q67 337 91 358T116 424V612V612Z" />
<glyph unicode="|" horiz-adv-x="248" d="M86 -165Q61 -165 61 -136V824Q61 837 66 842T83 847H167Q187 847 187 829V-148Q187 -165 169 -165H86Z" />
<glyph unicode="}" horiz-adv-x="387" d="M271 612V612V424Q271 379 295 358T376 336Q387 336 387 318V269Q387 251 376 251Q339 251 316 240T282 210T271 167V-35Q271 -79 245 -108T179 -151T98 -165H32Q15 -165 15 -148V-83Q15 -68 32 -68H64Q102 -68 115 -55T128
-14V184Q129 226 147 248T190 279T239 290Q246 291 246 293T239 296Q216 299 191 309T147 340T128 396V592Q128 605 125 617T108 637T64 645H29Q15 645 15 658V730Q15 742 29 742H101Q140 742 179 728T245 685T271 612Z" />
<glyph unicode="~" horiz-adv-x="623" d="M565 373Q538 328 498 306T415 284Q384 284 359 294T312 318T268 342T220 352Q185 352 159 331T110 284Q106 279 101 279T91 285L54 346Q47 358 62 372Q101 410 137 435T222 461Q254 461 279 451T325 427T367 403T412
393Q444 393 469 411T511 454Q524 473 538 451L567 402Q572 396 571 388T565 373V373Z" />
<glyph unicode="&#xa0;" horiz-adv-x="203" />
<glyph unicode="&#xa1;" horiz-adv-x="271" d="M231 368Q231 349 214 349H58Q41 349 41 369V507Q41 530 66 530H200Q231 530 231 503V368V368ZM238 -146Q240 -155 235 -160T222 -165H53Q45 -165 40 -160T36 -144L80 258Q82 269 86 274T104 280H165Q180 280 187
275T195 255L238 -146V-146Z" />
<glyph unicode="&#xa2;" horiz-adv-x="558" d="M360 27Q360 0 332 0H272Q247 0 247 24V159Q247 186 275 186H336Q360 186 360 162V27V27ZM360 583Q360 556 332 556H272Q247 556 247 580V716Q247 742 275 742H336Q360 742 360 718V583V583ZM298 651Q366 651 414
627T491 565T530 490Q537 467 514 466L393 458Q380 456 377 470Q371 486 364 501T342 527T303 537Q274 537 252 520T218 468T206 376Q206 319 219 283T256 230T312 213Q354 213 376 236T420 295Q422 299 426 300T439 300L523 282Q536 279 531 261Q525 241 509 214T466
161T397 118T298 101Q219 101 158 135T61 231T26 374Q26 457 61 519T158 616T298 651V651Z" />
<glyph unicode="&#xa3;" horiz-adv-x="655" d="M29 0Q12 0 12 18V132Q12 146 26 146H45Q84 146 107 166T130 234Q130 248 129 270T123 335Q122 345 111 345H27Q15 345 15 358V428Q15 439 27 439H90Q102 439 101 452L93 536Q88 589 106 629T158 697T239 738T336
752Q384 752 432 737T522 689T585 604Q588 597 585 593T574 587L453 551Q437 546 431 558Q422 580 407 596T363 613Q344 613 330 605T307 580T299 540Q299 523 302 500T310 450Q312 439 323 439H443Q454 439 454 429V356Q454 345 443 345H336Q326 345 326 335Q327
307 325 284T318 241Q315 223 308 208T293 181T274 161Q267 154 269 151T278 147H376Q418 147 442 162T479 214Q485 227 502 224L611 202Q633 197 628 179Q606 93 543 47T390 0H29V0Z" />
<glyph unicode="&#xa4;" horiz-adv-x="588" d="M296 137Q230 137 176 169Q166 174 159 168L105 114Q96 105 84 115L33 167Q24 177 33 186L87 240Q94 247 88 258Q74 286 66 312T58 372Q58 405 65 433T89 489Q94 500 87 506L33 560Q24 569 33 579L85 632Q95 643
105 633L160 578Q166 573 176 577Q202 591 232 600T292 609Q358 609 416 576Q423 572 427 577L480 629Q485 635 490 629L550 568Q555 562 550 556L496 503Q493 500 496 493Q513 466 521 437T530 373Q530 341 522 309T495 251Q492 248 495 245L550 191Q556 184 550
178L491 118Q485 112 479 118L427 171Q423 175 416 171Q389 155 359 146T296 137V137ZM294 250Q329 250 357 267T401 312T417 373Q417 406 401 434T357 479T294 496Q259 496 231 479T187 434T171 373Q171 341 187 313T231 267T294 250V250Z" />
<glyph unicode="&#xa5;" horiz-adv-x="675" d="M676 742Q688 742 691 736T689 721L454 340Q448 331 447 320T445 280V27Q445 0 415 0H267Q253 0 248 5T243 23V290Q243 304 240 312T230 330L-5 716Q-11 727 -7 734T12 742H189Q203 742 208 738T220 723L355 482Q360
473 363 473T372 481L506 723Q512 735 518 738T537 742H676V742ZM597 295Q597 270 567 270H115Q102 270 97 275T92 292V341Q92 362 109 362H580Q597 362 597 344V295ZM597 129Q597 104 567 104H115Q102 104 97 109T92 126V175Q92 196 109 196H580Q597 196 597 178V129Z"
/>
<glyph unicode="&#xa6;" horiz-adv-x="248" d="M86 426Q61 426 61 455V824Q61 837 66 842T83 847H167Q187 847 187 829V442Q187 426 169 426H86ZM86 -165Q61 -165 61 -136V233Q61 246 66 251T83 256H167Q187 256 187 238V-148Q187 -165 169 -165H86Z" />
<glyph unicode="&#xa7;" horiz-adv-x="511" d="M404 223Q451 197 471 166T492 92Q492 42 466 2T387 -60T259 -83Q168 -83 108 -54T26 16Q18 30 20 35T26 43L109 83Q117 87 123 85T135 75Q153 56 180 39T255 22Q290 22 312 33T335 69Q335 86 321 101T265 131L191
158Q104 191 65 229T25 329Q25 376 47 410T110 463Q82 481 65 500T41 540T34 586Q34 633 60 670T133 730T248 752Q327 752 383 723T460 657Q468 642 467 637T460 630L378 590Q370 586 365 588T352 597Q333 616 310 631T253 647Q224 647 207 636T190 604Q190 591
200 580T241 558L314 530Q403 497 443 458T483 357Q483 310 462 278T404 223V223ZM287 275Q306 273 318 279T335 298T341 324Q341 341 329 358T268 395L227 410Q206 409 193 401T173 381T167 355Q167 335 181 323T241 293L287 275V275Z" />
<glyph unicode="&#xa8;" horiz-adv-x="397" d="M165 628Q165 615 159 610T138 605H31Q19 605 15 610T10 626V723Q10 742 25 742H150Q165 742 165 725V628ZM387 628Q387 615 381 610T360 605H253Q241 605 237 610T233 626V723Q233 742 248 742H372Q387 742 387 725V628Z" />
<glyph unicode="&#xa9;" horiz-adv-x="830" d="M415 -10Q336 -10 267 19T146 101T64 222T34 371Q34 450 63 519T145 640T267 722T415 752Q494 752 563 723T684 641T766 519T796 371Q796 292 767 223T685 101T563 20T415 -10V-10ZM415 83Q477 83 528 103T616 161T673
252T693 371Q693 436 673 489T616 581T528 639T415 660Q352 660 301 640T213 581T157 490T137 371Q137 305 156 252T212 161T300 103T415 83V83ZM418 585Q470 585 507 566T566 518T597 459Q600 450 597 446T585 441L491 434Q481 433 478 445Q473 462 462 479T422
496Q389 496 369 467T349 373Q349 307 370 278T429 249Q463 249 480 267T512 311Q515 317 527 315L592 301Q602 300 598 286Q593 269 582 248T548 207T494 174T418 161Q358 161 311 187T236 261T209 371Q209 435 236 483T311 558T418 585V585Z" />
<glyph unicode="&#xaa;" horiz-adv-x="389" d="M182 752Q266 751 298 724T330 647V475Q330 461 331 452T337 430Q341 420 332 417T309 414H242Q233 414 231 418T226 428L225 437Q223 447 208 437Q185 422 167 415T122 408Q70 408 42 434T14 503Q14 553 58 583T191
619L211 620Q223 621 223 631V641Q223 682 178 682Q163 682 148 676T123 650Q119 642 107 644L33 659Q30 661 29 667T30 677Q48 714 80 733T182 752V752ZM123 510Q123 495 134 486T167 476Q192 476 210 491Q216 496 219 501T223 515V552Q223 564 211 563L192 561Q167
560 145 547T123 510V510Z" />
<glyph unicode="&#xab;" horiz-adv-x="500" d="M449 74Q453 62 435 62H370Q360 62 355 72L257 237Q245 256 256 276L355 451Q359 458 362 459T371 461H437Q444 461 447 457T448 446L384 269Q380 257 384 245L449 74ZM247 74Q251 62 232 62H168Q157 62 153 72L54
237Q42 256 53 276L153 451Q157 458 160 459T168 461H235Q242 461 245 457T246 446L181 269Q177 257 181 245L247 74Z" />
<glyph unicode="&#xac;" horiz-adv-x="592" d="M549 335Q549 310 520 310H68Q54 310 49 315T44 332V416Q44 437 61 437H533Q549 437 549 419V335ZM549 175Q549 151 523 151H428Q406 151 406 172V374Q406 392 422 392H535Q549 392 549 375V175Z" />
<glyph unicode="&#xad;" horiz-adv-x="380" d="M335 226Q335 200 305 200H69Q55 200 50 205T45 223V306Q45 326 62 326L319 327Q335 327 335 308V226Z" />
<glyph unicode="&#xae;" horiz-adv-x="545" d="M273 275Q207 275 153 307T66 393T34 513Q34 579 66 633T152 719T273 752Q339 752 393 720T479 633T511 513Q511 447 479 393T393 307T273 275V275ZM273 341Q323 341 360 362T418 421T439 513Q439 566 418 604T360
664T273 686Q222 686 185 665T127 605T106 513Q106 460 126 422T184 362T273 341V341ZM378 403Q380 399 378 397T373 394H316Q310 394 307 400L277 489Q276 491 275 492T267 494H244Q240 494 240 490V402Q240 394 230 394H181Q174 394 174 401V623Q174 630 179
630H287Q332 630 357 614T382 565Q382 542 370 527T339 504Q337 503 337 499L378 403V403ZM284 538Q298 538 305 545T313 562Q313 573 305 579T282 586H247Q243 586 242 585T240 580V545Q240 538 245 538H284V538Z" />
<glyph unicode="&#xaf;" horiz-adv-x="409" d="M399 650Q399 628 373 628H30Q18 628 14 633T10 648V721Q10 739 24 739H385Q399 739 399 723V650Z" />
<glyph unicode="&#xb0;" horiz-adv-x="464" d="M410 680Q410 628 387 588T323 525T232 502Q181 502 141 524T78 587T54 680Q54 731 77 771T140 834T232 857Q283 857 323 834T386 771T410 680V680ZM307 679Q307 713 286 735T230 758Q196 758 175 736T154 678Q155
643 175 621T231 598Q265 598 286 620T307 679V679Z" />
<glyph unicode="&#xb1;" horiz-adv-x="592" d="M549 50Q549 24 520 24H68Q54 24 49 29T44 47V130Q44 151 61 151H533Q549 151 549 133V50ZM549 427Q549 402 520 402L68 401Q54 401 49 406T44 424V507Q44 528 61 528H533Q549 528 549 510V427ZM259 213Q234 213
234 243V695Q234 708 239 713T256 718H340Q361 718 361 701V229Q361 213 343 213H259Z" />
<glyph unicode="&#xb2;" horiz-adv-x="452" d="M183 588Q225 624 246 644T274 679T281 711Q281 727 274 739T252 759T219 766Q194 766 174 751T133 699Q128 689 114 696L49 729Q42 733 41 739T43 752Q77 806 121 831T227 857Q280 857 320 840T382 789T404 712Q404
688 396 666T369 623T318 578L205 496Q201 493 201 491T209 488H396Q409 488 409 477V397Q409 384 395 384H54Q46 384 42 387T38 399V454Q38 459 43 466T72 492L183 588Z" />
<glyph unicode="&#xb3;" horiz-adv-x="467" d="M66 775Q61 782 66 790Q91 820 137 838T236 857Q322 857 370 823T418 733Q418 706 400 679T345 640Q338 637 338 634T345 627Q385 615 408 587T432 521Q432 451 382 415T228 378Q172 378 123 400T48 459Q44 465 45
470T52 480L109 520Q119 527 124 521Q153 492 177 479T235 466Q269 466 288 480T307 518Q307 536 298 549T271 570T230 578L177 579Q165 579 165 589V657Q165 665 177 667L220 669Q253 670 273 685T294 725Q294 745 277 758T233 771Q205 771 183 761T135 726Q130
721 128 721T120 725L66 775V775Z" />
<glyph unicode="&#xb4;" horiz-adv-x="313" d="M302 667Q309 644 284 637L52 579Q40 576 35 579T26 591L12 630Q6 646 19 652L258 749Q271 754 277 738L302 667Z" />
<glyph unicode="&#xb5;" horiz-adv-x="597" d="M280 116Q306 116 329 130T371 166V504Q371 530 401 530H527Q551 530 551 506L547 20Q547 0 530 0H391Q374 0 374 18V65Q374 71 371 72T363 69Q335 39 308 23T253 -1Q239 -5 232 -7T220 -14V-138Q220 -153 213 -159T190
-165H67Q42 -165 42 -142V503Q42 530 70 530H199Q220 530 220 506V173Q220 156 227 143T249 123T280 116V116Z" />
<glyph unicode="&#xb6;" horiz-adv-x="618" d="M522 644Q510 644 510 631V-69Q510 -75 508 -80T496 -85H421Q403 -85 403 -69V633Q403 644 391 644H352Q340 644 340 631V-70Q340 -85 326 -85H248Q234 -85 234 -70V299Q234 307 224 308Q172 313 127 338T54 409T26
523Q26 585 53 634T135 713T266 742H562Q575 742 575 730V655Q575 644 562 644H522Z" />
<glyph unicode="&#xb7;" horiz-adv-x="264" d="M216 315Q216 291 189 291H66Q44 291 44 311V437Q44 456 60 456H201Q216 456 216 439V315Z" />
<glyph unicode="&#xb8;" horiz-adv-x="274" d="M264 -136Q264 -163 246 -182T199 -211T136 -222Q104 -222 73 -217T16 -198Q7 -191 10 -183L26 -145Q29 -137 38 -140Q54 -149 73 -156T113 -163Q136 -163 149 -156T162 -134Q162 -115 143 -104T73 -93Q67 -93 64
-91T64 -82L102 5H176L157 -46Q153 -54 162 -54Q200 -54 222 -67T254 -98T264 -136V-136Z" />
<glyph unicode="&#xb9;" horiz-adv-x="367" d="M303 472Q316 472 316 462V393Q316 380 301 380H43Q30 380 30 392V462Q30 472 42 472H103Q109 472 109 478V714Q109 724 100 721L44 707Q29 702 29 719V767Q29 775 31 778T40 784L149 839Q158 843 163 845T178 847H227Q237
847 237 835V480Q237 472 243 472H303V472Z" />
<glyph unicode="&#xba;" horiz-adv-x="395" d="M197 752Q249 752 287 730T347 668T369 578Q369 529 347 491T287 430T197 408Q146 408 108 430T48 490T26 578Q26 630 48 669T109 730T197 752V752ZM197 680Q168 680 154 656T140 581Q140 530 154 506T197 481Q227
481 241 505T255 581Q255 631 241 655T197 680V680Z" />
<glyph unicode="&#xbb;" horiz-adv-x="500" d="M117 245Q121 257 117 269L52 446Q49 453 52 457T63 461H129Q135 461 138 460T145 451L244 276Q255 256 243 237L145 72Q141 62 130 62H66Q47 62 51 74L117 245V245ZM319 245Q323 257 319 269L254 446Q251 453 255
457T265 461H332Q337 461 340 460T347 451L447 276Q458 256 446 237L347 72Q343 62 333 62H268Q249 62 253 74L319 245V245Z" />
<glyph unicode="&#xbc;" horiz-adv-x="957" d="M300 368Q313 368 313 358V289Q313 276 298 276H40Q27 276 27 288V358Q27 368 39 368H100Q106 368 106 374V610Q106 620 97 617L41 603Q26 598 26 615V663Q26 671 28 674T37 680L146 735Q155 739 160 741T175 743H224Q234
743 234 731V376Q234 368 240 368H300V368ZM302 7Q295 -4 275 -4L228 -3Q213 -3 211 7T215 28L687 738Q693 747 699 748T713 750H773Q780 750 784 746T782 732L302 7ZM723 453Q730 462 735 464T751 467H843Q854 467 854 455V198Q854 190 861 190H910Q922 190 922
179V118Q922 105 908 105H862Q854 105 854 97V16Q854 0 835 0H740Q725 0 725 15V99Q725 105 717 105H533Q519 105 519 118V176Q519 184 523 191T537 211L723 453V453ZM721 190Q726 190 726 194V333Q726 342 724 342T717 335L619 198Q613 190 623 190H721Z" />
<glyph unicode="&#xbd;" horiz-adv-x="1007" d="M308 368Q321 368 321 358V289Q321 276 306 276H48Q35 276 35 288V358Q35 368 47 368H108Q114 368 114 374V610Q114 620 105 617L49 603Q34 598 34 615V663Q34 671 36 674T45 680L154 735Q163 739 168 741T183 743H232Q242
743 242 731V376Q242 368 248 368H308V368ZM288 7Q281 -4 261 -4L214 -3Q199 -3 197 7T201 28L673 738Q679 747 685 748T699 750H759Q766 750 770 746T768 732L288 7ZM733 204Q775 240 796 260T824 295T831 327Q831 343 824 355T802 375T769 382Q744 382 724 367T683
315Q678 305 664 312L599 345Q592 349 591 355T593 368Q627 422 671 447T777 473Q830 473 870 456T932 405T954 328Q954 304 946 282T919 239T868 194L755 112Q751 109 751 107T759 104H946Q959 104 959 93V13Q959 0 945 0H604Q596 0 592 3T588 15V70Q588 75 593
82T622 108L733 204Z" />
<glyph unicode="&#xbe;" horiz-adv-x="1038" d="M52 670Q47 677 52 685Q77 715 123 733T222 752Q308 752 356 718T404 628Q404 601 386 574T331 535Q324 532 324 529T331 522Q371 510 394 482T418 416Q418 346 368 310T214 273Q158 273 109 295T34 354Q30 360
31 365T38 375L95 415Q105 422 110 416Q139 387 163 374T221 361Q255 361 274 375T293 413Q293 431 284 444T257 465T216 473L163 474Q151 474 151 484V552Q151 560 163 562L206 564Q239 565 259 580T280 620Q280 640 263 653T219 666Q191 666 169 656T121 621Q116
616 114 616T106 620L52 670V670ZM358 7Q351 -4 331 -4L284 -3Q269 -3 267 7T271 28L743 738Q749 747 755 748T769 750H829Q836 750 840 746T838 732L358 7ZM796 453Q803 462 808 464T824 467H916Q927 467 927 455V198Q927 190 934 190H983Q995 190 995 179V118Q995
105 981 105H935Q927 105 927 97V16Q927 0 908 0H813Q798 0 798 15V99Q798 105 790 105H606Q592 105 592 118V176Q592 184 596 191T610 211L796 453V453ZM794 190Q799 190 799 194V333Q799 342 797 342T790 335L692 198Q686 190 696 190H794Z" />
<glyph unicode="&#xbf;" horiz-adv-x="539" d="M193 503Q193 530 223 530H359Q373 530 378 525T383 507V369Q383 349 365 349H210Q193 349 193 368V503ZM528 8Q537 6 538 -1T537 -17Q505 -93 439 -134T275 -175Q191 -175 135 -151T51 -88T23 -2Q23 36 37 63T73
109T120 145T167 178T203 215T217 264Q217 273 223 279T239 286H334Q357 286 357 260Q357 223 346 196T316 148T277 110T239 78T210 46T198 8Q198 -18 221 -35T276 -53Q300 -53 322 -44T361 -17T390 23Q394 32 398 33T413 33L528 8Z" />
<glyph unicode="&#xc0;" horiz-adv-x="785" d="M45 0Q35 0 31 9T31 33L277 721Q281 732 287 737T305 742H479Q504 742 513 717L756 31Q759 22 756 11T742 0H570Q554 0 549 16L505 146Q503 150 501 153T490 157H263Q252 157 249 146L202 14Q200 8 195 4T180 0H45V0ZM445
309Q459 309 454 328L382 529Q380 534 376 534T370 529L297 328Q290 309 306 309H445ZM271 952Q277 968 290 963L528 866Q541 861 535 844L521 805Q518 796 513 793T495 793L263 851Q238 858 245 881L271 952V952Z" />
<glyph unicode="&#xc1;" horiz-adv-x="785" d="M45 0Q35 0 31 9T31 33L277 721Q281 732 287 737T305 742H479Q504 742 513 717L756 31Q759 22 756 11T742 0H570Q554 0 549 16L505 146Q503 150 501 153T490 157H263Q252 157 249 146L202 14Q200 8 195 4T180 0H45V0ZM445
309Q459 309 454 328L382 529Q380 534 376 534T370 529L297 328Q290 309 306 309H445ZM535 879Q542 856 517 849L285 791Q273 788 268 791T259 803L245 842Q239 858 252 864L491 961Q504 966 510 950L535 879Z" />
<glyph unicode="&#xc2;" horiz-adv-x="785" d="M45 0Q35 0 31 9T31 33L277 721Q281 732 287 737T305 742H479Q504 742 513 717L756 31Q759 22 756 11T742 0H570Q554 0 549 16L505 146Q503 150 501 153T490 157H263Q252 157 249 146L202 14Q200 8 195 4T180 0H45V0ZM445
309Q459 309 454 328L382 529Q380 534 376 534T370 529L297 328Q290 309 306 309H445ZM403 876Q393 888 388 888T371 876L323 822Q316 816 312 815T298 814H208Q199 814 199 818T205 831L315 948Q322 956 329 959T350 963H434Q444 963 450 959T460 950L570 831Q586
814 568 814H472Q463 814 457 815T446 822L403 876Z" />
<glyph unicode="&#xc3;" horiz-adv-x="785" d="M45 0Q35 0 31 9T31 33L277 721Q281 732 287 737T305 742H479Q504 742 513 717L756 31Q759 22 756 11T742 0H570Q554 0 549 16L505 146Q503 150 501 153T490 157H263Q252 157 249 146L202 14Q200 8 195 4T180 0H45V0ZM445
309Q459 309 454 328L382 529Q380 534 376 534T370 529L297 328Q290 309 306 309H445ZM564 858Q549 848 524 839T469 830Q440 830 415 837T366 852T313 860Q292 860 278 854T244 836Q237 830 232 831T223 843L207 892Q206 899 206 905T215 920Q233 935 254 947T309
959Q339 959 366 951T419 934T468 926Q491 926 509 934T541 952Q549 957 555 956T564 944L577 885Q581 870 564 858V858Z" />
<glyph unicode="&#xc4;" horiz-adv-x="785" d="M45 0Q35 0 31 9T31 33L277 721Q281 732 287 737T305 742H479Q504 742 513 717L756 31Q759 22 756 11T742 0H570Q554 0 549 16L505 146Q503 150 501 153T490 157H263Q252 157 249 146L202 14Q200 8 195 4T180 0H45V0ZM445
309Q459 309 454 328L382 529Q380 534 376 534T370 529L297 328Q290 309 306 309H445ZM355 840Q355 827 349 822T328 817H221Q209 817 205 822T200 838V935Q200 954 215 954H340Q355 954 355 937V840ZM577 840Q577 827 571 822T550 817H443Q431 817 427 822T423
838V935Q423 954 438 954H562Q577 954 577 937V840Z" />
<glyph unicode="&#xc5;" horiz-adv-x="785" d="M45 0Q35 0 31 9T31 33L277 721Q281 732 287 737T305 742H479Q504 742 513 717L756 31Q759 22 756 11T742 0H570Q554 0 549 16L505 146Q503 150 501 153T490 157H263Q252 157 249 146L202 14Q200 8 195 4T180 0H45V0ZM445
309Q459 309 454 328L382 529Q380 534 376 534T370 529L297 328Q290 309 306 309H445ZM503 846Q503 798 470 765T388 731Q340 731 307 765T274 848Q274 879 289 904T331 944T388 959Q421 959 447 944T488 903T503 846V846ZM437 845Q437 866 423 880T387 894Q368
894 353 880T337 845Q337 825 352 810T387 795Q408 795 422 810T437 845V845Z" />
<glyph unicode="&#xc6;" horiz-adv-x="1104" d="M1049 147Q1069 147 1069 130V20Q1069 12 1064 6T1047 0H531Q506 0 506 23V144Q506 157 494 157H286Q275 157 270 146L201 14Q198 8 193 4T177 0H42Q32 0 29 9T34 33L396 721Q402 732 408 737T427 742H1043Q1059
742 1059 723L1058 619Q1058 595 1035 595H729Q708 595 708 577V464Q708 445 725 445H917Q936 445 936 427V316Q936 310 933 306T920 301H723Q708 301 708 287V160Q708 147 720 147H1049V147ZM489 309Q506 309 506 328V555Q506 576 494 577T470 556L350 328Q338
309 356 309H489V309Z" />
<glyph unicode="&#xc7;" horiz-adv-x="731" d="M384 752Q444 752 496 735T589 688T656 616T691 527Q696 508 693 503T679 496L523 485Q513 485 511 489T506 503Q497 551 470 582T389 613Q324 613 286 559T248 376Q248 247 283 192T389 137Q443 137 483 164T550
259Q555 270 575 266L688 244Q692 243 697 238T700 214Q696 196 683 168T645 109T584 51T497 7T383 -10Q277 -10 199 39T79 177T37 379Q37 493 79 576T199 706T384 752V752ZM512 -136Q512 -163 494 -182T447 -211T384 -222Q352 -222 321 -217T264 -198Q255 -191
258 -183L274 -145Q277 -137 286 -140Q302 -149 321 -156T361 -163Q384 -163 397 -156T410 -134Q410 -115 391 -104T321 -93Q315 -93 312 -91T312 -82L350 5H424L405 -46Q401 -54 410 -54Q448 -54 470 -67T502 -98T512 -136V-136Z" />
<glyph unicode="&#xc8;" horiz-adv-x="663" d="M61 721Q61 742 78 742H601Q617 742 617 723V619Q617 595 593 595H284Q263 595 263 577V464Q263 445 279 445H474Q493 445 493 427V316Q493 310 490 306T477 301H278Q263 301 263 287V160Q263 147 274 147H607Q627
147 627 130V20Q627 12 622 6T606 0H85Q61 0 61 23V721V721ZM220 952Q226 968 239 963L477 866Q490 861 484 844L470 805Q467 796 462 793T444 793L212 851Q187 858 194 881L220 952V952Z" />
<glyph unicode="&#xc9;" horiz-adv-x="663" d="M61 721Q61 742 78 742H601Q617 742 617 723V619Q617 595 593 595H284Q263 595 263 577V464Q263 445 279 445H474Q493 445 493 427V316Q493 310 490 306T477 301H278Q263 301 263 287V160Q263 147 274 147H607Q627
147 627 130V20Q627 12 622 6T606 0H85Q61 0 61 23V721V721ZM483 879Q490 856 465 849L233 791Q221 788 216 791T207 803L193 842Q187 858 200 864L439 961Q452 966 458 950L483 879Z" />
<glyph unicode="&#xca;" horiz-adv-x="663" d="M61 721Q61 742 78 742H601Q617 742 617 723V619Q617 595 593 595H284Q263 595 263 577V464Q263 445 279 445H474Q493 445 493 427V316Q493 310 490 306T477 301H278Q263 301 263 287V160Q263 147 274 147H607Q627
147 627 130V20Q627 12 622 6T606 0H85Q61 0 61 23V721V721ZM352 876Q342 888 337 888T320 876L272 822Q265 816 261 815T247 814H157Q148 814 148 818T154 831L264 948Q271 956 278 959T299 963H383Q393 963 399 959T409 950L519 831Q535 814 517 814H421Q412
814 406 815T395 822L352 876Z" />
<glyph unicode="&#xcb;" horiz-adv-x="663" d="M61 721Q61 742 78 742H601Q617 742 617 723V619Q617 595 593 595H284Q263 595 263 577V464Q263 445 279 445H474Q493 445 493 427V316Q493 310 490 306T477 301H278Q263 301 263 287V160Q263 147 274 147H607Q627
147 627 130V20Q627 12 622 6T606 0H85Q61 0 61 23V721V721ZM303 840Q303 827 297 822T276 817H169Q157 817 153 822T148 838V935Q148 954 163 954H288Q303 954 303 937V840ZM525 840Q525 827 519 822T498 817H391Q379 817 375 822T371 838V935Q371 954 386 954H510Q525
954 525 937V840Z" />
<glyph unicode="&#xcc;" horiz-adv-x="323" d="M246 742Q263 742 263 723V27Q263 12 256 6T233 0H85Q71 0 66 5T61 23V721Q61 742 78 742H246ZM45 952Q51 968 64 963L302 866Q315 861 309 844L295 805Q292 796 287 793T269 793L37 851Q12 858 19 881L45 952V952Z" />
<glyph unicode="&#xcd;" horiz-adv-x="323" d="M246 742Q263 742 263 723V27Q263 12 256 6T233 0H85Q71 0 66 5T61 23V721Q61 742 78 742H246ZM308 879Q315 856 290 849L58 791Q46 788 41 791T32 803L18 842Q12 858 25 864L264 961Q277 966 283 950L308 879Z" />
<glyph unicode="&#xce;" horiz-adv-x="323" d="M246 742Q263 742 263 723V27Q263 12 256 6T233 0H85Q71 0 66 5T61 23V721Q61 742 78 742H246ZM177 876Q167 888 162 888T145 876L97 822Q90 816 86 815T72 814H-18Q-27 814 -27 818T-21 831L89 948Q96 956 103 959T124
963H208Q218 963 224 959T234 950L344 831Q360 814 342 814H246Q237 814 231 815T220 822L177 876Z" />
<glyph unicode="&#xcf;" horiz-adv-x="323" d="M246 742Q263 742 263 723V27Q263 12 256 6T233 0H85Q71 0 66 5T61 23V721Q61 742 78 742H246ZM128 840Q128 827 122 822T101 817H-6Q-18 817 -22 822T-27 838V935Q-27 954 -12 954H113Q128 954 128 937V840ZM350
840Q350 827 344 822T323 817H216Q204 817 200 822T196 838V935Q196 954 211 954H335Q350 954 350 937V840Z" />
<glyph unicode="&#xd0;" horiz-adv-x="779" d="M420 327Q420 301 389 301H49Q36 301 31 306T26 324V408Q26 429 43 429H403Q420 429 420 410V327ZM102 742Q124 742 157 742T227 742T296 742T348 741Q482 737 569 691T699 563T742 373Q742 263 698 179T566 47T345
0H104Q78 0 78 27V719Q78 732 83 737T102 742V742ZM290 601Q280 601 280 587V155Q280 141 293 141H306Q378 141 428 163T504 237T530 374Q530 452 508 502T438 576T318 601H290V601Z" />
<glyph unicode="&#xd1;" horiz-adv-x="760" d="M685 742Q700 742 700 726V17Q700 9 694 5T679 0H558Q551 0 546 2T532 14L236 422Q232 428 229 427T226 421V20Q227 0 204 0H83Q61 0 61 19V721Q61 742 81 742H224Q236 742 242 739T255 726L521 351Q528 342 532
343T537 355V723Q537 742 557 742H685ZM558 858Q543 848 518 839T463 830Q434 830 409 837T360 852T307 860Q286 860 272 854T238 836Q231 830 226 831T217 843L201 892Q200 899 200 905T209 920Q227 935 248 947T303 959Q333 959 360 951T413 934T462 926Q485
926 503 934T535 952Q543 957 549 956T558 944L571 885Q575 870 558 858V858Z" />
<glyph unicode="&#xd2;" horiz-adv-x="777" d="M389 -10Q282 -10 203 36T80 167T37 369Q37 486 81 572T204 705T389 752Q496 752 574 705T696 572T740 369Q740 253 697 168T575 37T389 -10V-10ZM390 130Q463 130 495 185T528 366Q528 497 495 555T389 613Q316
613 283 555T249 366Q249 240 282 185T390 130V130ZM271 952Q277 968 290 963L528 866Q541 861 535 844L521 805Q518 796 513 793T495 793L263 851Q238 858 245 881L271 952V952Z" />
<glyph unicode="&#xd3;" horiz-adv-x="777" d="M389 -10Q282 -10 203 36T80 167T37 369Q37 486 81 572T204 705T389 752Q496 752 574 705T696 572T740 369Q740 253 697 168T575 37T389 -10V-10ZM390 130Q463 130 495 185T528 366Q528 497 495 555T389 613Q316
613 283 555T249 366Q249 240 282 185T390 130V130ZM534 879Q541 856 516 849L284 791Q272 788 267 791T258 803L244 842Q238 858 251 864L490 961Q503 966 509 950L534 879Z" />
<glyph unicode="&#xd4;" horiz-adv-x="777" d="M389 -10Q282 -10 203 36T80 167T37 369Q37 486 81 572T204 705T389 752Q496 752 574 705T696 572T740 369Q740 253 697 168T575 37T389 -10V-10ZM390 130Q463 130 495 185T528 366Q528 497 495 555T389 613Q316
613 283 555T249 366Q249 240 282 185T390 130V130ZM403 876Q393 888 388 888T371 876L323 822Q316 816 312 815T298 814H208Q199 814 199 818T205 831L315 948Q322 956 329 959T350 963H434Q444 963 450 959T460 950L570 831Q586 814 568 814H472Q463 814 457
815T446 822L403 876Z" />
<glyph unicode="&#xd5;" horiz-adv-x="777" d="M389 -10Q282 -10 203 36T80 167T37 369Q37 486 81 572T204 705T389 752Q496 752 574 705T696 572T740 369Q740 253 697 168T575 37T389 -10V-10ZM390 130Q463 130 495 185T528 366Q528 497 495 555T389 613Q316
613 283 555T249 366Q249 240 282 185T390 130V130ZM564 858Q549 848 524 839T469 830Q440 830 415 837T366 852T313 860Q292 860 278 854T244 836Q237 830 232 831T223 843L207 892Q206 899 206 905T215 920Q233 935 254 947T309 959Q339 959 366 951T419 934T468
926Q491 926 509 934T541 952Q549 957 555 956T564 944L577 885Q581 870 564 858V858Z" />
<glyph unicode="&#xd6;" horiz-adv-x="777" d="M389 -10Q282 -10 203 36T80 167T37 369Q37 486 81 572T204 705T389 752Q496 752 574 705T696 572T740 369Q740 253 697 168T575 37T389 -10V-10ZM390 130Q463 130 495 185T528 366Q528 497 495 555T389 613Q316
613 283 555T249 366Q249 240 282 185T390 130V130ZM355 840Q355 827 349 822T328 817H221Q209 817 205 822T200 838V935Q200 954 215 954H340Q355 954 355 937V840ZM577 840Q577 827 571 822T550 817H443Q431 817 427 822T423 838V935Q423 954 438 954H562Q577
954 577 937V840Z" />
<glyph unicode="&#xd7;" horiz-adv-x="589" d="M469 145Q451 127 431 148L64 514Q55 524 55 531T64 546L123 605Q138 621 150 608L530 228Q535 223 535 217T529 204L469 145ZM67 199Q48 216 70 238L436 604Q446 614 453 614T468 605L528 545Q541 531 530 518L150
139Q139 128 125 139L67 199Z" />
<glyph unicode="&#xd8;" horiz-adv-x="775" d="M763 692Q776 679 763 667L685 589Q712 545 725 490T739 369Q739 253 696 168T574 37T388 -10Q319 -10 262 9T160 65L101 6Q91 -5 82 -5T61 5L25 42Q7 61 21 76L91 146Q65 191 51 247T37 369Q37 486 80 572T203 705T389
752Q458 752 516 732T618 672L685 738Q701 755 713 743L763 692V692ZM249 366Q249 350 250 335T255 306L495 551Q463 613 389 613Q316 613 283 555T249 366V366ZM526 366Q526 384 525 399T520 428L282 184Q314 130 389 130Q462 130 494 185T526 366V366Z" />
<glyph unicode="&#xd9;" horiz-adv-x="724" d="M672 284Q672 174 634 110T526 18T362 -10Q247 -10 179 25T82 131T52 304V721Q52 742 70 742H237Q254 742 254 723V280Q254 201 286 167T377 133Q413 133 442 147T488 194T505 283V721Q505 742 523 742H656Q672 742
672 723V284V284ZM260 952Q266 968 279 963L517 866Q530 861 524 844L510 805Q507 796 502 793T484 793L252 851Q227 858 234 881L260 952V952Z" />
<glyph unicode="&#xda;" horiz-adv-x="724" d="M672 284Q672 174 634 110T526 18T362 -10Q247 -10 179 25T82 131T52 304V721Q52 742 70 742H237Q254 742 254 723V280Q254 201 286 167T377 133Q413 133 442 147T488 194T505 283V721Q505 742 523 742H656Q672 742
672 723V284V284ZM523 879Q530 856 505 849L273 791Q261 788 256 791T247 803L233 842Q227 858 240 864L479 961Q492 966 498 950L523 879Z" />
<glyph unicode="&#xdb;" horiz-adv-x="724" d="M672 284Q672 174 634 110T526 18T362 -10Q247 -10 179 25T82 131T52 304V721Q52 742 70 742H237Q254 742 254 723V280Q254 201 286 167T377 133Q413 133 442 147T488 194T505 283V721Q505 742 523 742H656Q672 742
672 723V284V284ZM392 876Q382 888 377 888T360 876L312 822Q305 816 301 815T287 814H197Q188 814 188 818T194 831L304 948Q311 956 318 959T339 963H423Q433 963 439 959T449 950L559 831Q575 814 557 814H461Q452 814 446 815T435 822L392 876Z" />
<glyph unicode="&#xdc;" horiz-adv-x="724" d="M672 284Q672 174 634 110T526 18T362 -10Q247 -10 179 25T82 131T52 304V721Q52 742 70 742H237Q254 742 254 723V280Q254 201 286 167T377 133Q413 133 442 147T488 194T505 283V721Q505 742 523 742H656Q672 742
672 723V284V284ZM343 840Q343 827 337 822T316 817H209Q197 817 193 822T188 838V935Q188 954 203 954H328Q343 954 343 937V840ZM565 840Q565 827 559 822T538 817H431Q419 817 415 822T411 838V935Q411 954 426 954H550Q565 954 565 937V840Z" />
<glyph unicode="&#xdd;" horiz-adv-x="755" d="M712 742Q724 742 727 736T725 721L490 339Q484 330 483 319T481 279V27Q481 0 451 0H303Q289 0 284 5T279 23V289Q279 304 276 311T266 330L31 716Q25 727 29 734T48 742H224Q238 742 243 738T256 723L391 482Q396
473 399 473T409 481L542 723Q547 735 553 738T573 742H712V742ZM536 879Q543 856 518 849L286 791Q274 788 269 791T260 803L246 842Q240 858 253 864L492 961Q505 966 511 950L536 879Z" />
<glyph unicode="&#xde;" horiz-adv-x="734" d="M702 374Q702 303 667 252T571 175T429 148H274Q263 148 263 137V26Q263 0 233 0H84Q71 0 66 5T61 23V721Q61 742 78 742H246Q263 742 263 723V615Q263 604 272 604H405Q487 604 554 579T661 503T702 374V374ZM495
377Q495 418 466 439T393 461H284Q263 461 263 441V311Q263 291 278 291H399Q444 291 469 315T495 377V377Z" />
<glyph unicode="&#xdf;" horiz-adv-x="663" d="M342 742Q413 742 463 724T539 670T565 585Q565 549 551 522T506 474T427 432Q419 428 415 425T411 415Q411 410 414 407T428 400Q467 383 505 365T573 321T622 261T640 176Q640 115 612 74T534 11T415 -10Q374 -10
344 -3T292 17Q279 24 285 37L323 117Q330 130 342 122Q354 115 370 108T410 101Q440 101 460 115T481 158Q481 177 472 189T443 210T394 231Q364 245 339 264T299 309T284 372Q284 412 301 438T343 486Q358 500 372 513T396 541T405 574Q405 597 388 613T335 629Q291
629 268 603T245 535V20Q250 0 231 0H87Q71 0 71 18V369Q71 379 63 379H32Q12 379 12 397V481Q12 489 17 495T33 501H58Q67 501 69 506T71 517Q72 560 86 600T132 672T215 723T342 742V742Z" />
<glyph unicode="&#xe0;" d="M326 46Q297 22 260 6T175 -10Q99 -10 57 31T14 136Q14 194 50 237T153 304T312 329L333 330Q337 330 342 332T348 344V363Q348 396 330 414T277 432Q251 432 227 421T186 379Q182 372 178 370T162 369L45 393Q39 395 36 400T39 422Q64
484 127 512T285 540Q373 540 423 519T495 461T517 374V25Q517 11 513 6T496 0H376Q364 0 359 9T352 31L351 46Q348 65 326 46V46ZM348 230Q348 248 333 247L317 246Q299 246 277 241T234 225T200 198T187 160Q187 134 205 119T254 104Q277 104 293 111T320 127Q332
137 340 147T348 171V230V230ZM167 740Q173 756 186 751L424 654Q437 649 431 632L417 593Q414 584 409 581T391 581L159 639Q134 646 141 669L167 740V740Z" />
<glyph unicode="&#xe1;" d="M326 46Q297 22 260 6T175 -10Q99 -10 57 31T14 136Q14 194 50 237T153 304T312 329L333 330Q337 330 342 332T348 344V363Q348 396 330 414T277 432Q251 432 227 421T186 379Q182 372 178 370T162 369L45 393Q39 395 36 400T39 422Q64
484 127 512T285 540Q373 540 423 519T495 461T517 374V25Q517 11 513 6T496 0H376Q364 0 359 9T352 31L351 46Q348 65 326 46V46ZM348 230Q348 248 333 247L317 246Q299 246 277 241T234 225T200 198T187 160Q187 134 205 119T254 104Q277 104 293 111T320 127Q332
137 340 147T348 171V230V230ZM430 667Q437 644 412 637L180 579Q168 576 163 579T154 591L140 630Q134 646 147 652L386 749Q399 754 405 738L430 667Z" />
<glyph unicode="&#xe2;" d="M326 46Q297 22 260 6T175 -10Q99 -10 57 31T14 136Q14 194 50 237T153 304T312 329L333 330Q337 330 342 332T348 344V363Q348 396 330 414T277 432Q251 432 227 421T186 379Q182 372 178 370T162 369L45 393Q39 395 36 400T39 422Q64
484 127 512T285 540Q373 540 423 519T495 461T517 374V25Q517 11 513 6T496 0H376Q364 0 359 9T352 31L351 46Q348 65 326 46V46ZM348 230Q348 248 333 247L317 246Q299 246 277 241T234 225T200 198T187 160Q187 134 205 119T254 104Q277 104 293 111T320 127Q332
137 340 147T348 171V230V230ZM298 664Q288 676 283 676T266 664L218 610Q211 604 207 603T193 602H103Q94 602 94 606T100 619L210 736Q217 744 224 747T245 751H329Q339 751 345 747T355 738L465 619Q481 602 463 602H367Q358 602 352 603T341 610L298 664Z"
/>
<glyph unicode="&#xe3;" d="M326 46Q297 22 260 6T175 -10Q99 -10 57 31T14 136Q14 194 50 237T153 304T312 329L333 330Q337 330 342 332T348 344V363Q348 396 330 414T277 432Q251 432 227 421T186 379Q182 372 178 370T162 369L45 393Q39 395 36 400T39 422Q64
484 127 512T285 540Q373 540 423 519T495 461T517 374V25Q517 11 513 6T496 0H376Q364 0 359 9T352 31L351 46Q348 65 326 46V46ZM348 230Q348 248 333 247L317 246Q299 246 277 241T234 225T200 198T187 160Q187 134 205 119T254 104Q277 104 293 111T320 127Q332
137 340 147T348 171V230V230ZM460 646Q445 636 420 627T365 618Q336 618 311 625T262 640T209 648Q188 648 174 642T140 624Q133 618 128 619T119 631L103 680Q102 687 102 693T111 708Q129 723 150 735T205 747Q235 747 262 739T315 722T364 714Q387 714 405
722T437 740Q445 745 451 744T460 732L473 673Q477 658 460 646V646Z" />
<glyph unicode="&#xe4;" d="M326 46Q297 22 260 6T175 -10Q99 -10 57 31T14 136Q14 194 50 237T153 304T312 329L333 330Q337 330 342 332T348 344V363Q348 396 330 414T277 432Q251 432 227 421T186 379Q182 372 178 370T162 369L45 393Q39 395 36 400T39 422Q64
484 127 512T285 540Q373 540 423 519T495 461T517 374V25Q517 11 513 6T496 0H376Q364 0 359 9T352 31L351 46Q348 65 326 46V46ZM348 230Q348 248 333 247L317 246Q299 246 277 241T234 225T200 198T187 160Q187 134 205 119T254 104Q277 104 293 111T320 127Q332
137 340 147T348 171V230V230ZM250 628Q250 615 244 610T223 605H116Q104 605 100 610T95 626V723Q95 742 110 742H235Q250 742 250 725V628ZM472 628Q472 615 466 610T445 605H338Q326 605 322 610T318 626V723Q318 742 333 742H457Q472 742 472 725V628Z" />
<glyph unicode="&#xe5;" d="M326 46Q297 22 260 6T175 -10Q99 -10 57 31T14 136Q14 194 50 237T153 304T312 329L333 330Q337 330 342 332T348 344V363Q348 396 330 414T277 432Q251 432 227 421T186 379Q182 372 178 370T162 369L45 393Q39 395 36 400T39 422Q64
484 127 512T285 540Q373 540 423 519T495 461T517 374V25Q517 11 513 6T496 0H376Q364 0 359 9T352 31L351 46Q348 65 326 46V46ZM348 230Q348 248 333 247L317 246Q299 246 277 241T234 225T200 198T187 160Q187 134 205 119T254 104Q277 104 293 111T320 127Q332
137 340 147T348 171V230V230ZM399 691Q399 643 366 610T284 576Q236 576 203 610T170 693Q170 724 185 749T227 789T284 804Q317 804 343 789T384 748T399 691V691ZM333 690Q333 711 319 725T283 739Q264 739 249 725T233 690Q233 670 248 655T283 640Q304 640
318 655T333 690V690Z" />
<glyph unicode="&#xe6;" horiz-adv-x="908" d="M545 232Q537 232 533 228T529 214Q529 190 538 170T563 137T600 116T646 109Q668 109 686 115T724 135T764 170Q768 174 771 174T784 172L865 138Q881 131 869 116Q835 68 800 41T721 2T622 -10Q578 -10 540 1T470
32T415 76Q410 82 405 76Q376 48 344 29T273 0T186 -10Q102 -10 58 32T14 142Q14 221 84 270T295 328L330 330Q336 330 342 332T348 344V363Q348 396 330 414T276 432Q251 432 227 421T186 379Q182 370 178 369T161 369L45 393Q39 395 38 405T39 422Q59 461 88
487T163 526T281 540Q349 539 394 527T466 489Q498 514 537 527T619 540Q697 540 756 507T850 410T885 257Q885 244 883 239T867 232H545V232ZM627 434Q602 434 581 422T546 387T532 327L695 326Q705 326 708 328T712 340Q712 359 703 380T675 418T627 434V434ZM348
223Q348 232 344 236T330 240L305 238Q279 237 252 227T206 198T187 154Q187 128 205 113T257 97Q281 98 301 106T335 128T348 162V223V223Z" />
<glyph unicode="&#xe7;" horiz-adv-x="553" d="M298 540Q366 540 414 516T491 454T530 379Q537 356 514 355L393 347Q380 345 377 359Q371 375 364 390T342 416T303 426Q274 426 252 409T218 357T206 265Q206 208 219 172T256 119T312 102Q354 102 376 125T420
184Q422 188 426 189T439 189L523 171Q536 168 531 150Q525 130 509 103T466 50T397 7T298 -10Q219 -10 158 24T61 120T26 263Q26 346 61 408T158 505T298 540V540ZM426 -136Q426 -163 408 -182T361 -211T298 -222Q266 -222 235 -217T178 -198Q169 -191 172 -183L188
-145Q191 -137 200 -140Q216 -149 235 -156T275 -163Q298 -163 311 -156T324 -134Q324 -115 305 -104T235 -93Q229 -93 226 -91T226 -82L264 5H338L319 -46Q315 -54 324 -54Q362 -54 384 -67T416 -98T426 -136V-136Z" />
<glyph unicode="&#xe8;" horiz-adv-x="588" d="M209 216Q209 182 224 158T266 122T326 109Q356 109 384 122T444 170Q448 174 451 174T463 172L545 138Q561 131 549 116Q514 67 479 40T400 1T302 -10Q224 -10 161 24T62 118T26 257Q26 342 63 406T163 505T299
540Q377 540 436 507T530 410T565 257Q565 245 563 239T548 232H223Q217 232 213 228T209 216V216ZM375 326Q385 326 388 328T392 340Q392 359 383 380T355 418T307 434Q280 434 258 422T224 385T212 327L375 326ZM183 740Q189 756 202 751L440 654Q453 649 447
632L433 593Q430 584 425 581T407 581L175 639Q150 646 157 669L183 740V740Z" />
<glyph unicode="&#xe9;" horiz-adv-x="588" d="M209 216Q209 182 224 158T266 122T326 109Q356 109 384 122T444 170Q448 174 451 174T463 172L545 138Q561 131 549 116Q514 67 479 40T400 1T302 -10Q224 -10 161 24T62 118T26 257Q26 342 63 406T163 505T299
540Q377 540 436 507T530 410T565 257Q565 245 563 239T548 232H223Q217 232 213 228T209 216V216ZM375 326Q385 326 388 328T392 340Q392 359 383 380T355 418T307 434Q280 434 258 422T224 385T212 327L375 326ZM446 667Q453 644 428 637L196 579Q184 576 179
579T170 591L156 630Q150 646 163 652L402 749Q415 754 421 738L446 667Z" />
<glyph unicode="&#xea;" horiz-adv-x="588" d="M209 216Q209 182 224 158T266 122T326 109Q356 109 384 122T444 170Q448 174 451 174T463 172L545 138Q561 131 549 116Q514 67 479 40T400 1T302 -10Q224 -10 161 24T62 118T26 257Q26 342 63 406T163 505T299
540Q377 540 436 507T530 410T565 257Q565 245 563 239T548 232H223Q217 232 213 228T209 216V216ZM375 326Q385 326 388 328T392 340Q392 359 383 380T355 418T307 434Q280 434 258 422T224 385T212 327L375 326ZM315 664Q305 676 300 676T283 664L235 610Q228
604 224 603T210 602H120Q111 602 111 606T117 619L227 736Q234 744 241 747T262 751H346Q356 751 362 747T372 738L482 619Q498 602 480 602H384Q375 602 369 603T358 610L315 664Z" />
<glyph unicode="&#xeb;" horiz-adv-x="588" d="M209 216Q209 182 224 158T266 122T326 109Q356 109 384 122T444 170Q448 174 451 174T463 172L545 138Q561 131 549 116Q514 67 479 40T400 1T302 -10Q224 -10 161 24T62 118T26 257Q26 342 63 406T163 505T299
540Q377 540 436 507T530 410T565 257Q565 245 563 239T548 232H223Q217 232 213 228T209 216V216ZM375 326Q385 326 388 328T392 340Q392 359 383 380T355 418T307 434Q280 434 258 422T224 385T212 327L375 326ZM266 628Q266 615 260 610T239 605H132Q120 605
116 610T111 626V723Q111 742 126 742H251Q266 742 266 725V628ZM488 628Q488 615 482 610T461 605H354Q342 605 338 610T334 626V723Q334 742 349 742H473Q488 742 488 725V628Z" />
<glyph unicode="&#xec;" horiz-adv-x="274" d="M226 27Q226 12 219 6T196 0H72Q58 0 53 5T48 23V509Q48 530 66 530H209Q226 530 226 511V27ZM23 740Q29 756 42 751L280 654Q293 649 287 632L273 593Q270 584 265 581T247 581L15 639Q-10 646 -3 669L23 740V740Z" />
<glyph unicode="&#xed;" horiz-adv-x="274" d="M226 27Q226 12 219 6T196 0H72Q58 0 53 5T48 23V509Q48 530 66 530H209Q226 530 226 511V27ZM286 667Q293 644 268 637L36 579Q24 576 19 579T10 591L-4 630Q-10 646 3 652L242 749Q255 754 261 738L286 667Z" />
<glyph unicode="&#xee;" horiz-adv-x="274" d="M226 27Q226 12 219 6T196 0H72Q58 0 53 5T48 23V509Q48 530 66 530H209Q226 530 226 511V27ZM155 664Q145 676 140 676T123 664L75 610Q68 604 64 603T50 602H-40Q-49 602 -49 606T-43 619L67 736Q74 744 81 747T102
751H186Q196 751 202 747T212 738L322 619Q338 602 320 602H224Q215 602 209 603T198 610L155 664Z" />
<glyph unicode="&#xef;" horiz-adv-x="274" d="M226 27Q226 12 219 6T196 0H72Q58 0 53 5T48 23V509Q48 530 66 530H209Q226 530 226 511V27ZM106 628Q106 615 100 610T79 605H-28Q-40 605 -44 610T-49 626V723Q-49 742 -34 742H91Q106 742 106 725V628ZM328 628Q328
615 322 610T301 605H194Q182 605 178 610T174 626V723Q174 742 189 742H313Q328 742 328 725V628Z" />
<glyph unicode="&#xf0;" horiz-adv-x="600" d="M574 278Q574 190 540 126T444 26T299 -10Q218 -10 157 24T61 118T26 252Q26 331 62 391T159 485T299 520Q309 520 315 519T324 515Q309 539 290 558T244 598L138 538Q124 531 115 545L101 568Q96 575 97 580T103
588L186 634Q166 644 145 654T99 671Q95 673 94 677T98 685L172 746Q177 751 180 751T193 750Q225 742 255 731T313 705L392 749Q402 756 409 747L429 711Q434 704 425 698L373 669Q470 602 522 500T574 278V278ZM300 106Q331 106 352 123T383 173T394 256Q394
306 384 340T352 391T300 408Q270 408 249 391T217 340T206 256Q206 207 216 174T248 123T300 106V106Z" />
<glyph unicode="&#xf1;" horiz-adv-x="600" d="M72 0Q48 0 48 23V509Q48 530 65 530H207Q224 530 224 512V464Q224 458 227 457T236 460Q259 484 285 502T339 530T400 540Q471 540 514 497T558 380V27Q558 0 530 0H401Q389 0 385 5T380 23V355Q380 383 364 398T317
413Q299 413 284 407T254 389T226 357V26Q226 0 196 0H72V0ZM479 646Q464 636 439 627T384 618Q355 618 330 625T281 640T228 648Q207 648 193 642T159 624Q152 618 147 619T138 631L122 680Q121 687 121 693T130 708Q148 723 169 735T224 747Q254 747 281 739T334
722T383 714Q406 714 424 722T456 740Q464 745 470 744T479 732L492 673Q496 658 479 646V646Z" />
<glyph unicode="&#xf2;" horiz-adv-x="600" d="M299 -10Q218 -10 157 25T61 121T26 262Q26 346 62 408T160 505T300 540Q382 540 443 504T539 406T574 262Q574 183 539 122T443 25T299 -10V-10ZM300 106Q332 106 353 123T384 176T394 266Q394 321 384 357T353
410T300 428Q269 428 248 411T216 357T206 266Q206 211 216 176T247 123T300 106V106ZM183 740Q189 756 202 751L440 654Q453 649 447 632L433 593Q430 584 425 581T407 581L175 639Q150 646 157 669L183 740V740Z" />
<glyph unicode="&#xf3;" horiz-adv-x="600" d="M299 -10Q218 -10 157 25T61 121T26 262Q26 346 62 408T160 505T300 540Q382 540 443 504T539 406T574 262Q574 183 539 122T443 25T299 -10V-10ZM300 106Q332 106 353 123T384 176T394 266Q394 321 384 357T353
410T300 428Q269 428 248 411T216 357T206 266Q206 211 216 176T247 123T300 106V106ZM446 667Q453 644 428 637L196 579Q184 576 179 579T170 591L156 630Q150 646 163 652L402 749Q415 754 421 738L446 667Z" />
<glyph unicode="&#xf4;" horiz-adv-x="600" d="M299 -10Q218 -10 157 25T61 121T26 262Q26 346 62 408T160 505T300 540Q382 540 443 504T539 406T574 262Q574 183 539 122T443 25T299 -10V-10ZM300 106Q332 106 353 123T384 176T394 266Q394 321 384 357T353
410T300 428Q269 428 248 411T216 357T206 266Q206 211 216 176T247 123T300 106V106ZM315 664Q305 676 300 676T283 664L235 610Q228 604 224 603T210 602H120Q111 602 111 606T117 619L227 736Q234 744 241 747T262 751H346Q356 751 362 747T372 738L482 619Q498
602 480 602H384Q375 602 369 603T358 610L315 664Z" />
<glyph unicode="&#xf5;" horiz-adv-x="600" d="M299 -10Q218 -10 157 25T61 121T26 262Q26 346 62 408T160 505T300 540Q382 540 443 504T539 406T574 262Q574 183 539 122T443 25T299 -10V-10ZM300 106Q332 106 353 123T384 176T394 266Q394 321 384 357T353
410T300 428Q269 428 248 411T216 357T206 266Q206 211 216 176T247 123T300 106V106ZM476 646Q461 636 436 627T381 618Q352 618 327 625T278 640T225 648Q204 648 190 642T156 624Q149 618 144 619T135 631L119 680Q118 687 118 693T127 708Q145 723 166 735T221
747Q251 747 278 739T331 722T380 714Q403 714 421 722T453 740Q461 745 467 744T476 732L489 673Q493 658 476 646V646Z" />
<glyph unicode="&#xf6;" horiz-adv-x="600" d="M299 -10Q218 -10 157 25T61 121T26 262Q26 346 62 408T160 505T300 540Q382 540 443 504T539 406T574 262Q574 183 539 122T443 25T299 -10V-10ZM300 106Q332 106 353 123T384 176T394 266Q394 321 384 357T353
410T300 428Q269 428 248 411T216 357T206 266Q206 211 216 176T247 123T300 106V106ZM266 628Q266 615 260 610T239 605H132Q120 605 116 610T111 626V723Q111 742 126 742H251Q266 742 266 725V628ZM488 628Q488 615 482 610T461 605H354Q342 605 338 610T334
626V723Q334 742 349 742H473Q488 742 488 725V628Z" />
<glyph unicode="&#xf7;" horiz-adv-x="594" d="M385 100Q385 77 358 77H232Q210 77 210 97V226Q210 244 226 244H370Q385 244 385 227V100ZM549 335Q549 310 520 310H68Q54 310 49 315T44 332V416Q44 437 61 437H533Q549 437 549 419V335ZM385 526Q385 502 358
502H232Q210 502 210 524V652Q210 670 226 670H370Q385 670 385 653V526Z" />
<glyph unicode="&#xf8;" horiz-adv-x="600" d="M88 11Q77 1 68 1T49 11L31 30Q12 50 28 64L514 521Q532 536 543 525L574 492Q587 479 574 467L88 11ZM299 -10Q218 -10 157 25T61 121T26 262Q26 346 62 408T160 505T300 540Q382 540 443 504T539 406T574 262Q574
183 539 122T442 25T299 -10V-10ZM300 106Q332 106 352 123T383 176T394 266Q394 321 384 357T352 410T300 428Q269 428 248 411T216 357T206 266Q206 211 216 176T247 123T300 106V106Z" />
<glyph unicode="&#xf9;" horiz-adv-x="597" d="M280 116Q306 116 329 130T371 166V504Q371 530 401 530H527Q551 530 551 506L547 20Q547 0 530 0H391Q374 0 374 18V65Q374 71 371 72T363 69Q325 28 284 9T194 -10Q150 -10 116 9T62 66T42 154V503Q42 530 70 530H199Q220
530 220 506V176Q220 148 236 132T280 116V116ZM177 740Q183 756 196 751L434 654Q447 649 441 632L427 593Q424 584 419 581T401 581L169 639Q144 646 151 669L177 740V740Z" />
<glyph unicode="&#xfa;" horiz-adv-x="597" d="M280 116Q306 116 329 130T371 166V504Q371 530 401 530H527Q551 530 551 506L547 20Q547 0 530 0H391Q374 0 374 18V65Q374 71 371 72T363 69Q325 28 284 9T194 -10Q150 -10 116 9T62 66T42 154V503Q42 530 70 530H199Q220
530 220 506V176Q220 148 236 132T280 116V116ZM440 667Q447 644 422 637L190 579Q178 576 173 579T164 591L150 630Q144 646 157 652L396 749Q409 754 415 738L440 667Z" />
<glyph unicode="&#xfb;" horiz-adv-x="597" d="M280 116Q306 116 329 130T371 166V504Q371 530 401 530H527Q551 530 551 506L547 20Q547 0 530 0H391Q374 0 374 18V65Q374 71 371 72T363 69Q325 28 284 9T194 -10Q150 -10 116 9T62 66T42 154V503Q42 530 70 530H199Q220
530 220 506V176Q220 148 236 132T280 116V116ZM309 664Q299 676 294 676T277 664L229 610Q222 604 218 603T204 602H114Q105 602 105 606T111 619L221 736Q228 744 235 747T256 751H340Q350 751 356 747T366 738L476 619Q492 602 474 602H378Q369 602 363 603T352
610L309 664Z" />
<glyph unicode="&#xfc;" horiz-adv-x="597" d="M280 116Q306 116 329 130T371 166V504Q371 530 401 530H527Q551 530 551 506L547 20Q547 0 530 0H391Q374 0 374 18V65Q374 71 371 72T363 69Q325 28 284 9T194 -10Q150 -10 116 9T62 66T42 154V503Q42 530 70 530H199Q220
530 220 506V176Q220 148 236 132T280 116V116ZM261 628Q261 615 255 610T234 605H127Q115 605 111 610T106 626V723Q106 742 121 742H246Q261 742 261 725V628ZM483 628Q483 615 477 610T456 605H349Q337 605 333 610T329 626V723Q329 742 344 742H468Q483 742
483 725V628Z" />
<glyph unicode="&#xfd;" horiz-adv-x="578" d="M103 -165Q72 -165 59 -162T46 -145V-55Q46 -48 52 -43T74 -37H143Q161 -37 176 -30T200 -13T212 9T212 32L18 503Q15 514 20 522T36 530H184Q193 530 199 525T209 512L306 244Q309 235 314 235T323 244L420 512Q424
519 430 524T444 530H544Q555 530 559 522T560 504L360 16Q336 -42 312 -77T259 -132T192 -158T103 -165V-165ZM462 667Q469 644 444 637L212 579Q200 576 195 579T186 591L172 630Q166 646 179 652L418 749Q431 754 437 738L462 667Z" />
<glyph unicode="&#xfe;" horiz-adv-x="610" d="M203 742Q226 742 226 720V483Q226 476 231 476T241 480Q259 497 279 510T324 532T384 540Q441 540 486 511T558 421T585 268Q585 169 557 108T482 18T377 -10Q340 -10 309 1T246 41Q234 51 230 51T226 36V-146Q226
-165 209 -165H65Q48 -165 48 -145V718Q48 730 53 736T73 742H203V742ZM226 145Q242 124 261 112T308 100Q338 100 359 116T393 169T405 273Q405 334 394 368T361 416T309 430Q286 430 267 421T237 396T226 363V145V145Z" />
<glyph unicode="&#xff;" horiz-adv-x="578" d="M103 -165Q72 -165 59 -162T46 -145V-55Q46 -48 52 -43T74 -37H143Q161 -37 176 -30T200 -13T212 9T212 32L18 503Q15 514 20 522T36 530H184Q193 530 199 525T209 512L306 244Q309 235 314 235T323 244L420 512Q424
519 430 524T444 530H544Q555 530 559 522T560 504L360 16Q336 -42 312 -77T259 -132T192 -158T103 -165V-165ZM282 628Q282 615 276 610T255 605H148Q136 605 132 610T127 626V723Q127 742 142 742H267Q282 742 282 725V628ZM504 628Q504 615 498 610T477 605H370Q358
605 354 610T350 626V723Q350 742 365 742H489Q504 742 504 725V628Z" />
<glyph unicode="&#x2013;" horiz-adv-x="594" d="M549 216Q549 191 520 191H68Q54 191 49 196T44 213V296Q44 317 61 317H533Q549 317 549 299V216Z" />
<glyph unicode="&#x2014;" horiz-adv-x="919" d="M875 216Q875 191 845 191H68Q54 191 49 196T44 213V296Q44 317 61 317H858Q875 317 875 299V216Z" />
<glyph unicode="&#x2018;" horiz-adv-x="247" d="M188 742Q196 742 199 736T201 722L158 621Q154 609 155 603T167 594L183 593Q195 592 200 588T205 572V449Q205 430 188 430H51Q36 430 36 446V564Q36 571 40 577L135 723Q141 733 152 737T172 742H188V742Z" />
<glyph unicode="&#x2019;" horiz-adv-x="247" d="M59 430Q51 430 48 436T46 450L89 550Q94 563 93 569T81 577L64 579Q53 581 48 585T43 600V723Q43 742 59 742H196Q211 742 211 726V608Q211 600 208 595L112 448Q106 439 96 435T75 430H59V430Z" />
<glyph unicode="&#x201a;" horiz-adv-x="247" d="M59 -149Q51 -149 48 -143T46 -129L89 -29Q94 -16 93 -10T81 -2L64 0Q53 2 48 6T43 21V144Q43 163 59 163H196Q211 163 211 147V29Q211 21 208 16L112 -131Q106 -140 96 -144T75 -149H59V-149Z" />
<glyph unicode="&#x201c;" horiz-adv-x="488" d="M292 430Q277 430 277 446V564Q277 571 280 577L376 723Q382 733 392 737T413 742H429Q437 742 440 736T442 722L399 621Q394 609 395 603T407 594L424 593Q436 592 440 588T445 572V449Q445 430 429 430H292V430ZM51
430Q36 430 36 446V564Q36 571 40 577L135 723Q141 733 152 737T172 742H188Q196 742 199 736T201 722L158 621Q154 609 155 603T167 594L183 593Q195 592 200 588T205 572V449Q205 430 188 430H51V430Z" />
<glyph unicode="&#x201d;" horiz-adv-x="492" d="M300 430Q292 430 289 436T287 450L330 550Q334 563 333 569T321 577L305 579Q293 581 288 585T283 600V723Q283 742 300 742H437Q452 742 452 726V608Q452 600 448 595L353 448Q347 439 337 435T316 430H300V430ZM59
430Q51 430 48 436T46 450L89 550Q94 563 93 569T81 577L64 579Q53 581 48 585T43 600V723Q43 742 59 742H196Q211 742 211 726V608Q211 600 208 595L112 448Q106 439 96 435T75 430H59V430Z" />
<glyph unicode="&#x201e;" horiz-adv-x="492" d="M300 -149Q292 -149 289 -143T287 -129L330 -29Q335 -16 334 -10T322 -2L305 0Q294 2 289 6T284 21V144Q284 163 300 163H437Q452 163 452 147V29Q452 21 449 16L353 -131Q347 -140 337 -144T316 -149H300V-149ZM59
-149Q51 -149 48 -143T46 -129L89 -29Q94 -16 93 -10T81 -2L64 0Q53 2 48 6T43 21V144Q43 163 59 163H196Q211 163 211 147V29Q211 21 208 16L112 -131Q106 -140 96 -144T75 -149H59V-149Z" />
<glyph unicode="&#x2022;" horiz-adv-x="348" d="M172 234Q133 234 101 253T49 305T29 377Q29 417 48 449T100 500T172 520Q212 520 244 501T295 449T315 377Q315 338 296 306T244 254T172 234V234Z" />
<glyph unicode="&#x2039;" horiz-adv-x="298" d="M247 74Q251 62 232 62H168Q157 62 153 72L54 237Q42 256 53 276L153 451Q157 458 160 459T168 461H235Q242 461 245 457T246 446L181 269Q177 257 181 245L247 74Z" />
<glyph unicode="&#x203a;" horiz-adv-x="298" d="M117 245Q121 257 117 269L52 446Q49 453 52 457T63 461H130Q135 461 138 460T145 451L245 276Q256 256 244 237L145 72Q141 62 130 62H66Q47 62 51 74L117 245V245Z" />
</font>
</defs>
</svg>
