<?xml version="1.0" standalone="no"?>
<!DOCTYPE svg PUBLIC "-//W3C//DTD SVG 1.1//EN" "http://www.w3.org/Graphics/SVG/1.1/DTD/svg11.dtd">
<svg xmlns="http://www.w3.org/2000/svg">
<defs >
<font id="MontserratAlternates" horiz-adv-x="676" ><font-face
    font-family="Montserrat Alternates Black"
    units-per-em="1000"
    panose-1="0 0 10 0 0 0 0 0 0 0"
    ascent="968"
    descent="-251"
    alphabetic="0" />
<glyph unicode=" " glyph-name="space" horiz-adv-x="300" />
<glyph unicode="!" glyph-name="exclam" horiz-adv-x="314" d="M22 700H292L247 268H67L22 700ZM99 -10T62 25T25 110Q25 161 62 194T157 228Q215 228 252 195T289 110Q289 60 252 25T157 -10Q99 -10 62 25Z" />
<glyph unicode="&quot;" glyph-name="quotedbl" horiz-adv-x="489" d="M32 700H222L207 400H47L32 700ZM267 700H457L442 400H282L267 700Z" />
<glyph unicode="#" glyph-name="numbersign" horiz-adv-x="740" d="M587 413L572 287H693V137H553L536 0H376L393 137H294L277 0H117L134 137H13V287H153L168 413H47V563H187L204 700H364L347 563H446L463 700H623L606 563H727V413H587ZM427 413H328L313 287H412L427
413Z" />
<glyph unicode="$" glyph-name="dollar" horiz-adv-x="657" d="M644 136T584 74T411 -9V-120H270V-14Q195 -10 127 9T13 56L89 228Q139 199 201 182T320 164Q369 164 390 173T411 202Q411 224 384 235T293 259Q212 276 158 295T64 359T24 480Q24 568 87 631T270
711V820H411V713Q531 702 614 655L543 484Q440 536 348 536Q257 536 257 492Q257 471 284 461T373 438Q453 423 508 404T603 340T644 220Q644 136 584 74Z" />
<glyph unicode="%" glyph-name="percent" horiz-adv-x="917" d="M120 320T68 372T16 515Q16 576 40 620T106 687T202 710Q255 710 297 687T364 620T388 515Q388 424 336 372T202 320Q120 320 68 372ZM613 700H782L304 0H135L613 700ZM221 428T233 448T246 515Q246
561 234 581T202 602Q183 602 171 582T158 515Q158 469 170 449T202 428Q221 428 233 448ZM633 -10T581 42T529 185Q529 246 553 290T619 357T715 380Q768 380 810 357T877 290T901 185Q901 94 849 42T715 -10Q633 -10 581 42ZM734 98T746 118T759 185Q759 231
747 251T715 272Q696 272 684 252T671 185Q671 139 683 119T715 98Q734 98 746 118Z" />
<glyph unicode="&amp;" glyph-name="ampersand" horiz-adv-x="777" d="M727 250T681 180L747 124L626 -13L552 51Q448 -16 318 -16Q235 -16 169 10T64 83T26 187Q26 253 59 301T162 389Q102 453 102 523Q102 579 133 621T222 688T354 712Q423 712 475 691T557
629T586 535Q586 482 557 441T465 364L539 301Q557 341 566 392L747 338Q727 250 681 180ZM332 566T320 555T307 526Q307 513 314 501T342 470Q397 500 397 530Q397 546 386 556T355 566Q332 566 320 555ZM375 152T414 169L286 279Q247 251 247 212Q247 186 270
169T335 152Q375 152 414 169Z" />
<glyph unicode="&apos;" glyph-name="quotesingle" horiz-adv-x="254" d="M32 700H222L207 400H47L32 700Z" />
<glyph unicode="(" glyph-name="parenleft" horiz-adv-x="381" d="M115 -104T81 16T47 274Q47 411 81 531T180 742H396Q329 623 299 510T268 274Q268 152 298 39T396 -194H180Q115 -104 81 16Z" />
<glyph unicode=")" glyph-name="parenright" horiz-adv-x="381" d="M-15 -194Q52 -75 82 38T113 274Q113 396 83 509T-15 742H201Q266 652 300 532T334 274Q334 137 300 17T201 -194H-15Z" />
<glyph unicode="*" glyph-name="asterisk" horiz-adv-x="473" d="M371 532L467 481L398 369L300 429L303 322H169L172 429L74 369L6 481L102 532L6 583L74 695L172 635L169 742H303L300 635L398 695L467 583L371 532Z" />
<glyph unicode="+" glyph-name="plus" horiz-adv-x="620" d="M565 265H400V105H220V265H55V435H220V595H400V435H565V265Z" />
<glyph unicode="," glyph-name="comma" horiz-adv-x="304" d="M210 248T247 213T284 120Q284 94 277 68T245 -11L175 -160H35L85 9Q54 24 37 52T20 120Q20 178 57 213T152 248Q210 248 247 213Z" />
<glyph unicode="-" glyph-name="hyphen" horiz-adv-x="390" d="M45 374H345V204H45V374Z" />
<glyph unicode="." glyph-name="period" horiz-adv-x="304" d="M95 -10T58 26T20 120Q20 177 57 212T152 248Q209 248 246 213T284 120Q284 63 247 27T152 -10Q95 -10 58 26Z" />
<glyph unicode="/" glyph-name="slash" horiz-adv-x="440" d="M290 842H490L160 -100H-40L290 842Z" />
<glyph unicode="0" glyph-name="zero" horiz-adv-x="692" d="M253 -16T182 27T70 153T29 350Q29 464 69 546T181 672T346 716Q439 716 510 673T622 547T663 350Q663 236 623 154T511 28T346 -16Q253 -16 182 27ZM426 173T426 350Q426 527 346 527Q266 527 266
350Q266 173 346 173Q426 173 426 350Z" />
<glyph unicode="1" glyph-name="one" horiz-adv-x="418" d="M361 700V0H125V522H5V700H361Z" />
<glyph unicode="2" glyph-name="two" horiz-adv-x="608" d="M589 183V0H28V145L281 379Q314 410 325 432T336 475Q336 501 319 515T268 530Q236 530 208 513T165 465L-13 554Q27 629 104 672T290 716Q373 716 437 689T537 612T573 497Q573 439 549 389T453 274L353
183H589Z" />
<glyph unicode="3" glyph-name="three" horiz-adv-x="614" d="M503 403T546 351T590 224Q590 161 556 107T449 18T270 -16Q196 -16 123 0T-6 47L74 221Q117 196 166 183T262 170Q303 170 328 184T353 224Q353 272 270 272H177V417L280 522H30V700H552V555L422
423Q503 403 546 351Z" />
<glyph unicode="4" glyph-name="four" horiz-adv-x="712" d="M708 120H615V0H386V120H23V270L320 700H562L298 303H393V410H615V303H708V120Z" />
<glyph unicode="5" glyph-name="five" horiz-adv-x="619" d="M462 453T531 392T601 230Q601 164 567 109T460 19T281 -16Q207 -16 134 0T5 47L85 221Q129 196 177 183T272 170Q313 170 338 184T364 225Q364 250 341 262T258 275H55L90 700H555V522H284L279 453H315Q462
453 531 392Z" />
<glyph unicode="6" glyph-name="six" horiz-adv-x="661" d="M473 453T528 425T616 346T649 229Q649 156 612 100T509 14T365 -16Q264 -16 189 23T71 139T29 328Q29 448 77 536T213 670T417 716Q480 716 537 702T634 661L549 496Q497 533 422 533Q361 533 322 503T270
414Q325 453 409 453Q473 453 528 425ZM381 147T401 166T421 218Q421 251 401 270T349 290Q317 290 297 271T277 218Q277 185 297 166T349 147Q381 147 401 166Z" />
<glyph unicode="7" glyph-name="seven" horiz-adv-x="645" d="M620 700V555L387 0H129L351 517H216V415H21V700H620Z" />
<glyph unicode="8" glyph-name="eight" horiz-adv-x="678" d="M604 341T628 301T653 208Q653 141 614 90T503 12T339 -16Q247 -16 176 11T65 90T25 208Q25 260 49 300T119 369Q50 424 50 507Q50 570 86 617T188 690T339 716Q424 716 489 690T591 617T628 507Q628
424 559 369Q604 341 628 301ZM314 557T299 541T283 497Q283 469 298 453T339 437Q364 437 379 453T395 497Q395 525 380 541T339 557Q314 557 299 541ZM373 143T394 163T416 216Q416 249 395 269T339 289Q305 289 284 269T262 216Q262 183 283 163T339 143Q373
143 394 163Z" />
<glyph unicode="9" glyph-name="nine" horiz-adv-x="661" d="M397 716T472 677T590 561T632 372Q632 252 584 164T448 30T244 -16Q181 -16 124 -2T27 39L112 204Q164 167 239 167Q300 167 339 197T391 286Q336 247 252 247Q188 247 133 275T45 354T12 471Q12 544
49 600T152 686T296 716Q397 716 472 677ZM344 410T364 429T384 482Q384 515 364 534T312 553Q280 553 260 534T240 482Q240 449 260 430T312 410Q344 410 364 429Z" />
<glyph unicode=":" glyph-name="colon" horiz-adv-x="304" d="M95 299T58 335T20 429Q20 486 57 521T152 557Q209 557 246 522T284 429Q284 372 247 336T152 299Q95 299 58 335ZM95 -10T58 26T20 120Q20 177 57 212T152 248Q209 248 246 213T284 120Q284 63 247
27T152 -10Q95 -10 58 26Z" />
<glyph unicode=";" glyph-name="semicolon" horiz-adv-x="304" d="M95 299T58 335T20 429Q20 486 57 521T152 557Q209 557 246 522T284 429Q284 372 247 336T152 299Q95 299 58 335ZM210 248T247 213T284 120Q284 94 277 68T245 -11L175 -160H35L85 9Q54 24 37
52T20 120Q20 178 57 213T152 248Q210 248 247 213Z" />
<glyph unicode="&lt;" glyph-name="less" horiz-adv-x="620" d="M565 454L262 350L565 246V76L55 261V439L565 624V454Z" />
<glyph unicode="=" glyph-name="equal" horiz-adv-x="620" d="M55 565H565V395H55V565ZM55 305H565V135H55V305Z" />
<glyph unicode="&gt;" glyph-name="greater" horiz-adv-x="620" d="M565 439V261L55 76V246L358 350L55 454V624L565 439Z" />
<glyph unicode="?" glyph-name="question" horiz-adv-x="606" d="M207 315T228 346T288 415Q313 439 324 454T336 486Q336 508 317 520T269 533Q237 533 209 515T165 465L-13 554Q27 630 105 673T299 716Q421 716 497 666T573 525Q573 483 559 452T524 399T473
351Q441 323 427 306T413 268H207Q207 315 228 346ZM252 -10T215 25T178 110Q178 161 215 194T310 228Q368 228 405 195T442 110Q442 60 405 25T310 -10Q252 -10 215 25Z" />
<glyph unicode="@" glyph-name="at" horiz-adv-x="1037" d="M668 714T777 657T947 500T1008 281Q1008 189 977 124T892 25T773 -9Q716 -9 676 13T615 78Q571 -9 463 -9Q408 -9 360 21T281 109T251 240Q251 314 280 370T358 457T463 488Q542 488 586 439V479H778V193Q778
138 817 138Q841 138 854 169T868 278Q868 368 826 438T706 547T527 587Q426 587 348 544T227 424T184 253Q184 156 226 80T346 -40T523 -83Q628 -83 725 -39L767 -162Q722 -184 656 -197T523 -210Q376 -210 264 -150T90 16T29 253Q29 382 90 487T265 653T527 714Q668
714 777 657ZM550 148T570 172T590 240Q590 284 570 307T518 331Q486 331 467 308T447 240Q447 196 466 172T518 148Q550 148 570 172Z" />
<glyph unicode="A" glyph-name="A" horiz-adv-x="792" d="M498 716T576 676T697 558T741 373V0H505V141H283V0H51V373Q51 480 94 557T216 675T396 716Q498 716 576 676ZM505 319V393Q505 458 475 491T394 525Q344 525 314 492T283 393V319H505Z" />
<glyph unicode="B" glyph-name="B" horiz-adv-x="773" d="M679 343T713 299T747 193Q747 101 671 51T451 0H57V700H431Q571 700 642 650T714 517Q714 468 690 429T617 366Q679 343 713 299ZM289 535V431H399Q476 431 476 483Q476 535 399 535H289ZM509 165T509
220Q509 275 431 275H289V165H431Q509 165 509 220Z" />
<glyph unicode="C" glyph-name="C" horiz-adv-x="744" d="M308 -16T219 30T80 160T29 350Q29 456 79 539T219 669T419 716Q521 716 601 680T733 576L584 443Q519 525 431 525Q357 525 312 478T267 350Q267 270 312 223T431 175Q519 175 584 257L733 124Q681 56
601 20T419 -16Q308 -16 219 30Z" />
<glyph unicode="D" glyph-name="D" horiz-adv-x="826" d="M57 700H402Q519 700 608 658T747 536T797 350Q797 243 748 164T609 43T402 0H57V700ZM392 184Q468 184 513 227T559 350Q559 429 514 472T392 516H293V184H392Z" />
<glyph unicode="E" glyph-name="E" horiz-adv-x="695" d="M689 46Q633 17 554 1T393 -16Q275 -16 193 11T68 88T26 202Q26 255 54 297T136 362Q96 384 76 419T55 498Q55 557 93 606T211 686T407 716Q478 716 546 704T669 670L605 498Q511 536 416 536Q354 536
324 522T293 483Q293 462 308 451T358 440H563V266H342Q303 266 284 254T264 218Q264 164 402 164Q455 164 514 178T620 217L689 46Z" />
<glyph unicode="F" glyph-name="F" horiz-adv-x="625" d="M287 525T287 405V402H535V224H287V0H51V400Q51 552 144 634T408 716Q469 716 523 705T616 673L548 495Q520 510 489 517T428 525Q287 525 287 405Z" />
<glyph unicode="G" glyph-name="G" horiz-adv-x="769" d="M520 369H725V0H571V43Q501 -16 383 -16Q284 -16 204 26T76 148T29 341Q29 451 79 536T220 669T425 716Q528 716 609 682T745 581L594 448Q528 525 437 525Q358 525 313 477T267 343Q267 257 308 214T416
171Q477 171 520 201V369Z" />
<glyph unicode="H" glyph-name="H" horiz-adv-x="804" d="M747 700V0H511V258H293V0H57V700H293V452H511V700H747Z" />
<glyph unicode="I" glyph-name="I" horiz-adv-x="516" d="M376 522V178H481V0H35V178H140V522H35V700H481V522H376Z" />
<glyph unicode="J" glyph-name="J" horiz-adv-x="574" d="M152 -116T86 -90T-24 -12L103 138Q131 103 158 86T214 69Q251 69 270 91T290 156V522H52V700H523V170Q523 27 450 -44T234 -116Q152 -116 86 -90Z" />
<glyph unicode="K" glyph-name="K" horiz-adv-x="765" d="M342 232L289 173V0H57V700H289V446L519 700H776L496 392L790 0H517L342 232Z" />
<glyph unicode="L" glyph-name="L" horiz-adv-x="617" d="M57 700H293V183H609V0H57V700Z" />
<glyph unicode="M" glyph-name="M" horiz-adv-x="1212" d="M1021 716T1091 641T1161 425V0H925V418Q925 470 898 497T824 525Q776 525 748 496T719 410V0H483V418Q483 470 459 497T390 525Q345 525 319 496T293 410V0H57V700H285V630Q350 716 478 716Q612 716
677 622Q714 669 770 692T896 716Q1021 716 1091 641Z" />
<glyph unicode="N" glyph-name="N" horiz-adv-x="794" d="M606 716T674 635T743 405V0H507V398Q507 462 480 493T403 525Q354 525 324 491T293 390V0H57V700H286V625Q357 716 482 716Q606 716 674 635Z" />
<glyph unicode="O" glyph-name="O" horiz-adv-x="848" d="M311 -16T221 31T80 161T29 350Q29 455 80 538T221 669T424 716Q537 716 627 669T768 539T819 350Q819 245 768 162T627 31T424 -16Q311 -16 221 31ZM468 175T503 196T560 257T581 350Q581 403 560 442T504
503T424 525Q380 525 345 504T288 443T267 350Q267 297 288 258T344 197T424 175Q468 175 503 196Z" />
<glyph unicode="P" glyph-name="P" horiz-adv-x="743" d="M491 700T563 668T674 576T713 436Q713 356 674 296T563 204T394 172H293V0H57V700H394Q491 700 563 668ZM427 354T451 375T475 436Q475 475 451 496T379 518H293V354H379Q427 354 451 375Z" />
<glyph unicode="Q" glyph-name="Q" horiz-adv-x="848" d="M819 265T785 193T687 71T542 -1V-135H306V-1Q224 20 161 70T64 193T29 350Q29 455 80 538T221 669T424 716Q537 716 627 669T768 539T819 350Q819 265 785 193ZM468 175T503 196T560 257T581 350Q581
403 560 442T504 503T424 525Q380 525 345 504T288 443T267 350Q267 297 288 258T344 197T424 175Q468 175 503 196Z" />
<glyph unicode="R" glyph-name="R" horiz-adv-x="745" d="M357 176H293V0H57V700H394Q491 700 563 668T674 576T713 436Q713 361 679 305T581 216L728 0H476L357 176ZM475 475T451 496T379 518H293V354H379Q427 354 451 375T475 436Q475 475 451 496Z" />
<glyph unicode="S" glyph-name="S" horiz-adv-x="657" d="M231 -16T149 3T13 56L89 228Q139 199 201 182T320 164Q369 164 390 173T411 202Q411 224 384 235T293 259Q212 276 158 295T64 359T24 480Q24 546 61 600T171 685T350 716Q422 716 491 701T614 655L543
484Q440 536 348 536Q257 536 257 492Q257 471 284 461T373 438Q453 423 508 404T603 340T644 220Q644 154 607 101T497 16T318 -16Q231 -16 149 3Z" />
<glyph unicode="T" glyph-name="T" horiz-adv-x="684" d="M624 455Q543 500 460 517V0H224V517Q141 500 60 455L-18 623Q57 668 150 692T342 716Q441 716 534 692T702 623L624 455Z" />
<glyph unicode="U" glyph-name="U" horiz-adv-x="790" d="M733 700V0H504V75Q433 -16 310 -16Q187 -16 119 65T51 295V700H287V302Q287 238 314 207T389 175Q436 175 466 209T497 310V700H733Z" />
<glyph unicode="V" glyph-name="V" horiz-adv-x="786" d="M805 700L509 0H277L-19 700H235L402 291L573 700H805Z" />
<glyph unicode="W" glyph-name="W" horiz-adv-x="1223" d="M1172 700V295Q1172 146 1082 65T828 -16Q694 -16 611 50Q529 -16 394 -16Q232 -16 142 65T51 295V700H287V302Q287 238 312 207T390 175Q443 175 468 206T493 302V700H729V302Q729 238 754 207T833 175Q886
175 911 206T936 302V700H1172Z" />
<glyph unicode="X" glyph-name="X" horiz-adv-x="762" d="M500 0L379 187L261 0H-8L245 353L1 700H266L385 524L501 700H755L512 362L770 0H500Z" />
<glyph unicode="Y" glyph-name="Y" horiz-adv-x="783" d="M732 700V231Q732 123 688 46T563 -70T372 -110Q277 -110 200 -88T65 -25L151 142Q200 111 254 95T361 78Q433 78 464 111T496 218V238Q429 162 317 162Q185 162 116 236T46 453V700H282V470Q282 411 307
382T386 353Q436 353 466 382T496 478V700H732Z" />
<glyph unicode="Z" glyph-name="Z" horiz-adv-x="697" d="M680 178V0H37V130L164 277H87V437H302L376 523H48V701H665V571L546 433H616V273H408L326 178H680Z" />
<glyph unicode="[" glyph-name="bracketleft" horiz-adv-x="410" d="M57 742H400V572H283V-24H400V-194H57V742Z" />
<glyph unicode="\" glyph-name="backslash" horiz-adv-x="440" d="M280 -100L-50 842H150L480 -100H280Z" />
<glyph unicode="]" glyph-name="bracketright" horiz-adv-x="410" d="M10 -194V-24H127V572H10V742H353V-194H10Z" />
<glyph unicode="^" glyph-name="asciicircum" horiz-adv-x="620" d="M414 139L310 390L206 139H36L221 561H399L584 139H414Z" />
<glyph unicode="_" glyph-name="underscore" horiz-adv-x="500" d="M0 0H500V-120H0V0Z" />
<glyph unicode="`" glyph-name="grave" horiz-adv-x="600" d="M58 767H273L405 607H255L58 767Z" />
<glyph unicode="a" glyph-name="a" horiz-adv-x="700" d="M650 547V0H435V45Q386 -10 285 -10Q213 -10 153 24T57 124T21 274Q21 359 56 423T152 522T285 557Q376 557 424 510V547H650ZM378 166T403 194T428 274Q428 325 403 353T339 381Q300 381 275 353T250
274Q250 223 275 195T339 166Q378 166 403 194Z" />
<glyph unicode="b" glyph-name="b" horiz-adv-x="700" d="M487 557T547 523T643 424T679 274Q679 189 644 124T548 25T415 -10Q314 -10 265 45V0H50V742H276V510Q324 557 415 557Q487 557 547 523ZM400 166T425 194T450 274Q450 325 425 353T361 381Q322 381 297
353T272 274Q272 223 297 195T361 166Q400 166 425 194Z" />
<glyph unicode="c" glyph-name="c" horiz-adv-x="615" d="M251 -10T178 26T63 127T21 274Q21 356 62 420T177 521T344 557Q444 557 515 514T613 395L438 309Q406 381 343 381Q303 381 277 353T250 274Q250 222 276 194T343 166Q406 166 438 238L613 152Q586 76
515 33T344 -10Q251 -10 178 26Z" />
<glyph unicode="d" glyph-name="d" horiz-adv-x="705" d="M655 742V0H440V45Q391 -10 290 -10Q218 -10 158 24T62 124T26 274Q26 359 61 423T157 522T290 557Q381 557 429 510V742H655ZM383 166T408 194T433 274Q433 325 408 353T344 381Q305 381 280 353T255
274Q255 223 280 195T344 166Q383 166 408 194Z" />
<glyph unicode="e" glyph-name="e" horiz-adv-x="653" d="M395 157T419 166T473 197L591 78Q509 -10 352 -10Q253 -10 178 26T62 128T21 274Q21 356 62 420T174 521T335 557Q416 557 484 525T592 429T632 277L258 205Q283 157 359 157Q395 157 419 166ZM297 403T273
380T243 312L418 346Q409 372 388 387T336 403Q297 403 273 380Z" />
<glyph unicode="f" glyph-name="f" horiz-adv-x="401" d="M269 517H388V352H276V0H50V520Q50 627 114 689T294 752Q332 752 368 745T428 725L374 568Q346 581 323 581Q298 581 284 566T269 518V517Z" />
<glyph unicode="g" glyph-name="g" horiz-adv-x="711" d="M661 547V109Q661 -47 575 -125T328 -204Q246 -204 175 -187T54 -136L130 18Q162 -6 211 -21T305 -36Q373 -36 404 -7T435 78V88Q384 30 284 30Q214 30 154 62T57 155T21 294Q21 372 57 432T153 524T284
557Q396 557 446 485V547H661ZM384 206T410 230T437 294Q437 333 411 357T344 381Q303 381 277 357T250 294Q250 255 277 231T344 206Q384 206 410 230Z" />
<glyph unicode="h" glyph-name="h" horiz-adv-x="702" d="M531 557T592 496T654 312V0H428V273Q428 367 361 367Q323 367 300 341T276 257V0H50V742H276V503Q339 557 430 557Q531 557 592 496Z" />
<glyph unicode="i" glyph-name="i" horiz-adv-x="326" d="M50 547H276V0H50V547ZM102 591T65 623T27 706Q27 756 64 788T163 821Q225 821 262 790T299 710Q299 658 262 625T163 591Q102 591 65 623Z" />
<glyph unicode="j" glyph-name="j" horiz-adv-x="334" d="M-42 -204T-94 -177L-40 -20Q-16 -33 11 -33Q32 -33 45 -18T58 30V547H284V28Q284 -79 221 -141T45 -204Q-42 -204 -94 -177ZM110 591T73 623T35 706Q35 756 72 788T171 821Q233 821 270 790T307 710Q307
658 270 625T171 591Q110 591 73 623Z" />
<glyph unicode="k" glyph-name="k" horiz-adv-x="713" d="M312 168L276 129V0H50V742H276V388L433 547H700L474 310L718 0H445L312 168Z" />
<glyph unicode="l" glyph-name="l" horiz-adv-x="386" d="M171 -10T111 44T50 202V742H276V214Q276 188 289 175T326 161Q337 161 348 164T367 171L376 4Q328 -10 279 -10Q171 -10 111 44Z" />
<glyph unicode="m" glyph-name="m" horiz-adv-x="1040" d="M873 557T932 496T992 312V0H766V273Q766 367 705 367Q673 367 654 343T634 267V0H408V273Q408 367 347 367Q315 367 296 343T276 267V0H50V547H265V496Q326 557 420 557Q475 557 519 537T591 474Q624
514 671 535T774 557Q873 557 932 496Z" />
<glyph unicode="n" glyph-name="n" horiz-adv-x="702" d="M531 557T592 496T654 312V0H428V273Q428 367 361 367Q323 367 300 341T276 257V0H50V547H265V493Q297 525 339 541T430 557Q531 557 592 496Z" />
<glyph unicode="o" glyph-name="o" horiz-adv-x="678" d="M248 -10T176 26T62 127T21 274Q21 356 62 420T175 521T339 557Q431 557 503 521T616 421T657 274Q657 192 617 128T504 27T339 -10Q248 -10 176 26ZM378 166T403 194T428 274Q428 325 403 353T339 381Q300
381 275 353T250 274Q250 223 275 195T339 166Q378 166 403 194Z" />
<glyph unicode="p" glyph-name="p" horiz-adv-x="700" d="M487 557T547 523T643 423T679 273Q679 188 644 124T548 25T415 -10Q324 -10 276 37V-194H50V547H265V502Q314 557 415 557Q487 557 547 523ZM400 166T425 194T450 273Q450 324 425 352T361 381Q322 381
297 353T272 273Q272 222 297 194T361 166Q400 166 425 194Z" />
<glyph unicode="q" glyph-name="q" horiz-adv-x="700" d="M650 547V-194H424V37Q376 -10 285 -10Q213 -10 153 24T57 123T21 273Q21 358 56 423T152 522T285 557Q386 557 435 502V547H650ZM378 166T403 194T428 273Q428 324 403 352T339 381Q300 381 275 353T250
273Q250 222 275 194T339 166Q378 166 403 194Z" />
<glyph unicode="r" glyph-name="r" horiz-adv-x="456" d="M325 557T442 557V357Q415 361 392 361Q276 361 276 243V0H50V547H265V488Q325 557 442 557Z" />
<glyph unicode="s" glyph-name="s" horiz-adv-x="565" d="M194 -10T126 5T16 44L78 193Q116 170 168 157T269 144Q308 144 323 150T339 170Q339 183 320 188T256 198Q189 206 142 218T60 267T24 370Q24 423 56 465T151 532T304 557Q366 557 425 546T527 512L465
363Q393 403 307 403Q233 403 233 377Q233 364 253 359T316 348Q383 340 429 327T511 278T547 175Q547 124 515 82T419 15T264 -10Q194 -10 126 5Z" />
<glyph unicode="t" glyph-name="t" horiz-adv-x="433" d="M426 19Q375 -10 287 -10Q172 -10 110 45T48 212V670H274V517H386V352H274V214Q274 189 287 175T321 161Q350 161 372 176L426 19Z" />
<glyph unicode="u" glyph-name="u" horiz-adv-x="698" d="M648 547V0H433V52Q403 21 363 6T278 -10Q174 -10 111 53T48 245V547H274V284Q274 228 292 204T345 180Q378 180 400 206T422 290V547H648Z" />
<glyph unicode="v" glyph-name="v" horiz-adv-x="644" d="M659 547L439 0H205L-15 547H217L327 254L445 547H659Z" />
<glyph unicode="w" glyph-name="w" horiz-adv-x="1016" d="M968 547V245Q968 123 894 57T687 -10Q631 -10 586 4T508 53Q474 19 430 5T329 -10Q195 -10 122 56T48 245V547H274V260Q274 170 334 170Q395 170 395 260V547H621V260Q621 170 682 170Q713 170 727 191T742
260V547H968Z" />
<glyph unicode="x" glyph-name="x" horiz-adv-x="645" d="M395 0L320 117L236 0H-9L198 271L-3 547H252L330 431L412 547H649L448 281L654 0H395Z" />
<glyph unicode="y" glyph-name="y" horiz-adv-x="698" d="M648 547V109Q648 -47 562 -125T317 -204Q236 -204 166 -187T45 -136L121 18Q153 -6 201 -21T294 -36Q361 -36 391 -7T422 78V82Q363 30 278 30Q174 30 111 93T48 285V547H274V324Q274 268 292 244T345
220Q378 220 400 246T422 330V547H648Z" />
<glyph unicode="z" glyph-name="z" horiz-adv-x="580" d="M557 165V0H35V130L107 210H63V343H226L261 382H43V547H546V417L479 342H527V209H359L320 165H557Z" />
<glyph unicode="{" glyph-name="braceleft" horiz-adv-x="438" d="M347 349T328 318T266 274Q309 261 328 230T347 140V45Q347 12 365 -6T418 -24H428V-194H354Q239 -194 180 -139T121 19V145Q121 167 110 178T78 189H45V359H78Q98 359 109 370T121 403V529Q121
632 180 687T354 742H428V572H418Q383 572 365 554T347 503V408Q347 349 328 318Z" />
<glyph unicode="|" glyph-name="bar" horiz-adv-x="320" d="M57 742H263V-194H57V742Z" />
<glyph unicode="}" glyph-name="braceright" horiz-adv-x="438" d="M393 359V189H360Q340 189 329 178T317 145V19Q317 -84 258 -139T84 -194H10V-24H20Q55 -24 73 -6T91 45V140Q91 199 110 230T172 274Q129 287 110 318T91 408V503Q91 536 73 554T20 572H10V742H84Q199
742 258 687T317 529V403Q317 381 328 370T360 359H393Z" />
<glyph unicode="~" glyph-name="asciitilde" horiz-adv-x="620" d="M374 235T347 247T288 282Q266 297 254 303T229 310Q207 310 193 294T178 247H40Q41 350 88 409T211 468Q246 468 273 456T332 421Q354 406 366 400T391 393Q413 393 427 409T442 456H580Q579
353 532 294T409 235Q374 235 347 247Z" />
<glyph unicode="&#xa0;" glyph-name="uni00A0" horiz-adv-x="300" />
<glyph unicode="&#xa1;" glyph-name="exclamdown" horiz-adv-x="314" d="M215 557T252 522T289 437Q289 386 252 353T157 319Q99 319 62 352T25 437Q25 487 62 522T157 557Q215 557 252 522ZM292 -154H22L67 279H247L292 -154Z" />
<glyph unicode="&#xa2;" glyph-name="cent" horiz-adv-x="615" d="M406 166T438 238L613 152Q591 88 536 47T404 -6V-120H263V-2Q153 19 87 93T21 274Q21 379 87 453T263 549V667H404V553Q481 541 536 500T613 395L438 309Q406 381 343 381Q303 381 277 353T250
274Q250 222 276 194T343 166Q406 166 438 238Z" />
<glyph unicode="&#xa3;" glyph-name="sterling" horiz-adv-x="694" d="M356 178H660V0H30V178H120V284H30V416H120Q125 560 218 638T477 716Q538 716 592 705T685 673L617 495Q589 510 558 517T497 525Q363 525 356 416H566V284H356V178Z" />
<glyph unicode="&#xa4;" glyph-name="currency" horiz-adv-x="700" d="M603 266T578 214L681 111L556 -14L451 91Q402 69 349 69Q297 69 247 90L143 -14L18 111L120 213Q95 265 95 323Q95 376 117 425L18 524L143 649L240 552Q292 577 349 577Q407 577 459 552L556
649L681 524L582 425Q603 375 603 323Q603 266 578 214ZM382 244T405 267T429 323Q429 356 406 379T349 403Q316 403 293 380T270 323Q270 290 293 267T349 244Q382 244 405 267Z" />
<glyph unicode="&#xa5;" glyph-name="yen" horiz-adv-x="770" d="M544 310H663V198H503V172H663V60H503V0H267V60H107V172H267V198H107V310H227L-27 700H225L395 443L566 700H797L544 310Z" />
<glyph unicode="&#xa6;" glyph-name="brokenbar" horiz-adv-x="320" d="M57 742H263V392H57V742ZM57 156H263V-194H57V156Z" />
<glyph unicode="&#xa7;" glyph-name="section" horiz-adv-x="549" d="M526 238T471 189Q508 150 508 85Q508 29 480 -15T395 -84T257 -110Q192 -110 125 -95T16 -56L78 93Q116 71 165 58T255 44Q283 44 296 53T310 77Q310 95 288 104T218 121Q158 132 118 145T49
191T19 283Q19 361 74 412Q38 451 38 515Q38 602 109 656T318 710Q369 710 433 699T536 665L474 516Q402 556 308 556Q236 556 236 523Q236 508 254 502T318 486Q378 475 420 460T494 408T526 308Q526 238 471 189ZM214 283T235 275T306 257Q331 274 331 299Q331
318 310 326T239 344Q214 327 214 302Q214 283 235 275Z" />
<glyph unicode="&#xa8;" glyph-name="dieresis" horiz-adv-x="600" d="M150 599T125 623T99 687Q99 726 124 751T189 776Q228 776 253 751T279 687Q279 648 254 624T189 599Q150 599 125 623ZM372 599T347 623T321 687Q321 726 346 751T411 776Q450 776 475 751T501
687Q501 648 476 624T411 599Q372 599 347 623Z" />
<glyph unicode="&#xa9;" glyph-name="copyright" horiz-adv-x="764" d="M283 -3T203 44T76 172T29 350Q29 447 75 528T203 656T383 703Q482 703 562 657T689 531T735 352Q735 254 688 173T560 44T381 -3Q283 -3 203 44ZM455 85T514 120T607 216T641 352Q641 427
608 487T517 581T383 615Q308 615 249 580T157 485T123 350Q123 276 156 216T248 120T381 85Q455 85 514 120ZM335 152T286 177T209 248T181 350Q181 407 208 452T285 522T397 548Q463 548 511 518T577 435L449 370Q431 410 396 410Q375 410 360 394T345 350Q345
322 360 306T396 290Q431 290 449 330L577 265Q559 212 511 182T397 152Q335 152 286 177Z" />
<glyph unicode="&#xaa;" glyph-name="ordfeminine" horiz-adv-x="422" d="M386 752T386 593V420H244V462Q220 414 146 414Q84 414 51 443T17 516Q17 614 178 614H231Q223 647 166 647Q145 647 122 641T81 622L33 715Q64 733 107 742T192 752Q386 752 386 593ZM206
499T217 506T233 527V546H202Q161 546 161 522Q161 512 169 506T192 499Q206 499 217 506Z" />
<glyph unicode="&#xab;" glyph-name="guillemotleft" horiz-adv-x="643" d="M25 274L163 474H363L230 274L363 74H163L25 274ZM290 274L428 474H628L495 274L628 74H428L290 274Z" />
<glyph unicode="&#xac;" glyph-name="logicalnot" horiz-adv-x="620" d="M565 95H385V265H55V435H565V95Z" />
<glyph unicode="&#xad;" glyph-name="uni00AD" horiz-adv-x="390" d="M45 374H345V204H45V374Z" />
<glyph unicode="&#xae;" glyph-name="registered" horiz-adv-x="764" d="M482 703T562 657T689 531T735 352Q735 254 688 173T560 44T381 -3Q283 -3 203 44T76 172T29 350Q29 447 75 528T203 656T383 703Q482 703 562 657ZM641 251T641 352Q641 427 608 487T517
581T383 615Q308 615 249 580T157 485T123 350Q123 276 156 216T248 120T381 85Q436 85 484 105T567 162H445L383 258H360V162H216V538H395Q478 538 525 500T572 398Q572 319 512 284L581 177Q641 251 641 352ZM386 357Q406 357 417 368T428 398Q428 417 417 428T386
439H360V357H386Z" />
<glyph unicode="&#xaf;" glyph-name="overscore" horiz-adv-x="600" d="M90 746H510V628H90V746Z" />
<glyph unicode="&#xb0;" glyph-name="degree" horiz-adv-x="416" d="M157 349T114 373T46 438T20 530Q20 580 45 621T114 687T208 711Q259 711 302 687T370 622T396 530Q396 480 371 439T302 373T208 349Q157 349 114 373ZM241 453T262 475T284 530Q284 563 263
585T208 607Q175 607 154 585T132 530Q132 497 153 475T208 453Q241 453 262 475Z" />
<glyph unicode="&#xb1;" glyph-name="plusminus" horiz-adv-x="620" d="M565 548V387H400V235H220V387H55V548H220V700H400V548H565ZM55 170H565V0H55V170Z" />
<glyph unicode="&#xb2;" glyph-name="uni00B2" horiz-adv-x="430" d="M401 441V327H35V418L194 554Q230 584 230 608Q230 621 220 628T190 636Q144 636 123 598L7 653Q30 698 80 725T204 752Q287 752 337 716T388 620Q388 588 371 559T308 488L253 441H401Z" />
<glyph unicode="&#xb3;" glyph-name="uni00B3" horiz-adv-x="430" d="M359 568T387 537T415 461Q415 423 393 391T322 338T203 317Q149 317 96 328T9 359L61 468Q92 451 129 442T199 433Q257 433 257 461Q257 485 209 485H137V576L200 631H32V742H390V651L307
580Q359 568 387 537Z" />
<glyph unicode="&#xb4;" glyph-name="acute" horiz-adv-x="600" d="M327 767H542L345 607H195L327 767Z" />
<glyph unicode="&#xb5;" glyph-name="uni00B5" horiz-adv-x="700" d="M650 547V0H455V51Q434 20 404 5T340 -10Q306 -10 276 4V-194H50V547H276V284Q276 228 294 204T347 180Q380 180 402 206T424 290V547H650Z" />
<glyph unicode="&#xb6;" glyph-name="paragraph" horiz-adv-x="730" d="M229 333Q167 335 117 360T37 431T8 537Q8 599 40 645T131 717T268 742H673V-100H491V587H411V-100H229V333Z" />
<glyph unicode="&#xb7;" glyph-name="middot" horiz-adv-x="344" d="M113 159T77 195T40 290Q40 349 76 384T172 419Q231 419 267 384T304 290Q304 231 268 195T172 159Q113 159 77 195Z" />
<glyph unicode="&#xb8;" glyph-name="cedilla" horiz-adv-x="600" d="M233 -240T205 -234T161 -219L189 -136Q219 -148 249 -148Q297 -148 297 -124Q297 -104 256 -104H215L242 10H358L344 -52Q388 -58 408 -80T429 -132Q429 -182 383 -211T259 -240Q233 -240 205 -234Z" />
<glyph unicode="&#xb9;" glyph-name="uni00B9" horiz-adv-x="430" d="M386 438V327H64V438H152V631H74V742H312V438H386Z" />
<glyph unicode="&#xba;" glyph-name="ordmasculine" horiz-adv-x="438" d="M161 414T115 435T42 495T16 583Q16 632 42 670T114 730T219 752Q278 752 324 731T396 671T422 583Q422 534 396 496T324 436T219 414Q161 414 115 435ZM242 524T256 539T271 583Q271
612 257 627T219 642Q196 642 182 627T167 583Q167 555 181 540T219 524Q242 524 256 539Z" />
<glyph unicode="&#xbb;" glyph-name="guillemotright" horiz-adv-x="643" d="M15 74L148 274L15 474H215L353 274L215 74H15ZM280 74L413 274L280 474H480L618 274L480 74H280Z" />
<glyph unicode="&#xbc;" glyph-name="onequarter" horiz-adv-x="1057" d="M386 396V285H64V396H152V589H74V700H312V396H386ZM683 700H852L374 0H205L683 700ZM1047 68H997V0H845V68H626V162L801 415H968L806 182H863V237H997V182H1047V68Z" />
<glyph unicode="&#xbd;" glyph-name="onehalf" horiz-adv-x="1057" d="M386 396V285H64V396H152V589H74V700H312V396H386ZM683 700H852L374 0H205L683 700ZM1028 114V0H662V91L821 227Q857 257 857 281Q857 294 847 301T817 309Q771 309 750 271L634 326Q657 371
707 398T831 425Q914 425 964 389T1015 293Q1015 261 998 232T935 161L880 114H1028Z" />
<glyph unicode="&#xbe;" glyph-name="threequarters" horiz-adv-x="1057" d="M359 526T387 495T415 419Q415 381 393 349T322 296T203 275Q149 275 96 286T9 317L61 426Q92 409 129 400T199 391Q257 391 257 419Q257 443 209 443H137V534L200 589H32V700H390V609L307
538Q359 526 387 495ZM683 700H852L374 0H205L683 700ZM1047 68H997V0H845V68H626V162L801 415H968L806 182H863V237H997V182H1047V68Z" />
<glyph unicode="&#xbf;" glyph-name="questiondown" horiz-adv-x="606" d="M238 319T201 352T164 437Q164 487 201 522T296 557Q354 557 391 522T428 437Q428 386 391 353T296 319Q238 319 201 352ZM185 -169T109 -119T33 22Q33 64 47 95T82 148T133 196Q165 224
179 241T193 279H399Q399 232 378 201T318 132Q293 108 282 93T270 61Q270 39 289 27T337 14Q369 14 397 32T441 82L619 -7Q579 -83 501 -126T307 -169Q185 -169 109 -119Z" />
<glyph unicode="&#xc0;" glyph-name="Agrave" horiz-adv-x="792" d="M498 716T576 676T697 558T741 373V0H505V141H283V0H51V373Q51 480 94 557T216 675T396 716Q498 716 576 676ZM505 319V393Q505 458 475 491T394 525Q344 525 314 492T283 393V319H505ZM154
917H369L501 757H351L154 917Z" />
<glyph unicode="&#xc1;" glyph-name="Aacute" horiz-adv-x="792" d="M498 716T576 676T697 558T741 373V0H505V141H283V0H51V373Q51 480 94 557T216 675T396 716Q498 716 576 676ZM505 319V393Q505 458 475 491T394 525Q344 525 314 492T283 393V319H505ZM423
917H638L441 757H291L423 917Z" />
<glyph unicode="&#xc2;" glyph-name="Acircumflex" horiz-adv-x="792" d="M498 716T576 676T697 558T741 373V0H505V141H283V0H51V373Q51 480 94 557T216 675T396 716Q498 716 576 676ZM505 319V393Q505 458 475 491T394 525Q344 525 314 492T283 393V319H505ZM480
757L396 834L312 757H172L300 917H492L620 757H480Z" />
<glyph unicode="&#xc3;" glyph-name="Atilde" horiz-adv-x="792" d="M498 716T576 676T697 558T741 373V0H505V141H283V0H51V373Q51 480 94 557T216 675T396 716Q498 716 576 676ZM505 319V393Q505 458 475 491T394 525Q344 525 314 492T283 393V319H505ZM448
747T425 757T377 784Q360 795 350 800T329 806Q310 806 298 793T284 757H177Q179 837 215 883T315 930Q344 930 367 920T415 893Q432 881 442 876T463 871Q482 871 494 883T508 917H615Q613 840 577 794T477 747Q448 747 425 757Z" />
<glyph unicode="&#xc4;" glyph-name="Adieresis" horiz-adv-x="792" d="M498 716T576 676T697 558T741 373V0H505V141H283V0H51V373Q51 480 94 557T216 675T396 716Q498 716 576 676ZM505 319V393Q505 458 475 491T394 525Q344 525 314 492T283 393V319H505ZM246
749T221 773T195 837Q195 876 220 901T285 926Q324 926 349 901T375 837Q375 798 350 774T285 749Q246 749 221 773ZM468 749T443 773T417 837Q417 876 442 901T507 926Q546 926 571 901T597 837Q597 798 572 774T507 749Q468 749 443 773Z" />
<glyph unicode="&#xc5;" glyph-name="Aring" horiz-adv-x="792" d="M498 716T576 676T697 558T741 373V0H505V141H283V0H51V373Q51 480 94 557T216 675T396 716Q498 716 576 676ZM505 319V393Q505 458 475 491T394 525Q344 525 314 492T283 393V319H505ZM357 743T325
761T275 809T256 877Q256 914 274 944T325 993T396 1011Q435 1011 467 993T517 945T536 877Q536 840 518 810T467 761T396 743Q357 743 325 761ZM419 823T434 838T450 877Q450 901 435 916T396 931Q373 931 358 916T342 877Q342 853 357 838T396 823Q419 823 434
838Z" />
<glyph unicode="&#xc6;" glyph-name="AE" horiz-adv-x="1099" d="M1065 178V0H483V148H282V0H46V376Q46 533 133 616T386 700H1052V522H715V440H1011V270H715V178H1065ZM483 326V509H408Q341 509 312 477T282 370V326H483Z" />
<glyph unicode="&#xc7;" glyph-name="Ccedilla" horiz-adv-x="744" d="M308 -16T219 30T80 160T29 350Q29 456 79 539T219 669T419 716Q521 716 601 680T733 576L584 443Q519 525 431 525Q357 525 312 478T267 350Q267 270 312 223T431 175Q519 175 584 257L733
124Q681 56 601 20T419 -16Q308 -16 219 30ZM325 -240T297 -234T253 -219L281 -136Q311 -148 341 -148Q389 -148 389 -124Q389 -104 348 -104H307L334 10H450L436 -52Q480 -58 500 -80T521 -132Q521 -182 475 -211T351 -240Q325 -240 297 -234Z" />
<glyph unicode="&#xc8;" glyph-name="Egrave" horiz-adv-x="695" d="M689 46Q633 17 554 1T393 -16Q275 -16 193 11T68 88T26 202Q26 255 54 297T136 362Q96 384 76 419T55 498Q55 557 93 606T211 686T407 716Q478 716 546 704T669 670L605 498Q511 536 416 536Q354
536 324 522T293 483Q293 462 308 451T358 440H563V266H342Q303 266 284 254T264 218Q264 164 402 164Q455 164 514 178T620 217L689 46ZM133 917H348L480 757H330L133 917Z" />
<glyph unicode="&#xc9;" glyph-name="Eacute" horiz-adv-x="695" d="M689 46Q633 17 554 1T393 -16Q275 -16 193 11T68 88T26 202Q26 255 54 297T136 362Q96 384 76 419T55 498Q55 557 93 606T211 686T407 716Q478 716 546 704T669 670L605 498Q511 536 416 536Q354
536 324 522T293 483Q293 462 308 451T358 440H563V266H342Q303 266 284 254T264 218Q264 164 402 164Q455 164 514 178T620 217L689 46ZM402 917H617L420 757H270L402 917Z" />
<glyph unicode="&#xca;" glyph-name="Ecircumflex" horiz-adv-x="695" d="M689 46Q633 17 554 1T393 -16Q275 -16 193 11T68 88T26 202Q26 255 54 297T136 362Q96 384 76 419T55 498Q55 557 93 606T211 686T407 716Q478 716 546 704T669 670L605 498Q511 536 416
536Q354 536 324 522T293 483Q293 462 308 451T358 440H563V266H342Q303 266 284 254T264 218Q264 164 402 164Q455 164 514 178T620 217L689 46ZM459 757L375 834L291 757H151L279 917H471L599 757H459Z" />
<glyph unicode="&#xcb;" glyph-name="Edieresis" horiz-adv-x="695" d="M689 46Q633 17 554 1T393 -16Q275 -16 193 11T68 88T26 202Q26 255 54 297T136 362Q96 384 76 419T55 498Q55 557 93 606T211 686T407 716Q478 716 546 704T669 670L605 498Q511 536 416
536Q354 536 324 522T293 483Q293 462 308 451T358 440H563V266H342Q303 266 284 254T264 218Q264 164 402 164Q455 164 514 178T620 217L689 46ZM225 749T200 773T174 837Q174 876 199 901T264 926Q303 926 328 901T354 837Q354 798 329 774T264 749Q225 749 200
773ZM447 749T422 773T396 837Q396 876 421 901T486 926Q525 926 550 901T576 837Q576 798 551 774T486 749Q447 749 422 773Z" />
<glyph unicode="&#xcc;" glyph-name="Igrave" horiz-adv-x="516" d="M376 522V178H481V0H35V178H140V522H35V700H481V522H376ZM16 917H231L363 757H213L16 917Z" />
<glyph unicode="&#xcd;" glyph-name="Iacute" horiz-adv-x="516" d="M376 522V178H481V0H35V178H140V522H35V700H481V522H376ZM285 917H500L303 757H153L285 917Z" />
<glyph unicode="&#xce;" glyph-name="Icircumflex" horiz-adv-x="516" d="M376 522V178H481V0H35V178H140V522H35V700H481V522H376ZM342 757L258 834L174 757H34L162 917H354L482 757H342Z" />
<glyph unicode="&#xcf;" glyph-name="Idieresis" horiz-adv-x="516" d="M376 522V178H481V0H35V178H140V522H35V700H481V522H376ZM108 749T83 773T57 837Q57 876 82 901T147 926Q186 926 211 901T237 837Q237 798 212 774T147 749Q108 749 83 773ZM330 749T305
773T279 837Q279 876 304 901T369 926Q408 926 433 901T459 837Q459 798 434 774T369 749Q330 749 305 773Z" />
<glyph unicode="&#xd0;" glyph-name="Eth" horiz-adv-x="846" d="M77 700H422Q539 700 628 658T767 536T817 350Q817 243 768 164T629 43T422 0H77V700ZM412 184Q488 184 533 227T579 350Q579 429 534 472T412 516H313V184H412ZM-9 423H461V287H-9V423Z" />
<glyph unicode="&#xd1;" glyph-name="Ntilde" horiz-adv-x="794" d="M606 716T674 635T743 405V0H507V398Q507 462 480 493T403 525Q354 525 324 491T293 390V0H57V700H286V625Q357 716 482 716Q606 716 674 635ZM452 747T429 757T381 784Q364 795 354 800T333
806Q314 806 302 793T288 757H181Q183 837 219 883T319 930Q348 930 371 920T419 893Q436 881 446 876T467 871Q486 871 498 883T512 917H619Q617 840 581 794T481 747Q452 747 429 757Z" />
<glyph unicode="&#xd2;" glyph-name="Ograve" horiz-adv-x="848" d="M311 -16T221 31T80 161T29 350Q29 455 80 538T221 669T424 716Q537 716 627 669T768 539T819 350Q819 245 768 162T627 31T424 -16Q311 -16 221 31ZM468 175T503 196T560 257T581 350Q581 403
560 442T504 503T424 525Q380 525 345 504T288 443T267 350Q267 297 288 258T344 197T424 175Q468 175 503 196ZM182 917H397L529 757H379L182 917Z" />
<glyph unicode="&#xd3;" glyph-name="Oacute" horiz-adv-x="848" d="M311 -16T221 31T80 161T29 350Q29 455 80 538T221 669T424 716Q537 716 627 669T768 539T819 350Q819 245 768 162T627 31T424 -16Q311 -16 221 31ZM468 175T503 196T560 257T581 350Q581 403
560 442T504 503T424 525Q380 525 345 504T288 443T267 350Q267 297 288 258T344 197T424 175Q468 175 503 196ZM451 917H666L469 757H319L451 917Z" />
<glyph unicode="&#xd4;" glyph-name="Ocircumflex" horiz-adv-x="848" d="M311 -16T221 31T80 161T29 350Q29 455 80 538T221 669T424 716Q537 716 627 669T768 539T819 350Q819 245 768 162T627 31T424 -16Q311 -16 221 31ZM468 175T503 196T560 257T581 350Q581
403 560 442T504 503T424 525Q380 525 345 504T288 443T267 350Q267 297 288 258T344 197T424 175Q468 175 503 196ZM508 757L424 834L340 757H200L328 917H520L648 757H508Z" />
<glyph unicode="&#xd5;" glyph-name="Otilde" horiz-adv-x="848" d="M311 -16T221 31T80 161T29 350Q29 455 80 538T221 669T424 716Q537 716 627 669T768 539T819 350Q819 245 768 162T627 31T424 -16Q311 -16 221 31ZM468 175T503 196T560 257T581 350Q581 403
560 442T504 503T424 525Q380 525 345 504T288 443T267 350Q267 297 288 258T344 197T424 175Q468 175 503 196ZM476 747T453 757T405 784Q388 795 378 800T357 806Q338 806 326 793T312 757H205Q207 837 243 883T343 930Q372 930 395 920T443 893Q460 881 470
876T491 871Q510 871 522 883T536 917H643Q641 840 605 794T505 747Q476 747 453 757Z" />
<glyph unicode="&#xd6;" glyph-name="Odieresis" horiz-adv-x="848" d="M311 -16T221 31T80 161T29 350Q29 455 80 538T221 669T424 716Q537 716 627 669T768 539T819 350Q819 245 768 162T627 31T424 -16Q311 -16 221 31ZM468 175T503 196T560 257T581 350Q581
403 560 442T504 503T424 525Q380 525 345 504T288 443T267 350Q267 297 288 258T344 197T424 175Q468 175 503 196ZM274 749T249 773T223 837Q223 876 248 901T313 926Q352 926 377 901T403 837Q403 798 378 774T313 749Q274 749 249 773ZM496 749T471 773T445
837Q445 876 470 901T535 926Q574 926 599 901T625 837Q625 798 600 774T535 749Q496 749 471 773Z" />
<glyph unicode="&#xd7;" glyph-name="multiply" horiz-adv-x="620" d="M430 350L550 230L430 110L310 230L190 110L70 230L190 350L70 470L190 590L310 470L430 590L550 470L430 350Z" />
<glyph unicode="&#xd8;" glyph-name="Oslash" horiz-adv-x="848" d="M311 -16T221 31T80 161T29 350Q29 455 80 538T221 669T424 716Q537 716 627 669T768 539T819 350Q819 245 768 162T627 31T424 -16Q311 -16 221 31ZM468 175T503 196T560 257T581 350Q581 403
560 442T504 503T424 525Q380 525 345 504T288 443T267 350Q267 297 288 258T344 197T424 175Q468 175 503 196ZM657 770H787L191 -70H61L657 770Z" />
<glyph unicode="&#xd9;" glyph-name="Ugrave" horiz-adv-x="790" d="M733 700V0H504V75Q433 -16 310 -16Q187 -16 119 65T51 295V700H287V302Q287 238 314 207T389 175Q436 175 466 209T497 310V700H733ZM148 917H363L495 757H345L148 917Z" />
<glyph unicode="&#xda;" glyph-name="Uacute" horiz-adv-x="790" d="M733 700V0H504V75Q433 -16 310 -16Q187 -16 119 65T51 295V700H287V302Q287 238 314 207T389 175Q436 175 466 209T497 310V700H733ZM417 917H632L435 757H285L417 917Z" />
<glyph unicode="&#xdb;" glyph-name="Ucircumflex" horiz-adv-x="790" d="M733 700V0H504V75Q433 -16 310 -16Q187 -16 119 65T51 295V700H287V302Q287 238 314 207T389 175Q436 175 466 209T497 310V700H733ZM474 757L390 834L306 757H166L294 917H486L614 757H474Z" />
<glyph unicode="&#xdc;" glyph-name="Udieresis" horiz-adv-x="790" d="M733 700V0H504V75Q433 -16 310 -16Q187 -16 119 65T51 295V700H287V302Q287 238 314 207T389 175Q436 175 466 209T497 310V700H733ZM240 749T215 773T189 837Q189 876 214 901T279 926Q318
926 343 901T369 837Q369 798 344 774T279 749Q240 749 215 773ZM462 749T437 773T411 837Q411 876 436 901T501 926Q540 926 565 901T591 837Q591 798 566 774T501 749Q462 749 437 773Z" />
<glyph unicode="&#xdd;" glyph-name="Yacute" horiz-adv-x="783" d="M732 700V231Q732 123 688 46T563 -70T372 -110Q277 -110 200 -88T65 -25L151 142Q200 111 254 95T361 78Q433 78 464 111T496 218V238Q429 162 317 162Q185 162 116 236T46 453V700H282V470Q282
411 307 382T386 353Q436 353 466 382T496 478V700H732ZM416 917H631L434 757H284L416 917Z" />
<glyph unicode="&#xde;" glyph-name="Thorn" horiz-adv-x="743" d="M491 633T563 601T674 509T713 369Q713 289 674 229T563 137T394 105H293V0H57V701H293V633H394Q491 633 563 601ZM427 287T451 308T475 369Q475 408 451 429T379 451H293V287H379Q427 287 451 308Z" />
<glyph unicode="&#xdf;" glyph-name="germandbls" horiz-adv-x="714" d="M628 372T660 326T693 213Q693 108 622 49T430 -10Q397 -10 363 -6T308 6L330 178Q361 166 396 166Q426 166 445 180T464 219Q464 271 388 271H336V441Q371 443 392 461T413 511Q413 541
395 559T348 578Q315 578 296 559T276 503V0H50V472Q50 561 90 624T197 719T347 752Q435 752 499 723T596 645T630 533Q630 453 566 396Q628 372 660 326Z" />
<glyph unicode="&#xe0;" glyph-name="agrave" horiz-adv-x="700" d="M650 547V0H435V45Q386 -10 285 -10Q213 -10 153 24T57 124T21 274Q21 359 56 423T152 522T285 557Q376 557 424 510V547H650ZM378 166T403 194T428 274Q428 325 403 353T339 381Q300 381 275
353T250 274Q250 223 275 195T339 166Q378 166 403 194ZM124 767H339L471 607H321L124 767Z" />
<glyph unicode="&#xe1;" glyph-name="aacute" horiz-adv-x="700" d="M650 547V0H435V45Q386 -10 285 -10Q213 -10 153 24T57 124T21 274Q21 359 56 423T152 522T285 557Q376 557 424 510V547H650ZM378 166T403 194T428 274Q428 325 403 353T339 381Q300 381 275
353T250 274Q250 223 275 195T339 166Q378 166 403 194ZM393 767H608L411 607H261L393 767Z" />
<glyph unicode="&#xe2;" glyph-name="acircumflex" horiz-adv-x="700" d="M650 547V0H435V45Q386 -10 285 -10Q213 -10 153 24T57 124T21 274Q21 359 56 423T152 522T285 557Q376 557 424 510V547H650ZM378 166T403 194T428 274Q428 325 403 353T339 381Q300 381
275 353T250 274Q250 223 275 195T339 166Q378 166 403 194ZM450 607L366 684L282 607H142L270 767H462L590 607H450Z" />
<glyph unicode="&#xe3;" glyph-name="atilde" horiz-adv-x="700" d="M650 547V0H435V45Q386 -10 285 -10Q213 -10 153 24T57 124T21 274Q21 359 56 423T152 522T285 557Q376 557 424 510V547H650ZM378 166T403 194T428 274Q428 325 403 353T339 381Q300 381 275
353T250 274Q250 223 275 195T339 166Q378 166 403 194ZM418 597T395 607T347 634Q330 645 320 650T299 656Q280 656 268 643T254 607H147Q149 687 185 733T285 780Q314 780 337 770T385 743Q402 731 412 726T433 721Q452 721 464 733T478 767H585Q583 690 547
644T447 597Q418 597 395 607Z" />
<glyph unicode="&#xe4;" glyph-name="adieresis" horiz-adv-x="700" d="M650 547V0H435V45Q386 -10 285 -10Q213 -10 153 24T57 124T21 274Q21 359 56 423T152 522T285 557Q376 557 424 510V547H650ZM378 166T403 194T428 274Q428 325 403 353T339 381Q300 381
275 353T250 274Q250 223 275 195T339 166Q378 166 403 194ZM216 599T191 623T165 687Q165 726 190 751T255 776Q294 776 319 751T345 687Q345 648 320 624T255 599Q216 599 191 623ZM438 599T413 623T387 687Q387 726 412 751T477 776Q516 776 541 751T567 687Q567
648 542 624T477 599Q438 599 413 623Z" />
<glyph unicode="&#xe5;" glyph-name="aring" horiz-adv-x="700" d="M650 547V0H435V45Q386 -10 285 -10Q213 -10 153 24T57 124T21 274Q21 359 56 423T152 522T285 557Q376 557 424 510V547H650ZM378 166T403 194T428 274Q428 325 403 353T339 381Q300 381 275
353T250 274Q250 223 275 195T339 166Q378 166 403 194ZM327 590T295 608T245 656T226 724Q226 761 244 791T295 840T366 858Q405 858 437 840T487 792T506 724Q506 687 488 657T437 608T366 590Q327 590 295 608ZM389 670T404 685T420 724Q420 748 405 763T366
778Q343 778 328 763T312 724Q312 700 327 685T366 670Q389 670 404 685Z" />
<glyph unicode="&#xe6;" glyph-name="ae" horiz-adv-x="1003" d="M741 157T766 166T821 197L940 78Q899 35 839 13T704 -10Q556 -10 471 72Q435 27 386 9T270 -10Q155 -10 89 38T23 168Q23 244 85 286T273 328H363Q350 389 262 389Q223 389 186 378T121 346L49
495Q96 524 161 540T294 557Q422 557 492 497Q532 526 582 541T686 557Q765 557 833 524T941 428T982 277L606 205Q635 157 710 157Q741 157 766 166ZM646 403T621 379T591 312L767 347Q757 372 735 387T683 403Q646 403 621 379ZM329 126T347 145T365 200V219H309Q240
219 240 173Q240 151 254 139T296 126Q329 126 347 145Z" />
<glyph unicode="&#xe7;" glyph-name="ccedilla" horiz-adv-x="615" d="M251 -10T178 26T63 127T21 274Q21 356 62 420T177 521T344 557Q444 557 515 514T613 395L438 309Q406 381 343 381Q303 381 277 353T250 274Q250 222 276 194T343 166Q406 166 438 238L613
152Q586 76 515 33T344 -10Q251 -10 178 26ZM249 -240T221 -234T177 -219L205 -136Q235 -148 265 -148Q313 -148 313 -124Q313 -104 272 -104H231L258 10H374L360 -52Q404 -58 424 -80T445 -132Q445 -182 399 -211T275 -240Q249 -240 221 -234Z" />
<glyph unicode="&#xe8;" glyph-name="egrave" horiz-adv-x="653" d="M395 157T419 166T473 197L591 78Q509 -10 352 -10Q253 -10 178 26T62 128T21 274Q21 356 62 420T174 521T335 557Q416 557 484 525T592 429T632 277L258 205Q283 157 359 157Q395 157 419 166ZM297
403T273 380T243 312L418 346Q409 372 388 387T336 403Q297 403 273 380ZM89 767H304L436 607H286L89 767Z" />
<glyph unicode="&#xe9;" glyph-name="eacute" horiz-adv-x="653" d="M395 157T419 166T473 197L591 78Q509 -10 352 -10Q253 -10 178 26T62 128T21 274Q21 356 62 420T174 521T335 557Q416 557 484 525T592 429T632 277L258 205Q283 157 359 157Q395 157 419 166ZM297
403T273 380T243 312L418 346Q409 372 388 387T336 403Q297 403 273 380ZM358 767H573L376 607H226L358 767Z" />
<glyph unicode="&#xea;" glyph-name="ecircumflex" horiz-adv-x="653" d="M395 157T419 166T473 197L591 78Q509 -10 352 -10Q253 -10 178 26T62 128T21 274Q21 356 62 420T174 521T335 557Q416 557 484 525T592 429T632 277L258 205Q283 157 359 157Q395 157
419 166ZM297 403T273 380T243 312L418 346Q409 372 388 387T336 403Q297 403 273 380ZM415 607L331 684L247 607H107L235 767H427L555 607H415Z" />
<glyph unicode="&#xeb;" glyph-name="edieresis" horiz-adv-x="653" d="M395 157T419 166T473 197L591 78Q509 -10 352 -10Q253 -10 178 26T62 128T21 274Q21 356 62 420T174 521T335 557Q416 557 484 525T592 429T632 277L258 205Q283 157 359 157Q395 157 419
166ZM297 403T273 380T243 312L418 346Q409 372 388 387T336 403Q297 403 273 380ZM181 599T156 623T130 687Q130 726 155 751T220 776Q259 776 284 751T310 687Q310 648 285 624T220 599Q181 599 156 623ZM403 599T378 623T352 687Q352 726 377 751T442 776Q481
776 506 751T532 687Q532 648 507 624T442 599Q403 599 378 623Z" />
<glyph unicode="&#xec;" glyph-name="igrave" horiz-adv-x="326" d="M50 547H276V0H50V547ZM-79 767H136L268 607H118L-79 767Z" />
<glyph unicode="&#xed;" glyph-name="iacute" horiz-adv-x="326" d="M50 547H276V0H50V547ZM190 767H405L208 607H58L190 767Z" />
<glyph unicode="&#xee;" glyph-name="icircumflex" horiz-adv-x="326" d="M50 547H276V0H50V547ZM222 607L163 674L104 607H-36L69 767H257L362 607H222Z" />
<glyph unicode="&#xef;" glyph-name="idieresis" horiz-adv-x="326" d="M50 547H276V0H50V547ZM34 599T11 623T-13 687Q-13 726 10 751T70 776Q105 776 128 751T152 687Q152 648 129 624T70 599Q34 599 11 623ZM221 599T198 623T174 687Q174 726 197 751T257 776Q292
776 315 751T339 687Q339 648 316 624T257 599Q221 599 198 623Z" />
<glyph unicode="&#xf0;" glyph-name="eth" d="M655 505T655 338Q655 228 612 148T492 26T310 -16Q229 -16 163 14T59 101T21 229Q21 295 54 346T143 425T268 453Q360 453 415 410Q412 489 376 534L144 450L109 541L255 594Q231 596 218 596Q152 596 97 578L76
741Q156 758 232 758Q397 758 503 684L596 718L631 627L580 608Q655 505 655 338ZM361 147T383 166T405 218Q405 250 383 270T328 290Q295 290 273 270T251 218Q251 186 273 167T328 147Q361 147 383 166Z" />
<glyph unicode="&#xf1;" glyph-name="ntilde" horiz-adv-x="702" d="M531 557T592 496T654 312V0H428V273Q428 367 361 367Q323 367 300 341T276 257V0H50V547H265V493Q297 525 339 541T430 557Q531 557 592 496ZM407 597T384 607T336 634Q319 645 309 650T288
656Q269 656 257 643T243 607H136Q138 687 174 733T274 780Q303 780 326 770T374 743Q391 731 401 726T422 721Q441 721 453 733T467 767H574Q572 690 536 644T436 597Q407 597 384 607Z" />
<glyph unicode="&#xf2;" glyph-name="ograve" horiz-adv-x="678" d="M248 -10T176 26T62 127T21 274Q21 356 62 420T175 521T339 557Q431 557 503 521T616 421T657 274Q657 192 617 128T504 27T339 -10Q248 -10 176 26ZM378 166T403 194T428 274Q428 325 403 353T339
381Q300 381 275 353T250 274Q250 223 275 195T339 166Q378 166 403 194ZM94 767H309L441 607H291L94 767Z" />
<glyph unicode="&#xf3;" glyph-name="oacute" horiz-adv-x="678" d="M248 -10T176 26T62 127T21 274Q21 356 62 420T175 521T339 557Q431 557 503 521T616 421T657 274Q657 192 617 128T504 27T339 -10Q248 -10 176 26ZM378 166T403 194T428 274Q428 325 403 353T339
381Q300 381 275 353T250 274Q250 223 275 195T339 166Q378 166 403 194ZM363 767H578L381 607H231L363 767Z" />
<glyph unicode="&#xf4;" glyph-name="ocircumflex" horiz-adv-x="678" d="M248 -10T176 26T62 127T21 274Q21 356 62 420T175 521T339 557Q431 557 503 521T616 421T657 274Q657 192 617 128T504 27T339 -10Q248 -10 176 26ZM378 166T403 194T428 274Q428 325
403 353T339 381Q300 381 275 353T250 274Q250 223 275 195T339 166Q378 166 403 194ZM420 607L336 684L252 607H112L240 767H432L560 607H420Z" />
<glyph unicode="&#xf5;" glyph-name="otilde" horiz-adv-x="678" d="M248 -10T176 26T62 127T21 274Q21 356 62 420T175 521T339 557Q431 557 503 521T616 421T657 274Q657 192 617 128T504 27T339 -10Q248 -10 176 26ZM378 166T403 194T428 274Q428 325 403 353T339
381Q300 381 275 353T250 274Q250 223 275 195T339 166Q378 166 403 194ZM388 597T365 607T317 634Q300 645 290 650T269 656Q250 656 238 643T224 607H117Q119 687 155 733T255 780Q284 780 307 770T355 743Q372 731 382 726T403 721Q422 721 434 733T448 767H555Q553
690 517 644T417 597Q388 597 365 607Z" />
<glyph unicode="&#xf6;" glyph-name="odieresis" horiz-adv-x="678" d="M248 -10T176 26T62 127T21 274Q21 356 62 420T175 521T339 557Q431 557 503 521T616 421T657 274Q657 192 617 128T504 27T339 -10Q248 -10 176 26ZM378 166T403 194T428 274Q428 325 403
353T339 381Q300 381 275 353T250 274Q250 223 275 195T339 166Q378 166 403 194ZM186 599T161 623T135 687Q135 726 160 751T225 776Q264 776 289 751T315 687Q315 648 290 624T225 599Q186 599 161 623ZM408 599T383 623T357 687Q357 726 382 751T447 776Q486
776 511 751T537 687Q537 648 512 624T447 599Q408 599 383 623Z" />
<glyph unicode="&#xf7;" glyph-name="divide" horiz-adv-x="620" d="M262 462T230 493T198 572Q198 620 230 650T310 680Q358 680 390 650T422 572Q422 524 390 493T310 462Q262 462 230 493ZM55 435H565V265H55V435ZM262 20T230 51T198 130Q198 178 230 208T310
238Q358 238 390 208T422 130Q422 82 390 51T310 20Q262 20 230 51Z" />
<glyph unicode="&#xf8;" glyph-name="oslash" horiz-adv-x="678" d="M248 -10T176 26T62 127T21 274Q21 356 62 420T175 521T339 557Q431 557 503 521T616 421T657 274Q657 192 617 128T504 27T339 -10Q248 -10 176 26ZM378 166T403 194T428 274Q428 325 403 353T339
381Q300 381 275 353T250 274Q250 223 275 195T339 166Q378 166 403 194ZM509 610H604L163 -70H68L509 610Z" />
<glyph unicode="&#xf9;" glyph-name="ugrave" horiz-adv-x="698" d="M648 547V0H433V52Q403 21 363 6T278 -10Q174 -10 111 53T48 245V547H274V284Q274 228 292 204T345 180Q378 180 400 206T422 290V547H648ZM106 767H321L453 607H303L106 767Z" />
<glyph unicode="&#xfa;" glyph-name="uacute" horiz-adv-x="698" d="M648 547V0H433V52Q403 21 363 6T278 -10Q174 -10 111 53T48 245V547H274V284Q274 228 292 204T345 180Q378 180 400 206T422 290V547H648ZM375 767H590L393 607H243L375 767Z" />
<glyph unicode="&#xfb;" glyph-name="ucircumflex" horiz-adv-x="698" d="M648 547V0H433V52Q403 21 363 6T278 -10Q174 -10 111 53T48 245V547H274V284Q274 228 292 204T345 180Q378 180 400 206T422 290V547H648ZM432 607L348 684L264 607H124L252 767H444L572
607H432Z" />
<glyph unicode="&#xfc;" glyph-name="udieresis" horiz-adv-x="698" d="M648 547V0H433V52Q403 21 363 6T278 -10Q174 -10 111 53T48 245V547H274V284Q274 228 292 204T345 180Q378 180 400 206T422 290V547H648ZM198 599T173 623T147 687Q147 726 172 751T237
776Q276 776 301 751T327 687Q327 648 302 624T237 599Q198 599 173 623ZM420 599T395 623T369 687Q369 726 394 751T459 776Q498 776 523 751T549 687Q549 648 524 624T459 599Q420 599 395 623Z" />
<glyph unicode="&#xfd;" glyph-name="yacute" horiz-adv-x="698" d="M648 547V109Q648 -47 562 -125T317 -204Q236 -204 166 -187T45 -136L121 18Q153 -6 201 -21T294 -36Q361 -36 391 -7T422 78V82Q363 30 278 30Q174 30 111 93T48 285V547H274V324Q274 268 292
244T345 220Q378 220 400 246T422 330V547H648ZM375 767H590L393 607H243L375 767Z" />
<glyph unicode="&#xfe;" glyph-name="thorn" horiz-adv-x="700" d="M487 557T547 523T643 423T679 273Q679 188 644 124T548 25T415 -10Q324 -10 276 37V-194H50V742H276V513Q324 557 415 557Q487 557 547 523ZM400 166T425 194T450 273Q450 324 425 352T361 381Q322
381 297 353T272 273Q272 222 297 194T361 166Q400 166 425 194Z" />
<glyph unicode="&#xff;" glyph-name="ydieresis" horiz-adv-x="698" d="M648 547V109Q648 -47 562 -125T317 -204Q236 -204 166 -187T45 -136L121 18Q153 -6 201 -21T294 -36Q361 -36 391 -7T422 78V82Q363 30 278 30Q174 30 111 93T48 285V547H274V324Q274 268
292 244T345 220Q378 220 400 246T422 330V547H648ZM198 599T173 623T147 687Q147 726 172 751T237 776Q276 776 301 751T327 687Q327 648 302 624T237 599Q198 599 173 623ZM420 599T395 623T369 687Q369 726 394 751T459 776Q498 776 523 751T549 687Q549 648
524 624T459 599Q420 599 395 623Z" />
<glyph unicode="&#x2013;" glyph-name="endash" horiz-adv-x="500" d="M0 354H500V224H0V354Z" />
<glyph unicode="&#x2014;" glyph-name="emdash" horiz-adv-x="1000" d="M0 354H1000V224H0V354Z" />
<glyph unicode="&#x2018;" glyph-name="quoteleft" horiz-adv-x="304" d="M250 558T267 530T284 462Q284 404 247 369T152 334Q94 334 57 369T20 462Q20 488 27 514T59 593L129 742H269L219 573Q250 558 267 530Z" />
<glyph unicode="&#x2019;" glyph-name="quoteright" horiz-adv-x="304" d="M210 752T247 717T284 624Q284 598 277 572T245 493L175 344H35L85 513Q54 528 37 556T20 624Q20 682 57 717T152 752Q210 752 247 717Z" />
<glyph unicode="&#x201a;" glyph-name="quotesinglbase" horiz-adv-x="304" d="M210 248T247 213T284 120Q284 94 277 68T245 -11L175 -160H35L85 9Q54 24 37 52T20 120Q20 178 57 213T152 248Q210 248 247 213Z" />
<glyph unicode="&#x201c;" glyph-name="quotedblleft" horiz-adv-x="594" d="M250 558T267 530T284 462Q284 404 247 369T152 334Q94 334 57 369T20 462Q20 488 27 514T59 593L129 742H269L219 573Q250 558 267 530ZM540 558T557 530T574 462Q574 404 537 369T442
334Q384 334 347 369T310 462Q310 488 317 514T349 593L419 742H559L509 573Q540 558 557 530Z" />
<glyph unicode="&#x201d;" glyph-name="quotedblright" horiz-adv-x="594" d="M210 752T247 717T284 624Q284 598 277 572T245 493L175 344H35L85 513Q54 528 37 556T20 624Q20 682 57 717T152 752Q210 752 247 717ZM500 752T537 717T574 624Q574 598 567 572T535
493L465 344H325L375 513Q344 528 327 556T310 624Q310 682 347 717T442 752Q500 752 537 717Z" />
<glyph unicode="&#x201e;" glyph-name="quotedblbase" horiz-adv-x="594" d="M210 248T247 213T284 120Q284 94 277 68T245 -11L175 -160H35L85 9Q54 24 37 52T20 120Q20 178 57 213T152 248Q210 248 247 213ZM500 248T537 213T574 120Q574 94 567 68T535 -11L465
-160H325L375 9Q344 24 327 52T310 120Q310 178 347 213T442 248Q500 248 537 213Z" />
<glyph unicode="&#x2022;" glyph-name="bullet" horiz-adv-x="410" d="M159 119T121 140T62 200T40 285Q40 332 61 369T120 428T204 449Q250 449 288 428T348 370T370 285Q370 238 348 200T288 141T204 119Q159 119 121 140Z" />
<glyph unicode="&#x2039;" glyph-name="guilsinglleft" horiz-adv-x="378" d="M25 274L163 474H363L230 274L363 74H163L25 274Z" />
<glyph unicode="&#x203a;" glyph-name="guilsinglright" horiz-adv-x="378" d="M15 74L148 274L15 474H215L353 274L215 74H15Z" />
</font>
</defs>
</svg>
