<?xml version="1.0" standalone="no"?>
<!DOCTYPE svg PUBLIC "-//W3C//DTD SVG 1.1//EN" "http://www.w3.org/Graphics/SVG/1.1/DTD/svg11.dtd">
<svg xmlns="http://www.w3.org/2000/svg">
<defs >
<font id="Mulish" horiz-adv-x="581" ><font-face
    font-family="Mulish ExtraLight ExtraLight"
    units-per-em="1000"
    panose-1="0 0 0 0 0 0 0 0 0 0"
    ascent="1005"
    descent="-250"
    alphabetic="0" />
<glyph unicode=" " horiz-adv-x="250" />
<glyph unicode="!" horiz-adv-x="211" d="M92 162L79 705H132L119 162H92ZM71 0V70H140V0H71Z" />
<glyph unicode="&quot;" horiz-adv-x="342" d="M88 440L75 705H127L116 440H88ZM228 440L215 705H267L256 440H228Z" />
<glyph unicode="#" horiz-adv-x="600" d="M93 0L132 191H23V231H139L190 482H43V522H198L235 705H277L241 522H425L461 705H505L468 522H577V482H460L409 231H557V191H402L363 0H319L358 191H175L137 0H93ZM182 231H366L417 482H233L182 231Z" />
<glyph unicode="$" horiz-adv-x="600" d="M290 -115V9L303 -4Q232 -4 169 16T56 83L78 119Q127 76 177 57T303 37Q398 37 446 77T495 181Q495 234 460 264T344 311L249 331Q159 350 116 394T72 511Q72 568 100 612T178 682T295 709L290 696V820H330V696L323 708Q374
707 428 685T522 618L502 582Q460 628 412 648T301 668Q216 668 165 625T113 511Q113 454 146 421T251 373L346 353Q444 333 491 293T538 182Q538 126 510 85T432 22T317 -4L330 10V-115H290Z" />
<glyph unicode="%" horiz-adv-x="926" d="M273 0H231L653 705H695L273 0ZM228 281Q150 281 105 337T60 497Q60 600 105 656T228 712Q306 712 351 656T396 497Q396 394 351 338T228 281ZM228 318Q287 318 320 363T354 497Q354 584 321 629T228 675Q170 675 137
630T103 497Q103 409 136 364T228 318ZM698 -8Q620 -8 575 48T530 208Q530 311 575 367T698 423Q776 423 821 367T866 208Q866 105 821 49T698 -8ZM698 29Q757 29 790 74T824 208Q824 295 791 340T698 386Q640 386 607 341T573 208Q573 120 606 75T698 29Z" />
<glyph unicode="&amp;" horiz-adv-x="655" d="M646 -8Q600 18 563 50T502 110H515Q475 54 414 23T279 -8Q211 -8 163 13T90 71T65 160Q65 229 105 277T222 379L254 401L249 393Q199 449 177 488T155 569Q155 612 174 644T229 694T313 713Q373 713 414 678T456
580Q456 546 442 516T394 455T298 383L300 396L510 160H499Q525 202 540 266T557 404H598Q596 320 577 250T526 126L524 144Q548 116 587 83T670 25L646 -8ZM278 31Q347 31 400 59T490 142V124L266 373H280L247 350Q198 316 167 288T122 230T107 161Q107 100 150
66T278 31ZM313 674Q261 674 229 645T197 568Q197 544 205 524T232 478T286 413L271 409Q347 459 381 496T415 576Q415 620 387 647T313 674Z" />
<glyph unicode="&apos;" horiz-adv-x="202" d="M88 440L75 705H127L116 440H88Z" />
<glyph unicode="(" horiz-adv-x="284" d="M215 -180Q178 -105 154 -33T117 112T105 263Q105 341 117 414T153 558T215 705H253Q203 596 176 485T149 263Q149 152 176 41T253 -180H215Z" />
<glyph unicode=")" horiz-adv-x="284" d="M69 -180H31Q81 -71 108 40T135 262Q135 373 108 484T31 705H69Q106 630 130 558T167 413T179 262Q179 184 167 112T131 -33T69 -180Z" />
<glyph unicode="*" horiz-adv-x="452" d="M128 377L97 400L199 535L37 586L50 623L209 567L205 736H245L242 566L404 623L415 586L253 535L355 400L323 377L227 518L128 377Z" />
<glyph unicode="+" horiz-adv-x="600" d="M280 37V267H52V306H280V532H320V306H548V267H320V37H280Z" />
<glyph unicode="," horiz-adv-x="211" d="M96 -98L70 -78Q92 -54 97 -34T103 6L113 0H71V70H140V15Q140 -16 131 -44T96 -98Z" />
<glyph unicode="-" horiz-adv-x="420" d="M76 254V292H344V254H76Z" />
<glyph unicode="." horiz-adv-x="211" d="M71 0V70H140V0H71Z" />
<glyph unicode="/" horiz-adv-x="259" d="M20 -52H-21L239 744H280L20 -52Z" />
<glyph unicode="0" horiz-adv-x="600" d="M300 -8Q184 -8 122 84T60 352Q60 530 122 621T300 713Q417 713 478 622T540 353Q540 176 478 84T300 -8ZM300 33Q398 33 446 111T495 353Q495 517 447 594T300 672Q203 672 154 594T105 353Q105 190 154 112T300 33Z" />
<glyph unicode="1" horiz-adv-x="600" d="M142 0V39H311V667H338L157 549V596L322 705H353V39H512V0H142Z" />
<glyph unicode="2" horiz-adv-x="600" d="M94 0V32L358 309Q411 364 438 417T466 528Q466 599 423 635T298 672Q236 672 186 650T91 583L71 619Q109 661 169 687T298 713Q399 713 454 665T510 529Q510 462 476 400T382 276L138 25V39H541V0H94Z" />
<glyph unicode="3" horiz-adv-x="600" d="M303 -8Q233 -8 170 14T61 80L82 116Q134 72 187 53T303 33Q392 33 439 73T486 188Q486 262 437 300T293 339H194V378H291Q371 378 419 421T467 537Q467 602 424 637T301 672Q180 672 94 583L74 619Q113 663 173 688T301
713Q399 713 455 667T511 537Q511 470 473 423T370 358V368Q447 355 488 308T530 188Q530 97 470 45T303 -8Z" />
<glyph unicode="4" horiz-adv-x="600" d="M413 0V166H58V199L420 705H455V205H570V166H455V0H413ZM413 205V655H433L102 193V205H413Z" />
<glyph unicode="5" horiz-adv-x="600" d="M321 -8Q275 -8 232 2T151 32T83 80L104 116Q155 73 207 53T321 33Q407 33 456 81T506 209Q506 290 459 342T328 394Q269 394 224 370T146 294H108V705H508V666H151V336H137Q165 383 216 409T331 435Q399 435 448 407T523
330T550 213Q550 148 522 98T443 20T321 -8Z" />
<glyph unicode="6" horiz-adv-x="600" d="M321 -8Q197 -8 131 81T64 331Q64 455 97 540T192 669T342 713Q396 713 452 689T541 623L521 587Q483 630 437 651T341 672Q229 672 168 589T107 340V230H101Q106 293 135 338T213 409T321 434Q387 434 437 406T515 329T544
214Q544 150 516 100T437 21T321 -8ZM317 33Q371 33 412 56T477 119T500 213Q500 266 477 306T413 370T317 393Q263 393 222 370T157 307T134 213Q134 160 157 120T221 56T317 33Z" />
<glyph unicode="7" horiz-adv-x="600" d="M136 0L489 694V666H76V705H524V674L183 0H136Z" />
<glyph unicode="8" horiz-adv-x="600" d="M300 -8Q182 -8 119 42T55 184Q55 257 100 305T221 363V354Q152 368 112 415T72 527Q72 615 133 664T300 713Q407 713 468 664T529 527Q529 463 492 416T385 354V363Q460 353 502 305T545 184Q545 93 482 43T300 -8ZM300
32Q402 32 451 70T501 185Q501 262 452 299T300 337Q198 337 149 300T99 185Q99 108 149 70T300 32ZM300 377Q389 377 436 416T484 526Q484 596 437 634T300 673Q211 673 164 635T116 526Q116 456 163 417T300 377Z" />
<glyph unicode="9" horiz-adv-x="600" d="M259 -8Q205 -8 149 17T59 82L80 118Q118 75 164 54T260 33Q371 33 432 116T493 365V475H500Q495 413 465 367T388 296T280 271Q214 271 164 299T85 377T56 491Q56 556 84 606T163 684T279 713Q404 713 470 624T537 374Q537
251 504 166T408 36T259 -8ZM284 312Q338 312 379 335T444 398T467 492Q467 545 444 585T380 649T284 672Q230 672 189 649T124 586T101 492Q101 439 124 399T188 335T284 312Z" />
<glyph unicode=":" horiz-adv-x="211" d="M71 430V500H140V430H71ZM71 0V70H140V0H71Z" />
<glyph unicode=";" horiz-adv-x="211" d="M96 -98L70 -78Q92 -54 97 -34T103 6L122 0H71V70H140V15Q140 -16 131 -44T96 -98ZM71 430V500H140V430H71Z" />
<glyph unicode="&lt;" horiz-adv-x="600" d="M547 36L52 269V305L547 538V494L81 276V298L547 81V36Z" />
<glyph unicode="=" horiz-adv-x="600" d="M52 367V406H548V367H52ZM52 168V207H548V168H52Z" />
<glyph unicode="&gt;" horiz-adv-x="600" d="M53 36V81L519 298V276L53 494V538L548 305V269L53 36Z" />
<glyph unicode="?" horiz-adv-x="433" d="M173 162V182Q173 235 194 284T270 396Q315 447 333 484T351 562Q351 614 315 643T215 672Q176 672 142 663T76 637V683Q107 697 142 705T214 713Q269 713 309 694T372 642T395 562Q395 530 386 502T357 442T301 371Q252
314 231 272T205 184L203 162H173ZM153 0V70H222V0H153Z" />
<glyph unicode="@" horiz-adv-x="973" d="M498 -162Q400 -162 321 -132T186 -44T99 94T68 276Q68 373 100 453T191 591T331 681T509 713Q627 713 716 667T855 538T905 345Q905 259 881 195T812 95T709 59Q650 59 621 94T603 188L611 169Q584 117 537 88T439 59Q362
59 320 106T277 236Q277 311 306 368T387 459T502 492Q560 492 597 465T643 389H636L653 484H695L646 209Q644 198 643 188T642 168Q642 132 659 114T712 96Q758 96 792 127T845 214T865 345Q865 443 820 517T694 632T508 674Q389 674 300 624T161 485T111 276Q111
152 158 63T293 -75T498 -123Q587 -123 659 -95T774 -14L801 -46Q751 -102 672 -132T498 -162ZM440 98Q493 98 534 127T599 209T623 326Q623 391 594 422T503 453Q451 453 410 425T344 348T320 236Q320 169 351 134T440 98Z" />
<glyph unicode="A" horiz-adv-x="721" d="M34 0L337 705H378L687 0H641L552 204L575 195H138L166 204L79 0H34ZM356 649L177 228L155 234H558L542 228L358 649H356Z" />
<glyph unicode="B" horiz-adv-x="672" d="M97 0V705H354Q465 705 525 658T585 521Q585 453 544 409T431 351V365Q510 358 555 313T601 191Q601 97 541 49T368 0H97ZM139 39H367Q453 39 505 73T557 188Q557 270 505 303T367 337H139V39ZM139 376H352Q445 376 493
413T541 521Q541 592 493 629T352 666H139V376Z" />
<glyph unicode="C" horiz-adv-x="684" d="M385 -8Q283 -8 213 35T105 160T68 353Q68 465 105 545T212 669T385 713Q462 713 520 689T624 617L602 582Q553 629 503 650T384 672Q251 672 182 589T113 353Q113 201 182 117T384 33Q452 33 502 54T602 123L624 88Q579
41 520 17T385 -8Z" />
<glyph unicode="D" horiz-adv-x="733" d="M97 0V705H311Q425 705 504 665T624 547T665 353Q665 238 624 159T504 40T311 0H97ZM139 39H307Q465 39 542 117T620 353Q620 510 543 588T307 666H139V39Z" />
<glyph unicode="E" horiz-adv-x="582" d="M97 0V705H525V666H139V377H503V338H139V39H525V0H97Z" />
<glyph unicode="F" horiz-adv-x="554" d="M97 0V705H515V666H139V377H494V338H139V0H97Z" />
<glyph unicode="G" horiz-adv-x="723" d="M406 -8Q294 -8 219 34T106 158T68 353Q68 465 106 545T217 669T392 713Q469 713 524 689T626 617L604 582Q571 614 540 633T473 662T391 672Q258 672 186 588T113 352Q113 197 184 115T406 33Q463 33 512 43T606 74L594
38V318H400V357H634V41Q596 20 533 6T406 -8Z" />
<glyph unicode="H" horiz-adv-x="759" d="M97 0V705H139V377H620V705H662V0H620V338H139V0H97Z" />
<glyph unicode="I" horiz-adv-x="236" d="M97 0V705H139V0H97Z" />
<glyph unicode="J" horiz-adv-x="300" d="M70 -186Q54 -186 37 -185T0 -178V-139Q19 -143 34 -145T64 -148Q110 -148 135 -118T161 -24V705H203V-26Q203 -76 188 -112T144 -167T70 -186Z" />
<glyph unicode="K" horiz-adv-x="605" d="M97 0V705H139V377H141L507 705H568L160 343L161 373L599 0H536L141 338H139V0H97Z" />
<glyph unicode="L" horiz-adv-x="532" d="M97 0V705H139V39H517V0H97Z" />
<glyph unicode="M" horiz-adv-x="848" d="M97 0V705H134L438 17H410L715 705H751V0H712V664H736L442 0H407L112 665H136V0H97Z" />
<glyph unicode="N" horiz-adv-x="739" d="M97 0V705H133L624 42H603V705H642V0H607L116 663H136V0H97Z" />
<glyph unicode="O" horiz-adv-x="759" d="M68 353Q68 465 104 545T210 669T379 713Q475 713 545 670T653 546T691 354Q691 242 653 161T544 36T379 -8Q281 -8 212 36T105 161T68 353ZM113 353Q113 202 181 118T379 33Q504 33 575 117T646 353Q646 505 576 588T379
672Q249 672 181 589T113 353Z" />
<glyph unicode="P" horiz-adv-x="638" d="M97 0V705H360Q467 705 526 654T585 511Q585 420 526 369T360 317H139V0H97ZM139 356H359Q448 356 494 396T540 511Q540 585 494 625T359 666H139V356Z" />
<glyph unicode="Q" horiz-adv-x="759" d="M571 -191Q544 -171 515 -140T458 -73T411 1L457 12Q484 -40 523 -83T601 -158L571 -191ZM68 353Q68 465 104 545T210 669T379 713Q475 713 545 670T653 546T691 354Q691 242 653 161T544 36T379 -8Q281 -8 212 36T105
161T68 353ZM113 353Q113 202 181 118T379 33Q504 33 575 117T646 353Q646 505 576 588T379 672Q249 672 181 589T113 353Z" />
<glyph unicode="R" horiz-adv-x="684" d="M97 0V705H367Q474 705 533 655T592 514Q592 455 565 414T492 351T385 329L406 337H414Q454 337 485 319T536 252L633 0H586L498 236Q478 291 440 306T340 322H139V0H97ZM139 361H363Q453 361 500 400T547 514Q547 588
500 627T363 666H139V361Z" />
<glyph unicode="S" horiz-adv-x="604" d="M313 -8Q228 -8 165 14T52 80L73 116Q110 87 144 69T218 42T312 33Q410 33 460 72T511 178Q511 234 476 264T354 311L255 331Q158 351 111 394T64 513Q64 573 95 618T181 688T309 713Q383 713 444 690T549 621L529 585Q480
632 428 652T309 672Q217 672 163 629T108 513Q108 454 143 422T256 373L356 353Q460 332 507 293T555 179Q555 124 526 82T443 16T313 -8Z" />
<glyph unicode="T" horiz-adv-x="590" d="M272 0V666H10V705H576V666H314V0H272Z" />
<glyph unicode="U" horiz-adv-x="722" d="M361 -8Q224 -8 158 63T92 270V705H134V276Q134 154 188 94T361 33Q472 33 530 93T588 276V705H630V270Q630 134 561 63T361 -8Z" />
<glyph unicode="V" horiz-adv-x="677" d="M314 0L12 705H57L349 24H327L621 705H665L360 0H314Z" />
<glyph unicode="W" horiz-adv-x="1104" d="M285 0L42 705H87L322 19H292L535 705H574L807 19H780L1019 705H1062L816 0H772L545 672H565L327 0H285Z" />
<glyph unicode="X" horiz-adv-x="636" d="M24 0L298 367V357L39 705H90L326 387H314L546 705H597L339 357V367L612 0H561L308 342H329L75 0H24Z" />
<glyph unicode="Y" horiz-adv-x="587" d="M272 0V326L283 288L1 705H50L302 327H287L539 705H586L304 288L314 326V0H272Z" />
<glyph unicode="Z" horiz-adv-x="585" d="M42 0V31L496 689V666H42V705H536V674L81 16V39H546V0H42Z" />
<glyph unicode="[" horiz-adv-x="284" d="M110 -180V705H280V668H152V-143H280V-180H110Z" />
<glyph unicode="\" horiz-adv-x="259" d="M239 -52L-21 744H20L280 -52H239Z" />
<glyph unicode="]" horiz-adv-x="284" d="M4 -180V-143H131V668H4V705H173V-180H4Z" />
<glyph unicode="^" horiz-adv-x="600" d="M47 142L281 628H317L553 142H510L288 599H310L89 142H47Z" />
<glyph unicode="_" horiz-adv-x="505" d="M4 -33V0H501V-33H4Z" />
<glyph unicode="`" horiz-adv-x="500" d="M232 549L110 749H164L268 549H232Z" />
<glyph unicode="a" horiz-adv-x="583" d="M276 -8Q208 -8 158 23T81 112T54 250Q54 331 81 388T159 477T276 508Q347 508 397 471T464 369H452L462 500H503Q500 472 498 445T495 392V0H453V131H464Q448 66 397 29T276 -8ZM276 31Q358 31 406 87T454 250Q454 356
406 412T276 469Q194 469 146 413T97 250Q97 144 145 88T276 31Z" />
<glyph unicode="b" horiz-adv-x="583" d="M308 -8Q236 -8 186 29T119 131H130V0H88V736H130V369H119Q136 434 186 471T308 508Q376 508 425 477T502 389T529 250Q529 170 502 112T425 23T308 -8ZM307 31Q389 31 437 87T486 250Q486 356 438 412T307 469Q225 469
177 413T129 250Q129 144 177 88T307 31Z" />
<glyph unicode="c" horiz-adv-x="487" d="M281 -8Q211 -8 160 23T82 114T54 254Q54 335 82 392T161 478T281 508Q328 508 371 490T444 438L423 406Q391 439 354 454T280 469Q194 469 146 414T97 253Q97 147 145 89T280 31Q315 31 352 45T423 94L444 62Q414 28
370 10T281 -8Z" />
<glyph unicode="d" horiz-adv-x="583" d="M274 -8Q207 -8 158 23T81 112T54 250Q54 331 81 388T157 477T274 508Q345 508 396 471T464 369H453V736H495V0H453V131H464Q447 66 396 29T274 -8ZM275 31Q356 31 405 87T454 250Q454 356 405 412T275 469Q193 469 145
413T97 250Q97 144 145 88T275 31Z" />
<glyph unicode="e" horiz-adv-x="541" d="M294 -8Q184 -8 119 59T54 248Q54 328 83 386T164 476T285 508Q350 508 395 481T465 402T490 279V252H81V290H468L451 277Q451 367 409 418T284 470Q196 470 147 410T97 253V248Q97 142 149 87T294 31Q341 31 382 46T461
97L482 64Q451 30 400 11T294 -8Z" />
<glyph unicode="f" horiz-adv-x="311" d="M108 0V464H8V500H118L108 489V578Q108 655 145 697T252 740Q269 740 288 737T318 728V688Q307 693 290 697T254 701Q219 701 196 686T161 643T150 571V486L142 500H297V464H150V0H108Z" />
<glyph unicode="g" horiz-adv-x="587" d="M298 -223Q237 -223 184 -206T87 -153L107 -119Q140 -143 169 -157T229 -177T299 -184Q377 -184 417 -142T458 -20V151H469Q453 85 402 48T279 11Q210 11 160 41T82 128T54 260Q54 336 81 391T159 477T279 508Q350 508
401 471T469 367L458 380L467 500H508Q505 472 503 445T500 392V-13Q500 -117 449 -170T298 -223ZM278 50Q361 50 409 105T458 260Q458 359 410 414T278 469Q195 469 146 414T97 260Q97 161 146 106T278 50Z" />
<glyph unicode="h" horiz-adv-x="570" d="M88 0V736H130V379H118Q138 443 189 475T307 508Q398 508 441 461T485 320V0H443V316Q443 396 411 432T307 469Q227 469 179 420T130 290V0H88Z" />
<glyph unicode="i" horiz-adv-x="218" d="M88 0V500H130V0H88ZM77 631V694H141V631H77Z" />
<glyph unicode="j" horiz-adv-x="218" d="M9 -218Q-1 -218 -20 -215T-51 -207V-167Q-40 -171 -23 -175T7 -179Q54 -179 75 -148T96 -51V500H138V-60Q138 -138 105 -178T9 -218ZM85 631V694H149V631H85Z" />
<glyph unicode="k" horiz-adv-x="482" d="M88 0V736H130V269H132L391 500H449L156 241L159 274L482 0H421L132 245H130V0H88Z" />
<glyph unicode="l" horiz-adv-x="218" d="M88 0V736H130V0H88Z" />
<glyph unicode="m" horiz-adv-x="860" d="M88 0V392Q88 418 86 445T80 500H121L130 380H118Q137 442 181 475T288 508Q354 508 394 477T446 379H432Q449 438 496 473T611 508Q691 508 733 462T775 318V0H733V314Q733 395 704 432T610 469Q537 469 495 420T452
288V0H410V314Q410 395 381 432T287 469Q214 469 172 420T130 288V0H88Z" />
<glyph unicode="n" horiz-adv-x="570" d="M88 0V392Q88 418 86 445T80 500H121L130 380H118Q139 443 188 475T305 508Q394 508 439 462T485 318V0H443V314Q443 395 410 432T306 469Q225 469 178 420T130 288V0H88Z" />
<glyph unicode="o" horiz-adv-x="553" d="M276 -8Q208 -8 158 23T81 112T54 250Q54 330 81 388T158 477T276 508Q344 508 394 477T471 388T499 250Q499 170 472 112T394 23T276 -8ZM276 31Q358 31 407 87T456 250Q456 356 407 412T276 469Q194 469 146 413T97
250Q97 144 145 88T276 31Z" />
<glyph unicode="p" horiz-adv-x="583" d="M88 -216V392Q88 418 86 445T80 500H121L131 369H119Q136 434 185 471T307 508Q375 508 424 477T501 389T529 250Q529 170 502 112T425 23T307 -8Q235 -8 186 29T119 131H130V-216H88ZM307 31Q389 31 437 87T486 250Q486
356 438 412T307 469Q225 469 177 413T129 250Q129 144 177 88T307 31Z" />
<glyph unicode="q" horiz-adv-x="583" d="M453 -216V131H464Q448 66 397 29T276 -8Q208 -8 158 23T81 112T54 250Q54 331 81 388T159 477T276 508Q347 508 397 471T464 369H452L462 500H503Q500 472 498 445T495 392V-216H453ZM276 31Q358 31 406 87T454 250Q454
356 406 412T276 469Q194 469 146 413T97 250Q97 144 145 88T276 31Z" />
<glyph unicode="r" horiz-adv-x="336" d="M86 0V386Q86 414 85 443T80 500H121L127 391L118 390Q128 430 154 456T215 495T284 508Q296 508 307 507T329 503L327 464Q317 467 306 468T281 469Q235 469 201 446T147 388T128 320V0H86Z" />
<glyph unicode="s" horiz-adv-x="492" d="M244 -8Q188 -8 139 9T58 58L79 91Q115 60 157 46T246 31Q314 31 350 57T386 128Q386 163 363 184T287 217L200 236Q136 251 105 284T74 366Q74 407 95 439T157 489T253 508Q306 508 350 490T422 440L400 407Q370 438
333 453T253 469Q188 469 154 441T119 367Q119 332 140 310T209 277L296 257Q364 241 397 211T430 130Q430 88 407 57T342 9T244 -8Z" />
<glyph unicode="t" horiz-adv-x="324" d="M234 -8Q173 -8 141 30T108 148V464H8V500H108V643L150 659V500H302V464H150V157Q150 91 170 61T237 31Q257 31 273 35T300 44V4Q289 -1 271 -4T234 -8Z" />
<glyph unicode="u" horiz-adv-x="561" d="M262 -8Q175 -8 130 39T85 183V500H127V187Q127 106 160 69T262 31Q339 31 385 80T431 212V500H473V0H432V122H444Q424 60 376 26T262 -8Z" />
<glyph unicode="v" horiz-adv-x="520" d="M236 0L24 500H72L272 16H248L449 500H496L284 0H236Z" />
<glyph unicode="w" horiz-adv-x="857" d="M218 0L42 500H89L256 14H229L403 500H456L627 14H600L769 500H815L638 0H588L415 491H445L269 0H218Z" />
<glyph unicode="x" horiz-adv-x="522" d="M30 0L246 271V245L41 500H94L269 279H254L428 500H480L279 248V267L492 0H438L253 235H269L82 0H30Z" />
<glyph unicode="y" horiz-adv-x="520" d="M60 -227L50 -188Q97 -177 127 -161T179 -118T217 -53L243 7L242 -14L24 500H72L273 16H250L448 500H496L263 -54Q245 -97 224 -126T179 -176T125 -208T60 -227Z" />
<glyph unicode="z" horiz-adv-x="512" d="M51 0V30L410 477L411 464H51V500H452V470L91 22L90 36H464V0H51Z" />
<glyph unicode="{" horiz-adv-x="322" d="M233 -180Q192 -180 171 -159T149 -94V162Q149 204 131 223T70 244L50 245V281L70 282Q112 284 130 302T149 364V619Q149 662 170 683T233 705H318V668H237Q214 668 203 656T191 621V361Q191 332 180 309T148 274T102
261V265Q128 265 148 253T179 218T191 165V-96Q191 -119 202 -131T237 -143H318V-180H233Z" />
<glyph unicode="|" horiz-adv-x="248" d="M103 -188V713H145V-188H103Z" />
<glyph unicode="}" horiz-adv-x="322" d="M4 -180V-143H85Q108 -143 119 -131T131 -96V164Q131 194 142 216T174 251T220 264V260Q194 260 174 272T143 308T131 360V621Q131 644 120 656T85 668H4V705H89Q130 705 151 684T173 619V363Q173 321 191 302T252 281L272
280V244L252 243Q210 241 192 223T173 161V-94Q173 -137 152 -158T89 -180H4Z" />
<glyph unicode="~" horiz-adv-x="600" d="M422 224Q395 224 364 234T287 270Q242 295 220 303T180 311Q120 311 88 242L52 257Q74 304 105 327T178 350Q205 350 234 341T309 307Q351 285 375 274T420 263Q481 263 512 332L548 317Q526 269 496 247T422 224Z" />
<glyph unicode="&#xa0;" horiz-adv-x="250" />
<glyph unicode="&#xa1;" horiz-adv-x="211" d="M79 -180L92 339H119L132 -180H79ZM71 430V500H140V430H71Z" />
<glyph unicode="&#xa2;" horiz-adv-x="600" d="M296 -115V8L306 -6Q245 -3 199 29T126 117T99 243Q99 311 124 365T196 452T305 490L296 468V604H336V468L327 490Q371 490 416 473T488 425L468 392Q439 422 402 436T323 451Q241 451 192 394T142 242Q142 145 190
89T322 33Q363 33 401 47T468 91L488 59Q460 28 415 11T325 -7L336 8V-115H296Z" />
<glyph unicode="&#xa3;" horiz-adv-x="600" d="M49 0V33Q102 56 133 87T165 167V336H49V372H165V522Q165 585 188 627T256 691T369 713Q425 713 475 692T563 629L540 592Q509 633 465 652T361 672Q285 672 246 635T207 524V372H406V336H207V186Q207 122 180 86T111
33V39H559V0H49Z" />
<glyph unicode="&#xa4;" horiz-adv-x="600" d="M74 -22L39 14L113 90Q89 122 75 162T61 245Q61 289 74 329T113 400L39 476L74 512L148 436Q179 463 218 478T301 493Q344 493 382 479T452 438L523 512L559 476L486 403Q512 370 526 330T541 245Q541 200 527 160T486
88L559 14L523 -22L451 52Q420 26 382 12T301 -3Q258 -3 219 12T148 53L74 -22ZM300 40Q354 40 397 67T466 141T492 245Q492 302 467 348T398 423T300 450Q247 450 204 423T134 349T108 245Q108 188 134 142T203 68T300 40Z" />
<glyph unicode="&#xa5;" horiz-adv-x="600" d="M279 0V189H76V225H279V339H76V375H255V368L5 705H55L308 362H293L545 705H595L347 368V375H524V339H321V225H524V189H321V0H279Z" />
<glyph unicode="&#xa6;" horiz-adv-x="248" d="M103 372V713H145V372H103ZM103 -188V153H145V-188H103Z" />
<glyph unicode="&#xa7;" horiz-adv-x="518" d="M232 -188Q170 -188 120 -171T39 -122L60 -88Q80 -107 108 -121T168 -142T235 -149Q306 -149 350 -114T394 -15Q394 30 371 62T286 123L188 169Q130 197 98 222T52 277T39 342Q39 380 57 416T103 474L98 460Q92 471
87 490T81 538Q81 593 107 631T179 691T282 712Q339 712 388 695T468 646L447 612Q417 641 372 657T279 673Q212 673 169 639T125 539Q125 494 148 462T233 401L331 355Q389 328 421 302T467 248T480 182Q480 145 462 109T416 50L421 64Q427 53 432 34T438 -14Q438
-68 412 -107T339 -167T232 -188ZM81 345Q81 304 106 273T205 208L288 169Q335 147 365 125T411 79L392 80Q439 118 439 179Q439 220 413 251T314 316L231 355Q184 378 154 400T108 445L127 444Q105 426 93 401T81 345Z" />
<glyph unicode="&#xa8;" horiz-adv-x="500" d="M300 620V680H361V620H300ZM139 620V680H200V620H139Z" />
<glyph unicode="&#xa9;" horiz-adv-x="815" d="M408 -8Q332 -8 266 19T151 96T75 211T47 353Q47 430 74 495T151 609T265 685T408 713Q485 713 550 686T664 610T740 496T768 353Q768 277 741 211T665 96T551 20T408 -8ZM417 137Q323 137 270 197T217 356Q217 454
270 511T417 568Q457 568 495 553T558 511L540 479Q511 507 479 518T416 530Q342 530 300 484T258 355Q258 273 300 224T416 175Q446 175 478 187T540 227L558 194Q533 168 494 153T417 137ZM408 28Q476 28 535 52T638 121T706 225T731 353Q731 422 707 481T638
584T535 652T408 677Q339 677 280 653T177 584T109 481T84 353Q84 284 108 225T177 122T280 53T408 28Z" />
<glyph unicode="&#xaa;" horiz-adv-x="313" d="M132 413Q87 413 57 438T27 501Q27 545 68 565T174 585H241V556H175Q120 556 92 543T63 501Q63 477 80 461T137 444Q180 444 207 472T235 549V606Q235 644 215 663T157 682Q128 682 101 675T51 651L39 681Q63 698
94 705T156 713Q269 713 269 605V418H235V471H233Q216 440 192 427T132 413Z" />
<glyph unicode="&#xab;" horiz-adv-x="398" d="M154 89L29 268L154 447H195L82 268L195 89H154ZM314 89L189 268L314 447H355L242 268L355 89H314Z" />
<glyph unicode="&#xac;" horiz-adv-x="600" d="M507 156V370H52V409H548V156H507Z" />
<glyph unicode="&#xad;" horiz-adv-x="420" d="M76 254V292H344V254H76Z" />
<glyph unicode="&#xae;" horiz-adv-x="815" d="M408 -8Q332 -8 266 19T151 96T75 211T47 353Q47 430 74 495T151 609T265 685T408 713Q485 713 550 686T664 610T740 496T768 353Q768 277 741 211T665 96T551 20T408 -8ZM408 28Q476 28 535 52T638 121T706 225T731
353Q731 422 707 481T638 584T535 652T408 677Q339 677 280 653T177 584T109 481T84 353Q84 284 108 225T177 122T280 53T408 28ZM273 142V563H435Q500 563 535 532T570 443Q570 386 535 356T434 325L437 334Q466 334 486 322T519 281L576 142H533L477 276Q465
304 444 313T391 323H303L314 332V142H273ZM314 360H430Q480 360 504 380T529 443Q529 485 505 505T430 526H314V360Z" />
<glyph unicode="&#xaf;" horiz-adv-x="500" d="M110 633V671H390V633H110Z" />
<glyph unicode="&#xb0;" horiz-adv-x="364" d="M182 429Q142 429 110 448T60 499T41 571Q41 611 59 643T110 694T182 713Q222 713 253 695T303 644T322 571Q322 531 304 499T254 448T182 429ZM182 469Q226 469 253 497T280 571Q280 616 253 644T182 673Q139 673
112 645T84 571Q84 526 111 498T182 469Z" />
<glyph unicode="&#xb1;" horiz-adv-x="600" d="M280 116V303H52V342H280V528H320V342H548V303H320V116H280ZM52 0V39H548V0H52Z" />
<glyph unicode="&#xb2;" horiz-adv-x="380" d="M57 282V311L212 472Q244 507 258 535T273 594Q273 672 187 672Q155 672 122 659T64 621L41 651Q68 678 107 693T189 709Q248 709 281 679T315 595Q315 561 298 527T246 456L103 309V319H336V282H57Z" />
<glyph unicode="&#xb3;" horiz-adv-x="380" d="M186 279Q140 279 101 294T36 337L58 367Q82 343 115 330T186 316Q227 316 255 335T283 398Q283 441 254 459T174 478H101V515H165Q214 515 242 536T271 598Q271 633 248 652T183 672Q151 672 118 659T60 620L37
651Q64 678 103 693T185 709Q244 709 278 680T313 601Q313 559 290 533T233 496V502Q274 494 299 468T325 397Q325 340 285 310T186 279Z" />
<glyph unicode="&#xb4;" horiz-adv-x="500" d="M232 549L336 749H390L268 549H232Z" />
<glyph unicode="&#xb5;" horiz-adv-x="561" d="M85 -216V500H127V184Q127 105 160 69T260 33Q337 33 384 81T431 210V500H473V0H432V121H444Q424 59 376 26T262 -8Q210 -8 169 10T107 81H123L127 -216H85Z" />
<glyph unicode="&#xb6;" horiz-adv-x="570" d="M246 -180V335Q187 335 144 359T77 425T53 520Q53 574 76 615T144 681T247 705H473V-180H431V667H288V-180H246Z" />
<glyph unicode="&#xb7;" horiz-adv-x="214" d="M72 238V308H142V238H72Z" />
<glyph unicode="&#xb8;" horiz-adv-x="500" d="M255 -190Q232 -190 212 -185T177 -172L186 -138Q205 -147 220 -150T259 -154Q286 -154 303 -143T321 -111Q321 -79 282 -79Q271 -79 260 -81T231 -89L216 -76L231 20H269L256 -55L238 -53Q250 -50 261 -48T283 -46Q315
-46 338 -63T361 -111Q361 -146 332 -168T255 -190Z" />
<glyph unicode="&#xb9;" horiz-adv-x="380" d="M100 282V319H196V670H217L107 598V642L202 705H235V319H321V282H100Z" />
<glyph unicode="&#xba;" horiz-adv-x="328" d="M164 413Q124 413 94 431T45 484T27 563Q27 609 45 642T93 694T164 713Q204 713 234 695T283 643T301 563Q301 518 283 484T235 432T164 413ZM164 444Q211 444 238 474T265 563Q265 621 238 651T164 682Q118 682
91 652T63 563Q63 505 90 475T164 444Z" />
<glyph unicode="&#xbb;" horiz-adv-x="398" d="M84 89H43L156 268L43 447H84L209 268L84 89ZM244 89H203L316 268L203 447H244L369 268L244 89Z" />
<glyph unicode="&#xbc;" horiz-adv-x="880" d="M100 282V319H196V670H217L107 598V642L202 705H235V319H321V282H100ZM266 -8H224L654 713H696L266 -8ZM749 0V94H543V127L755 423H788V131H857V94H788V0H749ZM749 131V369H759L576 116V131H749Z" />
<glyph unicode="&#xbd;" horiz-adv-x="920" d="M100 282V319H196V670H217L107 598V642L202 705H235V319H321V282H100ZM266 -8H224L654 713H696L266 -8ZM597 0V29L752 190Q784 225 798 253T813 312Q813 390 727 390Q695 390 662 377T604 339L581 369Q608 396 647
411T729 427Q788 427 821 397T855 313Q855 279 838 245T786 174L643 27V37H876V0H597Z" />
<glyph unicode="&#xbe;" horiz-adv-x="880" d="M186 279Q140 279 101 294T36 337L58 367Q82 343 115 330T186 316Q227 316 255 335T283 398Q283 441 254 459T174 478H101V515H165Q214 515 242 536T271 598Q271 633 248 652T183 672Q151 672 118 659T60 620L37
651Q64 678 103 693T185 709Q244 709 278 680T313 601Q313 559 290 533T233 496V502Q274 494 299 468T325 397Q325 340 285 310T186 279ZM266 -8H224L654 713H696L266 -8ZM749 0V94H543V127L755 423H788V131H857V94H788V0H749ZM749 131V369H759L576 116V131H749Z"
/>
<glyph unicode="&#xbf;" horiz-adv-x="433" d="M219 -214Q165 -214 124 -195T61 -142T38 -63Q38 -31 47 -3T76 57T132 128Q182 185 203 227T228 315L230 337H260V317Q260 264 240 215T163 103Q118 52 100 15T82 -63Q82 -115 118 -144T218 -173Q257 -173 291 -164T357
-138V-184Q326 -198 291 -206T219 -214ZM280 499V429H211V499H280Z" />
<glyph unicode="&#xc0;" horiz-adv-x="721" d="M34 0L337 705H378L687 0H641L552 204L575 195H138L166 204L79 0H34ZM356 649L177 228L155 234H558L542 228L358 649H356ZM339 765L203 935H259L377 765H339Z" />
<glyph unicode="&#xc1;" horiz-adv-x="721" d="M34 0L337 705H378L687 0H641L552 204L575 195H138L166 204L79 0H34ZM356 649L177 228L155 234H558L542 228L358 649H356ZM339 765L457 935H513L377 765H339Z" />
<glyph unicode="&#xc2;" horiz-adv-x="721" d="M34 0L337 705H378L687 0H641L552 204L575 195H138L166 204L79 0H34ZM356 649L177 228L155 234H558L542 228L358 649H356ZM213 765L334 935H382L503 765H466L358 897L250 765H213Z" />
<glyph unicode="&#xc3;" horiz-adv-x="721" d="M34 0L337 705H378L687 0H641L552 204L575 195H138L166 204L79 0H34ZM356 649L177 228L155 234H558L542 228L358 649H356ZM194 792L162 794Q169 852 197 883T269 915Q292 915 315 904T371 869Q403 847 419 839T450
830Q480 830 497 852T522 917L554 915Q547 857 520 826T448 794Q426 794 402 805T342 842Q314 863 297 871T266 879Q236 879 219 857T194 792Z" />
<glyph unicode="&#xc4;" horiz-adv-x="721" d="M34 0L337 705H378L687 0H641L552 204L575 195H138L166 204L79 0H34ZM356 649L177 228L155 234H558L542 228L358 649H356ZM408 820V880H469V820H408ZM247 820V880H308V820H247Z" />
<glyph unicode="&#xc5;" horiz-adv-x="721" d="M34 0L337 705H378L687 0H641L552 204L575 195H138L166 204L79 0H34ZM356 649L177 228L155 234H558L542 228L358 649H356ZM358 760Q327 760 302 775T261 815T246 870Q246 901 261 925T301 965T358 980Q390 980 415
965T455 926T470 870Q470 840 455 815T415 775T358 760ZM358 792Q393 792 414 814T436 870Q436 903 415 925T358 948Q324 948 302 926T280 870Q280 837 302 815T358 792Z" />
<glyph unicode="&#xc6;" horiz-adv-x="996" d="M14 0L437 705H939V666H520L540 690L571 366L554 377H918V338H564L572 348L604 20L597 39H939V0H563L544 198L568 195H170L189 207L64 0H14ZM461 665L199 224L190 234H549L542 225L500 665H461Z" />
<glyph unicode="&#xc7;" horiz-adv-x="684" d="M385 -8Q283 -8 213 35T105 160T68 353Q68 465 105 545T212 669T385 713Q462 713 520 689T624 617L602 582Q553 629 503 650T384 672Q251 672 182 589T113 353Q113 201 182 117T384 33Q452 33 502 54T602 123L624
88Q579 41 520 17T385 -8ZM389 -190Q366 -190 346 -185T311 -172L320 -138Q339 -147 354 -150T393 -154Q420 -154 437 -143T455 -111Q455 -79 416 -79Q405 -79 394 -81T365 -89L350 -76L365 20H403L390 -55L372 -53Q384 -50 395 -48T417 -46Q449 -46 472 -63T495
-111Q495 -146 466 -168T389 -190Z" />
<glyph unicode="&#xc8;" horiz-adv-x="582" d="M97 0V705H525V666H139V377H503V338H139V39H525V0H97ZM304 765L168 935H224L342 765H304Z" />
<glyph unicode="&#xc9;" horiz-adv-x="582" d="M97 0V705H525V666H139V377H503V338H139V39H525V0H97ZM304 765L422 935H478L342 765H304Z" />
<glyph unicode="&#xca;" horiz-adv-x="582" d="M97 0V705H525V666H139V377H503V338H139V39H525V0H97ZM178 765L299 935H347L468 765H431L323 897L215 765H178Z" />
<glyph unicode="&#xcb;" horiz-adv-x="582" d="M97 0V705H525V666H139V377H503V338H139V39H525V0H97ZM373 820V880H434V820H373ZM212 820V880H273V820H212Z" />
<glyph unicode="&#xcc;" horiz-adv-x="236" d="M97 0V705H139V0H97ZM99 765L-37 935H19L137 765H99Z" />
<glyph unicode="&#xcd;" horiz-adv-x="236" d="M97 0V705H139V0H97ZM99 765L217 935H273L137 765H99Z" />
<glyph unicode="&#xce;" horiz-adv-x="236" d="M97 0V705H139V0H97ZM-27 765L94 935H142L263 765H226L118 897L10 765H-27Z" />
<glyph unicode="&#xcf;" horiz-adv-x="236" d="M97 0V705H139V0H97ZM168 820V880H229V820H168ZM7 820V880H68V820H7Z" />
<glyph unicode="&#xd0;" horiz-adv-x="733" d="M97 0V705H311Q425 705 504 665T624 547T665 353Q665 238 624 159T504 40T311 0H97ZM139 39H307Q465 39 542 117T620 353Q620 510 543 588T307 666H139V39ZM9 340V377H343V340H9Z" />
<glyph unicode="&#xd1;" horiz-adv-x="739" d="M97 0V705H133L624 42H603V705H642V0H607L116 663H136V0H97ZM206 792L174 794Q181 852 209 883T281 915Q304 915 327 904T383 869Q415 847 431 839T462 830Q492 830 509 852T534 917L566 915Q559 857 532 826T460
794Q438 794 414 805T354 842Q326 863 309 871T278 879Q248 879 231 857T206 792Z" />
<glyph unicode="&#xd2;" horiz-adv-x="759" d="M68 353Q68 465 104 545T210 669T379 713Q475 713 545 670T653 546T691 354Q691 242 653 161T544 36T379 -8Q281 -8 212 36T105 161T68 353ZM113 353Q113 202 181 118T379 33Q504 33 575 117T646 353Q646 505 576
588T379 672Q249 672 181 589T113 353ZM360 765L224 935H280L398 765H360Z" />
<glyph unicode="&#xd3;" horiz-adv-x="759" d="M68 353Q68 465 104 545T210 669T379 713Q475 713 545 670T653 546T691 354Q691 242 653 161T544 36T379 -8Q281 -8 212 36T105 161T68 353ZM113 353Q113 202 181 118T379 33Q504 33 575 117T646 353Q646 505 576
588T379 672Q249 672 181 589T113 353ZM360 765L478 935H534L398 765H360Z" />
<glyph unicode="&#xd4;" horiz-adv-x="759" d="M68 353Q68 465 104 545T210 669T379 713Q475 713 545 670T653 546T691 354Q691 242 653 161T544 36T379 -8Q281 -8 212 36T105 161T68 353ZM113 353Q113 202 181 118T379 33Q504 33 575 117T646 353Q646 505 576
588T379 672Q249 672 181 589T113 353ZM234 765L355 935H403L524 765H487L379 897L271 765H234Z" />
<glyph unicode="&#xd5;" horiz-adv-x="759" d="M68 353Q68 465 104 545T210 669T379 713Q475 713 545 670T653 546T691 354Q691 242 653 161T544 36T379 -8Q281 -8 212 36T105 161T68 353ZM113 353Q113 202 181 118T379 33Q504 33 575 117T646 353Q646 505 576
588T379 672Q249 672 181 589T113 353ZM215 792L183 794Q190 852 218 883T290 915Q313 915 336 904T392 869Q424 847 440 839T471 830Q501 830 518 852T543 917L575 915Q568 857 541 826T469 794Q447 794 423 805T363 842Q335 863 318 871T287 879Q257 879 240
857T215 792Z" />
<glyph unicode="&#xd6;" horiz-adv-x="759" d="M68 353Q68 465 104 545T210 669T379 713Q475 713 545 670T653 546T691 354Q691 242 653 161T544 36T379 -8Q281 -8 212 36T105 161T68 353ZM113 353Q113 202 181 118T379 33Q504 33 575 117T646 353Q646 505 576
588T379 672Q249 672 181 589T113 353ZM429 820V880H490V820H429ZM268 820V880H329V820H268Z" />
<glyph unicode="&#xd7;" horiz-adv-x="600" d="M93 49L65 76L272 284L65 492L93 519L300 312L507 519L535 492L328 284L535 76L507 49L300 256L93 49Z" />
<glyph unicode="&#xd8;" horiz-adv-x="759" d="M68 353Q68 465 104 545T210 669T379 713Q475 713 545 670T653 546T691 354Q691 242 653 161T544 36T379 -8Q281 -8 212 36T105 161T68 353ZM113 353Q113 202 181 118T379 33Q504 33 575 117T646 353Q646 505 576
588T379 672Q249 672 181 589T113 353ZM221 43L175 -35L142 -17L188 62L201 84L525 640L538 662L584 740L617 722L571 643L558 621L234 65L221 43Z" />
<glyph unicode="&#xd9;" horiz-adv-x="722" d="M361 -8Q224 -8 158 63T92 270V705H134V276Q134 154 188 94T361 33Q472 33 530 93T588 276V705H630V270Q630 134 561 63T361 -8ZM342 765L206 935H262L380 765H342Z" />
<glyph unicode="&#xda;" horiz-adv-x="722" d="M361 -8Q224 -8 158 63T92 270V705H134V276Q134 154 188 94T361 33Q472 33 530 93T588 276V705H630V270Q630 134 561 63T361 -8ZM342 765L460 935H516L380 765H342Z" />
<glyph unicode="&#xdb;" horiz-adv-x="722" d="M361 -8Q224 -8 158 63T92 270V705H134V276Q134 154 188 94T361 33Q472 33 530 93T588 276V705H630V270Q630 134 561 63T361 -8ZM216 765L337 935H385L506 765H469L361 897L253 765H216Z" />
<glyph unicode="&#xdc;" horiz-adv-x="722" d="M361 -8Q224 -8 158 63T92 270V705H134V276Q134 154 188 94T361 33Q472 33 530 93T588 276V705H630V270Q630 134 561 63T361 -8ZM411 820V880H472V820H411ZM250 820V880H311V820H250Z" />
<glyph unicode="&#xdd;" horiz-adv-x="587" d="M272 0V326L283 288L1 705H50L302 327H287L539 705H586L304 288L314 326V0H272ZM275 765L393 935H449L313 765H275Z" />
<glyph unicode="&#xde;" horiz-adv-x="638" d="M97 0V705H139V559H360Q467 559 526 508T585 365Q585 274 526 223T360 171H139V0H97ZM139 210H359Q448 210 494 250T540 365Q540 439 494 479T359 520H139V210Z" />
<glyph unicode="&#xdf;" horiz-adv-x="599" d="M88 0V510Q88 621 140 680T300 740Q356 740 395 721T456 667T477 583Q477 513 438 459T298 365V374Q396 348 454 315T537 241T562 152Q562 103 540 67T476 12T379 -8Q343 -8 311 -1T252 21T203 57L223 91Q261 59
299 45T382 31Q446 31 482 62T518 151Q518 191 496 224T418 288T257 346V384Q327 412 366 442T421 508T437 585Q437 638 402 669T301 701Q211 701 171 654T130 512V0H88Z" />
<glyph unicode="&#xe0;" horiz-adv-x="583" d="M276 -8Q208 -8 158 23T81 112T54 250Q54 331 81 388T159 477T276 508Q347 508 397 471T464 369H452L462 500H503Q500 472 498 445T495 392V0H453V131H464Q448 66 397 29T276 -8ZM276 31Q358 31 406 87T454 250Q454
356 406 412T276 469Q194 469 146 413T97 250Q97 144 145 88T276 31ZM267 549L145 749H199L303 549H267Z" />
<glyph unicode="&#xe1;" horiz-adv-x="583" d="M276 -8Q208 -8 158 23T81 112T54 250Q54 331 81 388T159 477T276 508Q347 508 397 471T464 369H452L462 500H503Q500 472 498 445T495 392V0H453V131H464Q448 66 397 29T276 -8ZM276 31Q358 31 406 87T454 250Q454
356 406 412T276 469Q194 469 146 413T97 250Q97 144 145 88T276 31ZM267 549L371 749H425L303 549H267Z" />
<glyph unicode="&#xe2;" horiz-adv-x="583" d="M276 -8Q208 -8 158 23T81 112T54 250Q54 331 81 388T159 477T276 508Q347 508 397 471T464 369H452L462 500H503Q500 472 498 445T495 392V0H453V131H464Q448 66 397 29T276 -8ZM276 31Q358 31 406 87T454 250Q454
356 406 412T276 469Q194 469 146 413T97 250Q97 144 145 88T276 31ZM152 549L261 749H309L418 549H383L285 710L187 549H152Z" />
<glyph unicode="&#xe3;" horiz-adv-x="583" d="M276 -8Q208 -8 158 23T81 112T54 250Q54 331 81 388T159 477T276 508Q347 508 397 471T464 369H452L462 500H503Q500 472 498 445T495 392V0H453V131H464Q448 66 397 29T276 -8ZM276 31Q358 31 406 87T454 250Q454
356 406 412T276 469Q194 469 146 413T97 250Q97 144 145 88T276 31ZM149 595L117 597Q123 655 148 686T213 718Q234 718 252 707T295 671Q317 649 330 641T357 633Q409 633 421 720L453 718Q447 660 422 629T358 597Q338 597 320 608T275 644Q253 665 240 673T213
682Q187 682 171 660T149 595Z" />
<glyph unicode="&#xe4;" horiz-adv-x="583" d="M276 -8Q208 -8 158 23T81 112T54 250Q54 331 81 388T159 477T276 508Q347 508 397 471T464 369H452L462 500H503Q500 472 498 445T495 392V0H453V131H464Q448 66 397 29T276 -8ZM276 31Q358 31 406 87T454 250Q454
356 406 412T276 469Q194 469 146 413T97 250Q97 144 145 88T276 31ZM335 620V680H396V620H335ZM174 620V680H235V620H174Z" />
<glyph unicode="&#xe5;" horiz-adv-x="583" d="M276 -8Q208 -8 158 23T81 112T54 250Q54 331 81 388T159 477T276 508Q347 508 397 471T464 369H452L462 500H503Q500 472 498 445T495 392V0H453V131H464Q448 66 397 29T276 -8ZM276 31Q358 31 406 87T454 250Q454
356 406 412T276 469Q194 469 146 413T97 250Q97 144 145 88T276 31ZM285 547Q254 547 229 562T188 602T173 657Q173 688 188 712T228 752T285 767Q317 767 342 752T382 713T397 657Q397 627 382 602T342 562T285 547ZM285 579Q320 579 341 601T363 657Q363 690
342 712T285 735Q251 735 229 713T207 657Q207 624 229 602T285 579Z" />
<glyph unicode="&#xe6;" horiz-adv-x="890" d="M247 -8Q197 -8 158 11T95 64T72 141Q72 200 99 233T191 279T369 293H421V256H371Q271 256 216 247T140 213T118 144Q118 93 153 62T250 30Q298 30 334 52T392 115T413 209V328Q413 403 382 436T285 469Q237 469
196 456T113 413L93 449Q131 477 181 492T283 508Q363 508 404 472T454 366H435Q461 435 513 471T639 508Q732 508 785 447T839 279V255H445V293H817L800 280Q800 368 758 419T636 470Q554 470 505 418T456 267V260Q456 154 505 93T646 31Q691 31 731 47T810 97L831
64Q800 30 750 11T647 -8Q557 -8 500 36T423 163H442Q429 83 377 38T247 -8Z" />
<glyph unicode="&#xe7;" horiz-adv-x="487" d="M281 -8Q211 -8 160 23T82 114T54 254Q54 335 82 392T161 478T281 508Q328 508 371 490T444 438L423 406Q391 439 354 454T280 469Q194 469 146 414T97 253Q97 147 145 89T280 31Q315 31 352 45T423 94L444 62Q414
28 370 10T281 -8ZM286 -190Q263 -190 243 -185T208 -172L217 -138Q236 -147 251 -150T290 -154Q317 -154 334 -143T352 -111Q352 -79 313 -79Q302 -79 291 -81T262 -89L247 -76L262 20H300L287 -55L269 -53Q281 -50 292 -48T314 -46Q346 -46 369 -63T392 -111Q392
-146 363 -168T286 -190Z" />
<glyph unicode="&#xe8;" horiz-adv-x="541" d="M294 -8Q184 -8 119 59T54 248Q54 328 83 386T164 476T285 508Q350 508 395 481T465 402T490 279V252H81V290H468L451 277Q451 367 409 418T284 470Q196 470 147 410T97 253V248Q97 142 149 87T294 31Q341 31 382
46T461 97L482 64Q451 30 400 11T294 -8ZM267 549L145 749H199L303 549H267Z" />
<glyph unicode="&#xe9;" horiz-adv-x="541" d="M294 -8Q184 -8 119 59T54 248Q54 328 83 386T164 476T285 508Q350 508 395 481T465 402T490 279V252H81V290H468L451 277Q451 367 409 418T284 470Q196 470 147 410T97 253V248Q97 142 149 87T294 31Q341 31 382
46T461 97L482 64Q451 30 400 11T294 -8ZM267 549L371 749H425L303 549H267Z" />
<glyph unicode="&#xea;" horiz-adv-x="541" d="M294 -8Q184 -8 119 59T54 248Q54 328 83 386T164 476T285 508Q350 508 395 481T465 402T490 279V252H81V290H468L451 277Q451 367 409 418T284 470Q196 470 147 410T97 253V248Q97 142 149 87T294 31Q341 31 382
46T461 97L482 64Q451 30 400 11T294 -8ZM152 549L261 749H309L418 549H383L285 710L187 549H152Z" />
<glyph unicode="&#xeb;" horiz-adv-x="541" d="M294 -8Q184 -8 119 59T54 248Q54 328 83 386T164 476T285 508Q350 508 395 481T465 402T490 279V252H81V290H468L451 277Q451 367 409 418T284 470Q196 470 147 410T97 253V248Q97 142 149 87T294 31Q341 31 382
46T461 97L482 64Q451 30 400 11T294 -8ZM335 620V680H396V620H335ZM174 620V680H235V620H174Z" />
<glyph unicode="&#xec;" horiz-adv-x="218" d="M88 0V500H130V0H88ZM91 549L-31 749H23L127 549H91Z" />
<glyph unicode="&#xed;" horiz-adv-x="218" d="M88 0V500H130V0H88ZM91 549L195 749H249L127 549H91Z" />
<glyph unicode="&#xee;" horiz-adv-x="218" d="M88 0V500H130V0H88ZM-24 549L85 749H133L242 549H207L109 710L11 549H-24Z" />
<glyph unicode="&#xef;" horiz-adv-x="218" d="M88 0V500H130V0H88ZM159 620V680H220V620H159ZM-2 620V680H59V620H-2Z" />
<glyph unicode="&#xf0;" horiz-adv-x="556" d="M277 -8Q210 -8 160 21T82 103T54 227Q54 299 82 352T161 434T280 463Q360 463 410 421T479 293H460Q461 391 425 478T313 627L330 624L136 545L123 578L299 650L298 638Q268 661 232 678T153 708L165 741Q215 726
258 705T336 656L322 659L435 705L448 672L351 632L352 643Q403 600 436 544T485 420T502 276Q502 183 476 120T400 24T277 -8ZM276 31Q359 31 408 83T457 227Q457 319 409 371T277 423Q194 423 146 371T97 227Q97 134 144 83T276 31Z" />
<glyph unicode="&#xf1;" horiz-adv-x="570" d="M88 0V392Q88 418 86 445T80 500H121L130 380H118Q139 443 188 475T305 508Q394 508 439 462T485 318V0H443V314Q443 395 410 432T306 469Q225 469 178 420T130 288V0H88ZM148 595L116 597Q122 655 147 686T212 718Q233
718 251 707T294 671Q316 649 329 641T356 633Q408 633 420 720L452 718Q446 660 421 629T357 597Q337 597 319 608T274 644Q252 665 239 673T212 682Q186 682 170 660T148 595Z" />
<glyph unicode="&#xf2;" horiz-adv-x="553" d="M276 -8Q208 -8 158 23T81 112T54 250Q54 330 81 388T158 477T276 508Q344 508 394 477T471 388T499 250Q499 170 472 112T394 23T276 -8ZM276 31Q358 31 407 87T456 250Q456 356 407 412T276 469Q194 469 146 413T97
250Q97 144 145 88T276 31ZM259 549L137 749H191L295 549H259Z" />
<glyph unicode="&#xf3;" horiz-adv-x="553" d="M276 -8Q208 -8 158 23T81 112T54 250Q54 330 81 388T158 477T276 508Q344 508 394 477T471 388T499 250Q499 170 472 112T394 23T276 -8ZM276 31Q358 31 407 87T456 250Q456 356 407 412T276 469Q194 469 146 413T97
250Q97 144 145 88T276 31ZM259 549L363 749H417L295 549H259Z" />
<glyph unicode="&#xf4;" horiz-adv-x="553" d="M276 -8Q208 -8 158 23T81 112T54 250Q54 330 81 388T158 477T276 508Q344 508 394 477T471 388T499 250Q499 170 472 112T394 23T276 -8ZM276 31Q358 31 407 87T456 250Q456 356 407 412T276 469Q194 469 146 413T97
250Q97 144 145 88T276 31ZM144 549L253 749H301L410 549H375L277 710L179 549H144Z" />
<glyph unicode="&#xf5;" horiz-adv-x="553" d="M276 -8Q208 -8 158 23T81 112T54 250Q54 330 81 388T158 477T276 508Q344 508 394 477T471 388T499 250Q499 170 472 112T394 23T276 -8ZM276 31Q358 31 407 87T456 250Q456 356 407 412T276 469Q194 469 146 413T97
250Q97 144 145 88T276 31ZM141 595L109 597Q115 655 140 686T205 718Q226 718 244 707T287 671Q309 649 322 641T349 633Q401 633 413 720L445 718Q439 660 414 629T350 597Q330 597 312 608T267 644Q245 665 232 673T205 682Q179 682 163 660T141 595Z" />
<glyph unicode="&#xf6;" horiz-adv-x="553" d="M276 -8Q208 -8 158 23T81 112T54 250Q54 330 81 388T158 477T276 508Q344 508 394 477T471 388T499 250Q499 170 472 112T394 23T276 -8ZM276 31Q358 31 407 87T456 250Q456 356 407 412T276 469Q194 469 146 413T97
250Q97 144 145 88T276 31ZM327 620V680H388V620H327ZM166 620V680H227V620H166Z" />
<glyph unicode="&#xf7;" horiz-adv-x="600" d="M52 267V306H548V267H52ZM260 51V121H330V51H260ZM260 452V522H330V452H260Z" />
<glyph unicode="&#xf8;" horiz-adv-x="553" d="M276 -8Q208 -8 158 23T81 112T54 250Q54 330 81 388T158 477T276 508Q344 508 394 477T471 388T499 250Q499 170 472 112T394 23T276 -8ZM276 31Q358 31 407 87T456 250Q456 356 407 412T276 469Q194 469 146 413T97
250Q97 144 145 88T276 31ZM135 -31L105 -12L419 531L449 512L135 -31Z" />
<glyph unicode="&#xf9;" horiz-adv-x="561" d="M262 -8Q175 -8 130 39T85 183V500H127V187Q127 106 160 69T262 31Q339 31 385 80T431 212V500H473V0H432V122H444Q424 60 376 26T262 -8ZM263 550L141 750H195L299 550H263Z" />
<glyph unicode="&#xfa;" horiz-adv-x="561" d="M262 -8Q175 -8 130 39T85 183V500H127V187Q127 106 160 69T262 31Q339 31 385 80T431 212V500H473V0H432V122H444Q424 60 376 26T262 -8ZM263 550L367 750H421L299 550H263Z" />
<glyph unicode="&#xfb;" horiz-adv-x="561" d="M262 -8Q175 -8 130 39T85 183V500H127V187Q127 106 160 69T262 31Q339 31 385 80T431 212V500H473V0H432V122H444Q424 60 376 26T262 -8ZM148 550L257 750H305L414 550H379L281 711L183 550H148Z" />
<glyph unicode="&#xfc;" horiz-adv-x="561" d="M262 -8Q175 -8 130 39T85 183V500H127V187Q127 106 160 69T262 31Q339 31 385 80T431 212V500H473V0H432V122H444Q424 60 376 26T262 -8ZM331 621V681H392V621H331ZM170 621V681H231V621H170Z" />
<glyph unicode="&#xfd;" horiz-adv-x="520" d="M60 -227L50 -188Q97 -177 127 -161T179 -118T217 -53L243 7L242 -14L24 500H72L273 16H250L448 500H496L263 -54Q245 -97 224 -126T179 -176T125 -208T60 -227ZM241 549L345 749H399L277 549H241Z" />
<glyph unicode="&#xfe;" horiz-adv-x="583" d="M88 -216V736H130V369H119Q136 434 186 471T308 508Q376 508 425 477T502 389T529 250Q529 170 502 112T426 23T308 -8Q236 -8 186 29T119 131H130V-216H88ZM308 31Q390 31 438 87T486 250Q486 356 438 412T308 469Q226
469 178 413T129 250Q129 144 177 88T308 31Z" />
<glyph unicode="&#xff;" horiz-adv-x="520" d="M60 -227L50 -188Q97 -177 127 -161T179 -118T217 -53L243 7L242 -14L24 500H72L273 16H250L448 500H496L263 -54Q245 -97 224 -126T179 -176T125 -208T60 -227ZM309 620V680H370V620H309ZM148 620V680H209V620H148Z" />
<glyph unicode="&#x2013;" horiz-adv-x="505" d="M0 257V290H505V257H0Z" />
<glyph unicode="&#x2014;" horiz-adv-x="1010" d="M0 257V290H1010V257H0Z" />
<glyph unicode="&#x2018;" horiz-adv-x="211" d="M71 542V596Q71 628 80 656T115 710L142 690Q120 665 114 646T108 606L90 612H140V542H71Z" />
<glyph unicode="&#x2019;" horiz-adv-x="211" d="M97 537L71 557Q93 581 98 601T104 641L123 635H72V705H141V650Q141 619 132 591T97 537Z" />
<glyph unicode="&#x201a;" horiz-adv-x="211" d="M97 -98L71 -78Q89 -58 96 -39T104 6L123 0H72V70H141V15Q141 -21 131 -48T97 -98Z" />
<glyph unicode="&#x201c;" horiz-adv-x="351" d="M71 542V596Q71 628 80 656T115 710L142 690Q120 665 114 646T108 606L90 612H140V542H71ZM211 542V596Q211 628 220 656T255 710L282 690Q260 665 254 646T248 606L230 612H280V542H211Z" />
<glyph unicode="&#x201d;" horiz-adv-x="351" d="M97 537L71 557Q93 581 98 601T104 641L123 635H72V705H141V650Q141 619 132 591T97 537ZM237 537L211 557Q233 581 238 601T244 641L263 635H212V705H281V650Q281 619 272 591T237 537Z" />
<glyph unicode="&#x201e;" horiz-adv-x="351" d="M97 -98L71 -78Q89 -58 96 -39T104 6L123 0H72V70H141V15Q141 -21 131 -48T97 -98ZM237 -98L211 -78Q229 -58 236 -39T244 6L263 0H212V70H281V15Q281 -21 271 -48T237 -98Z" />
<glyph unicode="&#x2022;" horiz-adv-x="529" d="M265 89Q216 89 174 112T107 177T82 268Q82 314 105 355T170 421T265 447Q314 447 355 424T421 360T447 268Q447 219 423 178T357 113T265 89Z" />
<glyph unicode="&#x2039;" horiz-adv-x="238" d="M154 89L29 268L154 447H195L82 268L195 89H154Z" />
<glyph unicode="&#x203a;" horiz-adv-x="238" d="M84 89H43L156 268L43 447H84L209 268L84 89Z" />
</font>
</defs>
</svg>
