<?xml version="1.0" standalone="no"?>
<!DOCTYPE svg PUBLIC "-//W3C//DTD SVG 1.1//EN" "http://www.w3.org/Graphics/SVG/1.1/DTD/svg11.dtd">
<svg xmlns="http://www.w3.org/2000/svg">
<defs >
<font id="Mulish" horiz-adv-x="581" ><font-face
    font-family="Mulish ExtraLight Black"
    units-per-em="1000"
    panose-1="0 0 0 0 0 0 0 0 0 0"
    ascent="1005"
    descent="-250"
    alphabetic="0" />
<glyph unicode=" " horiz-adv-x="289" />
<glyph unicode="!" horiz-adv-x="272" d="M81 238L99 705H317L188 238H81ZM3 0L32 182H218L188 0H3Z" />
<glyph unicode="&quot;" horiz-adv-x="515" d="M98 398L104 705H308L217 398H98ZM345 398L351 705H555L464 398H345Z" />
<glyph unicode="#" horiz-adv-x="600" d="M28 0L84 159H31L48 265H121L188 448H101L117 554H226L281 705H396L341 554H434L489 705H603L549 554H601L585 448H510L444 265H533L516 159H406L349 0H234L291 159H199L144 0H28ZM237 265H329L394 448H303L237 265Z" />
<glyph unicode="$" horiz-adv-x="600" d="M182 -115L203 20L237 -7Q194 -4 149 4T64 27T-2 63L63 204Q103 177 160 161T280 144Q341 144 369 160T401 202Q405 223 390 238T330 262L236 283Q181 296 141 325T81 397T69 493Q80 557 115 602T207 674T342 709L309
692L330 820H469L448 692L422 711Q475 708 526 690T607 644L547 510Q516 534 471 547T375 561Q315 561 283 543T245 496Q242 474 256 460T314 435L408 414Q510 391 550 338T577 201Q563 113 492 61T315 -3L342 21L321 -115H182Z" />
<glyph unicode="%" horiz-adv-x="965" d="M317 0H163L680 705H835L317 0ZM232 285Q137 285 95 346T69 512Q85 610 142 663T282 716Q377 716 419 656T444 492Q429 395 373 340T232 285ZM240 393Q264 393 279 416T304 494Q314 560 305 584T273 608Q249 608 234 587T210
510Q199 442 208 418T240 393ZM716 -11Q620 -11 578 50T553 216Q569 313 626 366T765 420Q860 420 902 360T928 196Q912 99 856 44T716 -11ZM724 97Q748 97 763 120T788 198Q798 264 789 288T757 312Q733 312 718 291T694 214Q683 146 692 122T724 97Z" />
<glyph unicode="&amp;" horiz-adv-x="708" d="M624 -11Q579 -2 536 22T457 80L502 78Q458 37 392 13T254 -11Q172 -11 113 15T26 89T8 202Q18 264 63 309T180 388L222 408L184 374Q151 408 138 453T132 544Q140 593 168 632T248 693T373 716Q434 716 478 695T543
635T556 539Q550 504 529 471T470 409T380 356L387 389L517 243H482Q514 284 536 333T570 435H719Q703 354 668 280T580 147L576 184Q601 157 630 141T697 115L624 -11ZM284 123Q322 123 354 136T417 175L399 137L228 326L306 325L276 311Q237 293 214 270T185
212Q179 173 204 148T284 123ZM365 601Q335 601 317 585T295 544Q293 524 296 509T310 477T339 440L301 439Q357 463 385 486T418 541Q424 570 409 585T365 601Z" />
<glyph unicode="&apos;" horiz-adv-x="269" d="M98 398L104 705H308L217 398H98Z" />
<glyph unicode="(" horiz-adv-x="401" d="M174 -180Q133 -98 114 -10T94 163Q94 267 122 365T198 549T308 705H449Q374 570 326 418T277 97Q277 38 287 -32T314 -179L174 -180Z" />
<glyph unicode=")" horiz-adv-x="401" d="M96 -180H-45Q31 -44 79 107T127 428Q127 488 117 558T90 704L230 705Q272 623 291 535T310 362Q310 259 283 161T207 -24T96 -180Z" />
<glyph unicode="*" horiz-adv-x="460" d="M189 338L100 403L199 509L63 544L105 649L233 596L236 736H345L325 598L461 649L489 544L347 509L429 403L341 338L274 454L189 338Z" />
<glyph unicode="+" horiz-adv-x="600" d="M204 40L234 228H51L70 346H253L281 528H405L377 346H559L540 228H357L328 40H204Z" />
<glyph unicode="," horiz-adv-x="272" d="M69 -155L11 -92Q52 -57 71 -28T99 43L132 0H3L32 182H217L196 53Q190 12 177 -23T138 -89T69 -155Z" />
<glyph unicode="-" horiz-adv-x="449" d="M54 207L76 345H402L381 207H54Z" />
<glyph unicode="." horiz-adv-x="272" d="M3 0L33 182H217L187 0H3Z" />
<glyph unicode="/" horiz-adv-x="352" d="M72 -63H-77L327 757H476L72 -63Z" />
<glyph unicode="0" horiz-adv-x="600" d="M273 -11Q132 -11 77 90T49 373Q78 550 155 633T359 716Q495 716 553 621T583 337Q555 161 474 75T273 -11ZM285 136Q331 136 362 186T410 347Q424 433 421 481T399 550T347 570Q301 570 271 523T223 364Q209 279 212
229T234 157T285 136Z" />
<glyph unicode="1" horiz-adv-x="600" d="M51 0L75 150H233L296 552L379 547L135 419L162 594L374 705H505L417 150H564L540 0H51Z" />
<glyph unicode="2" horiz-adv-x="600" d="M28 0L49 135L300 360Q345 401 366 429T392 486Q398 526 375 545T306 565Q265 565 221 552T131 505L78 639Q130 675 200 695T339 716Q428 716 484 688T563 610T575 493Q565 429 525 376T418 266L227 103L228 150H545L521 0H28Z" />
<glyph unicode="3" horiz-adv-x="600" d="M256 -11Q181 -11 115 9T12 65L73 201Q112 170 158 155T257 140Q310 140 340 156T376 210Q387 283 295 283H166L189 427H295Q338 427 366 443T399 493Q405 527 383 546T315 565Q266 565 221 550T132 504L79 639Q131 676
200 696T340 716Q471 716 532 661T578 512Q569 453 528 413T424 358L426 372Q489 362 524 314T547 192Q532 91 454 40T256 -11Z" />
<glyph unicode="4" horiz-adv-x="600" d="M280 0L298 119H6L26 247L417 705H567L496 256H588L566 119H474L455 0H280ZM320 256L357 487H386L156 214L159 256H320Z" />
<glyph unicode="5" horiz-adv-x="600" d="M270 -11Q224 -11 178 -2T95 25T34 65L94 201Q134 171 179 156T273 140Q324 140 356 161T393 220Q400 263 376 286T305 310Q272 310 242 299T183 264H69L139 705H601L576 556H286L262 398H220Q249 426 287 441T377 456Q441
456 488 427T557 343T567 211Q557 146 520 96T419 18T270 -11Z" />
<glyph unicode="6" horiz-adv-x="600" d="M296 -11Q200 -11 140 34T58 164T55 366Q73 483 123 560T249 677T418 716Q477 716 530 700T622 648L560 512Q527 539 489 552T410 565Q334 565 289 520T228 379L219 327H204Q227 391 275 427T390 463Q449 463 493 433T558
347T567 215Q555 141 517 90T422 14T296 -11ZM303 129Q346 129 370 155T401 223Q408 270 388 297T326 324Q285 324 260 298T227 230Q220 183 241 156T303 129Z" />
<glyph unicode="7" horiz-adv-x="600" d="M8 0L439 608L436 552H86L111 705H634L612 567L215 0H8Z" />
<glyph unicode="8" horiz-adv-x="600" d="M273 -11Q135 -11 68 49T17 211Q28 281 80 325T204 378L199 349Q138 362 107 413T87 533Q101 622 176 669T371 716Q450 716 504 691T584 620T600 513Q589 444 544 400T435 346L440 374Q485 367 515 341T560 274T566 184Q550
88 472 39T273 -11ZM280 127Q333 127 364 146T402 206Q408 245 384 266T305 287Q251 287 221 268T183 210Q177 171 201 149T280 127ZM328 426Q372 426 398 445T430 500Q436 535 416 556T352 578Q308 578 283 559T251 506Q246 470 265 448T328 426Z" />
<glyph unicode="9" horiz-adv-x="600" d="M213 -11Q155 -11 102 5T10 57L72 193Q104 166 142 153T222 140Q298 140 344 186T404 326L412 378H428Q405 314 358 278T242 242Q183 242 139 272T74 359T64 491Q76 565 114 615T209 691T336 716Q433 716 493 671T574
541T577 339Q559 223 509 145T382 28T213 -11ZM305 382Q347 382 372 408T404 476Q411 522 391 549T329 576Q286 576 262 551T231 482Q224 436 244 409T305 382Z" />
<glyph unicode=":" horiz-adv-x="272" d="M55 326L84 508H268L239 326H55ZM3 0L32 182H217L187 0H3Z" />
<glyph unicode=";" horiz-adv-x="272" d="M63 -155L5 -102Q50 -64 72 -30T100 43L131 0H4L33 182H217L197 58Q187 -5 158 -55T63 -155ZM55 325L84 508H268L239 325H55Z" />
<glyph unicode="&lt;" horiz-adv-x="600" d="M509 30L50 221L71 354L590 545L569 407L97 236L111 323L528 153L509 30Z" />
<glyph unicode="=" horiz-adv-x="600" d="M67 328L86 446H574L555 328H67ZM36 128L54 246H543L524 128H36Z" />
<glyph unicode="&gt;" horiz-adv-x="600" d="M21 30L42 167L513 337L499 250L82 421L102 545L560 354L540 221L21 30Z" />
<glyph unicode="?" horiz-adv-x="483" d="M167 238L176 292Q180 320 190 343T220 390T269 440Q286 454 299 469T320 499T328 530Q328 549 312 559T265 570Q225 570 183 557T102 521L125 668Q165 691 218 703T318 716Q375 716 419 698T487 645T512 566Q512 526
497 492T453 430T388 379Q333 343 312 318T283 270L273 238H167ZM89 0L118 182H304L275 0H89Z" />
<glyph unicode="@" horiz-adv-x="960" d="M498 -167Q401 -167 320 -136T179 -48T88 87T55 262Q55 365 88 448T182 592T329 684T519 716Q611 716 684 690T811 614T893 495T922 339Q922 253 897 190T826 93T721 58Q659 58 622 90T575 184L620 213Q596 135 550 97T445
58Q362 58 317 110T271 252Q271 325 298 381T373 470T483 503Q535 503 567 478T614 399H590L608 492H734L695 273Q692 253 690 238T688 210Q688 182 698 170T730 157Q755 157 775 179T807 243T819 339Q819 407 799 458T741 544T646 597T519 615Q439 615 375 591T266
520T196 409T171 262Q171 160 211 87T325 -26T498 -66Q566 -66 623 -49T727 2L775 -86Q728 -124 657 -145T498 -167ZM474 164Q505 164 527 183T563 236T576 318Q576 356 560 376T509 397Q478 397 455 379T418 329T405 254Q405 209 423 187T474 164Z" />
<glyph unicode="A" horiz-adv-x="769" d="M-62 0L380 705H530L750 0H571L517 194L580 143H166L244 194L129 0H-62ZM430 515L269 236L248 283H542L509 236L435 515H430Z" />
<glyph unicode="B" horiz-adv-x="701" d="M25 0L137 705H473Q595 705 651 655T694 514Q685 456 642 414T532 355L534 371Q607 358 640 310T663 190Q649 103 577 52T386 0H25ZM223 135H378Q430 135 457 153T490 207Q495 237 486 255T456 282T399 290H247L223 135ZM269
425H403Q456 425 482 442T513 493Q520 534 499 552T425 570H292L269 425Z" />
<glyph unicode="C" horiz-adv-x="685" d="M395 -11Q270 -11 191 39T80 175T65 371Q82 481 137 558T280 676T480 716Q549 716 604 698T697 651L636 505Q596 533 559 544T473 556Q387 556 330 507T257 364Q247 298 262 250T316 175T420 149Q464 149 507 162T598
209L646 64Q594 28 530 9T395 -11Z" />
<glyph unicode="D" horiz-adv-x="781" d="M25 0L137 705H404Q538 705 620 659T734 531T748 335Q721 168 610 84T317 0H25ZM234 150H322Q430 150 490 198T566 341Q583 454 538 505T383 556H297L234 150Z" />
<glyph unicode="E" horiz-adv-x="603" d="M25 0L137 705H643L620 564H291L270 429H575L553 287H247L224 142H553L531 0H25Z" />
<glyph unicode="F" horiz-adv-x="583" d="M25 0L137 705H632L609 564H299L276 421H563L541 280H254L210 0H25Z" />
<glyph unicode="G" horiz-adv-x="750" d="M403 -11Q269 -11 188 37T77 170T64 367Q82 479 141 556T292 675T501 716Q577 716 634 701T728 658L666 517Q624 541 588 550T495 559Q391 559 331 507T256 357Q240 256 279 200T425 143Q463 143 497 149T571 167L520
101L547 269H401L421 397H718L662 45Q625 27 581 15T491 -4T403 -11Z" />
<glyph unicode="H" horiz-adv-x="784" d="M25 0L137 705H322L278 433H562L606 705H791L679 0H494L539 282H255L210 0H25Z" />
<glyph unicode="I" horiz-adv-x="315" d="M25 0L137 705H322L210 0H25Z" />
<glyph unicode="J" horiz-adv-x="401" d="M32 -187Q14 -187 -12 -185T-66 -174L-43 -33Q-24 -39 -6 -41T24 -43Q69 -43 91 -18T121 63L223 705H408L303 47Q290 -38 259 -89T172 -164T32 -187Z" />
<glyph unicode="K" horiz-adv-x="704" d="M25 0L137 705H322L274 403H276L588 705H810L418 334L412 407L717 0H503L263 318H261L210 0H25Z" />
<glyph unicode="L" horiz-adv-x="578" d="M25 0L137 705H322L234 153H536L512 0H25Z" />
<glyph unicode="M" horiz-adv-x="884" d="M28 0L140 705H300L449 188H416L728 705H889L777 0H610L678 432H722L453 0H350L217 432H263L194 0H28Z" />
<glyph unicode="N" horiz-adv-x="765" d="M25 0L137 705H273L558 250L530 262L601 705H772L660 0H524L240 455L268 443L198 0H25Z" />
<glyph unicode="O" horiz-adv-x="804" d="M65 371Q82 481 135 558T270 675T456 716Q576 716 651 667T758 531T771 335Q754 225 701 148T566 30T378 -11Q260 -11 184 39T78 175T65 371ZM256 361Q245 292 257 243T304 169T394 143Q473 143 519 198T579 345Q591 414
578 462T531 536T440 562Q361 562 316 508T256 361Z" />
<glyph unicode="P" horiz-adv-x="684" d="M25 0L137 705H466Q594 705 651 640T691 468Q682 408 649 362T557 289T414 263H252L210 0H25ZM274 405H411Q460 405 485 424T516 480Q523 520 503 542T432 564H299L274 405Z" />
<glyph unicode="Q" horiz-adv-x="804" d="M519 -193Q486 -175 456 -147T403 -81T366 -5L517 60Q532 9 571 -33T656 -102L519 -193ZM65 371Q82 481 135 558T270 675T456 716Q576 716 651 667T758 531T771 335Q754 225 701 148T566 30T378 -11Q260 -11 184 39T78
175T65 371ZM256 361Q245 292 257 243T304 169T394 143Q473 143 519 198T579 345Q591 414 578 462T531 536T440 562Q361 562 316 508T256 361Z" />
<glyph unicode="R" horiz-adv-x="713" d="M25 0L137 705H453Q588 705 646 645T688 476Q678 412 641 365T545 293T410 267L413 292H458Q502 292 531 268T578 201L655 0H463L380 225Q373 247 351 255T302 263H252L210 0H25ZM272 394H394Q447 394 476 415T511 476Q518
521 494 542T416 564H299L272 394Z" />
<glyph unicode="S" horiz-adv-x="671" d="M298 -11Q219 -11 147 7T28 55L86 197Q131 174 190 157T314 140Q380 140 408 157T441 201Q444 225 431 240T378 263L262 283Q172 298 125 353T92 496Q103 565 146 614T259 689T420 716Q488 716 550 700T650 653L590 514Q555
537 508 551T401 565Q343 565 311 549T272 500Q268 478 282 460T338 434L453 415Q547 399 591 345T622 205Q613 142 572 93T461 17T298 -11Z" />
<glyph unicode="T" horiz-adv-x="638" d="M186 0L274 556H60L84 705H697L673 556H459L371 0H186Z" />
<glyph unicode="U" horiz-adv-x="751" d="M348 -11Q250 -11 182 23T83 127T70 307L134 705H318L254 296Q242 221 267 182T367 143Q433 143 469 181T518 299L582 705H764L698 292Q682 192 641 125T527 23T348 -11Z" />
<glyph unicode="V" horiz-adv-x="749" d="M260 0L52 705H244L387 169H332L644 705H841L409 0H260Z" />
<glyph unicode="W" horiz-adv-x="1131" d="M226 0L86 705H270L353 195H308L572 705H705L789 195H746L1004 705H1189L824 0H676L589 459H611L375 0H226Z" />
<glyph unicode="X" horiz-adv-x="693" d="M-72 0L291 397L285 314L53 705H262L402 448H343L567 705H790L433 314L439 397L678 0H468L321 263H380L150 0H-72Z" />
<glyph unicode="Y" horiz-adv-x="656" d="M196 0L250 337L269 235L30 705H235L369 422H333L558 705H770L380 227L434 337L381 0H196Z" />
<glyph unicode="Z" horiz-adv-x="623" d="M7 0L28 135L453 606L445 555H95L119 705H652L630 570L205 99L213 150H579L555 0H7Z" />
<glyph unicode="[" horiz-adv-x="399" d="M28 -180L168 705H450L430 574H322L223 -49H331L310 -180H28Z" />
<glyph unicode="\" horiz-adv-x="352" d="M197 -63L52 757H192L337 -63H197Z" />
<glyph unicode="]" horiz-adv-x="399" d="M-49 -180L-29 -49H79L177 574H70L91 705H373L233 -180H-49Z" />
<glyph unicode="^" horiz-adv-x="600" d="M24 140L293 628H425L540 140H414L314 584H400L159 140H24Z" />
<glyph unicode="_" horiz-adv-x="505" d="M-39 -101L-23 0H448L431 -101H-39Z" />
<glyph unicode="`" horiz-adv-x="500" d="M262 557L119 762H285L376 557H262Z" />
<glyph unicode="a" horiz-adv-x="644" d="M230 -11Q161 -11 112 25T43 125T35 272Q55 396 126 457T296 519Q355 519 398 493T449 422L440 418L466 508H637Q628 474 621 439T607 370L548 0H372L386 91H403Q381 45 337 17T230 -11ZM295 121Q339 121 370 151T411
246Q423 323 400 355T329 387Q285 387 255 357T213 262Q201 186 224 154T295 121Z" />
<glyph unicode="b" horiz-adv-x="644" d="M348 -11Q290 -11 247 15T195 86L205 91L191 0H15L132 736H310L260 422L242 418Q264 463 308 491T414 519Q484 519 532 484T602 384T609 236Q589 113 518 51T348 -11ZM315 121Q360 121 390 151T431 246Q443 323 420 355T350
387Q306 387 275 357T234 262Q222 186 246 154T315 121Z" />
<glyph unicode="c" horiz-adv-x="514" d="M289 -11Q197 -11 136 25T48 126T35 272Q55 395 138 457T345 519Q390 519 437 507T512 470L459 350Q438 367 408 376T349 385Q299 385 263 356T217 263Q207 203 233 164T320 124Q345 124 375 134T432 162L477 43Q448 19
397 4T289 -11Z" />
<glyph unicode="d" horiz-adv-x="644" d="M230 -11Q161 -11 112 25T43 125T35 272Q55 396 126 457T296 519Q355 519 398 493T449 422H438L487 736H665L548 0H373L387 91H403Q381 45 337 17T230 -11ZM295 121Q339 121 370 151T411 246Q423 323 400 355T329 387Q285
387 255 357T213 262Q201 186 224 154T295 121Z" />
<glyph unicode="e" horiz-adv-x="552" d="M299 -11Q202 -11 139 25T50 126T36 275Q48 350 85 404T181 489T315 519Q393 519 443 486T515 394T523 259L518 224H177L190 308H400L380 290Q389 347 370 374T310 402Q280 402 259 388T225 350T207 294L200 250Q192 188
220 155T325 121Q359 121 390 130T456 159L501 43Q458 15 407 2T299 -11Z" />
<glyph unicode="f" horiz-adv-x="404" d="M58 0L118 377H23L44 508H189L131 462L143 533Q159 637 223 688T404 740Q429 740 453 736T497 725L475 589Q462 594 449 596T418 599Q398 599 377 593T339 570T318 526L311 481L291 508H439L418 377H296L236 0H58Z" />
<glyph unicode="g" horiz-adv-x="644" d="M240 -224Q165 -224 109 -211T9 -169L54 -42Q77 -58 107 -69T170 -86T234 -92Q303 -92 336 -63T379 21L393 110H403Q384 68 340 41T234 14Q166 14 117 45T45 137T37 284Q56 400 126 459T297 519Q356 519 399 493T450 424L443
426L467 508H638Q628 474 621 439T608 370L556 41Q535 -87 456 -155T240 -224ZM298 145Q345 145 375 175T415 263Q424 325 401 356T332 387Q285 387 255 357T214 268Q205 208 228 177T298 145Z" />
<glyph unicode="h" horiz-adv-x="623" d="M15 0L132 736H310L260 419H244Q274 469 322 494T428 519Q518 519 557 464T578 295L531 0H353L400 296Q407 343 392 363T344 383Q301 383 274 356T239 285L193 0H15Z" />
<glyph unicode="i" horiz-adv-x="288" d="M15 0L96 508H274L193 0H15ZM103 580L128 740H315L289 580H103Z" />
<glyph unicode="j" horiz-adv-x="288" d="M-53 -225Q-77 -225 -100 -222T-144 -210L-122 -73Q-109 -78 -96 -80T-67 -82Q-39 -82 -16 -66T14 -6L95 508H273L191 -12Q174 -117 116 -171T-53 -225ZM101 580L127 740H313L288 580H101Z" />
<glyph unicode="k" horiz-adv-x="596" d="M15 0L132 736H310L241 303H243L440 508H656L387 236V297L584 0H375L229 213H227L193 0H15Z" />
<glyph unicode="l" horiz-adv-x="288" d="M15 0L132 736H310L193 0H15Z" />
<glyph unicode="m" horiz-adv-x="924" d="M15 0L74 370Q79 404 82 439T88 508H259L256 420H244Q274 470 319 494T422 519Q478 519 515 493T561 409H540Q572 461 624 490T732 519Q823 519 860 465T878 293L832 0H653L700 297Q707 342 695 362T652 383Q613 383 589
355T556 278L512 0H334L381 297Q388 342 377 362T333 383Q293 383 270 355T238 278L193 0H15Z" />
<glyph unicode="n" horiz-adv-x="623" d="M15 0L74 370Q79 404 82 439T88 508H259L256 420L244 419Q274 469 322 494T428 519Q518 519 557 464T578 295L531 0H353L400 296Q407 343 392 363T344 383Q301 383 274 356T239 285L193 0H15Z" />
<glyph unicode="o" horiz-adv-x="617" d="M282 -11Q192 -11 132 23T47 121T35 272Q48 354 90 409T195 491T337 519Q428 519 487 485T571 387T582 236Q569 154 528 99T423 17T282 -11ZM292 121Q334 121 364 151T405 246Q417 323 394 355T326 387Q283 387 254 357T213
262Q201 186 223 154T292 121Z" />
<glyph unicode="p" horiz-adv-x="644" d="M-19 -216L74 370Q80 404 83 439T88 508H259L257 418H242Q264 463 308 491T414 519Q484 519 532 484T602 384T609 236Q589 113 518 51T348 -11Q290 -11 247 15T195 86H207L159 -216H-19ZM315 121Q360 121 390 151T431
246Q443 323 420 355T350 387Q306 387 275 357T234 262Q222 186 246 154T315 121Z" />
<glyph unicode="q" horiz-adv-x="644" d="M336 -216L384 86L403 91Q381 45 337 17T230 -11Q161 -11 112 25T43 125T35 272Q55 396 126 457T296 519Q355 519 398 493T449 422L440 418L466 508H637Q628 474 621 439T607 370L514 -216H336ZM295 121Q339 121 370 151T411
246Q423 323 400 355T329 387Q285 387 255 357T213 262Q201 186 224 154T295 121Z" />
<glyph unicode="r" horiz-adv-x="429" d="M15 0L74 369Q79 404 82 439T88 508H259L254 352H224Q243 409 271 446T337 501T418 519Q434 519 447 518T471 514L445 357Q425 366 410 369T370 372Q336 372 308 358T259 314T232 236L195 0H15Z" />
<glyph unicode="s" horiz-adv-x="506" d="M221 -11Q153 -11 98 2T7 39L53 155Q90 135 136 122T229 109Q267 109 286 120T308 150Q311 166 301 176T270 190L177 204Q105 215 75 255T55 359Q63 411 96 447T181 501T296 519Q353 519 403 508T488 470L438 358Q410
376 371 388T296 400Q255 400 235 388T212 357Q210 343 218 332T247 318L341 303Q414 292 444 254T465 150Q456 96 423 60T337 7T221 -11Z" />
<glyph unicode="t" horiz-adv-x="414" d="M275 -11Q165 -11 120 43T89 197L118 377H23L44 508H139L158 628L343 670L317 508H441L420 377H296L269 204Q262 162 280 147T328 131Q344 131 355 133T383 141L361 4Q338 -5 317 -8T275 -11Z" />
<glyph unicode="u" horiz-adv-x="618" d="M209 -11Q113 -11 71 45T45 207L93 508H271L223 206Q216 165 231 145T282 125Q323 125 348 152T380 225L425 508H603L522 0H349L363 91H378Q349 42 307 16T209 -11Z" />
<glyph unicode="v" horiz-adv-x="559" d="M163 0L23 508H203L281 170H245L436 508H617L313 0H163Z" />
<glyph unicode="w" horiz-adv-x="900" d="M162 0L32 508H206L279 174H254L432 508H545L616 174H595L773 508H949L659 0H510L427 345H495L311 0H162Z" />
<glyph unicode="x" horiz-adv-x="566" d="M-80 0L214 300L210 223L23 508H223L322 343H259L411 508H628L349 222L356 302L555 0H349L238 179H304L136 0H-80Z" />
<glyph unicode="y" horiz-adv-x="558" d="M-19 -227L-46 -89Q4 -80 38 -70T95 -41T137 6L171 64L162 -3L22 508H203L280 171H246L435 508H617L307 -11Q270 -72 233 -111T157 -173T75 -207T-19 -227Z" />
<glyph unicode="z" horiz-adv-x="534" d="M6 0L24 115L354 418L347 377H66L87 508H533L515 393L181 85L188 130H483L463 0H6Z" />
<glyph unicode="{" horiz-adv-x="436" d="M242 -180Q188 -180 152 -161T101 -108T93 -35L117 118Q123 156 115 173T74 193L27 198L47 325L94 331Q126 334 141 350T163 405L188 560Q200 635 239 670T340 705H490L469 574H407Q389 574 376 566T358 532L335 384Q330
348 310 320T264 277T214 262V266Q237 266 257 250T289 205T295 140L272 -7Q268 -32 277 -40T306 -49H370L350 -180H242Z" />
<glyph unicode="|" horiz-adv-x="304" d="M-6 -180L134 705H312L172 -180H-6Z" />
<glyph unicode="}" horiz-adv-x="436" d="M-52 -180L-31 -49H32Q50 -49 63 -41T81 -7L104 141Q110 178 130 205T176 248T225 263L226 259Q203 259 182 275T150 321T144 386L167 532Q172 557 162 565T133 574H68L88 705H197Q252 705 287 686T338 634T347 560L322
407Q316 369 324 352T365 332L412 327L392 200L346 195Q313 191 298 175T276 120L252 -35Q240 -110 200 -145T99 -180H-52Z" />
<glyph unicode="~" horiz-adv-x="600" d="M413 199Q382 199 351 211T292 236Q268 247 247 255T210 263Q188 263 170 250T136 205L57 264Q81 316 116 346T197 376Q229 376 260 364T321 338Q345 328 365 320T400 312Q423 312 441 325T476 369L555 310Q531 259 495
229T413 199Z" />
<glyph unicode="&#xa0;" horiz-adv-x="289" />
<glyph unicode="&#xa1;" horiz-adv-x="272" d="M-42 -180L85 270H192L176 -180H-42ZM55 326L84 508H269L240 326H55Z" />
<glyph unicode="&#xa2;" horiz-adv-x="600" d="M189 -115L213 36L240 0Q149 20 103 87T72 254Q87 350 148 414T318 495L279 453L304 612H442L419 464L386 499Q438 498 480 486T549 451L497 331Q476 347 446 356T387 365Q337 365 300 338T254 253Q248 218 257 189T292
142T358 124Q383 124 413 134T470 161L515 43Q479 17 423 2T305 -11L349 26L327 -115H189Z" />
<glyph unicode="&#xa3;" horiz-adv-x="600" d="M-1 0L17 120Q52 130 72 146T96 193L114 302H46L61 405H130L142 481Q161 592 233 654T425 716Q490 716 543 699T632 651L571 523Q535 551 503 562T435 574Q384 574 359 551T327 485L314 405H464L448 302H300L288
230Q283 197 266 175T220 142L221 147H557L534 0H-1Z" />
<glyph unicode="&#xa4;" horiz-adv-x="600" d="M120 -34L59 26L132 101Q111 132 99 168T87 245Q87 286 99 322T132 390L59 464L120 525L194 451Q223 471 258 482T330 493Q369 493 403 483T467 451L541 528L607 461L532 385Q552 355 562 320T573 245Q573 206 562
170T530 103L605 26L544 -33L471 42Q441 20 406 9T330 -3Q292 -3 257 8T192 40L120 -34ZM331 134Q360 134 383 149T421 190T435 245Q435 276 421 301T384 341T331 356Q303 357 279 342T241 301T227 245Q227 215 240 190T277 150T331 134Z" />
<glyph unicode="&#xa5;" horiz-adv-x="600" d="M168 0L192 151H47L62 250H207L217 311H72L88 409H204L200 389L43 705H233L344 458H307L499 705H701L441 389L445 409H562L546 311H401L391 250H536L522 151H376L351 0H168Z" />
<glyph unicode="&#xa6;" horiz-adv-x="304" d="M81 371L134 705H312L259 371H81ZM-6 -180L47 154H225L172 -180H-6Z" />
<glyph unicode="&#xa7;" horiz-adv-x="603" d="M244 -191Q182 -191 120 -174T2 -123L57 -10Q81 -28 112 -42T176 -63T238 -71Q276 -71 299 -55T323 -8Q323 14 312 28T274 56L143 125Q89 154 62 194T34 280Q34 340 60 379T137 448L132 433Q123 450 118 469T112
512Q112 578 146 623T236 692T361 716Q417 716 473 701T579 654L532 544Q495 567 449 581T364 596Q327 596 304 580T280 532Q280 511 291 496T329 467L460 398Q515 368 542 329T570 243Q570 185 542 144T463 73L467 97Q480 79 486 59T492 15Q492 -53 459 -99T369
-168T244 -191ZM189 313Q189 291 204 272T248 239L369 177Q381 170 391 164T409 150L391 147Q404 164 409 180T414 211Q414 233 399 251T355 285L234 347Q223 354 213 360T195 375L216 384Q201 365 195 347T189 313Z" />
<glyph unicode="&#xa8;" horiz-adv-x="500" d="M331 582L354 732H503L480 582H331ZM125 582L148 732H296L274 582H125Z" />
<glyph unicode="&#xa9;" horiz-adv-x="815" d="M428 -11Q351 -11 285 16T169 93T92 209T64 353Q64 430 91 496T168 612T284 688T428 716Q506 716 572 689T687 612T764 497T792 353Q792 276 764 210T687 94T572 17T428 -11ZM451 137Q347 137 286 195T224 353Q224
453 285 510T451 568Q491 568 532 557T598 525L559 423Q540 438 517 447T466 456Q422 456 397 429T372 353Q372 304 397 277T466 250Q493 250 516 258T559 283L598 180Q573 160 532 149T451 137ZM428 53Q492 53 546 75T640 139T702 234T724 353Q724 417 702 471T640
566T546 629T429 652Q364 652 310 630T216 567T154 472T132 353Q132 289 154 235T215 139T309 76T428 53Z" />
<glyph unicode="&#xaa;" horiz-adv-x="358" d="M159 404Q128 404 103 417T65 454T57 512Q62 540 82 557T142 583T240 592H287L278 537H227Q171 537 166 507Q165 493 173 484T200 475Q224 475 243 491T267 538L276 596Q278 615 267 625T224 636Q202 636 172 630T114
611L93 686Q120 699 161 707T239 716Q325 716 359 682T383 580L356 411H252L261 467H258Q239 437 216 421T159 404Z" />
<glyph unicode="&#xab;" horiz-adv-x="561" d="M125 84L22 267L182 452H334L170 259L264 84H125ZM364 84L261 267L421 452H573L409 259L503 84H364Z" />
<glyph unicode="&#xac;" horiz-adv-x="600" d="M401 129L433 327H67L86 446H575L525 129H401Z" />
<glyph unicode="&#xad;" horiz-adv-x="449" d="M54 207L76 345H402L381 207H54Z" />
<glyph unicode="&#xae;" horiz-adv-x="815" d="M428 -11Q351 -11 285 16T169 93T92 209T64 353Q64 430 91 496T168 612T284 688T428 716Q506 716 572 689T687 612T764 497T792 353Q792 276 764 210T687 94T572 17T428 -11ZM428 53Q492 53 546 75T640 139T702 234T724
353Q724 417 702 471T640 566T546 629T429 652Q364 652 310 630T216 567T154 472T132 353Q132 289 154 235T215 139T309 76T428 53ZM260 142V566H457Q530 566 570 529T610 438Q610 380 572 349T465 318L499 330Q535 330 555 313T588 242L613 142H481L452 261Q448
279 438 285T414 292H373L392 304V142H260ZM390 386H438Q462 386 474 396T486 429Q486 452 474 462T438 472H390V386Z" />
<glyph unicode="&#xaf;" horiz-adv-x="500" d="M137 605L152 702H490L475 605H137Z" />
<glyph unicode="&#xb0;" horiz-adv-x="389" d="M244 391Q196 391 158 412T99 470T77 553Q77 600 98 636T158 694T244 715Q292 715 329 694T389 637T411 553Q411 507 389 470T330 412T244 391ZM244 482Q273 482 292 502T311 553Q311 583 292 603T243 624Q215 624
196 604T176 553Q176 523 195 503T244 482Z" />
<glyph unicode="&#xb1;" horiz-adv-x="600" d="M222 153L242 283H60L79 403H262L282 532H405L385 403H567L548 283H366L345 153H222ZM15 0L34 119H522L504 0H15Z" />
<glyph unicode="&#xb2;" horiz-adv-x="380" d="M44 282L60 383L192 493Q216 513 228 529T242 559Q246 578 236 587T202 597Q181 597 154 590T105 569L91 674Q121 690 160 699T246 709Q327 709 367 673T397 576Q392 546 371 518T311 458L225 386L222 395H381L362 282H44Z" />
<glyph unicode="&#xb3;" horiz-adv-x="380" d="M202 276Q150 276 110 283T41 305L67 406Q91 393 123 387T191 381Q223 381 239 390T258 417Q261 431 250 438T218 445H127L142 543H219Q242 543 254 551T269 573Q271 588 260 596T219 605Q189 605 157 596T104 576L90
677Q125 693 166 701T253 709Q335 709 375 677T406 591Q400 551 368 524T290 490L293 505Q344 502 369 473T386 395Q378 340 326 308T202 276Z" />
<glyph unicode="&#xb4;" horiz-adv-x="500" d="M241 557L371 762H542L355 557H241Z" />
<glyph unicode="&#xb5;" horiz-adv-x="593" d="M-27 -216L86 508H264L218 205Q213 166 224 146T268 125Q307 125 333 153T366 232L407 508H585L507 0H334L348 90H347Q332 42 308 16T251 -11Q226 -11 207 -1T178 29H176L151 -216H-27Z" />
<glyph unicode="&#xb6;" horiz-adv-x="671" d="M189 -180L256 244Q198 244 153 270T84 342T59 445Q59 524 93 582T188 673T327 705H677L537 -180H414L535 580H431L311 -180H189Z" />
<glyph unicode="&#xb7;" horiz-adv-x="275" d="M34 186L62 368H248L220 186H34Z" />
<glyph unicode="&#xb8;" horiz-adv-x="500" d="M178 -198Q145 -198 115 -193T62 -175L93 -105Q110 -113 129 -117T166 -122Q193 -122 205 -117T217 -99Q217 -92 210 -88T183 -83Q175 -83 167 -84T147 -87L128 -66L154 20H238L214 -57L175 -40Q187 -35 199 -33T221
-31Q266 -31 290 -49T314 -100Q314 -145 275 -171T178 -198Z" />
<glyph unicode="&#xb9;" horiz-adv-x="380" d="M41 282L60 395H160L190 584H245L90 514L110 641L249 705H349L300 395H384L366 282H41Z" />
<glyph unicode="&#xba;" horiz-adv-x="374" d="M220 406Q141 406 99 450T67 571Q78 637 125 676T252 716Q332 716 374 673T405 553Q395 488 348 447T220 406ZM225 490Q251 490 269 508T294 562Q299 598 287 616T247 634Q221 634 203 617T179 562Q173 526 185 508T225
490Z" />
<glyph unicode="&#xbb;" horiz-adv-x="561" d="M148 84H-3L160 278L66 452H206L308 269L148 84ZM386 84H235L398 278L304 452H444L546 269L386 84Z" />
<glyph unicode="&#xbc;" horiz-adv-x="936" d="M41 282L60 395H160L190 584H245L90 514L110 641L249 705H349L300 395H384L366 282H41ZM323 -11H174L713 716H861L323 -11ZM712 0L722 63H534L548 155L788 423H905L864 163H917L901 63H848L838 0H712ZM743 163L763
295H776L647 149V163H743Z" />
<glyph unicode="&#xbd;" horiz-adv-x="988" d="M41 282L60 395H160L190 584H245L90 514L110 641L249 705H349L300 395H384L366 282H41ZM323 -11H174L713 716H861L323 -11ZM607 0L623 101L755 211Q779 231 791 247T805 277Q809 296 799 305T765 315Q744 315 717
308T668 287L654 392Q684 408 723 417T809 427Q890 427 930 391T960 294Q955 264 934 236T874 176L788 104L785 113H944L925 0H607Z" />
<glyph unicode="&#xbe;" horiz-adv-x="936" d="M202 276Q150 276 110 283T41 305L67 406Q91 393 123 387T191 381Q223 381 239 390T258 417Q261 431 250 438T218 445H127L142 543H219Q242 543 254 551T269 573Q271 588 260 596T219 605Q189 605 157 596T104 576L90
677Q125 693 166 701T253 709Q335 709 375 677T406 591Q400 551 368 524T290 490L293 505Q344 502 369 473T386 395Q378 340 326 308T202 276ZM323 -11H174L713 716H861L323 -11ZM712 0L722 63H534L548 155L788 423H905L864 163H917L901 63H848L838 0H712ZM743
163L763 295H776L647 149V163H743Z" />
<glyph unicode="&#xbf;" horiz-adv-x="483" d="M168 -196Q112 -196 68 -177T-1 -124T-26 -45Q-26 -4 -10 29T33 90T98 141Q153 177 173 203T203 250L214 270H319L310 229Q305 202 295 178T267 131T218 81Q201 67 188 52T166 22T158 -9Q158 -28 174 -39T221 -50Q261
-50 303 -36T384 0L361 -147Q322 -170 269 -183T168 -196ZM397 508L368 326H182L211 508H397Z" />
<glyph unicode="&#xc0;" horiz-adv-x="769" d="M-62 0L380 705H530L750 0H571L517 194L580 143H166L244 194L129 0H-62ZM430 515L269 236L248 283H542L509 236L435 515H430ZM405 765L246 941H421L527 765H405Z" />
<glyph unicode="&#xc1;" horiz-adv-x="769" d="M-62 0L380 705H530L750 0H571L517 194L580 143H166L244 194L129 0H-62ZM430 515L269 236L248 283H542L509 236L435 515H430ZM405 765L535 941H717L527 765H405Z" />
<glyph unicode="&#xc2;" horiz-adv-x="769" d="M-62 0L380 705H530L750 0H571L517 194L580 143H166L244 194L129 0H-62ZM430 515L269 236L248 283H542L509 236L435 515H430ZM262 765L405 941H550L660 765H541L470 851L381 765H262Z" />
<glyph unicode="&#xc3;" horiz-adv-x="769" d="M-62 0L380 705H530L750 0H571L517 194L580 143H166L244 194L129 0H-62ZM430 515L269 236L248 283H542L509 236L435 515H430ZM304 759L223 765Q234 844 276 887T381 930Q412 930 438 921T487 899Q507 891 525 884T562
876Q617 876 634 935L715 930Q703 850 662 808T557 765Q526 765 500 774T451 795Q431 804 413 811T375 818Q321 818 304 759Z" />
<glyph unicode="&#xc4;" horiz-adv-x="769" d="M-62 0L380 705H530L750 0H571L517 194L580 143H166L244 194L129 0H-62ZM430 515L269 236L248 283H542L509 236L435 515H430ZM495 771L519 920H667L643 771H495ZM288 771L312 920H461L437 771H288Z" />
<glyph unicode="&#xc5;" horiz-adv-x="769" d="M-62 0L380 705H530L750 0H571L517 194L580 143H166L244 194L129 0H-62ZM430 515L269 236L248 283H542L509 236L435 515H430ZM477 752Q439 752 408 769T360 816T342 883Q342 920 359 949T408 996T476 1013Q515 1013
545 996T594 950T612 882Q612 846 594 816T546 769T477 752ZM476 825Q501 825 517 841T533 882Q533 907 517 923T477 939Q452 939 436 923T420 882Q420 858 436 842T476 825Z" />
<glyph unicode="&#xc6;" horiz-adv-x="1030" d="M-82 0L476 705H1069L1047 564H696L725 583L707 378L697 429H1003L981 287H673L700 297L684 108L668 142H980L957 0H511L527 191L551 143H200L263 190L120 0H-82ZM545 563L300 240L293 284H553L531 233L559 563H545Z" />
<glyph unicode="&#xc7;" horiz-adv-x="685" d="M395 -11Q270 -11 191 39T80 175T65 371Q82 481 137 558T280 676T480 716Q549 716 604 698T697 651L636 505Q596 533 559 544T473 556Q387 556 330 507T257 364Q247 298 262 250T316 175T420 149Q464 149 507 162T598
209L646 64Q594 28 530 9T395 -11ZM342 -198Q309 -198 279 -193T226 -175L257 -105Q274 -113 293 -117T330 -122Q357 -122 369 -117T381 -99Q381 -92 374 -88T347 -83Q339 -83 331 -84T311 -87L292 -66L318 20H402L378 -57L339 -40Q351 -35 363 -33T385 -31Q430
-31 454 -49T478 -100Q478 -145 439 -171T342 -198Z" />
<glyph unicode="&#xc8;" horiz-adv-x="603" d="M25 0L137 705H643L620 564H291L270 429H575L553 287H247L224 142H553L531 0H25ZM360 765L201 941H376L482 765H360Z" />
<glyph unicode="&#xc9;" horiz-adv-x="603" d="M25 0L137 705H643L620 564H291L270 429H575L553 287H247L224 142H553L531 0H25ZM360 765L490 941H672L482 765H360Z" />
<glyph unicode="&#xca;" horiz-adv-x="603" d="M25 0L137 705H643L620 564H291L270 429H575L553 287H247L224 142H553L531 0H25ZM217 765L360 941H505L615 765H496L425 851L336 765H217Z" />
<glyph unicode="&#xcb;" horiz-adv-x="603" d="M25 0L137 705H643L620 564H291L270 429H575L553 287H247L224 142H553L531 0H25ZM450 771L474 920H622L598 771H450ZM243 771L267 920H416L392 771H243Z" />
<glyph unicode="&#xcc;" horiz-adv-x="315" d="M25 0L137 705H322L210 0H25ZM178 765L19 941H194L300 765H178Z" />
<glyph unicode="&#xcd;" horiz-adv-x="315" d="M25 0L137 705H322L210 0H25ZM178 765L308 941H490L300 765H178Z" />
<glyph unicode="&#xce;" horiz-adv-x="315" d="M25 0L137 705H322L210 0H25ZM35 765L178 941H323L433 765H314L243 851L154 765H35Z" />
<glyph unicode="&#xcf;" horiz-adv-x="315" d="M25 0L137 705H322L210 0H25ZM268 771L292 920H440L416 771H268ZM61 771L85 920H234L210 771H61Z" />
<glyph unicode="&#xd0;" horiz-adv-x="781" d="M25 0L137 705H404Q538 705 620 659T734 531T748 335Q721 168 610 84T317 0H25ZM234 150H322Q430 150 490 198T566 341Q583 454 538 505T383 556H297L234 150ZM-10 291L11 421H460L440 291H-10Z" />
<glyph unicode="&#xd1;" horiz-adv-x="765" d="M25 0L137 705H273L558 250L530 262L601 705H772L660 0H524L240 455L268 443L198 0H25ZM307 759L226 765Q237 844 279 887T384 930Q415 930 441 921T490 899Q510 891 528 884T565 876Q620 876 637 935L718 930Q706
850 665 808T560 765Q529 765 503 774T454 795Q434 804 416 811T378 818Q324 818 307 759Z" />
<glyph unicode="&#xd2;" horiz-adv-x="804" d="M65 371Q82 481 135 558T270 675T456 716Q576 716 651 667T758 531T771 335Q754 225 701 148T566 30T378 -11Q260 -11 184 39T78 175T65 371ZM256 361Q245 292 257 243T304 169T394 143Q473 143 519 198T579 345Q591
414 578 462T531 536T440 562Q361 562 316 508T256 361ZM423 765L264 941H439L545 765H423Z" />
<glyph unicode="&#xd3;" horiz-adv-x="804" d="M65 371Q82 481 135 558T270 675T456 716Q576 716 651 667T758 531T771 335Q754 225 701 148T566 30T378 -11Q260 -11 184 39T78 175T65 371ZM256 361Q245 292 257 243T304 169T394 143Q473 143 519 198T579 345Q591
414 578 462T531 536T440 562Q361 562 316 508T256 361ZM423 765L553 941H735L545 765H423Z" />
<glyph unicode="&#xd4;" horiz-adv-x="804" d="M65 371Q82 481 135 558T270 675T456 716Q576 716 651 667T758 531T771 335Q754 225 701 148T566 30T378 -11Q260 -11 184 39T78 175T65 371ZM256 361Q245 292 257 243T304 169T394 143Q473 143 519 198T579 345Q591
414 578 462T531 536T440 562Q361 562 316 508T256 361ZM280 765L423 941H568L678 765H559L488 851L399 765H280Z" />
<glyph unicode="&#xd5;" horiz-adv-x="804" d="M65 371Q82 481 135 558T270 675T456 716Q576 716 651 667T758 531T771 335Q754 225 701 148T566 30T378 -11Q260 -11 184 39T78 175T65 371ZM256 361Q245 292 257 243T304 169T394 143Q473 143 519 198T579 345Q591
414 578 462T531 536T440 562Q361 562 316 508T256 361ZM322 759L241 765Q252 844 294 887T399 930Q430 930 456 921T505 899Q525 891 543 884T580 876Q635 876 652 935L733 930Q721 850 680 808T575 765Q544 765 518 774T469 795Q449 804 431 811T393 818Q339
818 322 759Z" />
<glyph unicode="&#xd6;" horiz-adv-x="804" d="M65 371Q82 481 135 558T270 675T456 716Q576 716 651 667T758 531T771 335Q754 225 701 148T566 30T378 -11Q260 -11 184 39T78 175T65 371ZM256 361Q245 292 257 243T304 169T394 143Q473 143 519 198T579 345Q591
414 578 462T531 536T440 562Q361 562 316 508T256 361ZM513 771L537 920H685L661 771H513ZM306 771L330 920H479L455 771H306Z" />
<glyph unicode="&#xd7;" horiz-adv-x="600" d="M149 52L68 136L232 287L95 436L181 521L318 370L482 521L563 436L399 286L536 136L450 52L313 202L149 52Z" />
<glyph unicode="&#xd8;" horiz-adv-x="804" d="M65 371Q82 481 135 558T270 675T456 716Q576 716 651 667T758 531T771 335Q754 225 701 148T566 30T378 -11Q260 -11 184 39T78 175T65 371ZM256 361Q245 292 257 243T304 169T394 143Q473 143 519 198T579 345Q591
414 578 462T531 536T440 562Q361 562 316 508T256 361ZM291 66L197 -61L88 13L183 140L253 214L523 567L561 641L656 768L764 694L669 567L599 493L329 140L291 66Z" />
<glyph unicode="&#xd9;" horiz-adv-x="751" d="M348 -11Q250 -11 182 23T83 127T70 307L134 705H318L254 296Q242 221 267 182T367 143Q433 143 469 181T518 299L582 705H764L698 292Q682 192 641 125T527 23T348 -11ZM399 765L240 941H415L521 765H399Z" />
<glyph unicode="&#xda;" horiz-adv-x="751" d="M348 -11Q250 -11 182 23T83 127T70 307L134 705H318L254 296Q242 221 267 182T367 143Q433 143 469 181T518 299L582 705H764L698 292Q682 192 641 125T527 23T348 -11ZM399 765L529 941H711L521 765H399Z" />
<glyph unicode="&#xdb;" horiz-adv-x="751" d="M348 -11Q250 -11 182 23T83 127T70 307L134 705H318L254 296Q242 221 267 182T367 143Q433 143 469 181T518 299L582 705H764L698 292Q682 192 641 125T527 23T348 -11ZM256 765L399 941H544L654 765H535L464 851L375
765H256Z" />
<glyph unicode="&#xdc;" horiz-adv-x="751" d="M348 -11Q250 -11 182 23T83 127T70 307L134 705H318L254 296Q242 221 267 182T367 143Q433 143 469 181T518 299L582 705H764L698 292Q682 192 641 125T527 23T348 -11ZM489 771L513 920H661L637 771H489ZM282 771L306
920H455L431 771H282Z" />
<glyph unicode="&#xdd;" horiz-adv-x="656" d="M196 0L250 337L269 235L30 705H235L369 422H333L558 705H770L380 227L434 337L381 0H196ZM349 765L479 941H661L471 765H349Z" />
<glyph unicode="&#xde;" horiz-adv-x="686" d="M25 0L137 705H322L304 597H448Q577 597 634 532T674 359Q665 300 631 254T539 181T397 155H234L210 0H25ZM257 296H394Q443 296 468 315T499 371Q505 412 485 433T415 455H282L257 296Z" />
<glyph unicode="&#xdf;" horiz-adv-x="721" d="M15 0L86 450Q110 598 192 672T428 746Q504 746 560 723T643 653T660 539Q655 506 637 474T579 412T471 358L475 390Q549 369 600 340T675 269T689 164Q680 105 647 66T563 8T453 -11Q384 -11 338 2T256 38L302 153Q337
135 373 124T445 112Q479 112 499 127T523 168Q527 194 511 216T453 260T332 300L353 431Q405 444 434 460T476 494T493 535Q500 574 478 596T410 619Q354 619 318 588T269 476L193 0H15Z" />
<glyph unicode="&#xe0;" horiz-adv-x="644" d="M230 -11Q161 -11 112 25T43 125T35 272Q55 396 126 457T296 519Q355 519 398 493T449 422L440 418L466 508H637Q628 474 621 439T607 370L548 0H372L386 91H403Q381 45 337 17T230 -11ZM295 121Q339 121 370 151T411
246Q423 323 400 355T329 387Q285 387 255 357T213 262Q201 186 224 154T295 121ZM308 557L165 762H331L422 557H308Z" />
<glyph unicode="&#xe1;" horiz-adv-x="644" d="M230 -11Q161 -11 112 25T43 125T35 272Q55 396 126 457T296 519Q355 519 398 493T449 422L440 418L466 508H637Q628 474 621 439T607 370L548 0H372L386 91H403Q381 45 337 17T230 -11ZM295 121Q339 121 370 151T411
246Q423 323 400 355T329 387Q285 387 255 357T213 262Q201 186 224 154T295 121ZM309 557L439 762H610L423 557H309Z" />
<glyph unicode="&#xe2;" horiz-adv-x="644" d="M230 -11Q161 -11 112 25T43 125T35 272Q55 396 126 457T296 519Q355 519 398 493T449 422L440 418L466 508H637Q628 474 621 439T607 370L548 0H372L386 91H403Q381 45 337 17T230 -11ZM295 121Q339 121 370 151T411
246Q423 323 400 355T329 387Q285 387 255 357T213 262Q201 186 224 154T295 121ZM173 557L305 762H453L544 557H437L371 670L281 557H173Z" />
<glyph unicode="&#xe3;" horiz-adv-x="644" d="M230 -11Q161 -11 112 25T43 125T35 272Q55 396 126 457T296 519Q355 519 398 493T449 422L440 418L466 508H637Q628 474 621 439T607 370L548 0H372L386 91H403Q381 45 337 17T230 -11ZM295 121Q339 121 370 151T411
246Q423 323 400 355T329 387Q285 387 255 357T213 262Q201 186 224 154T295 121ZM241 577L160 582Q169 662 208 704T305 747Q332 747 351 738T387 718Q401 708 416 701T449 694Q498 694 514 753L595 747Q585 668 547 625T450 582Q423 582 403 592T365 613Q350
622 336 629T305 636Q257 636 241 577Z" />
<glyph unicode="&#xe4;" horiz-adv-x="644" d="M230 -11Q161 -11 112 25T43 125T35 272Q55 396 126 457T296 519Q355 519 398 493T449 422L440 418L466 508H637Q628 474 621 439T607 370L548 0H372L386 91H403Q381 45 337 17T230 -11ZM295 121Q339 121 370 151T411
246Q423 323 400 355T329 387Q285 387 255 357T213 262Q201 186 224 154T295 121ZM399 582L422 732H571L548 582H399ZM193 582L216 732H364L342 582H193Z" />
<glyph unicode="&#xe5;" horiz-adv-x="644" d="M230 -11Q161 -11 112 25T43 125T35 272Q55 396 126 457T296 519Q355 519 398 493T449 422L440 418L466 508H637Q628 474 621 439T607 370L548 0H372L386 91H403Q381 45 337 17T230 -11ZM295 121Q339 121 370 151T411
246Q423 323 400 355T329 387Q285 387 255 357T213 262Q201 186 224 154T295 121ZM384 545Q347 545 316 562T267 609T249 675Q249 712 267 741T316 788T384 806Q423 806 453 789T501 742T519 675Q519 638 502 609T454 562T384 545ZM384 618Q409 618 425 634T441
675Q441 700 425 716T384 732Q360 732 344 716T328 675Q328 650 344 634T384 618Z" />
<glyph unicode="&#xe6;" horiz-adv-x="861" d="M207 -11Q132 -11 88 16T26 87T15 174Q23 220 55 249T151 293T314 308H364L352 224H291Q252 224 226 218T185 199T168 166Q163 141 178 124T231 106Q273 106 300 131T335 199L351 304Q358 347 336 367T270 388Q228
388 191 379T108 349L66 468Q96 483 134 494T214 512T291 519Q372 519 416 499T479 435H433Q474 481 521 500T624 519Q702 519 752 486T823 394T832 259L826 224H491L504 308H708L688 290Q697 347 679 374T619 402Q590 402 569 388T535 350T517 294L510 250Q501
188 530 155T634 121Q667 121 698 130T765 159L809 43Q767 15 716 2T608 -11Q521 -11 462 21T374 112H408Q379 54 328 22T207 -11Z" />
<glyph unicode="&#xe7;" horiz-adv-x="514" d="M289 -11Q197 -11 136 25T48 126T35 272Q55 395 138 457T345 519Q390 519 437 507T512 470L459 350Q438 367 408 376T349 385Q299 385 263 356T217 263Q207 203 233 164T320 124Q345 124 375 134T432 162L477 43Q448
19 397 4T289 -11ZM236 -198Q203 -198 173 -193T120 -175L151 -105Q168 -113 187 -117T224 -122Q251 -122 263 -117T275 -99Q275 -92 268 -88T241 -83Q233 -83 225 -84T205 -87L186 -66L212 20H296L272 -57L233 -40Q245 -35 257 -33T279 -31Q324 -31 348 -49T372
-100Q372 -145 333 -171T236 -198Z" />
<glyph unicode="&#xe8;" horiz-adv-x="552" d="M299 -11Q202 -11 139 25T50 126T36 275Q48 350 85 404T181 489T315 519Q393 519 443 486T515 394T523 259L518 224H177L190 308H400L380 290Q389 347 370 374T310 402Q280 402 259 388T225 350T207 294L200 250Q192
188 220 155T325 121Q359 121 390 130T456 159L501 43Q458 15 407 2T299 -11ZM281 557L138 762H304L395 557H281Z" />
<glyph unicode="&#xe9;" horiz-adv-x="552" d="M299 -11Q202 -11 139 25T50 126T36 275Q48 350 85 404T181 489T315 519Q393 519 443 486T515 394T523 259L518 224H177L190 308H400L380 290Q389 347 370 374T310 402Q280 402 259 388T225 350T207 294L200 250Q192
188 220 155T325 121Q359 121 390 130T456 159L501 43Q458 15 407 2T299 -11ZM282 557L412 762H583L396 557H282Z" />
<glyph unicode="&#xea;" horiz-adv-x="552" d="M299 -11Q202 -11 139 25T50 126T36 275Q48 350 85 404T181 489T315 519Q393 519 443 486T515 394T523 259L518 224H177L190 308H400L380 290Q389 347 370 374T310 402Q280 402 259 388T225 350T207 294L200 250Q192
188 220 155T325 121Q359 121 390 130T456 159L501 43Q458 15 407 2T299 -11ZM146 557L278 762H426L517 557H410L344 670L254 557H146Z" />
<glyph unicode="&#xeb;" horiz-adv-x="552" d="M299 -11Q202 -11 139 25T50 126T36 275Q48 350 85 404T181 489T315 519Q393 519 443 486T515 394T523 259L518 224H177L190 308H400L380 290Q389 347 370 374T310 402Q280 402 259 388T225 350T207 294L200 250Q192
188 220 155T325 121Q359 121 390 130T456 159L501 43Q458 15 407 2T299 -11ZM372 582L395 732H544L521 582H372ZM166 582L189 732H337L315 582H166Z" />
<glyph unicode="&#xec;" horiz-adv-x="288" d="M15 0L96 508H274L193 0H15ZM136 557L-7 762H159L250 557H136Z" />
<glyph unicode="&#xed;" horiz-adv-x="288" d="M15 0L96 508H274L193 0H15ZM136 557L266 762H437L250 557H136Z" />
<glyph unicode="&#xee;" horiz-adv-x="288" d="M15 0L96 508H274L193 0H15ZM0 557L132 762H280L371 557H264L198 670L108 557H0Z" />
<glyph unicode="&#xef;" horiz-adv-x="288" d="M15 0L96 508H274L193 0H15ZM226 582L249 732H398L375 582H226ZM20 582L43 732H191L169 582H20Z" />
<glyph unicode="&#xf0;" horiz-adv-x="626" d="M280 -11Q194 -11 134 21T46 109T30 240Q40 305 79 351T176 423T305 448Q370 448 415 422T475 334H441Q450 396 429 453T360 555H395L177 462L147 531L317 604L314 589Q286 606 253 618T184 638L229 747Q309 740
370 716T475 656L445 659L579 716L610 647L502 601L507 624Q551 578 574 520T602 401T598 279Q576 136 491 63T280 -11ZM293 122Q336 122 365 148T402 217Q410 264 389 291T319 318Q273 318 244 293T207 224Q200 175 222 149T293 122Z" />
<glyph unicode="&#xf1;" horiz-adv-x="623" d="M15 0L74 370Q79 404 82 439T88 508H259L256 420L244 419Q274 469 322 494T428 519Q518 519 557 464T578 295L531 0H353L400 296Q407 343 392 363T344 383Q301 383 274 356T239 285L193 0H15ZM237 577L156 582Q165
662 204 704T301 747Q328 747 347 738T383 718Q397 708 412 701T445 694Q494 694 510 753L591 747Q581 668 543 625T446 582Q419 582 399 592T361 613Q346 622 332 629T301 636Q253 636 237 577Z" />
<glyph unicode="&#xf2;" horiz-adv-x="617" d="M282 -11Q192 -11 132 23T47 121T35 272Q48 354 90 409T195 491T337 519Q428 519 487 485T571 387T582 236Q569 154 528 99T423 17T282 -11ZM292 121Q334 121 364 151T405 246Q417 323 394 355T326 387Q283 387 254
357T213 262Q201 186 223 154T292 121ZM300 557L157 762H323L414 557H300Z" />
<glyph unicode="&#xf3;" horiz-adv-x="617" d="M282 -11Q192 -11 132 23T47 121T35 272Q48 354 90 409T195 491T337 519Q428 519 487 485T571 387T582 236Q569 154 528 99T423 17T282 -11ZM292 121Q334 121 364 151T405 246Q417 323 394 355T326 387Q283 387 254
357T213 262Q201 186 223 154T292 121ZM301 557L431 762H602L415 557H301Z" />
<glyph unicode="&#xf4;" horiz-adv-x="617" d="M282 -11Q192 -11 132 23T47 121T35 272Q48 354 90 409T195 491T337 519Q428 519 487 485T571 387T582 236Q569 154 528 99T423 17T282 -11ZM292 121Q334 121 364 151T405 246Q417 323 394 355T326 387Q283 387 254
357T213 262Q201 186 223 154T292 121ZM165 557L297 762H445L536 557H429L363 670L273 557H165Z" />
<glyph unicode="&#xf5;" horiz-adv-x="617" d="M282 -11Q192 -11 132 23T47 121T35 272Q48 354 90 409T195 491T337 519Q428 519 487 485T571 387T582 236Q569 154 528 99T423 17T282 -11ZM292 121Q334 121 364 151T405 246Q417 323 394 355T326 387Q283 387 254
357T213 262Q201 186 223 154T292 121ZM233 577L152 582Q161 662 200 704T297 747Q324 747 343 738T379 718Q393 708 408 701T441 694Q490 694 506 753L587 747Q577 668 539 625T442 582Q415 582 395 592T357 613Q342 622 328 629T297 636Q249 636 233 577Z" />
<glyph unicode="&#xf6;" horiz-adv-x="617" d="M282 -11Q192 -11 132 23T47 121T35 272Q48 354 90 409T195 491T337 519Q428 519 487 485T571 387T582 236Q569 154 528 99T423 17T282 -11ZM292 121Q334 121 364 151T405 246Q417 323 394 355T326 387Q283 387 254
357T213 262Q201 186 223 154T292 121ZM391 582L414 732H563L540 582H391ZM185 582L208 732H356L334 582H185Z" />
<glyph unicode="&#xf7;" horiz-adv-x="600" d="M51 228L70 346H559L540 228H51ZM196 29L216 155H342L322 29H196ZM258 419L277 545H403L383 419H258Z" />
<glyph unicode="&#xf8;" horiz-adv-x="617" d="M282 -11Q192 -11 132 23T47 121T35 272Q48 354 90 409T195 491T337 519Q428 519 487 485T571 387T582 236Q569 154 528 99T423 17T282 -11ZM292 121Q345 121 378 152T422 248Q433 318 407 352T327 387Q272 387 239
357T196 261Q186 195 208 158T292 121ZM137 -53L64 -2L483 559L556 509L137 -53Z" />
<glyph unicode="&#xf9;" horiz-adv-x="618" d="M209 -11Q113 -11 71 45T45 207L93 508H271L223 206Q216 165 231 145T282 125Q323 125 348 152T380 225L425 508H603L522 0H349L363 91H378Q349 42 307 16T209 -11ZM299 557L156 762H322L413 557H299Z" />
<glyph unicode="&#xfa;" horiz-adv-x="618" d="M209 -11Q113 -11 71 45T45 207L93 508H271L223 206Q216 165 231 145T282 125Q323 125 348 152T380 225L425 508H603L522 0H349L363 91H378Q349 42 307 16T209 -11ZM300 557L430 762H601L414 557H300Z" />
<glyph unicode="&#xfb;" horiz-adv-x="618" d="M209 -11Q113 -11 71 45T45 207L93 508H271L223 206Q216 165 231 145T282 125Q323 125 348 152T380 225L425 508H603L522 0H349L363 91H378Q349 42 307 16T209 -11ZM164 557L296 762H444L535 557H428L362 670L272 557H164Z" />
<glyph unicode="&#xfc;" horiz-adv-x="618" d="M209 -11Q113 -11 71 45T45 207L93 508H271L223 206Q216 165 231 145T282 125Q323 125 348 152T380 225L425 508H603L522 0H349L363 91H378Q349 42 307 16T209 -11ZM390 582L413 732H562L539 582H390ZM184 582L207
732H355L333 582H184Z" />
<glyph unicode="&#xfd;" horiz-adv-x="558" d="M-19 -227L-46 -89Q4 -80 38 -70T95 -41T137 6L171 64L162 -3L22 508H203L280 171H246L435 508H617L307 -11Q270 -72 233 -111T157 -173T75 -207T-19 -227ZM270 557L400 762H571L384 557H270Z" />
<glyph unicode="&#xfe;" horiz-adv-x="644" d="M-19 -216L132 736H310L260 422L242 418Q264 463 308 491T414 519Q484 519 532 484T602 384T609 236Q589 113 518 51T348 -11Q290 -11 247 15T195 86H207L159 -216H-19ZM315 121Q360 121 390 151T431 246Q443 323
420 355T350 387Q306 387 275 357T234 262Q222 186 246 154T315 121Z" />
<glyph unicode="&#xff;" horiz-adv-x="558" d="M-19 -227L-46 -89Q4 -80 38 -70T95 -41T137 6L171 64L162 -3L22 508H203L280 171H246L435 508H617L307 -11Q270 -72 233 -111T157 -173T75 -207T-19 -227ZM360 582L383 732H532L509 582H360ZM154 582L177 732H325L303
582H154Z" />
<glyph unicode="&#x2013;" horiz-adv-x="505" d="M-4 226L12 327H516L500 226H-4Z" />
<glyph unicode="&#x2014;" horiz-adv-x="1010" d="M-4 226L12 327H1021L1005 226H-4Z" />
<glyph unicode="&#x2018;" horiz-adv-x="272" d="M62 377L83 506Q90 548 103 582T142 648T211 713L269 651Q228 616 209 587T180 516L148 559H276L247 377H62Z" />
<glyph unicode="&#x2019;" horiz-adv-x="272" d="M152 368L94 431Q135 466 154 495T182 566L215 523H86L115 705H300L280 576Q273 535 260 500T221 434T152 368Z" />
<glyph unicode="&#x201a;" horiz-adv-x="272" d="M69 -155L11 -92Q52 -57 71 -28T99 43L132 0H3L32 182H217L196 53Q190 12 177 -23T138 -89T69 -155Z" />
<glyph unicode="&#x201c;" horiz-adv-x="508" d="M62 377L83 506Q90 548 103 582T142 648T211 713L269 651Q228 616 209 587T180 516L148 559H276L247 377H62ZM299 377L320 506Q327 548 340 582T379 648T448 713L506 651Q465 616 446 587T417 516L385 559H513L484
377H299Z" />
<glyph unicode="&#x201d;" horiz-adv-x="508" d="M152 368L94 431Q135 466 154 495T182 566L215 523H86L115 705H300L280 576Q273 535 260 500T221 434T152 368ZM389 368L331 431Q372 466 391 495T419 566L452 523H323L352 705H537L517 576Q510 535 497 500T458
434T389 368Z" />
<glyph unicode="&#x201e;" horiz-adv-x="508" d="M69 -155L11 -92Q52 -57 71 -28T99 43L132 0H3L32 182H217L196 53Q190 12 177 -23T138 -89T69 -155ZM306 -155L248 -92Q289 -57 308 -28T336 43L369 0H240L269 182H454L433 53Q427 12 414 -23T375 -89T306 -155Z" />
<glyph unicode="&#x2022;" horiz-adv-x="529" d="M268 89Q219 89 178 112T111 176T86 268Q86 314 109 354T174 420T268 446Q317 446 358 423T424 360T450 268Q450 219 426 178T360 113T268 89Z" />
<glyph unicode="&#x2039;" horiz-adv-x="323" d="M125 84L22 267L182 452H334L170 259L264 84H125Z" />
<glyph unicode="&#x203a;" horiz-adv-x="323" d="M148 84H-3L160 278L66 452H206L308 269L148 84Z" />
</font>
</defs>
</svg>
