<?xml version="1.0" standalone="no"?>
<!DOCTYPE svg PUBLIC "-//W3C//DTD SVG 1.1//EN" "http://www.w3.org/Graphics/SVG/1.1/DTD/svg11.dtd">
<svg xmlns="http://www.w3.org/2000/svg">
<defs >
<font id="Mulish" horiz-adv-x="581" ><font-face
    font-family="Mulish ExtraLight"
    units-per-em="1000"
    panose-1="0 0 0 0 0 0 0 0 0 0"
    ascent="1005"
    descent="-250"
    alphabetic="0" />
<glyph unicode=" " horiz-adv-x="261" />
<glyph unicode="!" horiz-adv-x="228" d="M89 184L64 705H164L139 184H89ZM63 0V102H165V0H63Z" />
<glyph unicode="&quot;" horiz-adv-x="392" d="M84 428L63 705H158L139 428H84ZM255 428L234 705H329L310 428H255Z" />
<glyph unicode="#" horiz-adv-x="600" d="M86 0L123 182H30V241H133L181 472H51V531H192L227 705H291L256 531H414L449 705H513L478 531H570V472H466L419 241H550V182H408L371 0H306L343 182H186L151 0H86ZM198 241H355L402 472H244L198 241Z" />
<glyph unicode="$" horiz-adv-x="600" d="M276 -115V12L294 -5Q222 -4 158 16T46 79L76 145Q124 106 177 87T301 68Q387 68 429 101T471 188Q471 231 441 256T340 297L240 318Q149 338 105 383T61 504Q61 562 89 607T169 679T288 709L276 695V820H344V695L331
709Q384 707 439 686T532 623L504 559Q464 600 415 618T306 637Q230 637 185 601T140 506Q140 460 168 432T261 391L361 369Q458 349 505 307T552 192Q552 135 523 93T444 26T328 -4L344 13V-115H276Z" />
<glyph unicode="%" horiz-adv-x="937" d="M296 0H223L642 705H715L296 0ZM225 282Q144 282 98 339T51 498Q51 600 98 656T225 713Q306 713 352 657T399 498Q399 397 353 340T225 282ZM225 340Q274 340 301 379T329 498Q329 578 302 617T225 656Q177 656 150 617T122
498Q122 418 149 379T225 340ZM713 -9Q631 -9 585 48T538 208Q538 310 585 366T713 422Q794 422 840 366T887 208Q887 106 841 49T713 -9ZM713 49Q761 49 788 88T816 208Q816 287 789 326T713 365Q664 365 637 326T610 208Q610 127 637 88T713 49Z" />
<glyph unicode="&amp;" horiz-adv-x="671" d="M652 -9Q606 12 566 42T498 102L518 101Q475 49 414 20T281 -9Q209 -9 158 13T79 76T51 169Q51 238 91 286T205 382L238 403L226 388Q179 438 158 477T136 559Q136 605 158 640T219 694T313 714Q381 714 426 676T472
571Q472 535 458 504T409 442T317 375L319 394L513 184H495Q521 225 535 285T552 413H623Q621 330 600 259T544 132L542 156Q568 128 605 100T685 51L652 -9ZM284 57Q344 57 390 81T472 151L470 128L253 360L284 359L253 340Q211 312 184 287T144 235T131 174Q131
119 170 88T284 57ZM313 653Q268 653 240 628T212 560Q212 538 219 519T245 478T293 421L271 418Q340 460 371 493T403 567Q403 606 379 629T313 653Z" />
<glyph unicode="&apos;" horiz-adv-x="221" d="M84 428L63 705H158L139 428H84Z" />
<glyph unicode="(" horiz-adv-x="318" d="M223 -180Q182 -105 155 -34T116 111T103 263Q103 342 115 415T155 559T223 705H291Q240 593 214 484T187 263Q187 153 213 43T291 -180H223Z" />
<glyph unicode=")" horiz-adv-x="318" d="M94 -180H27Q78 -68 104 42T131 262Q131 373 105 483T27 705H94Q137 631 163 560T202 415T215 262Q215 184 203 111T164 -34T94 -180Z" />
<glyph unicode="*" horiz-adv-x="454" d="M137 364L87 400L185 527L31 572L51 631L201 577L195 736H258L253 576L404 631L423 572L270 527L368 400L317 364L228 497L137 364Z" />
<glyph unicode="+" horiz-adv-x="600" d="M268 38V256H53V318H268V531H332V318H547V256H332V38H268Z" />
<glyph unicode="," horiz-adv-x="228" d="M105 -114L67 -85Q94 -57 102 -33T111 17L129 0H63V102H165V30Q165 -10 152 -45T105 -114Z" />
<glyph unicode="-" horiz-adv-x="428" d="M72 241V308H357V241H72Z" />
<glyph unicode="." horiz-adv-x="228" d="M63 0V102H165V0H63Z" />
<glyph unicode="/" horiz-adv-x="286" d="M47 -55H-23L239 748H309L47 -55Z" />
<glyph unicode="0" horiz-adv-x="600" d="M300 -9Q180 -9 116 84T52 353Q52 530 116 622T300 714Q421 714 484 622T548 354Q548 177 484 84T300 -9ZM300 63Q384 63 425 134T466 354Q466 504 425 573T300 643Q217 643 176 573T134 354Q134 205 175 134T300 63Z" />
<glyph unicode="1" horiz-adv-x="600" d="M127 0V71H293V634H337L143 513V596L316 705H376V71H532V0H127Z" />
<glyph unicode="2" horiz-adv-x="600" d="M86 0V62L336 323Q385 374 409 420T434 517Q434 578 396 609T286 641Q230 641 183 622T91 560L61 625Q101 665 163 689T294 714Q401 714 459 665T517 524Q517 457 485 397T390 272L169 48V71H547V0H86Z" />
<glyph unicode="3" horiz-adv-x="600" d="M296 -9Q225 -9 160 13T51 76L82 140Q131 100 183 82T295 64Q374 64 415 97T456 196Q456 258 414 290T291 323H185V392H284Q354 392 395 428T436 526Q436 582 399 611T291 641Q177 641 94 560L63 625Q104 667 166 690T296
714Q400 714 459 666T518 533Q518 468 481 422T381 358V369Q456 357 497 310T538 190Q538 98 474 45T296 -9Z" />
<glyph unicode="4" horiz-adv-x="600" d="M386 0V153H50V213L399 705H467V220H575V153H467V0H386ZM386 220V607H408L118 199V220H386Z" />
<glyph unicode="5" horiz-adv-x="600" d="M313 -9Q267 -9 223 1T141 30T73 76L104 140Q153 101 204 83T313 64Q389 64 432 105T475 213Q475 282 434 326T320 370Q268 370 227 350T156 286H96V705H514V635H176V354H154Q181 396 228 418T336 441Q404 441 453 413T530
335T557 218Q557 151 528 100T444 20T313 -9Z" />
<glyph unicode="6" horiz-adv-x="600" d="M323 -9Q195 -9 126 81T56 335Q56 457 91 541T191 670T348 714Q403 714 459 692T551 629L521 565Q483 604 438 622T347 641Q245 641 191 569T136 351V258H127Q134 315 161 356T234 420T334 442Q398 442 447 414T524 336T552
220Q552 154 523 102T442 21T323 -9ZM317 61Q363 61 398 80T453 135T473 217Q473 263 454 298T399 353T317 373Q271 373 236 353T182 298T162 217Q162 171 181 136T236 81T317 61Z" />
<glyph unicode="7" horiz-adv-x="600" d="M113 0L460 670V634H66V705H535V643L204 0H113Z" />
<glyph unicode="8" horiz-adv-x="600" d="M300 -9Q179 -9 113 42T47 187Q47 260 92 308T211 367V352Q144 366 104 413T64 526Q64 615 127 664T300 714Q411 714 474 665T537 526Q537 461 500 413T395 353V367Q468 357 511 309T554 187Q554 94 488 43T300 -9ZM300
59Q388 59 431 92T475 192Q475 258 432 290T300 323Q212 323 169 291T125 192Q125 125 169 92T300 59ZM300 391Q376 391 416 425T457 519Q457 579 417 612T300 646Q224 646 184 613T143 519Q143 459 183 425T300 391Z" />
<glyph unicode="9" horiz-adv-x="600" d="M253 -9Q198 -9 142 14T49 76L80 141Q118 102 163 83T254 64Q355 64 409 136T464 354V447H474Q468 391 440 349T367 285T267 263Q203 263 154 291T76 370T48 485Q48 552 77 603T158 684T277 714Q406 714 475 624T545 370Q545
249 510 164T410 35T253 -9ZM284 332Q330 332 365 352T419 407T439 488Q439 535 420 570T365 625T284 645Q238 645 203 625T148 570T128 488Q128 442 147 407T202 352T284 332Z" />
<glyph unicode=":" horiz-adv-x="228" d="M63 400V502H165V400H63ZM63 0V102H165V0H63Z" />
<glyph unicode=";" horiz-adv-x="228" d="M105 -114L67 -85Q94 -57 102 -33T111 17L137 0H63V102H165V30Q165 -10 152 -45T105 -114ZM63 400V502H165V400H63Z" />
<glyph unicode="&lt;" horiz-adv-x="600" d="M547 34L53 255V319L547 540V471L86 267V307L547 104V34Z" />
<glyph unicode="=" horiz-adv-x="600" d="M53 356V418H547V356H53ZM53 157V218H547V157H53Z" />
<glyph unicode="&gt;" horiz-adv-x="600" d="M54 34V104L514 307V267L54 471V540L547 319V255L54 34Z" />
<glyph unicode="?" horiz-adv-x="448" d="M172 184V213Q172 264 191 308T261 409Q300 452 316 484T332 551Q332 594 301 618T215 643Q176 643 140 633T71 604V679Q104 696 143 705T223 714Q280 714 323 696T390 643T415 558Q415 526 405 497T374 438T320 373Q271
323 251 286T227 209L224 184H172ZM146 0V102H249V0H146Z" />
<glyph unicode="@" horiz-adv-x="969" d="M496 -163Q398 -163 318 -133T181 -45T93 92T62 272Q62 371 94 452T186 591T328 682T509 714Q629 714 718 668T858 539T908 343Q908 257 883 193T814 94T710 59Q650 59 619 93T593 187L611 182Q585 122 539 91T439 59Q360
59 317 107T273 241Q273 315 301 372T380 462T494 495Q551 495 586 468T633 392H621L638 486H704L658 227Q656 214 655 202T653 180Q653 147 668 130T715 113Q755 113 785 142T832 222T849 343Q849 439 807 509T689 618T509 657Q394 657 308 609T174 475T126 272Q126
154 171 69T299 -61T496 -107Q579 -107 647 -82T759 -9L792 -58Q743 -109 666 -136T496 -163ZM448 117Q494 117 530 143T586 217T607 324Q607 381 582 409T503 437Q457 437 421 412T363 343T342 241Q342 181 369 149T448 117Z" />
<glyph unicode="A" horiz-adv-x="735" d="M18 0L329 705H401L717 0H631L543 201L580 180H149L189 201L103 0H18ZM364 610L202 230L178 248H550L532 230L366 610H364Z" />
<glyph unicode="B" horiz-adv-x="680" d="M88 0V705H370Q482 705 543 657T604 521Q604 455 565 411T455 353V367Q533 358 577 314T622 194Q622 100 560 50T383 0H88ZM169 67H375Q451 67 495 96T540 195Q540 265 496 294T375 324H169V67ZM169 390H358Q440 390 481
422T522 514Q522 576 481 607T358 639H169V390Z" />
<glyph unicode="C" horiz-adv-x="684" d="M395 -9Q289 -9 215 35T102 160T62 353Q62 465 101 545T215 670T395 714Q470 714 529 691T632 624L601 558Q553 600 506 619T396 639Q275 639 212 564T149 353Q149 217 212 142T396 66Q459 66 506 85T601 148L632 81Q588
38 529 15T395 -9Z" />
<glyph unicode="D" horiz-adv-x="747" d="M88 0V705H322Q439 705 520 665T643 546T685 353Q685 240 643 161T520 41T322 0H88ZM171 71H316Q460 71 530 141T600 353Q600 495 530 565T316 635H171V71Z" />
<glyph unicode="E" horiz-adv-x="588" d="M88 0V705H538V637H169V392H516V323H169V69H538V0H88Z" />
<glyph unicode="F" horiz-adv-x="562" d="M88 0V705H528V637H171V390H506V322H171V0H88Z" />
<glyph unicode="G" horiz-adv-x="731" d="M412 -9Q296 -9 218 34T101 158T62 352Q62 464 103 545T221 670T407 714Q484 714 540 692T642 625L611 560Q578 589 548 606T484 631T407 640Q282 640 216 565T149 351Q149 212 213 138T414 64Q464 64 509 73T598 101L580
56V304H400V369H651V42Q608 19 543 5T412 -9Z" />
<glyph unicode="H" horiz-adv-x="766" d="M88 0V705H171V393H596V705H678V0H596V322H171V0H88Z" />
<glyph unicode="I" horiz-adv-x="259" d="M88 0V705H171V0H88Z" />
<glyph unicode="J" horiz-adv-x="329" d="M79 -186Q63 -186 43 -185T1 -178V-109Q20 -113 36 -115T66 -118Q112 -118 135 -90T158 1V705H241V0Q241 -60 224 -102T171 -165T79 -186Z" />
<glyph unicode="K" horiz-adv-x="634" d="M88 0V705H171V385H173L511 705H617L228 341L229 383L645 0H536L173 332H171V0H88Z" />
<glyph unicode="L" horiz-adv-x="545" d="M88 0V705H171V72H527V0H88Z" />
<glyph unicode="M" horiz-adv-x="858" d="M89 0V705H161L444 66H415L698 705H770V0H694V598H724L457 0H402L134 598H164V0H89Z" />
<glyph unicode="N" horiz-adv-x="747" d="M88 0V705H153L605 105H582V705H659V0H595L143 600H165V0H88Z" />
<glyph unicode="O" horiz-adv-x="772" d="M62 353Q62 465 100 545T211 670T386 714Q485 714 558 670T670 546T710 354Q710 242 670 161T558 36T386 -9Q284 -9 212 35T101 161T62 353ZM149 353Q149 217 209 141T386 64Q498 64 560 140T623 353Q623 490 561 565T386
641Q269 641 209 566T149 353Z" />
<glyph unicode="P" horiz-adv-x="651" d="M88 0V705H375Q486 705 546 652T606 503Q606 410 546 356T375 301H171V0H88ZM171 370H367Q444 370 483 405T523 503Q523 567 484 602T367 637H171V370Z" />
<glyph unicode="Q" horiz-adv-x="772" d="M576 -191Q547 -172 516 -142T458 -75T410 -1L483 26Q509 -26 550 -68T633 -142L576 -191ZM62 353Q62 465 100 545T211 670T386 714Q485 714 558 670T670 546T710 354Q710 242 670 161T558 36T386 -9Q284 -9 212 35T101
161T62 353ZM149 353Q149 217 209 141T386 64Q498 64 560 140T623 353Q623 490 561 565T386 641Q269 641 209 566T149 353Z" />
<glyph unicode="R" horiz-adv-x="692" d="M88 0V705H376Q487 705 548 653T609 506Q609 444 582 401T505 334T389 311L407 324H427Q468 324 500 304T552 237L652 0H561L465 233Q448 278 414 291T329 305H171V0H88ZM171 370H364Q444 370 485 404T527 504Q527 569
486 603T364 637H171V370Z" />
<glyph unicode="S" horiz-adv-x="623" d="M318 -9Q233 -9 166 13T49 76L79 142Q114 116 149 99T226 73T318 64Q407 64 450 97T493 185Q493 232 463 257T358 297L253 318Q156 338 109 383T61 505Q61 568 93 615T185 688T322 714Q397 714 459 692T565 626L536 562Q489
604 438 622T321 641Q239 641 192 606T144 509Q144 460 174 433T273 391L379 370Q481 349 529 307T577 189Q577 131 546 86T456 16T318 -9Z" />
<glyph unicode="T" horiz-adv-x="604" d="M259 0V635H10V705H590V635H342V0H259Z" />
<glyph unicode="U" horiz-adv-x="730" d="M366 -9Q223 -9 154 64T84 279V705H166V283Q166 174 214 119T366 64Q464 64 515 119T566 283V705H648V279Q648 137 577 64T366 -9Z" />
<glyph unicode="V" horiz-adv-x="698" d="M310 0L3 705H92L365 66H334L609 705H695L386 0H310Z" />
<glyph unicode="W" horiz-adv-x="1112" d="M280 0L34 705H121L336 70H301L527 705H593L807 70H775L996 705H1078L830 0H756L548 611H569L352 0H280Z" />
<glyph unicode="X" horiz-adv-x="652" d="M9 0L290 376V345L22 705H120L340 404H314L532 705H631L362 345V376L643 0H545L310 319H342L107 0H9Z" />
<glyph unicode="Y" horiz-adv-x="607" d="M262 0V329L280 273L-12 705H84L316 354H295L526 705H618L327 273L345 329V0H262Z" />
<glyph unicode="Z" horiz-adv-x="596" d="M43 0V61L470 666V634H43V705H549V644L121 40V71H560V0H43Z" />
<glyph unicode="[" horiz-adv-x="317" d="M106 -180V705H309V641H186V-116H309V-180H106Z" />
<glyph unicode="\" horiz-adv-x="286" d="M239 -55L-23 748H47L309 -55H239Z" />
<glyph unicode="]" horiz-adv-x="317" d="M9 -180V-116H130V641H9V705H210V-180H9Z" />
<glyph unicode="^" horiz-adv-x="600" d="M46 142L268 628H331L554 142H487L279 595H319L113 142H46Z" />
<glyph unicode="_" horiz-adv-x="505" d="M8 -53V0H497V-53H8Z" />
<glyph unicode="`" horiz-adv-x="500" d="M221 551L89 753H176L279 551H221Z" />
<glyph unicode="a" horiz-adv-x="600" d="M270 -9Q203 -9 153 22T76 112T48 251Q48 333 75 391T153 480T270 511Q338 511 387 477T453 383H441L452 502H530Q527 473 525 444T522 386V0H441V118H452Q436 59 386 25T270 -9ZM286 57Q358 57 400 106T442 251Q442 347
400 396T286 446Q215 446 173 397T130 251Q130 156 172 107T286 57Z" />
<glyph unicode="b" horiz-adv-x="600" d="M331 -9Q263 -9 214 25T148 120H159V0H79V736H160V385H148Q165 443 214 477T331 511Q399 511 448 480T525 390T553 251Q553 170 525 112T448 23T331 -9ZM314 57Q385 57 428 106T471 251Q471 347 428 396T314 446Q243 446
201 397T158 251Q158 156 200 107T314 57Z" />
<glyph unicode="c" horiz-adv-x="495" d="M290 -9Q216 -9 162 23T78 114T48 254Q48 336 78 393T162 481T290 511Q338 511 383 494T459 446L430 388Q400 417 365 431T295 445Q217 445 174 396T131 253Q131 160 174 109T295 58Q328 58 363 71T430 114L459 57Q428
25 382 8T290 -9Z" />
<glyph unicode="d" horiz-adv-x="600" d="M269 -9Q203 -9 153 22T76 112T48 251Q48 333 75 391T153 480T269 511Q337 511 386 477T453 385H441V736H522V0H442V120H453Q437 60 387 26T269 -9ZM286 57Q357 57 400 106T443 251Q443 347 400 396T286 446Q215 446 173
397T130 251Q130 156 172 107T286 57Z" />
<glyph unicode="e" horiz-adv-x="544" d="M302 -9Q184 -9 116 59T48 250Q48 329 78 387T162 478T286 511Q355 511 402 482T474 400T499 273V243H110V294H446L429 281Q429 361 393 406T286 451Q211 451 169 399T127 257V248Q127 154 173 106T304 57Q349 57 388
70T464 115L492 58Q459 26 409 9T302 -9Z" />
<glyph unicode="f" horiz-adv-x="338" d="M105 0V439H7V502H127L105 481V565Q105 650 148 695T271 740Q291 740 312 737T348 727V660Q336 665 319 668T283 672Q252 672 230 660T197 622T186 558V485L173 502H326V439H186V0H105Z" />
<glyph unicode="g" horiz-adv-x="603" d="M300 -223Q235 -223 180 -207T81 -158L105 -97Q136 -119 166 -132T228 -151T296 -158Q370 -158 408 -119T446 -8V139H456Q440 80 390 46T273 11Q204 11 154 41T76 128T48 262Q48 338 75 394T153 480T273 511Q341 511 390
477T456 383L446 393L455 502H534Q530 473 528 444T526 386V3Q526 -109 469 -166T300 -223ZM288 77Q361 77 403 125T445 262Q445 350 403 398T288 446Q216 446 173 398T130 262Q130 174 173 126T288 77Z" />
<glyph unicode="h" horiz-adv-x="586" d="M79 0V736H160V391H147Q168 450 217 480T332 511Q422 511 466 463T510 316V0H429V311Q429 381 402 413T313 445Q243 445 202 402T160 289V0H79Z" />
<glyph unicode="i" horiz-adv-x="238" d="M79 0V502H160V0H79ZM69 616V707H169V616H69Z" />
<glyph unicode="j" horiz-adv-x="238" d="M13 -220Q-1 -220 -22 -217T-57 -208V-140Q-45 -144 -29 -147T1 -151Q43 -151 63 -125T84 -38V502H165V-46Q165 -132 128 -176T13 -220ZM75 616V707H174V616H75Z" />
<glyph unicode="k" horiz-adv-x="515" d="M79 0V736H160V279H162L395 502H497L222 240L224 281L523 0H418L162 236H160V0H79Z" />
<glyph unicode="l" horiz-adv-x="238" d="M79 0V736H160V0H79Z" />
<glyph unicode="m" horiz-adv-x="878" d="M79 0V386Q79 414 77 443T71 502H149L159 392H147Q167 449 210 480T316 511Q379 511 418 481T472 388H457Q476 445 524 478T636 511Q719 511 761 464T803 314V0H722V309Q722 380 697 412T617 445Q554 445 518 402T481
285V0H400V309Q400 380 375 412T295 445Q232 445 196 402T160 285V0H79Z" />
<glyph unicode="n" horiz-adv-x="586" d="M79 0V386Q79 414 77 443T71 502H149L159 392H147Q169 450 217 480T330 511Q419 511 464 464T510 314V0H429V309Q429 380 401 412T312 445Q242 445 201 402T160 287V0H79Z" />
<glyph unicode="o" horiz-adv-x="571" d="M285 -9Q213 -9 160 22T77 112T48 251Q48 332 77 390T159 479T285 511Q358 511 411 480T494 390T524 251Q524 171 495 113T412 23T285 -9ZM285 57Q357 57 399 106T441 251Q441 347 399 396T285 446Q214 446 172 397T130
251Q130 156 172 107T285 57Z" />
<glyph unicode="p" horiz-adv-x="600" d="M79 -216V386Q79 414 77 443T71 502H149L160 383H148Q164 442 213 476T330 511Q398 511 447 480T525 391T553 251Q553 170 526 112T448 23T330 -9Q263 -9 214 25T149 118H160V-216H79ZM314 57Q386 57 428 106T471 251Q471
347 429 396T314 446Q243 446 201 397T158 251Q158 156 200 107T314 57Z" />
<glyph unicode="q" horiz-adv-x="600" d="M441 -216V118H452Q436 59 386 25T270 -9Q203 -9 153 22T76 112T48 251Q48 333 75 391T153 480T270 511Q338 511 387 477T453 383H441L452 502H530Q527 473 525 444T522 386V-216H441ZM286 57Q358 57 400 106T442 251Q442
347 400 396T286 446Q215 446 173 397T130 251Q130 156 172 107T286 57Z" />
<glyph unicode="r" horiz-adv-x="363" d="M77 0V381Q77 411 76 442T71 502H149L159 380L145 379Q155 424 180 453T239 496T310 511Q325 511 336 510T358 505L357 433Q342 438 330 439T301 441Q257 441 225 420T176 366T159 296V0H77Z" />
<glyph unicode="s" horiz-adv-x="496" d="M246 -9Q186 -9 134 7T48 54L76 111Q113 82 156 68T247 54Q307 54 337 75T368 135Q368 164 349 181T285 209L192 228Q128 242 96 275T64 361Q64 405 87 438T154 491T257 511Q312 511 358 495T436 447L407 391Q377 420
339 434T259 449Q200 449 171 426T141 364Q141 335 159 317T217 289L310 270Q378 255 411 224T445 139Q445 94 420 61T351 9T246 -9Z" />
<glyph unicode="t" horiz-adv-x="350" d="M257 -9Q183 -9 144 33T105 162V439H7V502H105V639L186 662V502H330V439H186V171Q186 111 206 86T268 60Q287 60 302 63T329 72V4Q315 -2 296 -5T257 -9Z" />
<glyph unicode="u" horiz-adv-x="577" d="M256 -9Q167 -9 122 40T76 190V502H157V192Q157 123 185 91T272 58Q338 58 378 101T418 216V502H499V0H420V113H433Q412 55 366 23T256 -9Z" />
<glyph unicode="v" horiz-adv-x="531" d="M227 0L12 502H100L280 60H253L435 502H519L304 0H227Z" />
<glyph unicode="w" horiz-adv-x="869" d="M213 0L27 502H113L268 60H242L402 502H472L629 60H604L760 502H842L655 0H577L415 449H455L292 0H213Z" />
<glyph unicode="x" horiz-adv-x="535" d="M11 0L236 279V239L23 502H121L282 297H253L413 502H510L300 240V277L523 0H424L252 219H282L108 0H11Z" />
<glyph unicode="y" horiz-adv-x="531" d="M59 -227L40 -160Q87 -149 118 -135T171 -96T207 -36L233 23L231 -11L12 502H100L281 61H255L434 502H519L287 -42Q267 -90 243 -122T192 -175T131 -208T59 -227Z" />
<glyph unicode="z" horiz-adv-x="519" d="M50 0V54L388 460L389 439H50V502H464V448L122 40L121 63H475V0H50Z" />
<glyph unicode="{" horiz-adv-x="355" d="M249 -180Q200 -180 174 -154T148 -77V149Q148 191 132 209T75 230L46 232V294L75 296Q114 298 131 316T148 376V602Q148 653 174 679T249 705H347V641H273Q250 641 239 630T228 595V368Q228 338 216 313T182 275T134
261V265Q161 265 182 251T215 213T228 158V-70Q228 -93 239 -104T273 -116H347V-180H249Z" />
<glyph unicode="|" horiz-adv-x="264" d="M92 -186V711H173V-186H92Z" />
<glyph unicode="}" horiz-adv-x="355" d="M8 -180V-116H82Q105 -116 116 -105T127 -70V157Q127 188 139 212T173 250T220 264V260Q194 260 173 274T140 313T127 368V595Q127 618 116 629T82 641H8V705H106Q155 705 181 679T207 602V376Q207 335 223 317T280 296L309
294V231L280 229Q241 227 224 209T207 149V-77Q207 -127 181 -153T106 -180H8Z" />
<glyph unicode="~" horiz-adv-x="600" d="M417 217Q391 217 362 226T289 259Q248 282 227 289T188 297Q132 297 104 232L53 259Q73 307 106 332T183 358Q209 358 237 349T309 317Q348 297 370 287T412 277Q468 277 496 343L547 315Q527 267 494 242T417 217Z" />
<glyph unicode="&#xa0;" horiz-adv-x="261" />
<glyph unicode="&#xa1;" horiz-adv-x="228" d="M64 -180L89 319H139L164 -180H64ZM63 400V502H165V400H63Z" />
<glyph unicode="&#xa2;" horiz-adv-x="600" d="M282 -115V16L298 -6Q237 1 190 34T117 121T91 244Q91 310 116 363T188 450T298 490L282 464V606H350V467L333 492Q381 492 428 476T502 429L475 371Q447 398 411 412T335 426Q261 426 218 376T174 244Q174 161 217
111T334 61Q373 61 410 75T475 115L502 58Q473 28 427 11T331 -7L350 13V-115H282Z" />
<glyph unicode="&#xa3;" horiz-adv-x="600" d="M46 0V58Q94 77 121 104T148 175V326H46V381H148V510Q148 575 172 620T246 690T369 714Q428 714 480 694T570 635L537 572Q503 609 462 626T368 644Q299 644 265 611T231 513V381H416V326H231V199Q231 144 208 112T147
64V70H563V0H46Z" />
<glyph unicode="&#xa4;" horiz-adv-x="600" d="M78 -26L35 18L109 93Q86 125 73 164T59 245Q59 288 72 327T109 397L35 473L78 516L152 440Q182 465 220 479T300 493Q342 493 379 480T447 442L519 517L563 472L490 398Q514 366 527 327T541 245Q541 202 528 163T489
92L563 18L520 -25L447 49Q417 25 380 11T300 -3Q258 -3 220 11T151 49L78 -26ZM300 67Q346 67 384 91T444 155T466 245Q466 294 444 334T384 399T300 423Q254 423 216 399T155 335T132 245Q132 196 154 156T215 91T300 67Z" />
<glyph unicode="&#xa5;" horiz-adv-x="600" d="M259 0V178H72V232H259V331H72V385H233V374L-5 705H87L311 390H290L513 705H605L368 374V385H528V331H341V232H528V178H341V0H259Z" />
<glyph unicode="&#xa6;" horiz-adv-x="264" d="M92 372V711H173V372H92ZM92 -186V153H173V-186H92Z" />
<glyph unicode="&#xa7;" horiz-adv-x="542" d="M247 -189Q182 -189 129 -172T41 -125L69 -67Q90 -85 119 -98T182 -119T250 -127Q312 -127 350 -98T388 -15Q388 23 368 50T294 102L181 153Q126 179 94 204T49 260T35 326Q35 368 56 406T112 469L105 445Q93 460
85 481T77 534Q77 591 105 630T182 691T294 713Q355 713 406 697T490 651L462 594Q430 621 384 636T292 651Q232 651 195 622T157 539Q157 502 178 475T251 423L364 371Q419 346 451 320T496 265T510 198Q510 157 489 119T433 56L440 79Q452 65 460 43T468 -10Q468
-66 440 -106T363 -167T247 -189ZM110 338Q110 302 133 274T220 216L316 172Q354 154 379 136T419 99L395 98Q436 134 436 187Q436 223 412 251T326 308L229 353Q192 371 166 389T126 426L150 427Q131 410 121 387T110 338Z" />
<glyph unicode="&#xa8;" horiz-adv-x="500" d="M294 609V695H380V609H294ZM120 609V695H206V609H120Z" />
<glyph unicode="&#xa9;" horiz-adv-x="815" d="M408 -9Q332 -9 266 18T150 95T74 210T46 353Q46 430 73 495T150 610T265 686T408 714Q485 714 551 687T665 610T741 496T769 353Q769 277 742 211T665 95T551 19T408 -9ZM421 137Q324 137 269 197T213 355Q213 454
268 511T421 568Q461 568 500 554T564 515L540 463Q514 487 484 498T424 509Q359 509 322 469T285 354Q285 282 322 240T424 197Q454 197 484 208T540 243L564 190Q539 166 500 152T421 137ZM408 35Q475 35 532 59T632 126T699 227T723 353Q723 421 699 478T633
579T533 646T408 670Q340 670 283 646T183 579T116 479T92 353Q92 285 116 228T182 127T283 59T408 35Z" />
<glyph unicode="&#xaa;" horiz-adv-x="326" d="M133 411Q86 411 55 437T24 501Q24 547 65 567T179 587H239V551H181Q130 551 106 539T81 502Q81 482 96 468T145 453Q183 453 207 477T231 546V603Q231 636 213 652T159 669Q132 669 104 662T53 640L37 682Q62 698
95 706T161 714Q287 714 287 601V416H233V470H231Q214 439 191 425T133 411Z" />
<glyph unicode="&#xab;" horiz-adv-x="445" d="M154 88L27 268L154 448H225L107 268L225 88H154ZM337 88L210 268L337 448H408L290 268L408 88H337Z" />
<glyph unicode="&#xac;" horiz-adv-x="600" d="M483 148V358H53V420H547V148H483Z" />
<glyph unicode="&#xad;" horiz-adv-x="428" d="M72 241V308H357V241H72Z" />
<glyph unicode="&#xae;" horiz-adv-x="815" d="M408 -9Q332 -9 266 18T150 95T74 210T46 353Q46 430 73 495T150 610T265 686T408 714Q485 714 551 687T665 610T741 496T769 353Q769 277 742 211T665 95T551 19T408 -9ZM408 35Q475 35 532 59T632 126T699 227T723
353Q723 421 699 478T633 579T533 646T408 670Q340 670 283 646T183 579T116 479T92 353Q92 285 116 228T182 127T283 59T408 35ZM264 142V564H435Q503 564 539 532T576 442Q576 384 540 354T437 323L449 333Q480 333 500 320T533 270L581 142H512L464 272Q455
297 437 305T392 314H317L330 324V142H264ZM330 368H427Q469 368 490 385T511 439Q511 476 491 493T427 510H330V368Z" />
<glyph unicode="&#xaf;" horiz-adv-x="500" d="M102 625V680H398V625H102Z" />
<glyph unicode="&#xb0;" horiz-adv-x="371" d="M186 418Q144 418 110 438T57 491T37 566Q37 608 56 641T110 694T186 714Q228 714 261 695T313 642T333 566Q333 524 314 491T261 438T186 418ZM186 473Q226 473 250 499T275 566Q275 607 251 633T186 659Q147 659
122 633T96 566Q96 526 121 500T186 473Z" />
<glyph unicode="&#xb1;" horiz-adv-x="600" d="M268 127V297H53V359H268V529H332V359H547V297H332V127H268ZM53 0V62H547V0H53Z" />
<glyph unicode="&#xb2;" horiz-adv-x="380" d="M52 282V332L196 478Q224 509 237 533T250 585Q250 650 176 650Q147 650 116 639T61 606L39 658Q66 681 104 695T188 709Q251 709 287 678T323 592Q323 558 307 525T254 456L130 331V341H342V282H52Z" />
<glyph unicode="&#xb3;" horiz-adv-x="380" d="M186 278Q139 278 99 291T32 328L53 378Q78 358 111 347T182 335Q220 335 244 351T268 404Q268 438 244 453T178 469H100V523H167Q209 523 232 540T256 591Q256 620 236 636T177 653Q146 653 114 641T58 607L35 659Q62
682 101 695T186 709Q250 709 287 680T324 600Q324 558 299 532T239 495V503Q282 497 309 470T336 398Q336 341 294 310T186 278Z" />
<glyph unicode="&#xb4;" horiz-adv-x="500" d="M221 551L324 753H411L279 551H221Z" />
<glyph unicode="&#xb5;" horiz-adv-x="570" d="M74 -208V502H155V188Q155 121 182 91T268 60Q333 60 373 101T414 213V502H495V0H416V112H424Q407 54 365 23T267 -9Q223 -9 189 7T137 67H148L155 -208H74Z" />
<glyph unicode="&#xb6;" horiz-adv-x="599" d="M249 -180V310Q187 310 141 335T70 405T45 508Q45 566 70 610T141 680T251 705H511V-180H446V643H314V-180H249Z" />
<glyph unicode="&#xb7;" horiz-adv-x="231" d="M64 223V325H167V223H64Z" />
<glyph unicode="&#xb8;" horiz-adv-x="500" d="M253 -192Q227 -192 204 -187T163 -173L177 -129Q195 -137 211 -141T250 -145Q277 -145 293 -136T309 -108Q309 -80 271 -80Q260 -80 250 -81T224 -89L207 -73L222 20H273L260 -55L236 -49Q247 -46 259 -44T281 -42Q317
-42 341 -60T365 -110Q365 -147 334 -169T253 -192Z" />
<glyph unicode="&#xb9;" horiz-adv-x="380" d="M82 282V341H179V646H210L90 574V642L195 705H247V341H333V282H82Z" />
<glyph unicode="&#xba;" horiz-adv-x="341" d="M171 411Q128 411 96 430T44 483T24 563Q24 609 43 643T95 695T171 714Q213 714 246 696T298 643T317 563Q317 517 298 483T247 430T171 411ZM171 457Q212 457 235 484T259 563Q259 614 236 641T171 668Q130 668
106 642T82 563Q82 511 106 484T171 457Z" />
<glyph unicode="&#xbb;" horiz-adv-x="445" d="M108 88H37L155 268L37 448H108L236 268L108 88ZM291 88H220L338 268L220 448H291L419 268L291 88Z" />
<glyph unicode="&#xbc;" horiz-adv-x="896" d="M82 282V341H179V646H210L90 574V642L195 705H247V341H333V282H82ZM294 -9H222L651 714H723L294 -9ZM750 0V85H549V135L757 423H814V140H878V85H814V0H750ZM751 140V348H761L600 125V140H751Z" />
<glyph unicode="&#xbd;" horiz-adv-x="940" d="M82 282V341H179V646H210L90 574V642L195 705H247V341H333V282H82ZM294 -9H222L651 714H723L294 -9ZM612 0V50L756 196Q784 227 797 251T810 303Q810 368 736 368Q707 368 676 357T621 324L599 376Q626 399 664 413T748
427Q811 427 847 396T883 310Q883 276 867 243T814 174L690 49V59H902V0H612Z" />
<glyph unicode="&#xbe;" horiz-adv-x="896" d="M186 278Q139 278 99 291T32 328L53 378Q78 358 111 347T182 335Q220 335 244 351T268 404Q268 438 244 453T178 469H100V523H167Q209 523 232 540T256 591Q256 620 236 636T177 653Q146 653 114 641T58 607L35 659Q62
682 101 695T186 709Q250 709 287 680T324 600Q324 558 299 532T239 495V503Q282 497 309 470T336 398Q336 341 294 310T186 278ZM294 -9H222L651 714H723L294 -9ZM750 0V85H549V135L757 423H814V140H878V85H814V0H750ZM751 140V348H761L600 125V140H751Z" />
<glyph unicode="&#xbf;" horiz-adv-x="448" d="M225 -209Q168 -209 125 -190T57 -136T32 -52Q32 -19 41 9T71 66T127 132Q177 183 196 220T221 297L224 318H276V292Q276 242 257 197T186 97Q147 53 131 21T115 -46Q115 -89 146 -113T233 -138Q272 -138 308 -128T376
-99V-174Q344 -190 305 -199T225 -209ZM301 502V399H199V502H301Z" />
<glyph unicode="&#xc0;" horiz-adv-x="735" d="M18 0L329 705H401L717 0H631L543 201L580 180H149L189 201L103 0H18ZM364 610L202 230L178 248H550L532 230L366 610H364ZM335 765L188 937H279L397 765H335Z" />
<glyph unicode="&#xc1;" horiz-adv-x="735" d="M18 0L329 705H401L717 0H631L543 201L580 180H149L189 201L103 0H18ZM364 610L202 230L178 248H550L532 230L366 610H364ZM335 765L453 937H544L397 765H335Z" />
<glyph unicode="&#xc2;" horiz-adv-x="735" d="M18 0L329 705H401L717 0H631L543 201L580 180H149L189 201L103 0H18ZM364 610L202 230L178 248H550L532 230L366 610H364ZM205 765L328 937H404L527 765H466L366 884L266 765H205Z" />
<glyph unicode="&#xc3;" horiz-adv-x="735" d="M18 0L329 705H401L717 0H631L543 201L580 180H149L189 201L103 0H18ZM364 610L202 230L178 248H550L532 230L366 610H364ZM203 783L157 786Q163 850 195 884T277 919Q300 919 323 910T380 878Q411 859 427 851T458
843Q488 843 505 863T529 922L575 919Q569 855 537 821T456 786Q433 786 409 796T349 829Q322 847 305 854T274 862Q244 862 227 842T203 783Z" />
<glyph unicode="&#xc4;" horiz-adv-x="735" d="M18 0L329 705H401L717 0H631L543 201L580 180H149L189 201L103 0H18ZM364 610L202 230L178 248H550L532 230L366 610H364ZM410 806V892H496V806H410ZM236 806V892H322V806H236Z" />
<glyph unicode="&#xc5;" horiz-adv-x="735" d="M18 0L329 705H401L717 0H631L543 201L580 180H149L189 201L103 0H18ZM364 610L202 230L178 248H550L532 230L366 610H364ZM366 758Q333 758 306 773T263 815T247 874Q247 907 263 932T306 973T366 989Q400 989 426
974T469 933T485 874Q485 842 469 816T427 774T366 758ZM366 801Q398 801 418 822T438 874Q438 904 418 925T366 946Q335 946 315 925T294 874Q294 843 314 822T366 801Z" />
<glyph unicode="&#xc6;" horiz-adv-x="1006" d="M-2 0L429 705H956V637H557L578 659L604 370L587 392H934V323H594L607 333L634 45L622 69H956V0H560L542 196L568 180H184L212 202L90 0H-2ZM471 636L228 229L218 249H549L540 227L503 636H471Z" />
<glyph unicode="&#xc7;" horiz-adv-x="684" d="M395 -9Q289 -9 215 35T102 160T62 353Q62 465 101 545T215 670T395 714Q470 714 529 691T632 624L601 558Q553 600 506 619T396 639Q275 639 212 564T149 353Q149 217 212 142T396 66Q459 66 506 85T601 148L632
81Q588 38 529 15T395 -9ZM394 -192Q368 -192 345 -187T304 -173L318 -129Q336 -137 352 -141T391 -145Q418 -145 434 -136T450 -108Q450 -80 412 -80Q401 -80 391 -81T365 -89L348 -73L363 20H414L401 -55L377 -49Q388 -46 400 -44T422 -42Q458 -42 482 -60T506
-110Q506 -147 475 -169T394 -192Z" />
<glyph unicode="&#xc8;" horiz-adv-x="588" d="M88 0V705H538V637H169V392H516V323H169V69H538V0H88ZM297 765L150 937H241L359 765H297Z" />
<glyph unicode="&#xc9;" horiz-adv-x="588" d="M88 0V705H538V637H169V392H516V323H169V69H538V0H88ZM297 765L415 937H506L359 765H297Z" />
<glyph unicode="&#xca;" horiz-adv-x="588" d="M88 0V705H538V637H169V392H516V323H169V69H538V0H88ZM167 765L290 937H366L489 765H428L328 884L228 765H167Z" />
<glyph unicode="&#xcb;" horiz-adv-x="588" d="M88 0V705H538V637H169V392H516V323H169V69H538V0H88ZM372 806V892H458V806H372ZM198 806V892H284V806H198Z" />
<glyph unicode="&#xcc;" horiz-adv-x="259" d="M88 0V705H171V0H88ZM98 765L-49 937H42L160 765H98Z" />
<glyph unicode="&#xcd;" horiz-adv-x="259" d="M88 0V705H171V0H88ZM98 765L216 937H307L160 765H98Z" />
<glyph unicode="&#xce;" horiz-adv-x="259" d="M88 0V705H171V0H88ZM-32 765L91 937H167L290 765H229L129 884L29 765H-32Z" />
<glyph unicode="&#xcf;" horiz-adv-x="259" d="M88 0V705H171V0H88ZM173 806V892H259V806H173ZM-1 806V892H85V806H-1Z" />
<glyph unicode="&#xd0;" horiz-adv-x="747" d="M88 0V705H322Q439 705 520 665T643 546T685 353Q685 240 643 161T520 41T322 0H88ZM171 71H316Q460 71 530 141T600 353Q600 495 530 565T316 635H171V71ZM2 326V390H369V326H2Z" />
<glyph unicode="&#xd1;" horiz-adv-x="747" d="M88 0V705H153L605 105H582V705H659V0H595L143 600H165V0H88ZM212 783L166 786Q172 850 204 884T286 919Q309 919 332 910T389 878Q420 859 436 851T467 843Q497 843 514 863T538 922L584 919Q578 855 546 821T465
786Q442 786 418 796T358 829Q331 847 314 854T283 862Q253 862 236 842T212 783Z" />
<glyph unicode="&#xd2;" horiz-adv-x="772" d="M62 353Q62 465 100 545T211 670T386 714Q485 714 558 670T670 546T710 354Q710 242 670 161T558 36T386 -9Q284 -9 212 35T101 161T62 353ZM149 353Q149 217 209 141T386 64Q498 64 560 140T623 353Q623 490 561
565T386 641Q269 641 209 566T149 353ZM355 765L208 937H299L417 765H355Z" />
<glyph unicode="&#xd3;" horiz-adv-x="772" d="M62 353Q62 465 100 545T211 670T386 714Q485 714 558 670T670 546T710 354Q710 242 670 161T558 36T386 -9Q284 -9 212 35T101 161T62 353ZM149 353Q149 217 209 141T386 64Q498 64 560 140T623 353Q623 490 561
565T386 641Q269 641 209 566T149 353ZM355 765L473 937H564L417 765H355Z" />
<glyph unicode="&#xd4;" horiz-adv-x="772" d="M62 353Q62 465 100 545T211 670T386 714Q485 714 558 670T670 546T710 354Q710 242 670 161T558 36T386 -9Q284 -9 212 35T101 161T62 353ZM149 353Q149 217 209 141T386 64Q498 64 560 140T623 353Q623 490 561
565T386 641Q269 641 209 566T149 353ZM225 765L348 937H424L547 765H486L386 884L286 765H225Z" />
<glyph unicode="&#xd5;" horiz-adv-x="772" d="M62 353Q62 465 100 545T211 670T386 714Q485 714 558 670T670 546T710 354Q710 242 670 161T558 36T386 -9Q284 -9 212 35T101 161T62 353ZM149 353Q149 217 209 141T386 64Q498 64 560 140T623 353Q623 490 561
565T386 641Q269 641 209 566T149 353ZM223 783L177 786Q183 850 215 884T297 919Q320 919 343 910T400 878Q431 859 447 851T478 843Q508 843 525 863T549 922L595 919Q589 855 557 821T476 786Q453 786 429 796T369 829Q342 847 325 854T294 862Q264 862 247
842T223 783Z" />
<glyph unicode="&#xd6;" horiz-adv-x="772" d="M62 353Q62 465 100 545T211 670T386 714Q485 714 558 670T670 546T710 354Q710 242 670 161T558 36T386 -9Q284 -9 212 35T101 161T62 353ZM149 353Q149 217 209 141T386 64Q498 64 560 140T623 353Q623 490 561
565T386 641Q269 641 209 566T149 353ZM430 806V892H516V806H430ZM256 806V892H342V806H256Z" />
<glyph unicode="&#xd7;" horiz-adv-x="600" d="M109 50L65 93L256 285L65 476L109 519L300 329L491 519L535 476L344 285L535 93L491 50L300 240L109 50Z" />
<glyph unicode="&#xd8;" horiz-adv-x="772" d="M62 353Q62 465 100 545T211 670T386 714Q485 714 558 670T670 546T710 354Q710 242 670 161T558 36T386 -9Q284 -9 212 35T101 161T62 353ZM149 353Q149 217 209 141T386 64Q498 64 560 140T623 353Q623 490 561
565T386 641Q269 641 209 566T149 353ZM247 46L193 -47L137 -14L191 79L217 116L513 623L530 660L584 752L640 719L586 626L560 590L264 82L247 46Z" />
<glyph unicode="&#xd9;" horiz-adv-x="730" d="M366 -9Q223 -9 154 64T84 279V705H166V283Q166 174 214 119T366 64Q464 64 515 119T566 283V705H648V279Q648 137 577 64T366 -9ZM335 765L188 937H279L397 765H335Z" />
<glyph unicode="&#xda;" horiz-adv-x="730" d="M366 -9Q223 -9 154 64T84 279V705H166V283Q166 174 214 119T366 64Q464 64 515 119T566 283V705H648V279Q648 137 577 64T366 -9ZM335 765L453 937H544L397 765H335Z" />
<glyph unicode="&#xdb;" horiz-adv-x="730" d="M366 -9Q223 -9 154 64T84 279V705H166V283Q166 174 214 119T366 64Q464 64 515 119T566 283V705H648V279Q648 137 577 64T366 -9ZM205 765L328 937H404L527 765H466L366 884L266 765H205Z" />
<glyph unicode="&#xdc;" horiz-adv-x="730" d="M366 -9Q223 -9 154 64T84 279V705H166V283Q166 174 214 119T366 64Q464 64 515 119T566 283V705H648V279Q648 137 577 64T366 -9ZM410 806V892H496V806H410ZM236 806V892H322V806H236Z" />
<glyph unicode="&#xdd;" horiz-adv-x="607" d="M262 0V329L280 273L-12 705H84L316 354H295L526 705H618L327 273L345 329V0H262ZM273 765L391 937H482L335 765H273Z" />
<glyph unicode="&#xde;" horiz-adv-x="652" d="M88 0V705H171V570H373Q483 570 544 517T606 368Q606 274 545 220T373 166H171V0H88ZM171 235H367Q444 235 483 270T523 368Q523 432 484 467T367 502H171V235Z" />
<glyph unicode="&#xdf;" horiz-adv-x="634" d="M79 0V493Q79 614 138 678T317 742Q379 742 423 722T492 664T516 573Q516 507 479 455T343 363V379Q435 354 492 323T576 251T602 159Q602 107 578 70T510 12T406 -9Q367 -9 335 -2T275 19T224 53L250 110Q288 82
325 68T406 54Q462 54 492 80T523 156Q523 192 502 222T428 280T276 333V398Q339 421 375 447T425 505T440 572Q440 620 408 649T318 678Q236 678 198 634T160 502V0H79Z" />
<glyph unicode="&#xe0;" horiz-adv-x="600" d="M270 -9Q203 -9 153 22T76 112T48 251Q48 333 75 391T153 480T270 511Q338 511 387 477T453 383H441L452 502H530Q527 473 525 444T522 386V0H441V118H452Q436 59 386 25T270 -9ZM286 57Q358 57 400 106T442 251Q442
347 400 396T286 446Q215 446 173 397T130 251Q130 156 172 107T286 57ZM265 551L133 753H220L323 551H265Z" />
<glyph unicode="&#xe1;" horiz-adv-x="600" d="M270 -9Q203 -9 153 22T76 112T48 251Q48 333 75 391T153 480T270 511Q338 511 387 477T453 383H441L452 502H530Q527 473 525 444T522 386V0H441V118H452Q436 59 386 25T270 -9ZM286 57Q358 57 400 106T442 251Q442
347 400 396T286 446Q215 446 173 397T130 251Q130 156 172 107T286 57ZM265 551L368 753H455L323 551H265Z" />
<glyph unicode="&#xe2;" horiz-adv-x="600" d="M270 -9Q203 -9 153 22T76 112T48 251Q48 333 75 391T153 480T270 511Q338 511 387 477T453 383H441L452 502H530Q527 473 525 444T522 386V0H441V118H452Q436 59 386 25T270 -9ZM286 57Q358 57 400 106T442 251Q442
347 400 396T286 446Q215 446 173 397T130 251Q130 156 172 107T286 57ZM146 551L255 753H333L442 551H386L294 699L202 551H146Z" />
<glyph unicode="&#xe3;" horiz-adv-x="600" d="M270 -9Q203 -9 153 22T76 112T48 251Q48 333 75 391T153 480T270 511Q338 511 387 477T453 383H441L452 502H530Q527 473 525 444T522 386V0H441V118H452Q436 59 386 25T270 -9ZM286 57Q358 57 400 106T442 251Q442
347 400 396T286 446Q215 446 173 397T130 251Q130 156 172 107T286 57ZM160 590L114 593Q119 657 148 691T221 726Q243 726 261 716T304 685Q326 665 339 658T366 650Q417 650 428 729L474 726Q469 662 441 628T368 593Q347 593 328 603T284 635Q263 654 250 661T222
669Q196 669 181 649T160 590Z" />
<glyph unicode="&#xe4;" horiz-adv-x="600" d="M270 -9Q203 -9 153 22T76 112T48 251Q48 333 75 391T153 480T270 511Q338 511 387 477T453 383H441L452 502H530Q527 473 525 444T522 386V0H441V118H452Q436 59 386 25T270 -9ZM286 57Q358 57 400 106T442 251Q442
347 400 396T286 446Q215 446 173 397T130 251Q130 156 172 107T286 57ZM338 609V695H424V609H338ZM164 609V695H250V609H164Z" />
<glyph unicode="&#xe5;" horiz-adv-x="600" d="M270 -9Q203 -9 153 22T76 112T48 251Q48 333 75 391T153 480T270 511Q338 511 387 477T453 383H441L452 502H530Q527 473 525 444T522 386V0H441V118H452Q436 59 386 25T270 -9ZM286 57Q358 57 400 106T442 251Q442
347 400 396T286 446Q215 446 173 397T130 251Q130 156 172 107T286 57ZM294 547Q261 547 234 562T191 603T175 662Q175 695 191 721T234 762T294 778Q328 778 354 763T397 721T413 662Q413 630 397 604T355 562T294 547ZM294 590Q326 590 346 611T366 662Q366
693 346 713T294 734Q263 734 243 714T222 662Q222 632 242 611T294 590Z" />
<glyph unicode="&#xe6;" horiz-adv-x="882" d="M240 -9Q187 -9 146 11T82 67T59 145Q59 203 86 236T176 284T351 298H402V247H352Q268 247 221 238T155 208T136 149Q136 106 166 79T250 52Q292 52 324 71T374 125T393 206V326Q393 390 365 418T277 446Q231 446
191 434T108 394L80 454Q119 481 171 496T278 511Q355 511 398 480T456 386H431Q461 447 510 479T628 511Q725 511 781 448T837 274V247H460V298H783L766 283Q766 362 730 406T626 451Q555 451 514 404T472 268V260Q472 163 515 110T643 57Q686 57 725 71T801 115L830
58Q796 26 745 9T641 -9Q552 -9 495 31T415 148H436Q421 75 369 33T240 -9Z" />
<glyph unicode="&#xe7;" horiz-adv-x="495" d="M290 -9Q216 -9 162 23T78 114T48 254Q48 336 78 393T162 481T290 511Q338 511 383 494T459 446L430 388Q400 417 365 431T295 445Q217 445 174 396T131 253Q131 160 174 109T295 58Q328 58 363 71T430 114L459 57Q428
25 382 8T290 -9ZM290 -192Q264 -192 241 -187T200 -173L214 -129Q232 -137 248 -141T287 -145Q314 -145 330 -136T346 -108Q346 -80 308 -80Q297 -80 287 -81T261 -89L244 -73L259 20H310L297 -55L273 -49Q284 -46 296 -44T318 -42Q354 -42 378 -60T402 -110Q402
-147 371 -169T290 -192Z" />
<glyph unicode="&#xe8;" horiz-adv-x="544" d="M302 -9Q184 -9 116 59T48 250Q48 329 78 387T162 478T286 511Q355 511 402 482T474 400T499 273V243H110V294H446L429 281Q429 361 393 406T286 451Q211 451 169 399T127 257V248Q127 154 173 106T304 57Q349 57
388 70T464 115L492 58Q459 26 409 9T302 -9ZM257 551L125 753H212L315 551H257Z" />
<glyph unicode="&#xe9;" horiz-adv-x="544" d="M302 -9Q184 -9 116 59T48 250Q48 329 78 387T162 478T286 511Q355 511 402 482T474 400T499 273V243H110V294H446L429 281Q429 361 393 406T286 451Q211 451 169 399T127 257V248Q127 154 173 106T304 57Q349 57
388 70T464 115L492 58Q459 26 409 9T302 -9ZM257 551L360 753H447L315 551H257Z" />
<glyph unicode="&#xea;" horiz-adv-x="544" d="M302 -9Q184 -9 116 59T48 250Q48 329 78 387T162 478T286 511Q355 511 402 482T474 400T499 273V243H110V294H446L429 281Q429 361 393 406T286 451Q211 451 169 399T127 257V248Q127 154 173 106T304 57Q349 57
388 70T464 115L492 58Q459 26 409 9T302 -9ZM138 551L247 753H325L434 551H378L286 699L194 551H138Z" />
<glyph unicode="&#xeb;" horiz-adv-x="544" d="M302 -9Q184 -9 116 59T48 250Q48 329 78 387T162 478T286 511Q355 511 402 482T474 400T499 273V243H110V294H446L429 281Q429 361 393 406T286 451Q211 451 169 399T127 257V248Q127 154 173 106T304 57Q349 57
388 70T464 115L492 58Q459 26 409 9T302 -9ZM330 609V695H416V609H330ZM156 609V695H242V609H156Z" />
<glyph unicode="&#xec;" horiz-adv-x="238" d="M79 0V502H160V0H79ZM90 551L-42 753H45L148 551H90Z" />
<glyph unicode="&#xed;" horiz-adv-x="238" d="M79 0V502H160V0H79ZM90 551L193 753H280L148 551H90Z" />
<glyph unicode="&#xee;" horiz-adv-x="238" d="M79 0V502H160V0H79ZM-29 551L80 753H158L267 551H211L119 699L27 551H-29Z" />
<glyph unicode="&#xef;" horiz-adv-x="238" d="M79 0V502H160V0H79ZM163 609V695H249V609H163ZM-11 609V695H75V609H-11Z" />
<glyph unicode="&#xf0;" horiz-adv-x="576" d="M285 -9Q214 -9 161 20T78 102T48 226Q48 296 77 348T159 430T281 459Q357 459 405 421T474 305H451Q452 393 417 471T313 606L333 603L136 520L117 565L289 637L287 624Q257 645 221 661T144 688L161 743Q220 730
269 708T358 656L339 659L456 708L475 664L377 622L380 638Q431 594 463 537T512 416T528 280Q528 187 500 123T418 25T285 -9ZM286 57Q359 57 401 102T443 225Q443 303 402 348T286 393Q214 393 172 349T130 225Q130 146 171 102T286 57Z" />
<glyph unicode="&#xf1;" horiz-adv-x="586" d="M79 0V386Q79 414 77 443T71 502H149L159 392H147Q169 450 217 480T330 511Q419 511 464 464T510 314V0H429V309Q429 380 401 412T312 445Q242 445 201 402T160 287V0H79ZM158 590L112 593Q117 657 146 691T219 726Q241
726 259 716T302 685Q324 665 337 658T364 650Q415 650 426 729L472 726Q467 662 439 628T366 593Q345 593 326 603T282 635Q261 654 248 661T220 669Q194 669 179 649T158 590Z" />
<glyph unicode="&#xf2;" horiz-adv-x="571" d="M285 -9Q213 -9 160 22T77 112T48 251Q48 332 77 390T159 479T285 511Q358 511 411 480T494 390T524 251Q524 171 495 113T412 23T285 -9ZM285 57Q357 57 399 106T441 251Q441 347 399 396T285 446Q214 446 172 397T130
251Q130 156 172 107T285 57ZM257 551L125 753H212L315 551H257Z" />
<glyph unicode="&#xf3;" horiz-adv-x="571" d="M285 -9Q213 -9 160 22T77 112T48 251Q48 332 77 390T159 479T285 511Q358 511 411 480T494 390T524 251Q524 171 495 113T412 23T285 -9ZM285 57Q357 57 399 106T441 251Q441 347 399 396T285 446Q214 446 172 397T130
251Q130 156 172 107T285 57ZM257 551L360 753H447L315 551H257Z" />
<glyph unicode="&#xf4;" horiz-adv-x="571" d="M285 -9Q213 -9 160 22T77 112T48 251Q48 332 77 390T159 479T285 511Q358 511 411 480T494 390T524 251Q524 171 495 113T412 23T285 -9ZM285 57Q357 57 399 106T441 251Q441 347 399 396T285 446Q214 446 172 397T130
251Q130 156 172 107T285 57ZM138 551L247 753H325L434 551H378L286 699L194 551H138Z" />
<glyph unicode="&#xf5;" horiz-adv-x="571" d="M285 -9Q213 -9 160 22T77 112T48 251Q48 332 77 390T159 479T285 511Q358 511 411 480T494 390T524 251Q524 171 495 113T412 23T285 -9ZM285 57Q357 57 399 106T441 251Q441 347 399 396T285 446Q214 446 172 397T130
251Q130 156 172 107T285 57ZM152 590L106 593Q111 657 140 691T213 726Q235 726 253 716T296 685Q318 665 331 658T358 650Q409 650 420 729L466 726Q461 662 433 628T360 593Q339 593 320 603T276 635Q255 654 242 661T214 669Q188 669 173 649T152 590Z" />
<glyph unicode="&#xf6;" horiz-adv-x="571" d="M285 -9Q213 -9 160 22T77 112T48 251Q48 332 77 390T159 479T285 511Q358 511 411 480T494 390T524 251Q524 171 495 113T412 23T285 -9ZM285 57Q357 57 399 106T441 251Q441 347 399 396T285 446Q214 446 172 397T130
251Q130 156 172 107T285 57ZM330 609V695H416V609H330ZM156 609V695H242V609H156Z" />
<glyph unicode="&#xf7;" horiz-adv-x="600" d="M53 256V318H547V256H53ZM252 45V131H338V45H252ZM252 443V529H338V443H252Z" />
<glyph unicode="&#xf8;" horiz-adv-x="571" d="M285 -9Q213 -9 160 22T77 112T48 251Q48 332 77 390T159 479T285 511Q358 511 411 480T494 390T524 251Q524 171 495 113T412 23T285 -9ZM285 57Q360 57 403 107T446 252Q446 345 403 395T285 446Q210 446 168 396T125
252Q125 158 167 108T285 57ZM147 -39L104 -12L426 542L470 515L147 -39Z" />
<glyph unicode="&#xf9;" horiz-adv-x="577" d="M256 -9Q167 -9 122 40T76 190V502H157V192Q157 123 185 91T272 58Q338 58 378 101T418 216V502H499V0H420V113H433Q412 55 366 23T256 -9ZM260 552L128 754H215L318 552H260Z" />
<glyph unicode="&#xfa;" horiz-adv-x="577" d="M256 -9Q167 -9 122 40T76 190V502H157V192Q157 123 185 91T272 58Q338 58 378 101T418 216V502H499V0H420V113H433Q412 55 366 23T256 -9ZM260 552L363 754H450L318 552H260Z" />
<glyph unicode="&#xfb;" horiz-adv-x="577" d="M256 -9Q167 -9 122 40T76 190V502H157V192Q157 123 185 91T272 58Q338 58 378 101T418 216V502H499V0H420V113H433Q412 55 366 23T256 -9ZM141 552L250 754H328L437 552H381L289 700L197 552H141Z" />
<glyph unicode="&#xfc;" horiz-adv-x="577" d="M256 -9Q167 -9 122 40T76 190V502H157V192Q157 123 185 91T272 58Q338 58 378 101T418 216V502H499V0H420V113H433Q412 55 366 23T256 -9ZM333 610V696H419V610H333ZM159 610V696H245V610H159Z" />
<glyph unicode="&#xfd;" horiz-adv-x="531" d="M59 -227L40 -160Q87 -149 118 -135T171 -96T207 -36L233 23L231 -11L12 502H100L281 61H255L434 502H519L287 -42Q267 -90 243 -122T192 -175T131 -208T59 -227ZM236 551L339 753H426L294 551H236Z" />
<glyph unicode="&#xfe;" horiz-adv-x="600" d="M79 -216V736H160V383H148Q164 442 213 476T331 511Q399 511 448 480T525 391T553 251Q553 170 526 112T449 23T331 -9Q263 -9 214 25T149 118H160V-216H79ZM315 57Q386 57 428 106T471 251Q471 347 429 396T315
446Q244 446 201 397T158 251Q158 156 201 107T315 57Z" />
<glyph unicode="&#xff;" horiz-adv-x="531" d="M59 -227L40 -160Q87 -149 118 -135T171 -96T207 -36L233 23L231 -11L12 502H100L281 61H255L434 502H519L287 -42Q267 -90 243 -122T192 -175T131 -208T59 -227ZM309 609V695H395V609H309ZM135 609V695H221V609H135Z" />
<glyph unicode="&#x2013;" horiz-adv-x="505" d="M0 248V301H505V248H0Z" />
<glyph unicode="&#x2014;" horiz-adv-x="1010" d="M0 248V301H1010V248H0Z" />
<glyph unicode="&#x2018;" horiz-adv-x="228" d="M63 495V566Q63 607 76 642T123 711L162 682Q136 653 127 630T117 580L93 597H165V495H63Z" />
<glyph unicode="&#x2019;" horiz-adv-x="228" d="M106 489L68 518Q95 546 103 570T112 619L137 603H64V705H166V633Q166 593 153 558T106 489Z" />
<glyph unicode="&#x201a;" horiz-adv-x="228" d="M106 -114L68 -85Q92 -60 102 -37T112 17L137 0H64V102H166V30Q166 -14 152 -48T106 -114Z" />
<glyph unicode="&#x201c;" horiz-adv-x="396" d="M63 495V566Q63 607 76 642T123 711L162 682Q136 653 127 630T117 580L93 597H165V495H63ZM231 495V566Q231 607 244 642T291 711L330 682Q304 653 295 630T285 580L261 597H333V495H231Z" />
<glyph unicode="&#x201d;" horiz-adv-x="396" d="M106 489L68 518Q95 546 103 570T112 619L137 603H64V705H166V633Q166 593 153 558T106 489ZM274 489L236 518Q263 546 271 570T280 619L305 603H232V705H334V633Q334 593 321 558T274 489Z" />
<glyph unicode="&#x201e;" horiz-adv-x="396" d="M106 -114L68 -85Q92 -60 102 -37T112 17L137 0H64V102H166V30Q166 -14 152 -48T106 -114ZM274 -114L236 -85Q260 -60 270 -37T280 17L305 0H232V102H334V30Q334 -14 320 -48T274 -114Z" />
<glyph unicode="&#x2022;" horiz-adv-x="529" d="M265 89Q216 89 174 112T107 177T82 268Q82 314 105 355T170 421T265 447Q314 447 355 424T421 360T447 268Q447 219 423 178T357 113T265 89Z" />
<glyph unicode="&#x2039;" horiz-adv-x="262" d="M154 88L27 268L154 448H225L107 268L225 88H154Z" />
<glyph unicode="&#x203a;" horiz-adv-x="262" d="M108 88H37L155 268L37 448H108L236 268L108 88Z" />
</font>
</defs>
</svg>
