<?xml version="1.0" standalone="no"?>
<!DOCTYPE svg PUBLIC "-//W3C//DTD SVG 1.1//EN" "http://www.w3.org/Graphics/SVG/1.1/DTD/svg11.dtd">
<svg xmlns="http://www.w3.org/2000/svg">
<defs >
<font id="NotoSans" horiz-adv-x="596" ><font-face
    font-family="Noto Sans"
    units-per-em="1000"
    panose-1="2 11 8 2 4 5 4 9 2 4"
    ascent="1069"
    descent="-293"
    alphabetic="0" />
<glyph unicode=" " glyph-name="space" horiz-adv-x="260" />
<glyph unicode="!" glyph-name="exclam" horiz-adv-x="286" d="M69 237L150 714H316L195 237H69ZM88 -13Q46 -13 29 8T12 56Q12 92 34 122T112 153Q145 153 165 135T185 82Q185 41 159 14T88 -13Z" />
<glyph unicode="&quot;" glyph-name="quotedbl" horiz-adv-x="453" d="M295 456L331 714H466L392 456H295ZM98 456L133 714H268L194 456H98Z" />
<glyph unicode="#" glyph-name="numbersign" horiz-adv-x="646" d="M81 0L136 199H20L29 300H164L198 413H75L84 515H225L283 714H389L332 515H429L486 714H591L534 515H651L642 413H506L472 300H598L589 199H444L387 0H280L337 199H242L186 0H81ZM270 300H366L400
413H304L270 300Z" />
<glyph unicode="$" glyph-name="dollar" horiz-adv-x="551" d="M198 40Q147 43 104 53T25 82V212Q63 191 113 174T222 155L257 312Q214 329 179 352T122 408T101 490Q101 550 131 592T213 658T334 686L351 760H419L403 686Q444 681 478 671T547 642L495 529Q467
543 437 553T377 565L346 419Q391 402 427 380T484 326T505 242Q505 160 449 104T264 39L245 -58H177L198 40ZM309 565Q284 562 265 547T245 499Q245 461 284 445L309 565ZM290 157Q321 162 340 179T359 227Q359 250 347 264T318 285L290 157Z" />
<glyph unicode="%" glyph-name="percent" horiz-adv-x="856" d="M194 276Q127 276 92 317T56 432Q56 476 66 526T100 622T163 695T261 724Q328 724 364 685T401 569Q401 526 391 476T356 380T293 305T194 276ZM113 0L644 714H759L230 0H113ZM203 377Q221 377 235
396T260 446T275 510T281 575Q281 622 253 622Q237 622 223 604T198 556T182 492T176 424Q176 377 203 377ZM616 -9Q546 -9 511 29T475 138Q475 191 486 244T521 341T585 412T680 439Q747 439 783 401T820 288Q820 243 810 192T775 95T712 20T616 -9ZM622 92Q640
92 654 111T679 161T694 225T700 290Q700 337 672 337Q656 337 642 319T617 271T601 207T595 139Q595 92 622 92Z" />
<glyph unicode="&amp;" glyph-name="ampersand" horiz-adv-x="708" d="M244 -10Q143 -10 88 38T33 175Q33 250 75 300T205 394Q168 456 168 520Q168 588 196 633T272 702T380 725Q443 725 482 704T539 649T557 575Q557 501 510 451T379 367L474 239Q502 274 519
308T552 383H698Q668 312 632 251T547 140L647 0H476L441 48Q402 22 355 6T244 -10ZM323 449Q363 469 391 494T420 558Q420 586 406 598T371 611Q337 611 320 587T303 530Q303 508 309 486T323 449ZM266 115Q298 115 325 123T374 144L264 304Q229 284 208 259T187
189Q187 160 208 138T266 115Z" />
<glyph unicode="&apos;" glyph-name="quotesingle" horiz-adv-x="255" d="M98 456L133 714H268L194 456H98Z" />
<glyph unicode="(" glyph-name="parenleft" horiz-adv-x="339" d="M109 -158Q72 -93 54 -18T36 137Q36 310 99 450T282 714H410Q339 637 284 548T198 355T166 132Q166 56 181 -18T223 -158H109Z" />
<glyph unicode=")" glyph-name="parenright" horiz-adv-x="339" d="M-72 -158Q-1 -80 54 9T140 201T172 424Q172 501 157 574T115 714H229Q266 650 284 575T302 419Q302 246 239 106T56 -158H-72Z" />
<glyph unicode="*" glyph-name="asterisk" horiz-adv-x="545" d="M350 282L306 447L210 311L109 391L243 512L84 557L126 673L291 588L307 768L432 743L377 571L566 585L557 461L392 482L470 318L350 282Z" />
<glyph unicode="+" glyph-name="plus" horiz-adv-x="572" d="M349 406H538V299H349V111H242V299H53V406H242V596H349V406Z" />
<glyph unicode="," glyph-name="comma" horiz-adv-x="285" d="M-50 -129Q-24 -70 1 -3T45 116H184L188 105Q164 52 130 -11T60 -129H-50Z" />
<glyph unicode="-" glyph-name="hyphen" horiz-adv-x="322" d="M20 207L46 329H302L276 207H20Z" />
<glyph unicode="." glyph-name="period" horiz-adv-x="285" d="M88 -13Q46 -13 29 8T12 56Q12 92 34 122T112 153Q145 153 165 135T185 82Q185 41 159 14T88 -13Z" />
<glyph unicode="/" glyph-name="slash" horiz-adv-x="421" d="M-44 0L351 714H495L100 0H-44Z" />
<glyph unicode="0" glyph-name="zero" horiz-adv-x="551" d="M229 -10Q128 -10 80 52T32 228Q32 326 52 415T112 574T211 684T347 725Q439 725 490 670T542 494Q542 399 524 309T469 147T372 33T229 -10ZM241 112Q269 112 293 136T336 202T367 294T387 398T394
499Q394 553 379 578T334 603Q304 603 280 576T237 506T206 412T187 312T180 225Q180 170 193 141T241 112Z" />
<glyph unicode="1" glyph-name="one" horiz-adv-x="551" d="M275 405Q280 431 291 472T312 545Q303 538 284 524T249 499L154 439L89 544L365 714H487L336 0H187L275 405Z" />
<glyph unicode="2" glyph-name="two" horiz-adv-x="551" d="M-24 0L-3 104L230 311Q288 363 322 400T370 466T385 523Q385 560 365 579T311 598Q275 598 241 580T161 524L90 623Q140 666 199 695T335 724Q405 724 449 699T515 635T536 550Q536 487 509 435T434
337T326 240L195 132V127H472L446 0H-24Z" />
<glyph unicode="3" glyph-name="three" horiz-adv-x="551" d="M196 -10Q141 -10 92 0T7 29V159Q48 135 96 123T189 110Q260 110 304 139T349 227Q349 263 323 287T223 311H156L178 419H214Q257 419 297 430T363 466T389 533Q389 562 370 582T309 602Q265 602 230
586T169 553L107 653Q155 685 208 704T341 724Q440 724 489 678T539 561Q539 487 494 436T365 369V365Q419 355 457 319T495 215Q495 159 464 107T367 23T196 -10Z" />
<glyph unicode="4" glyph-name="four" horiz-adv-x="551" d="M245 0L276 148H-12L11 262L387 714H539L444 265H527L502 148H419L388 0H245ZM149 265H301L329 386Q335 412 342 442T357 497T369 535H364Q353 516 336 492T302 447L149 265Z" />
<glyph unicode="5" glyph-name="five" horiz-adv-x="551" d="M199 -10Q141 -10 93 1T13 30V161Q49 141 93 127T185 113Q245 113 280 132T330 181T345 242Q345 280 322 307T236 334Q206 334 178 329T132 318L81 356L182 714H551L524 586H285L242 443Q254 445 269
447T304 450Q358 450 402 430T471 367T497 260Q497 186 466 125T369 27T199 -10Z" />
<glyph unicode="6" glyph-name="six" horiz-adv-x="551" d="M252 -10Q149 -10 96 52T43 229Q43 307 62 383T116 526T201 637Q250 681 311 703T454 725Q485 725 514 721T563 712L538 592Q520 597 495 600T445 604Q345 604 287 549T199 383H203Q228 418 265 441T355
464Q429 464 472 418T515 283Q515 241 503 191T460 95T380 20T252 -10ZM259 111Q296 111 320 135T356 196T368 272Q368 307 352 327T302 348Q274 348 250 333T211 296T191 251Q189 240 188 229T187 206Q187 165 206 138T259 111Z" />
<glyph unicode="7" glyph-name="seven" horiz-adv-x="551" d="M38 0L398 587H91L118 714H594L574 619L207 0H38Z" />
<glyph unicode="8" glyph-name="eight" horiz-adv-x="551" d="M251 -10Q139 -10 83 42T27 171Q27 248 71 298T197 379Q167 402 142 438T116 525Q116 580 143 625T222 698T352 725Q419 725 462 703T528 643T550 562Q550 510 529 474T473 413T398 374Q424 357 448
333T488 276T504 196Q504 144 477 97T394 20T251 -10ZM318 436Q360 453 384 479T408 544Q408 577 389 596T339 615Q300 615 279 592T258 534Q258 499 274 475T318 436ZM262 101Q313 101 337 130T361 195Q361 236 340 264T284 314Q228 292 200 262T172 187Q172 148
196 125T262 101Z" />
<glyph unicode="9" glyph-name="nine" horiz-adv-x="551" d="M159 -10Q126 -10 94 -5T42 6V131Q61 124 90 118T153 111Q207 111 245 129T308 179T349 249T375 328H371Q347 294 312 273T227 251Q142 251 101 305T60 441Q60 481 72 529T115 622T198 696T331 725Q423
725 478 670T533 489Q533 419 518 343T473 199T397 83Q355 40 297 15T159 -10ZM277 367Q306 367 328 382T364 421T382 466Q384 477 385 488T386 511Q386 552 369 578T315 604Q279 604 255 581T219 523T207 453Q207 411 225 389T277 367Z" />
<glyph unicode=":" glyph-name="colon" horiz-adv-x="285" d="M177 390Q135 390 118 411T101 459Q101 495 123 525T201 556Q234 556 254 538T274 485Q274 444 248 417T177 390ZM88 -13Q46 -13 29 8T12 56Q12 92 34 122T112 153Q145 153 165 135T185 82Q185 41
159 14T88 -13Z" />
<glyph unicode=";" glyph-name="semicolon" horiz-adv-x="285" d="M177 390Q135 390 118 411T101 459Q101 495 123 525T201 556Q234 556 254 538T274 485Q274 444 248 417T177 390ZM-50 -129Q-24 -70 1 -3T45 116H184L188 105Q164 52 130 -11T60 -129H-50Z" />
<glyph unicode="&lt;" glyph-name="less" horiz-adv-x="572" d="M538 99L53 313V383L538 625V508L204 353L538 216V99Z" />
<glyph unicode="=" glyph-name="equal" horiz-adv-x="572" d="M53 394V500H538V394H53ZM53 204V311H538V204H53Z" />
<glyph unicode="&gt;" glyph-name="greater" horiz-adv-x="572" d="M53 216L387 353L53 508V625L538 383V313L53 99V216Z" />
<glyph unicode="?" glyph-name="question" horiz-adv-x="459" d="M127 237Q140 306 167 351T254 437Q303 470 325 492T347 546Q347 573 332 588T282 604Q247 604 212 590T132 555L87 663Q132 688 186 706T304 724Q392 724 441 681T491 562Q491 512 472 477T420
413T344 357Q315 338 298 322T270 286T253 237H127ZM153 -13Q111 -13 94 8T77 56Q77 92 99 122T177 153Q210 153 230 135T250 82Q250 41 224 14T153 -13Z" />
<glyph unicode="@" glyph-name="at" horiz-adv-x="856" d="M391 -91Q277 -91 200 -47T84 74T45 244Q45 358 83 445T186 593T336 683T514 714Q669 714 757 634T846 410Q846 351 830 296T783 196T706 126T604 100Q565 100 536 117T498 172H493Q472 139 444 120T368
100Q313 100 275 135T237 251Q237 302 254 350T305 438T385 500T492 523Q546 523 584 515T652 496L600 291Q595 269 591 254T587 222Q587 204 595 197T615 189Q642 189 664 208T703 260T729 330T738 408Q738 507 681 564T502 622Q403 622 325 577T200 450T154 255Q154
187 179 129T259 37T403 2Q465 2 515 13T618 44V-47Q571 -66 515 -78T391 -91ZM394 189Q433 189 457 225T498 321L526 429Q517 431 508 432T486 434Q451 434 425 417T382 372T357 314T348 257Q348 219 362 204T394 189Z" />
<glyph unicode="A" glyph-name="A" horiz-adv-x="628" d="M-60 0L314 714H496L568 0H423L411 170H180L96 0H-60ZM241 297H404L391 481Q389 510 387 540T386 601H384Q374 574 362 548T335 490L241 297Z" />
<glyph unicode="B" glyph-name="B" horiz-adv-x="620" d="M26 0L177 714H385Q487 714 549 678T611 555Q611 482 570 435T455 372V368Q504 355 533 321T562 233Q562 152 525 101T425 25T281 0H26ZM339 431Q392 431 424 452T457 523Q457 590 374 590H300L266 431H339ZM289
125Q344 125 377 152T411 232Q411 270 389 290T322 311H241L201 125H289Z" />
<glyph unicode="C" glyph-name="C" horiz-adv-x="612" d="M322 -10Q192 -10 126 66T60 270Q60 333 74 397T118 520T193 625T300 698T442 725Q510 725 557 713T652 674L594 552Q560 572 524 585T442 599Q382 599 339 569T267 491T226 387T212 278Q212 197 245 157T352
117Q393 117 434 128T517 155V28Q487 16 437 3T322 -10Z" />
<glyph unicode="D" glyph-name="D" horiz-adv-x="677" d="M26 0L177 714H370Q501 714 573 645T646 444Q646 309 600 209T464 55T246 0H26ZM253 125Q335 125 388 168T467 283T493 436Q493 515 457 552T356 590H300L201 125H253Z" />
<glyph unicode="E" glyph-name="E" horiz-adv-x="542" d="M26 0L177 714H576L550 590H300L267 433H500L473 309H240L201 125H451L425 0H26Z" />
<glyph unicode="F" glyph-name="F" horiz-adv-x="531" d="M26 0L177 714H574L548 590H300L261 406H492L465 282H234L175 0H26Z" />
<glyph unicode="G" glyph-name="G" horiz-adv-x="690" d="M324 -10Q200 -10 130 61T60 268Q60 359 86 441T166 587T297 688T478 725Q585 725 678 677L622 554Q586 574 550 585T471 597Q405 597 357 569T276 495T228 392T212 280Q212 201 246 159T356 117Q381 117
399 120T439 129L471 275H341L368 401H643L564 29Q515 13 461 2T324 -10Z" />
<glyph unicode="H" glyph-name="H" horiz-adv-x="700" d="M26 0L177 714H326L267 434H497L556 714H705L554 0H405L470 308H240L175 0H26Z" />
<glyph unicode="I" glyph-name="I" horiz-adv-x="383" d="M-29 0L-11 86L80 126L178 588L104 628L122 714H438L420 628L327 588L229 126L305 86L287 0H-29Z" />
<glyph unicode="J" glyph-name="J" horiz-adv-x="331" d="M-66 -210Q-97 -210 -118 -206T-157 -197V-73Q-140 -77 -121 -80T-77 -83Q-29 -83 1 -54T45 40L188 714H337L189 19Q163 -104 102 -157T-66 -210Z" />
<glyph unicode="K" glyph-name="K" horiz-adv-x="613" d="M26 0L177 714H326L251 369L327 471L529 714H705L415 372L557 0H392L289 289L228 255L175 0H26Z" />
<glyph unicode="L" glyph-name="L" horiz-adv-x="518" d="M26 0L177 714H326L201 125H451L425 0H26Z" />
<glyph unicode="M" glyph-name="M" horiz-adv-x="880" d="M26 0L177 714H374L406 180H410L678 714H885L734 0H597L668 338Q675 372 684 410T703 486T721 553H717L439 0H302L272 553H268Q266 532 260 496T247 416T230 332L160 0H26Z" />
<glyph unicode="N" glyph-name="N" horiz-adv-x="755" d="M26 0L177 714H351L517 188H521Q525 209 530 242T541 312T554 376L626 714H760L609 0H442L268 540H263Q262 534 259 512T252 458T242 395T231 336L160 0H26Z" />
<glyph unicode="O" glyph-name="O" horiz-adv-x="730" d="M325 -10Q195 -10 128 64T60 262Q60 346 82 428T151 577T269 684T438 725Q568 725 633 652T699 458Q699 371 677 288T610 137T494 30T325 -10ZM336 117Q394 117 442 158T518 276T547 454Q547 520 517 559T426
599Q380 599 341 573T273 499T228 392T212 262Q212 191 245 154T336 117Z" />
<glyph unicode="P" glyph-name="P" horiz-adv-x="610" d="M26 0L177 714H376Q463 714 515 688T591 615T615 506Q615 421 574 365T463 282T304 254H228L175 0H26ZM316 378Q383 378 424 411T465 502Q465 590 370 590H300L255 378H316Z" />
<glyph unicode="Q" glyph-name="Q" horiz-adv-x="730" d="M338 -10H325Q195 -10 128 64T60 262Q60 346 82 428T151 577T269 684T438 725Q568 725 633 652T699 458Q699 366 675 280T602 126T476 22L600 -170H425L338 -10ZM336 117Q394 117 442 158T518 276T547
454Q547 520 517 559T426 599Q380 599 341 573T273 499T228 392T212 262Q212 191 245 154T336 117Z" />
<glyph unicode="R" glyph-name="R" horiz-adv-x="609" d="M26 0L177 714H352Q459 714 521 668T584 518Q584 433 540 380T427 303L554 0H392L291 274H233L175 0H26ZM297 397Q361 397 396 425T432 510Q432 590 336 590H300L259 397H297Z" />
<glyph unicode="S" glyph-name="S" horiz-adv-x="530" d="M194 -10Q140 -10 96 2T20 34V168Q64 143 107 129T195 115Q245 115 278 134T311 193Q311 234 287 257T225 309Q195 331 167 358T121 421T103 507Q103 571 133 619T218 696T348 724Q404 724 451 712T542
676L489 562Q413 598 348 598Q308 598 282 577T256 518Q256 480 279 458T344 407Q403 368 432 321T462 211Q462 136 426 87T329 14T194 -10Z" />
<glyph unicode="T" glyph-name="T" horiz-adv-x="531" d="M130 0L254 588H82L109 714H602L575 588H403L279 0H130Z" />
<glyph unicode="U" glyph-name="U" horiz-adv-x="691" d="M295 -10Q184 -10 127 45T69 191Q69 207 70 226T76 263L172 714H321L226 265Q218 228 218 204Q218 117 310 117Q375 117 407 154T456 266L551 714H700L602 252Q586 176 550 117T452 24T295 -10Z" />
<glyph unicode="V" glyph-name="V" horiz-adv-x="590" d="M152 0L90 714H234L259 284Q261 253 261 214T258 146H262Q273 179 286 214T316 284L526 714H680L315 0H152Z" />
<glyph unicode="W" glyph-name="W" horiz-adv-x="894" d="M112 0L90 714H230L233 324Q233 287 232 241T226 155H230Q244 194 261 238T291 314L471 714H603L613 314Q614 297 614 270T612 213T609 155H613Q627 196 644 243T676 325L837 714H988L672 0H503L495 325Q494
369 494 397T493 449T494 497H490Q464 417 435 351L277 0H112Z" />
<glyph unicode="X" glyph-name="X" horiz-adv-x="606" d="M-57 0L224 373L108 714H264L339 461L516 714H684L418 360L549 0H387L303 265L110 0H-57Z" />
<glyph unicode="Y" glyph-name="Y" horiz-adv-x="564" d="M148 0L206 273L91 714H243L306 425L489 714H656L354 273L296 0H148Z" />
<glyph unicode="Z" glyph-name="Z" horiz-adv-x="536" d="M-30 0L-11 98L368 589H103L129 714H586L566 615L184 125H475L449 0H-30Z" />
<glyph unicode="[" glyph-name="bracketleft" horiz-adv-x="331" d="M-18 -158L168 714H399L377 611H272L130 -55H235L213 -158H-18Z" />
<glyph unicode="\" glyph-name="backslash" horiz-adv-x="421" d="M214 0L108 714H235L344 0H214Z" />
<glyph unicode="]" glyph-name="bracketright" horiz-adv-x="331" d="M-67 -158L-45 -55H59L201 611H96L118 714H349L163 -158H-67Z" />
<glyph unicode="^" glyph-name="asciicircum" horiz-adv-x="551" d="M17 254L319 718H391L526 254H417L332 563L136 254H17Z" />
<glyph unicode="_" glyph-name="underscore" horiz-adv-x="400" d="M-91 -158L-76 -90H325L310 -158H-91Z" />
<glyph unicode="`" glyph-name="grave" horiz-adv-x="322" d="M263 606Q243 626 220 652T177 706T145 756V766H297Q305 732 319 694T353 618V606H263Z" />
<glyph unicode="a" glyph-name="a" horiz-adv-x="594" d="M198 -10Q159 -10 124 9T66 72T44 188Q44 255 62 320T113 438T192 524T297 556Q349 556 381 534T432 476H436L464 546H577L461 0H351L358 71H354Q325 35 288 13T198 -10ZM256 109Q286 109 312 133T356
195T383 275Q390 311 390 357Q390 392 372 414T322 437Q295 437 272 416T231 359T203 281T193 195Q193 109 256 109Z" />
<glyph unicode="b" glyph-name="b" horiz-adv-x="595" d="M298 -10Q246 -10 214 12T163 70H159L131 0H18L179 760H326L296 619Q292 599 285 573T270 520T255 473H259Q285 506 316 531T397 556Q437 556 472 537T529 474T551 358Q551 291 533 226T482 108T403 22T298
-10ZM273 109Q300 109 323 130T364 187T392 265T402 351Q402 437 338 437Q302 437 277 411T236 346T213 265T205 195Q205 156 223 133T273 109Z" />
<glyph unicode="c" glyph-name="c" horiz-adv-x="483" d="M247 -10Q191 -10 145 10T71 75T44 191Q44 265 63 330T119 447T210 527T333 556Q382 556 420 547T493 521L448 409Q422 420 397 428T339 437Q293 437 260 403T210 315T193 203Q193 157 215 133T277 109Q314
109 345 120T411 149V29Q377 11 338 1T247 -10Z" />
<glyph unicode="d" glyph-name="d" horiz-adv-x="594" d="M198 -10Q159 -10 124 9T66 72T44 189Q44 255 62 320T113 439T192 524T297 556Q346 556 374 533T421 476H425Q425 479 426 497T431 540T438 585L475 760H622L461 0H349L358 71H354Q325 35 288 13T198 -10ZM260
109Q295 109 319 135T359 201T382 281T390 351Q390 390 372 413T322 437Q295 437 272 416T231 359T203 281T193 195Q193 109 260 109Z" />
<glyph unicode="e" glyph-name="e" horiz-adv-x="557" d="M260 -10Q164 -10 104 42T44 201Q44 270 63 333T121 447T217 526T349 556Q441 556 486 514T532 407Q532 321 455 269T218 217H193Q192 211 192 207T192 197Q192 153 217 127T289 101Q332 101 367 111T450
143V32Q407 11 363 1T260 -10ZM231 316Q316 316 353 342T391 404Q391 450 340 450Q313 450 286 433T239 386T209 316H231Z" />
<glyph unicode="f" glyph-name="f" horiz-adv-x="373" d="M-22 -240Q-73 -240 -107 -228V-110Q-77 -120 -51 -120Q-21 -120 1 -100T33 -37L133 434H53L68 505L157 546L166 587Q188 686 237 725T367 765Q401 765 429 759T482 741L443 632Q429 638 414 642T378 647Q350
647 333 628T310 576L304 546H411L387 434H280L175 -59Q165 -109 142 -150T80 -215T-22 -240Z" />
<glyph unicode="g" glyph-name="g" horiz-adv-x="594" d="M191 -240Q130 -240 90 -231T13 -205V-77Q51 -97 93 -108T183 -119Q234 -119 266 -96T312 -22L316 -7Q321 11 328 34T340 73H336Q310 39 276 15T191 -10Q152 -10 119 11T65 75T44 188Q44 255 62 320T113
438T192 524T294 556Q347 556 377 535T432 476H436L464 546H577L458 -13Q440 -99 403 -148T312 -219T191 -240ZM262 109Q293 109 316 132T356 193T381 272T390 351Q390 390 372 413T323 437Q295 437 272 416T231 359T203 281T193 195Q193 152 211 131T262 109Z"
/>
<glyph unicode="h" glyph-name="h" horiz-adv-x="604" d="M18 0L179 760H326L298 628Q294 606 286 577T270 521T255 473H259Q289 511 326 533T412 556Q483 556 518 514T553 399Q553 363 542 311L477 0H330L397 319Q405 354 405 377Q405 437 352 437Q319 437 292
409T246 332T213 226L165 0H18Z" />
<glyph unicode="i" glyph-name="i" horiz-adv-x="297" d="M231 614Q200 614 179 627T157 674Q157 716 180 738T246 760Q275 760 297 747T319 701Q319 662 298 638T231 614ZM18 0L134 546H281L165 0H18Z" />
<glyph unicode="j" glyph-name="j" horiz-adv-x="297" d="M232 614Q201 614 180 627T158 674Q158 716 181 738T247 760Q276 760 298 747T320 701Q320 662 299 638T232 614ZM-44 -240Q-95 -240 -129 -228V-110Q-99 -120 -73 -120Q-43 -120 -21 -100T11 -37L135
546H282L153 -59Q143 -109 120 -150T58 -215T-44 -240Z" />
<glyph unicode="k" glyph-name="k" horiz-adv-x="568" d="M18 0L179 760H326L254 421Q249 396 239 364T224 314H228L449 546H617L374 300L513 0H349L260 205L201 170L165 0H18Z" />
<glyph unicode="l" glyph-name="l" horiz-adv-x="297" d="M18 0L179 760H326L165 0H18Z" />
<glyph unicode="m" glyph-name="m" horiz-adv-x="905" d="M18 0L134 546H246L236 445H240Q272 494 313 525T412 556Q468 556 499 527T540 445H544Q575 494 618 525T718 556Q786 556 820 514T854 399Q854 363 843 311L778 0H631L698 319Q706 354 706 377Q706 437
658 437Q625 437 598 409T551 334T519 227L472 0H325L392 319Q400 354 400 377Q400 437 352 437Q319 437 292 409T246 332T213 226L165 0H18Z" />
<glyph unicode="n" glyph-name="n" horiz-adv-x="604" d="M18 0L134 546H246L236 445H240Q272 494 313 525T412 556Q483 556 518 514T553 399Q553 363 542 311L477 0H330L397 319Q405 354 405 377Q405 437 352 437Q319 437 292 409T246 332T213 226L165 0H18Z" />
<glyph unicode="o" glyph-name="o" horiz-adv-x="585" d="M253 -10Q192 -10 145 15T71 88T44 200Q44 272 62 336T116 450T206 528T334 556Q429 556 485 499T541 340Q541 271 524 208T472 96T382 19T253 -10ZM265 110Q306 110 334 143T378 228T393 340Q393 381
378 408T323 436Q290 436 265 414T224 355T200 278T192 200Q192 110 265 110Z" />
<glyph unicode="p" glyph-name="p" horiz-adv-x="595" d="M-33 -240L134 546H246L238 463H242Q268 498 306 527T397 556Q437 556 472 537T529 474T551 357Q551 291 533 226T482 107T403 22T298 -10Q248 -10 221 13T174 70H170Q167 30 162 -3T149 -74L114 -240H-33ZM273
109Q300 109 323 130T364 187T392 265T402 351Q402 437 338 437Q302 437 277 411T236 346T213 266T205 195Q205 156 223 133T273 109Z" />
<glyph unicode="q" glyph-name="q" horiz-adv-x="594" d="M299 -75Q303 -57 310 -31T325 24T340 73H336Q310 39 276 15T191 -10Q155 -10 122 9T66 72T44 188Q44 255 62 320T113 438T192 524T297 556Q346 556 377 535T432 476H436L464 546H577L410 -240H263L299
-75ZM261 109Q296 109 320 135T360 201T382 281T390 351Q390 390 372 413T322 437Q295 437 272 416T231 359T203 281T193 195Q193 152 211 131T261 109Z" />
<glyph unicode="r" glyph-name="r" horiz-adv-x="421" d="M18 0L134 546H246L236 445H241Q274 497 316 526T411 556Q423 556 436 555T458 551L426 409Q418 412 405 414T377 417Q322 417 279 374T217 244L165 0H18Z" />
<glyph unicode="s" glyph-name="s" horiz-adv-x="473" d="M175 -10Q123 -10 84 -3T11 22V143Q48 122 87 111T167 99Q202 99 229 113T256 158Q256 178 240 194T174 238Q123 267 96 298T68 382Q68 467 123 511T276 556Q323 556 367 546T453 510L405 405Q376 422
344 434T279 446Q255 446 236 435T217 400Q217 381 233 367T291 330Q341 305 373 271T405 180Q405 86 343 38T175 -10Z" />
<glyph unicode="t" glyph-name="t" horiz-adv-x="410" d="M200 -10Q136 -10 97 17T58 116Q58 141 64 171L120 434H46L60 506L156 547L220 662H315L291 546H429L405 434H267L211 171Q208 156 208 145Q208 126 220 118T251 109Q271 109 289 113T330 126V16Q307 5
274 -2T200 -10Z" />
<glyph unicode="u" glyph-name="u" horiz-adv-x="604" d="M193 -10Q123 -10 89 32T54 147Q54 165 57 193T66 251L128 546H275L208 227Q200 192 200 169Q200 109 253 109Q287 109 313 137T360 214T392 320L440 546H587L471 0H359L369 101H364Q333 52 292 21T193 -10Z" />
<glyph unicode="v" glyph-name="v" horiz-adv-x="512" d="M117 0L50 546H194L216 260Q218 241 218 208T219 147H224Q233 172 245 204T267 256L412 546H570L275 0H117Z" />
<glyph unicode="w" glyph-name="w" horiz-adv-x="788" d="M86 0L61 546H198L200 304Q200 264 200 225T195 139H199Q206 164 217 194T237 250T251 284L364 546H524V284Q524 250 524 215T519 139H524Q531 162 541 193T563 254T582 304L689 546H839L580 0H419L416
254Q416 275 416 304T418 365T421 420H415Q407 396 397 367T376 310T358 264L244 0H86Z" />
<glyph unicode="x" glyph-name="x" horiz-adv-x="531" d="M-49 0L185 280L75 546H232L288 383L407 546H580L352 272L471 0H312L251 167L122 0H-49Z" />
<glyph unicode="y" glyph-name="y" horiz-adv-x="519" d="M3 -240Q-23 -240 -40 -238T-69 -231V-114Q-56 -116 -43 -118T-12 -120Q35 -120 65 -93T117 -24L130 0L50 546H194L221 293Q225 259 226 219T227 150H231Q241 175 253 208T284 283L411 546H571L239 -78Q195
-161 136 -200T3 -240Z" />
<glyph unicode="z" glyph-name="z" horiz-adv-x="455" d="M-23 0L-6 88L275 432H81L106 546H472L451 448L175 114H389L365 0H-23Z" />
<glyph unicode="{" glyph-name="braceleft" horiz-adv-x="355" d="M231 -158Q141 -158 103 -124T65 -37Q65 -20 67 -5T72 24L91 114Q93 125 95 136T98 156Q98 224 -4 224L18 336Q77 336 112 356T157 424L187 563Q204 638 246 676T383 714H424L400 604Q363 603
341 590T309 535L277 390Q265 336 231 309T142 275V271Q183 258 203 231T224 165Q224 152 222 139T217 110L199 23Q196 8 196 -2Q196 -28 212 -38T257 -48V-158H231Z" />
<glyph unicode="|" glyph-name="bar" horiz-adv-x="551" d="M222 -227V757H329V-227H222Z" />
<glyph unicode="}" glyph-name="braceright" horiz-adv-x="355" d="M-49 -48Q-12 -47 13 -34T47 21L79 166Q91 220 125 247T214 281V285Q173 298 153 325T132 391Q132 404 134 417T139 446L157 533Q160 548 160 558Q160 584 142 594T89 604L109 714H125Q215 714
253 680T291 593Q291 577 289 562T284 532L265 442Q263 431 261 420T258 400Q258 332 360 332L338 220Q279 220 245 200T199 132L169 -7Q153 -82 111 -120T-27 -158H-49V-48Z" />
<glyph unicode="~" glyph-name="asciitilde" horiz-adv-x="572" d="M278 301Q241 317 216 322T167 328Q139 328 109 311T53 269V382Q103 435 178 435Q207 435 236 430T313 404Q350 388 376 383T424 377Q453 377 483 394T538 436V323Q488 270 413 270Q384 270 355
276T278 301Z" />
<glyph unicode="&#xa0;" glyph-name="uni00A0" horiz-adv-x="260" />
<glyph unicode="&#xa1;" glyph-name="exclamdown" horiz-adv-x="286" d="M168 380Q135 380 115 398T95 451Q95 492 121 519T192 546Q234 546 251 525T268 477Q268 441 246 411T168 380ZM-36 -181L89 296H207L130 -181H-36Z" />
<glyph unicode="&#xa2;" glyph-name="cent" horiz-adv-x="551" d="M213 93Q155 109 118 154T80 285Q80 376 109 454T193 584T328 647L344 724H436L419 647Q451 643 477 635T529 615L484 503Q458 514 433 522T375 531Q329 531 296 497T246 409T229 297Q229 251
251 227T313 203Q350 203 381 214T447 243V123Q416 107 381 97T301 84L281 -10H189L213 93Z" />
<glyph unicode="&#xa3;" glyph-name="sterling" horiz-adv-x="551" d="M18 120Q62 131 93 161T137 249L148 300H54L76 407H170L194 528Q214 623 272 674T426 725Q479 725 525 713T606 683L551 570Q522 584 492 593T435 603Q398 603 375 584T342 519L319 407H465L443
300H297L288 259Q278 210 251 177T186 127H506L479 0H-6L18 120Z" />
<glyph unicode="&#xa4;" glyph-name="currency" horiz-adv-x="551" d="M382 185Q361 174 337 167T286 160Q230 160 189 185L128 125L57 196L119 257Q93 301 93 353Q93 379 100 403T119 449L56 511L128 583L190 521Q211 533 236 540T286 547Q337 547 382 520L444
583L517 513L454 450Q466 430 473 405T480 353Q480 300 454 256L515 195L444 124L382 185ZM286 261Q325 261 352 288T380 353Q380 392 353 419T286 446Q248 446 221 419T194 353Q194 315 221 288T286 261Z" />
<glyph unicode="&#xa5;" glyph-name="yen" horiz-adv-x="551" d="M143 0L166 108H43L61 195H184L198 262H75L94 349H190L96 714H241L297 426L478 714H630L383 349H482L463 262H340L326 195H449L431 108H308L285 0H143Z" />
<glyph unicode="&#xa6;" glyph-name="brokenbar" horiz-adv-x="551" d="M222 359V757H329V359H222ZM222 -227V171H329V-227H222Z" />
<glyph unicode="&#xa7;" glyph-name="section" horiz-adv-x="486" d="M174 -10Q120 -10 80 0T10 27V136Q45 115 88 100T178 85Q226 85 248 102T271 147Q271 167 254 183T193 221Q136 249 105 284T73 369Q73 418 100 453T172 516Q152 533 138 557T124 610Q124 660
151 694T225 747T334 765Q383 765 423 754T502 722L462 628Q435 644 401 656T324 669Q293 669 274 657T254 617Q254 597 274 581T336 546Q454 494 454 400Q454 345 425 311T360 254Q379 237 391 213T404 159Q404 105 375 67T294 10T174 -10ZM283 299Q302 311 317
332T333 382Q333 409 311 430T247 468Q222 456 207 435T192 387Q192 362 212 342T283 299Z" />
<glyph unicode="&#xa8;" glyph-name="dieresis" horiz-adv-x="554" d="M452 621Q425 621 408 633T390 675Q390 713 409 732T464 752Q489 752 507 741T525 699Q525 664 508 643T452 621ZM265 621Q238 621 221 633T203 675Q203 713 222 732T277 752Q302 752 320
741T338 699Q338 664 321 643T265 621Z" />
<glyph unicode="&#xa9;" glyph-name="copyright" horiz-adv-x="832" d="M416 -10Q336 -10 269 17T153 93T76 210T49 357Q49 433 76 499T154 616T271 695T416 724Q492 724 558 697T675 621T754 504T783 357Q783 277 756 210T680 94T563 17T416 -10ZM416 54Q498
54 565 93T673 200T713 357Q713 420 691 475T628 572T534 637T416 661Q331 661 263 622T156 515T117 357Q117 269 155 201T261 93T416 54ZM431 128Q329 128 279 191T228 357Q228 424 252 475T322 556T435 586Q500 586 558 556L529 489Q479 515 436 515Q377 515
345 473T312 357Q312 281 340 240T435 198Q458 198 486 204T540 221V152Q516 142 491 135T431 128Z" />
<glyph unicode="&#xaa;" glyph-name="ordfeminine" horiz-adv-x="377" d="M180 365Q153 365 129 377T89 419T74 496Q74 529 83 567T113 640T165 697T243 720Q275 720 295 707T330 670H334L353 714H428L351 371H279L283 416H279Q261 393 237 379T180 365ZM216 439Q238
439 254 455T281 497T297 548T302 593Q302 616 292 630T259 645Q233 645 214 622T185 563T174 493Q174 439 216 439Z" />
<glyph unicode="&#xab;" glyph-name="guillemotleft" horiz-adv-x="562" d="M134 44L35 269V278L231 504L324 428L188 265L254 94L134 44ZM372 44L273 269V278L469 504L562 428L426 265L492 94L372 44Z" />
<glyph unicode="&#xac;" glyph-name="logicalnot" horiz-adv-x="572" d="M538 406V121H431V299H53V406H538Z" />
<glyph unicode="&#xad;" glyph-name="uni00AD" horiz-adv-x="322" d="M20 207L46 329H302L276 207H20Z" />
<glyph unicode="&#xae;" glyph-name="registered" horiz-adv-x="832" d="M416 -10Q336 -10 269 17T153 93T76 210T49 357Q49 433 76 499T154 616T271 695T416 724Q492 724 558 697T675 621T754 504T783 357Q783 277 756 210T680 94T563 17T416 -10ZM416 54Q498
54 565 93T673 200T713 357Q713 420 691 475T628 572T534 637T416 661Q331 661 263 622T156 515T117 357Q117 269 155 201T261 93T416 54ZM274 138V580H407Q489 580 527 546T565 446Q565 399 541 372T487 332L603 138H512L417 306H355V138H274ZM405 373Q444 373
463 393T483 444Q483 479 466 495T404 511H355V373H405Z" />
<glyph unicode="&#xaf;" glyph-name="overscore" horiz-adv-x="500" d="M87 760L109 858H615L593 760H87Z" />
<glyph unicode="&#xb0;" glyph-name="degree" horiz-adv-x="428" d="M214 387Q163 387 124 408T62 468T39 555Q39 604 61 642T123 702T214 724Q266 724 305 703T366 643T388 555Q388 506 366 468T305 409T214 387ZM214 480Q246 480 268 500T290 555Q290 591 268
611T214 632Q183 632 161 612T138 555Q138 521 160 501T214 480Z" />
<glyph unicode="&#xb1;" glyph-name="plusminus" horiz-adv-x="572" d="M349 436H538V329H349V141H242V329H53V436H242V626H349V436ZM53 0V107H538V0H53Z" />
<glyph unicode="&#xb2;" glyph-name="uni00B2" horiz-adv-x="379" d="M56 415L73 496L206 603Q254 642 279 666T304 719Q304 739 292 749T262 759Q220 759 170 719L121 796Q157 824 197 838T291 853Q352 853 387 822T423 744Q423 703 408 674T362 618T286 559L223
513H392L372 415H56Z" />
<glyph unicode="&#xb3;" glyph-name="uni00B3" horiz-adv-x="379" d="M202 407Q165 407 131 414T72 434V528Q101 512 131 503T196 493Q231 493 256 507T281 551Q281 569 269 581T225 594H163L180 672H224Q265 672 288 685T312 727Q312 747 300 756T265 766Q243
766 220 758T173 734L133 807Q168 830 205 841T286 852Q337 852 367 838T410 800T424 749Q424 698 393 673T318 636V632Q359 623 376 601T393 547Q393 498 366 467T294 422T202 407Z" />
<glyph unicode="&#xb4;" glyph-name="acute" horiz-adv-x="322" d="M113 618Q138 646 168 688T221 766H385V758Q374 745 354 725T308 682T259 640T215 606H113V618Z" />
<glyph unicode="&#xb5;" glyph-name="uni00B5" horiz-adv-x="610" d="M-33 -240L134 546H281L215 231Q207 194 207 170Q207 141 222 125T261 109Q296 109 322 138T368 214T398 317L446 546H593L477 0H367L376 86H371Q344 40 312 15T241 -10Q216 -10 198 0T169
23H164Q161 0 157 -29T148 -84L115 -240H-33Z" />
<glyph unicode="&#xb6;" glyph-name="paragraph" horiz-adv-x="655" d="M348 273Q318 264 277 264Q215 264 169 287T98 364T72 509Q72 605 99 659T177 737T292 760H587V-127H508V662H427V-127H348V273Z" />
<glyph unicode="&#xb7;" glyph-name="middot" horiz-adv-x="285" d="M140 270Q98 270 81 291T64 339Q64 375 86 405T164 436Q197 436 217 418T237 365Q237 324 211 297T140 270Z" />
<glyph unicode="&#xb8;" glyph-name="cedilla" horiz-adv-x="205" d="M-27 -240Q-50 -240 -70 -237T-101 -229V-147Q-90 -151 -74 -154T-40 -158Q10 -158 10 -118Q10 -101 -5 -90T-59 -75L-12 0H78L59 -35Q88 -45 108 -65T128 -122Q128 -172 92 -206T-27 -240Z" />
<glyph unicode="&#xb9;" glyph-name="uni00B9" horiz-adv-x="379" d="M217 609Q224 640 231 666T244 710Q235 703 224 695T205 681L141 641L91 722L286 843H387L296 415H176L217 609Z" />
<glyph unicode="&#xba;" glyph-name="ordmasculine" horiz-adv-x="368" d="M215 365Q150 365 117 402T83 505Q83 563 104 612T166 690T269 720Q339 720 369 681T399 581Q399 549 390 512T361 441T305 386T215 365ZM224 445Q248 445 264 467T288 523T296 588Q296
640 259 640Q235 640 219 617T194 562T185 499Q185 445 224 445Z" />
<glyph unicode="&#xbb;" glyph-name="guillemotright" horiz-adv-x="562" d="M331 44L238 120L374 283L308 454L428 504L527 279V270L331 44ZM93 44L0 120L136 283L70 454L190 504L289 279V270L93 44Z" />
<glyph unicode="&#xbc;" glyph-name="onequarter" horiz-adv-x="834" d="M107 0L638 714H753L224 0H107ZM197 479Q204 510 211 536T224 580Q215 573 204 565T185 551L121 511L71 592L266 713H367L276 285H156L197 479ZM591 1L607 75H425L440 160L672 432H799L740
157H798L781 75H723L707 1H591ZM539 157H624L644 237Q649 257 652 269T663 306Q654 293 642 278T621 252L539 157Z" />
<glyph unicode="&#xbd;" glyph-name="onehalf" horiz-adv-x="891" d="M105 0L636 714H751L222 0H105ZM197 479Q204 510 211 536T224 580Q215 573 204 565T185 551L121 511L71 592L266 713H367L276 285H156L197 479ZM482 -1L499 80L632 187Q680 226 705 250T730
303Q730 323 718 333T688 343Q646 343 596 303L547 380Q583 408 623 422T717 437Q778 437 813 406T849 328Q849 287 834 258T788 202T712 143L649 97H818L798 -1H482Z" />
<glyph unicode="&#xbe;" glyph-name="threequarters" horiz-adv-x="863" d="M177 278Q140 278 106 285T47 305V399Q76 383 106 374T171 364Q206 364 231 378T256 422Q256 440 244 452T200 465H138L155 543H199Q240 543 263 556T287 598Q287 618 275 627T240 637Q218
637 195 629T148 605L108 678Q143 701 180 712T261 723Q312 723 342 709T385 671T399 620Q399 569 368 544T293 507V503Q334 494 351 472T368 418Q368 369 341 338T269 293T177 278ZM136 0L667 714H782L253 0H136ZM620 0L636 74H454L469 159L701 431H828L769 156H827L810
74H752L736 0H620ZM568 156H653L673 236Q678 256 681 268T692 305Q683 292 671 277T650 251L568 156Z" />
<glyph unicode="&#xbf;" glyph-name="questiondown" horiz-adv-x="459" d="M310 547Q352 547 369 526T386 478Q386 442 364 412T286 381Q253 381 233 399T213 452Q213 493 239 520T310 547ZM336 297Q323 228 296 183T209 97Q160 64 138 42T116 -12Q116 -39 131
-54T181 -70Q216 -70 252 -56T331 -21L376 -129Q331 -154 277 -172T159 -190Q71 -190 22 -147T-28 -28Q-28 22 -9 57T43 121T119 177Q149 197 166 213T193 249T210 297H336Z" />
<glyph unicode="&#xc0;" glyph-name="Agrave" horiz-adv-x="628" d="M-60 0L314 714H496L568 0H423L411 170H180L96 0H-60ZM241 297H404L391 481Q389 510 387 540T386 601H384Q374 574 362 548T335 490L241 297ZM414 774Q394 794 371 820T328 874T296 924V934H448Q456
900 470 862T504 786V774H414Z" />
<glyph unicode="&#xc1;" glyph-name="Aacute" horiz-adv-x="628" d="M-60 0L314 714H496L568 0H423L411 170H180L96 0H-60ZM241 297H404L391 481Q389 510 387 540T386 601H384Q374 574 362 548T335 490L241 297ZM340 786Q365 814 395 856T448 934H612V926Q601
913 581 893T535 850T486 808T442 774H340V786Z" />
<glyph unicode="&#xc2;" glyph-name="Acircumflex" horiz-adv-x="628" d="M-60 0L314 714H496L568 0H423L411 170H180L96 0H-60ZM241 297H404L391 481Q389 510 387 540T386 601H384Q374 574 362 548T335 490L241 297ZM215 786Q235 805 262 831T315 884T359 934H524Q539
899 564 857T610 786V774H513Q496 789 474 812T434 856Q405 832 378 813T321 774H215V786Z" />
<glyph unicode="&#xc3;" glyph-name="Atilde" horiz-adv-x="628" d="M-60 0L314 714H496L568 0H423L411 170H180L96 0H-60ZM241 297H404L391 481Q389 510 387 540T386 601H384Q374 574 362 548T335 490L241 297ZM227 773Q242 852 277 888T364 924Q396 924 419
911T462 886T501 873Q532 873 552 925H636Q619 845 584 810T496 774Q464 774 442 786T400 812T359 825Q327 825 313 773H227Z" />
<glyph unicode="&#xc4;" glyph-name="Adieresis" horiz-adv-x="628" d="M-60 0L314 714H496L568 0H423L411 170H180L96 0H-60ZM241 297H404L391 481Q389 510 387 540T386 601H384Q374 574 362 548T335 490L241 297ZM520 789Q493 789 476 801T458 843Q458 881 477
900T532 920Q557 920 575 909T593 867Q593 832 576 811T520 789ZM333 789Q306 789 289 801T271 843Q271 881 290 900T345 920Q370 920 388 909T406 867Q406 832 389 811T333 789Z" />
<glyph unicode="&#xc5;" glyph-name="Aring" horiz-adv-x="628" d="M-60 0L314 714H496L568 0H423L411 170H180L96 0H-60ZM241 297H404L391 481Q389 510 387 540T386 601H384Q374 574 362 548T335 490L241 297ZM432 773Q378 773 345 804T311 889Q311 943 344 974T432
1005Q484 1005 520 974T556 890Q556 835 521 804T432 773ZM432 842Q452 842 465 854T479 889Q479 911 466 923T432 936Q412 936 399 924T385 889Q385 867 397 855T432 842Z" />
<glyph unicode="&#xc6;" glyph-name="AE" horiz-adv-x="895" d="M-60 0L390 714H929L903 590H653L620 433H853L826 309H593L554 125H804L778 0H379L415 170H207L100 0H-60ZM287 297H442L504 590H465L287 297Z" />
<glyph unicode="&#xc7;" glyph-name="Ccedilla" horiz-adv-x="612" d="M322 -10Q192 -10 126 66T60 270Q60 333 74 397T118 520T193 625T300 698T442 725Q510 725 557 713T652 674L594 552Q560 572 524 585T442 599Q382 599 339 569T267 491T226 387T212 278Q212
197 245 157T352 117Q393 117 434 128T517 155V28Q487 16 437 3T322 -10ZM264 -240Q241 -240 221 -237T190 -229V-147Q201 -151 217 -154T251 -158Q301 -158 301 -118Q301 -101 286 -90T232 -75L279 0H369L350 -35Q379 -45 399 -65T419 -122Q419 -172 383 -206T264
-240Z" />
<glyph unicode="&#xc8;" glyph-name="Egrave" horiz-adv-x="542" d="M26 0L177 714H576L550 590H300L267 433H500L473 309H240L201 125H451L425 0H26ZM374 774Q354 794 331 820T288 874T256 924V934H408Q416 900 430 862T464 786V774H374Z" />
<glyph unicode="&#xc9;" glyph-name="Eacute" horiz-adv-x="542" d="M26 0L177 714H576L550 590H300L267 433H500L473 309H240L201 125H451L425 0H26ZM300 786Q325 814 355 856T408 934H572V926Q561 913 541 893T495 850T446 808T402 774H300V786Z" />
<glyph unicode="&#xca;" glyph-name="Ecircumflex" horiz-adv-x="542" d="M26 0L177 714H576L550 590H300L267 433H500L473 309H240L201 125H451L425 0H26ZM175 786Q195 805 222 831T275 884T319 934H484Q499 899 524 857T570 786V774H473Q456 789 434 812T394
856Q365 832 338 813T281 774H175V786Z" />
<glyph unicode="&#xcb;" glyph-name="Edieresis" horiz-adv-x="542" d="M26 0L177 714H576L550 590H300L267 433H500L473 309H240L201 125H451L425 0H26ZM480 789Q453 789 436 801T418 843Q418 881 437 900T492 920Q517 920 535 909T553 867Q553 832 536 811T480
789ZM293 789Q266 789 249 801T231 843Q231 881 250 900T305 920Q330 920 348 909T366 867Q366 832 349 811T293 789Z" />
<glyph unicode="&#xcc;" glyph-name="Igrave" horiz-adv-x="383" d="M-29 0L-11 86L80 126L178 588L104 628L122 714H438L420 628L327 588L229 126L305 86L287 0H-29ZM285 774Q265 794 242 820T199 874T167 924V934H319Q327 900 341 862T375 786V774H285Z" />
<glyph unicode="&#xcd;" glyph-name="Iacute" horiz-adv-x="383" d="M-29 0L-11 86L80 126L178 588L104 628L122 714H438L420 628L327 588L229 126L305 86L287 0H-29ZM211 786Q236 814 266 856T319 934H483V926Q472 913 452 893T406 850T357 808T313 774H211V786Z" />
<glyph unicode="&#xce;" glyph-name="Icircumflex" horiz-adv-x="383" d="M-29 0L-11 86L80 126L178 588L104 628L122 714H438L420 628L327 588L229 126L305 86L287 0H-29ZM86 786Q106 805 133 831T186 884T230 934H395Q410 899 435 857T481 786V774H384Q367 789
345 812T305 856Q276 832 249 813T192 774H86V786Z" />
<glyph unicode="&#xcf;" glyph-name="Idieresis" horiz-adv-x="383" d="M-29 0L-11 86L80 126L178 588L104 628L122 714H438L420 628L327 588L229 126L305 86L287 0H-29ZM391 789Q364 789 347 801T329 843Q329 881 348 900T403 920Q428 920 446 909T464 867Q464
832 447 811T391 789ZM204 789Q177 789 160 801T142 843Q142 881 161 900T216 920Q241 920 259 909T277 867Q277 832 260 811T204 789Z" />
<glyph unicode="&#xd0;" glyph-name="Eth" horiz-adv-x="677" d="M26 0L88 291H18L45 415H114L177 714H370Q501 714 573 645T646 444Q646 309 600 209T464 55T246 0H26ZM253 125Q335 125 388 168T467 283T493 436Q493 515 457 552T356 590H300L263 415H379L353
291H236L201 125H253Z" />
<glyph unicode="&#xd1;" glyph-name="Ntilde" horiz-adv-x="755" d="M26 0L177 714H351L517 188H521Q525 209 530 242T541 312T554 376L626 714H760L609 0H442L268 540H263Q262 534 259 512T252 458T242 395T231 336L160 0H26ZM296 773Q311 852 346 888T433 924Q465
924 488 911T531 886T570 873Q601 873 621 925H705Q688 845 653 810T565 774Q533 774 511 786T469 812T428 825Q396 825 382 773H296Z" />
<glyph unicode="&#xd2;" glyph-name="Ograve" horiz-adv-x="730" d="M325 -10Q195 -10 128 64T60 262Q60 346 82 428T151 577T269 684T438 725Q568 725 633 652T699 458Q699 371 677 288T610 137T494 30T325 -10ZM336 117Q394 117 442 158T518 276T547 454Q547
520 517 559T426 599Q380 599 341 573T273 499T228 392T212 262Q212 191 245 154T336 117ZM465 774Q445 794 422 820T379 874T347 924V934H499Q507 900 521 862T555 786V774H465Z" />
<glyph unicode="&#xd3;" glyph-name="Oacute" horiz-adv-x="730" d="M325 -10Q195 -10 128 64T60 262Q60 346 82 428T151 577T269 684T438 725Q568 725 633 652T699 458Q699 371 677 288T610 137T494 30T325 -10ZM336 117Q394 117 442 158T518 276T547 454Q547
520 517 559T426 599Q380 599 341 573T273 499T228 392T212 262Q212 191 245 154T336 117ZM391 786Q416 814 446 856T499 934H663V926Q652 913 632 893T586 850T537 808T493 774H391V786Z" />
<glyph unicode="&#xd4;" glyph-name="Ocircumflex" horiz-adv-x="730" d="M325 -10Q195 -10 128 64T60 262Q60 346 82 428T151 577T269 684T438 725Q568 725 633 652T699 458Q699 371 677 288T610 137T494 30T325 -10ZM336 117Q394 117 442 158T518 276T547 454Q547
520 517 559T426 599Q380 599 341 573T273 499T228 392T212 262Q212 191 245 154T336 117ZM266 786Q286 805 313 831T366 884T410 934H575Q590 899 615 857T661 786V774H564Q547 789 525 812T485 856Q456 832 429 813T372 774H266V786Z" />
<glyph unicode="&#xd5;" glyph-name="Otilde" horiz-adv-x="730" d="M325 -10Q195 -10 128 64T60 262Q60 346 82 428T151 577T269 684T438 725Q568 725 633 652T699 458Q699 371 677 288T610 137T494 30T325 -10ZM336 117Q394 117 442 158T518 276T547 454Q547
520 517 559T426 599Q380 599 341 573T273 499T228 392T212 262Q212 191 245 154T336 117ZM278 773Q293 852 328 888T415 924Q447 924 470 911T513 886T552 873Q583 873 603 925H687Q670 845 635 810T547 774Q515 774 493 786T451 812T410 825Q378 825 364 773H278Z"
/>
<glyph unicode="&#xd6;" glyph-name="Odieresis" horiz-adv-x="730" d="M325 -10Q195 -10 128 64T60 262Q60 346 82 428T151 577T269 684T438 725Q568 725 633 652T699 458Q699 371 677 288T610 137T494 30T325 -10ZM336 117Q394 117 442 158T518 276T547 454Q547
520 517 559T426 599Q380 599 341 573T273 499T228 392T212 262Q212 191 245 154T336 117ZM577 789Q550 789 533 801T515 843Q515 881 534 900T589 920Q614 920 632 909T650 867Q650 832 633 811T577 789ZM390 789Q363 789 346 801T328 843Q328 881 347 900T402
920Q427 920 445 909T463 867Q463 832 446 811T390 789Z" />
<glyph unicode="&#xd7;" glyph-name="multiply" horiz-adv-x="572" d="M443 575L518 502L369 353L516 205L443 131L294 278L147 132L74 206L219 353L73 500L147 575L294 429L443 575Z" />
<glyph unicode="&#xd8;" glyph-name="Oslash" horiz-adv-x="730" d="M124 -42L49 14L108 88Q60 156 60 262Q60 346 82 428T151 577T269 684T438 725Q527 725 587 688L638 752L712 695L655 624Q678 590 688 549T699 458Q699 371 677 288T610 137T494 30T325 -10Q238
-10 177 25L124 -42ZM502 581Q488 590 469 596T425 602Q376 602 336 575T267 501T223 392T207 262Q207 251 208 239T211 213L502 581ZM338 114Q399 114 447 156T524 275T553 454Q553 462 553 473T551 493L263 132Q292 114 338 114Z" />
<glyph unicode="&#xd9;" glyph-name="Ugrave" horiz-adv-x="691" d="M295 -10Q184 -10 127 45T69 191Q69 207 70 226T76 263L172 714H321L226 265Q218 228 218 204Q218 117 310 117Q375 117 407 154T456 266L551 714H700L602 252Q586 176 550 117T452 24T295 -10ZM442
774Q422 794 399 820T356 874T324 924V934H476Q484 900 498 862T532 786V774H442Z" />
<glyph unicode="&#xda;" glyph-name="Uacute" horiz-adv-x="691" d="M295 -10Q184 -10 127 45T69 191Q69 207 70 226T76 263L172 714H321L226 265Q218 228 218 204Q218 117 310 117Q375 117 407 154T456 266L551 714H700L602 252Q586 176 550 117T452 24T295 -10ZM368
786Q393 814 423 856T476 934H640V926Q629 913 609 893T563 850T514 808T470 774H368V786Z" />
<glyph unicode="&#xdb;" glyph-name="Ucircumflex" horiz-adv-x="691" d="M295 -10Q184 -10 127 45T69 191Q69 207 70 226T76 263L172 714H321L226 265Q218 228 218 204Q218 117 310 117Q375 117 407 154T456 266L551 714H700L602 252Q586 176 550 117T452 24T295
-10ZM243 786Q263 805 290 831T343 884T387 934H552Q567 899 592 857T638 786V774H541Q524 789 502 812T462 856Q433 832 406 813T349 774H243V786Z" />
<glyph unicode="&#xdc;" glyph-name="Udieresis" horiz-adv-x="691" d="M295 -10Q184 -10 127 45T69 191Q69 207 70 226T76 263L172 714H321L226 265Q218 228 218 204Q218 117 310 117Q375 117 407 154T456 266L551 714H700L602 252Q586 176 550 117T452 24T295
-10ZM554 789Q527 789 510 801T492 843Q492 881 511 900T566 920Q591 920 609 909T627 867Q627 832 610 811T554 789ZM367 789Q340 789 323 801T305 843Q305 881 324 900T379 920Q404 920 422 909T440 867Q440 832 423 811T367 789Z" />
<glyph unicode="&#xdd;" glyph-name="Yacute" horiz-adv-x="564" d="M148 0L206 273L91 714H243L306 425L489 714H656L354 273L296 0H148ZM298 786Q323 814 353 856T406 934H570V926Q559 913 539 893T493 850T444 808T400 774H298V786Z" />
<glyph unicode="&#xde;" glyph-name="Thorn" horiz-adv-x="606" d="M26 0L177 714H326L302 602H343Q430 602 482 576T558 503T582 394Q582 309 541 254T430 171T271 143H205L175 0H26ZM283 267Q350 267 391 299T432 390Q432 478 337 478H277L232 267H283Z" />
<glyph unicode="&#xdf;" glyph-name="germandbls" horiz-adv-x="659" d="M-49 -240Q-67 -240 -89 -237T-127 -228V-110Q-97 -120 -71 -120Q-41 -120 -20 -100T12 -33L136 556Q159 663 223 714T413 765Q516 765 575 721T635 604Q635 541 607 505T524 436Q499 421
483 408T466 376Q466 365 476 352T515 318Q556 287 580 254T604 171Q604 93 547 42T379 -10Q288 -10 234 20V137Q261 121 293 110T360 99Q410 99 432 115T455 157Q455 178 441 195T389 241Q351 270 330 299T309 366Q309 416 337 445T410 499Q442 517 461 536T480
583Q480 613 461 631T400 649Q360 649 337 634T301 594T282 540L158 -55Q147 -109 123 -151T58 -216T-49 -240Z" />
<glyph unicode="&#xe0;" glyph-name="agrave" horiz-adv-x="594" d="M198 -10Q159 -10 124 9T66 72T44 188Q44 255 62 320T113 438T192 524T297 556Q349 556 381 534T432 476H436L464 546H577L461 0H351L358 71H354Q325 35 288 13T198 -10ZM256 109Q286 109 312
133T356 195T383 275Q390 311 390 357Q390 392 372 414T322 437Q295 437 272 416T231 359T203 281T193 195Q193 109 256 109ZM361 606Q341 626 318 652T275 706T243 756V766H395Q403 732 417 694T451 618V606H361Z" />
<glyph unicode="&#xe1;" glyph-name="aacute" horiz-adv-x="594" d="M198 -10Q159 -10 124 9T66 72T44 188Q44 255 62 320T113 438T192 524T297 556Q349 556 381 534T432 476H436L464 546H577L461 0H351L358 71H354Q325 35 288 13T198 -10ZM256 109Q286 109 312
133T356 195T383 275Q390 311 390 357Q390 392 372 414T322 437Q295 437 272 416T231 359T203 281T193 195Q193 109 256 109ZM287 618Q312 646 342 688T395 766H559V758Q548 745 528 725T482 682T433 640T389 606H287V618Z" />
<glyph unicode="&#xe2;" glyph-name="acircumflex" horiz-adv-x="594" d="M198 -10Q159 -10 124 9T66 72T44 188Q44 255 62 320T113 438T192 524T297 556Q349 556 381 534T432 476H436L464 546H577L461 0H351L358 71H354Q325 35 288 13T198 -10ZM256 109Q286 109
312 133T356 195T383 275Q390 311 390 357Q390 392 372 414T322 437Q295 437 272 416T231 359T203 281T193 195Q193 109 256 109ZM162 618Q182 637 209 663T262 716T306 766H471Q486 731 511 689T557 618V606H460Q443 621 421 644T381 688Q352 664 325 645T268
606H162V618Z" />
<glyph unicode="&#xe3;" glyph-name="atilde" horiz-adv-x="594" d="M198 -10Q159 -10 124 9T66 72T44 188Q44 255 62 320T113 438T192 524T297 556Q349 556 381 534T432 476H436L464 546H577L461 0H351L358 71H354Q325 35 288 13T198 -10ZM256 109Q286 109 312
133T356 195T383 275Q390 311 390 357Q390 392 372 414T322 437Q295 437 272 416T231 359T203 281T193 195Q193 109 256 109ZM174 605Q189 684 224 720T311 756Q343 756 366 743T409 718T448 705Q479 705 499 757H583Q566 677 531 642T443 606Q411 606 389 618T347
644T306 657Q274 657 260 605H174Z" />
<glyph unicode="&#xe4;" glyph-name="adieresis" horiz-adv-x="594" d="M198 -10Q159 -10 124 9T66 72T44 188Q44 255 62 320T113 438T192 524T297 556Q349 556 381 534T432 476H436L464 546H577L461 0H351L358 71H354Q325 35 288 13T198 -10ZM256 109Q286 109
312 133T356 195T383 275Q390 311 390 357Q390 392 372 414T322 437Q295 437 272 416T231 359T203 281T193 195Q193 109 256 109ZM467 621Q440 621 423 633T405 675Q405 713 424 732T479 752Q504 752 522 741T540 699Q540 664 523 643T467 621ZM280 621Q253 621
236 633T218 675Q218 713 237 732T292 752Q317 752 335 741T353 699Q353 664 336 643T280 621Z" />
<glyph unicode="&#xe5;" glyph-name="aring" horiz-adv-x="594" d="M198 -10Q159 -10 124 9T66 72T44 188Q44 255 62 320T113 438T192 524T297 556Q349 556 381 534T432 476H436L464 546H577L461 0H351L358 71H354Q325 35 288 13T198 -10ZM256 109Q286 109 312
133T356 195T383 275Q390 311 390 357Q390 392 372 414T322 437Q295 437 272 416T231 359T203 281T193 195Q193 109 256 109ZM379 605Q325 605 292 636T258 721Q258 775 291 806T379 837Q431 837 467 806T503 722Q503 667 468 636T379 605ZM379 674Q399 674 412
686T426 721Q426 743 413 755T379 768Q359 768 346 756T332 721Q332 699 344 687T379 674Z" />
<glyph unicode="&#xe6;" glyph-name="ae" horiz-adv-x="872" d="M195 -10Q128 -10 86 40T44 188Q44 260 62 326T113 444T193 526T294 556Q344 556 374 536T426 476H431L459 546H551L542 502Q565 528 603 542T683 556Q762 556 804 514T847 407Q847 321 770 269T533
217H508Q507 211 507 207T507 198Q507 159 530 130T612 101Q649 101 690 113T765 143V32Q727 14 682 2T589 -10Q536 -10 502 3T444 46L436 0H344L351 71H346Q317 35 282 13T195 -10ZM546 316Q631 316 668 342T706 404Q706 450 655 450Q628 450 601 433T554 386T524
316H546ZM253 109Q296 109 327 153T374 259Q385 305 385 351Q385 390 369 413T319 437Q291 437 268 416T228 359T202 281T193 195Q193 149 211 129T253 109Z" />
<glyph unicode="&#xe7;" glyph-name="ccedilla" horiz-adv-x="483" d="M247 -10Q191 -10 145 10T71 75T44 191Q44 265 63 330T119 447T210 527T333 556Q382 556 420 547T493 521L448 409Q422 420 397 428T339 437Q293 437 260 403T210 315T193 203Q193 157 215
133T277 109Q314 109 345 120T411 149V29Q377 11 338 1T247 -10ZM171 -240Q148 -240 128 -237T97 -229V-147Q108 -151 124 -154T158 -158Q208 -158 208 -118Q208 -101 193 -90T139 -75L186 0H276L257 -35Q286 -45 306 -65T326 -122Q326 -172 290 -206T171 -240Z"
/>
<glyph unicode="&#xe8;" glyph-name="egrave" horiz-adv-x="557" d="M260 -10Q164 -10 104 42T44 201Q44 270 63 333T121 447T217 526T349 556Q441 556 486 514T532 407Q532 321 455 269T218 217H193Q192 211 192 207T192 197Q192 153 217 127T289 101Q332 101
367 111T450 143V32Q407 11 363 1T260 -10ZM231 316Q316 316 353 342T391 404Q391 450 340 450Q313 450 286 433T239 386T209 316H231ZM349 606Q329 626 306 652T263 706T231 756V766H383Q391 732 405 694T439 618V606H349Z" />
<glyph unicode="&#xe9;" glyph-name="eacute" horiz-adv-x="557" d="M260 -10Q164 -10 104 42T44 201Q44 270 63 333T121 447T217 526T349 556Q441 556 486 514T532 407Q532 321 455 269T218 217H193Q192 211 192 207T192 197Q192 153 217 127T289 101Q332 101
367 111T450 143V32Q407 11 363 1T260 -10ZM231 316Q316 316 353 342T391 404Q391 450 340 450Q313 450 286 433T239 386T209 316H231ZM275 618Q300 646 330 688T383 766H547V758Q536 745 516 725T470 682T421 640T377 606H275V618Z" />
<glyph unicode="&#xea;" glyph-name="ecircumflex" horiz-adv-x="557" d="M260 -10Q164 -10 104 42T44 201Q44 270 63 333T121 447T217 526T349 556Q441 556 486 514T532 407Q532 321 455 269T218 217H193Q192 211 192 207T192 197Q192 153 217 127T289 101Q332
101 367 111T450 143V32Q407 11 363 1T260 -10ZM231 316Q316 316 353 342T391 404Q391 450 340 450Q313 450 286 433T239 386T209 316H231ZM150 618Q170 637 197 663T250 716T294 766H459Q474 731 499 689T545 618V606H448Q431 621 409 644T369 688Q340 664 313
645T256 606H150V618Z" />
<glyph unicode="&#xeb;" glyph-name="edieresis" horiz-adv-x="557" d="M260 -10Q164 -10 104 42T44 201Q44 270 63 333T121 447T217 526T349 556Q441 556 486 514T532 407Q532 321 455 269T218 217H193Q192 211 192 207T192 197Q192 153 217 127T289 101Q332
101 367 111T450 143V32Q407 11 363 1T260 -10ZM231 316Q316 316 353 342T391 404Q391 450 340 450Q313 450 286 433T239 386T209 316H231ZM455 621Q428 621 411 633T393 675Q393 713 412 732T467 752Q492 752 510 741T528 699Q528 664 511 643T455 621ZM268 621Q241
621 224 633T206 675Q206 713 225 732T280 752Q305 752 323 741T341 699Q341 664 324 643T268 621Z" />
<glyph unicode="&#xec;" glyph-name="igrave" horiz-adv-x="297" d="M18 0L134 546H281L165 0H18ZM469 606Q449 626 426 652T383 706T351 756V766H503Q511 732 525 694T559 618V606H469Z" />
<glyph unicode="&#xed;" glyph-name="iacute" horiz-adv-x="297" d="M18 0L134 546H281L165 0H18ZM139 618Q164 646 194 688T247 766H411V758Q400 745 380 725T334 682T285 640T241 606H139V618Z" />
<glyph unicode="&#xee;" glyph-name="icircumflex" horiz-adv-x="297" d="M18 0L134 546H281L165 0H18ZM270 618Q290 637 317 663T370 716T414 766H579Q594 731 619 689T665 618V606H568Q551 621 529 644T489 688Q460 664 433 645T376 606H270V618Z" />
<glyph unicode="&#xef;" glyph-name="idieresis" horiz-adv-x="297" d="M18 0L134 546H281L165 0H18ZM319 621Q292 621 275 633T257 675Q257 713 276 732T331 752Q356 752 374 741T392 699Q392 664 375 643T319 621ZM132 621Q105 621 88 633T70 675Q70 713 89
732T144 752Q169 752 187 741T205 699Q205 664 188 643T132 621Z" />
<glyph unicode="&#xf0;" glyph-name="eth" horiz-adv-x="577" d="M251 -10Q188 -10 140 11T63 79T35 198Q35 275 64 340T150 446T284 486Q334 486 364 468T412 425H417Q413 466 401 505T360 572L247 508L204 580L302 635Q291 646 275 655T241 674L299 765Q332
750 361 732T412 697L528 761L565 687L471 635Q511 583 526 523T542 388Q542 307 526 235T474 108T383 22T251 -10ZM258 100Q294 100 320 129T362 203T377 294Q377 329 360 352T305 376Q265 376 238 347T197 274T183 184Q183 145 202 123T258 100Z" />
<glyph unicode="&#xf1;" glyph-name="ntilde" horiz-adv-x="604" d="M18 0L134 546H246L236 445H240Q272 494 313 525T412 556Q483 556 518 514T553 399Q553 363 542 311L477 0H330L397 319Q405 354 405 377Q405 437 352 437Q319 437 292 409T246 332T213 226L165
0H18ZM181 605Q196 684 231 720T318 756Q350 756 373 743T416 718T455 705Q486 705 506 757H590Q573 677 538 642T450 606Q418 606 396 618T354 644T313 657Q281 657 267 605H181Z" />
<glyph unicode="&#xf2;" glyph-name="ograve" horiz-adv-x="585" d="M253 -10Q192 -10 145 15T71 88T44 200Q44 272 62 336T116 450T206 528T334 556Q429 556 485 499T541 340Q541 271 524 208T472 96T382 19T253 -10ZM265 110Q306 110 334 143T378 228T393 340Q393
381 378 408T323 436Q290 436 265 414T224 355T200 278T192 200Q192 110 265 110ZM349 606Q329 626 306 652T263 706T231 756V766H383Q391 732 405 694T439 618V606H349Z" />
<glyph unicode="&#xf3;" glyph-name="oacute" horiz-adv-x="585" d="M253 -10Q192 -10 145 15T71 88T44 200Q44 272 62 336T116 450T206 528T334 556Q429 556 485 499T541 340Q541 271 524 208T472 96T382 19T253 -10ZM265 110Q306 110 334 143T378 228T393 340Q393
381 378 408T323 436Q290 436 265 414T224 355T200 278T192 200Q192 110 265 110ZM275 618Q300 646 330 688T383 766H547V758Q536 745 516 725T470 682T421 640T377 606H275V618Z" />
<glyph unicode="&#xf4;" glyph-name="ocircumflex" horiz-adv-x="585" d="M253 -10Q192 -10 145 15T71 88T44 200Q44 272 62 336T116 450T206 528T334 556Q429 556 485 499T541 340Q541 271 524 208T472 96T382 19T253 -10ZM265 110Q306 110 334 143T378 228T393
340Q393 381 378 408T323 436Q290 436 265 414T224 355T200 278T192 200Q192 110 265 110ZM150 618Q170 637 197 663T250 716T294 766H459Q474 731 499 689T545 618V606H448Q431 621 409 644T369 688Q340 664 313 645T256 606H150V618Z" />
<glyph unicode="&#xf5;" glyph-name="otilde" horiz-adv-x="585" d="M253 -10Q192 -10 145 15T71 88T44 200Q44 272 62 336T116 450T206 528T334 556Q429 556 485 499T541 340Q541 271 524 208T472 96T382 19T253 -10ZM265 110Q306 110 334 143T378 228T393 340Q393
381 378 408T323 436Q290 436 265 414T224 355T200 278T192 200Q192 110 265 110ZM162 605Q177 684 212 720T299 756Q331 756 354 743T397 718T436 705Q467 705 487 757H571Q554 677 519 642T431 606Q399 606 377 618T335 644T294 657Q262 657 248 605H162Z" />
<glyph unicode="&#xf6;" glyph-name="odieresis" horiz-adv-x="585" d="M253 -10Q192 -10 145 15T71 88T44 200Q44 272 62 336T116 450T206 528T334 556Q429 556 485 499T541 340Q541 271 524 208T472 96T382 19T253 -10ZM265 110Q306 110 334 143T378 228T393
340Q393 381 378 408T323 436Q290 436 265 414T224 355T200 278T192 200Q192 110 265 110ZM455 621Q428 621 411 633T393 675Q393 713 412 732T467 752Q492 752 510 741T528 699Q528 664 511 643T455 621ZM268 621Q241 621 224 633T206 675Q206 713 225 732T280
752Q305 752 323 741T341 699Q341 664 324 643T268 621Z" />
<glyph unicode="&#xf7;" glyph-name="divide" horiz-adv-x="572" d="M295 449Q267 449 247 466T227 523Q227 564 247 580T295 597Q322 597 342 581T363 523Q363 484 343 467T295 449ZM53 299V406H538V299H53ZM295 108Q267 108 247 125T227 182Q227 223 247 239T295
256Q322 256 342 240T363 182Q363 143 343 126T295 108Z" />
<glyph unicode="&#xf8;" glyph-name="oslash" horiz-adv-x="585" d="M90 -50L21 3L79 75Q44 127 44 200Q44 272 62 336T116 450T206 528T334 556Q399 556 445 529L479 572L550 518L509 467Q541 415 541 340Q541 271 524 208T472 96T382 19T253 -10Q222 -10 194
-3T143 16L90 -50ZM366 429Q360 434 348 437T323 441Q287 441 263 422T223 370T199 302T189 232Q188 226 188 220T188 208L366 429ZM265 105Q299 105 323 125T362 177T386 245T397 313Q398 318 398 323T398 333L223 116Q228 112 240 109T265 105Z" />
<glyph unicode="&#xf9;" glyph-name="ugrave" horiz-adv-x="604" d="M193 -10Q123 -10 89 32T54 147Q54 165 57 193T66 251L128 546H275L208 227Q200 192 200 169Q200 109 253 109Q287 109 313 137T360 214T392 320L440 546H587L471 0H359L369 101H364Q333 52
292 21T193 -10ZM366 606Q346 626 323 652T280 706T248 756V766H400Q408 732 422 694T456 618V606H366Z" />
<glyph unicode="&#xfa;" glyph-name="uacute" horiz-adv-x="604" d="M193 -10Q123 -10 89 32T54 147Q54 165 57 193T66 251L128 546H275L208 227Q200 192 200 169Q200 109 253 109Q287 109 313 137T360 214T392 320L440 546H587L471 0H359L369 101H364Q333 52
292 21T193 -10ZM292 618Q317 646 347 688T400 766H564V758Q553 745 533 725T487 682T438 640T394 606H292V618Z" />
<glyph unicode="&#xfb;" glyph-name="ucircumflex" horiz-adv-x="604" d="M193 -10Q123 -10 89 32T54 147Q54 165 57 193T66 251L128 546H275L208 227Q200 192 200 169Q200 109 253 109Q287 109 313 137T360 214T392 320L440 546H587L471 0H359L369 101H364Q333
52 292 21T193 -10ZM167 618Q187 637 214 663T267 716T311 766H476Q491 731 516 689T562 618V606H465Q448 621 426 644T386 688Q357 664 330 645T273 606H167V618Z" />
<glyph unicode="&#xfc;" glyph-name="udieresis" horiz-adv-x="604" d="M193 -10Q123 -10 89 32T54 147Q54 165 57 193T66 251L128 546H275L208 227Q200 192 200 169Q200 109 253 109Q287 109 313 137T360 214T392 320L440 546H587L471 0H359L369 101H364Q333
52 292 21T193 -10ZM472 621Q445 621 428 633T410 675Q410 713 429 732T484 752Q509 752 527 741T545 699Q545 664 528 643T472 621ZM285 621Q258 621 241 633T223 675Q223 713 242 732T297 752Q322 752 340 741T358 699Q358 664 341 643T285 621Z" />
<glyph unicode="&#xfd;" glyph-name="yacute" horiz-adv-x="519" d="M3 -240Q-23 -240 -40 -238T-69 -231V-114Q-56 -116 -43 -118T-12 -120Q35 -120 65 -93T117 -24L130 0L50 546H194L221 293Q225 259 226 219T227 150H231Q241 175 253 208T284 283L411 546H571L239
-78Q195 -161 136 -200T3 -240ZM231 618Q256 646 286 688T339 766H503V758Q492 745 472 725T426 682T377 640T333 606H231V618Z" />
<glyph unicode="&#xfe;" glyph-name="thorn" horiz-adv-x="595" d="M-33 -240L179 760H326L294 610Q287 579 276 541T255 473H259Q322 556 397 556Q465 556 508 507T551 357Q551 297 536 233T491 114T414 24T306 -10Q256 -10 225 13T174 70H170Q167 30 162 -3T149
-74L114 -240H-33ZM273 109Q302 109 325 130T366 187T392 265T402 351Q402 394 384 415T333 437Q302 437 278 414T238 354T212 273Q209 254 207 234T205 195Q205 156 221 133T273 109Z" />
<glyph unicode="&#xff;" glyph-name="ydieresis" horiz-adv-x="519" d="M3 -240Q-23 -240 -40 -238T-69 -231V-114Q-56 -116 -43 -118T-12 -120Q35 -120 65 -93T117 -24L130 0L50 546H194L221 293Q225 259 226 219T227 150H231Q241 175 253 208T284 283L411 546H571L239
-78Q195 -161 136 -200T3 -240ZM667 621Q640 621 623 633T605 675Q605 713 624 732T679 752Q704 752 722 741T740 699Q740 664 723 643T667 621ZM480 621Q453 621 436 633T418 675Q418 713 437 732T492 752Q517 752 535 741T553 699Q553 664 536 643T480 621Z"
/>
<glyph unicode="&#x2013;" glyph-name="endash" horiz-adv-x="480" d="M20 213L44 325H460L436 213H20Z" />
<glyph unicode="&#x2014;" glyph-name="emdash" horiz-adv-x="960" d="M20 213L44 325H940L916 213H20Z" />
<glyph unicode="&#x2018;" glyph-name="quoteleft" horiz-adv-x="215" d="M56 480Q79 532 114 595T184 714H294Q269 655 244 588T199 469H60L56 480Z" />
<glyph unicode="&#x2019;" glyph-name="quoteright" horiz-adv-x="215" d="M52 469Q78 528 103 595T147 714H286L290 703Q267 651 232 588T162 469H52Z" />
<glyph unicode="&#x201a;" glyph-name="quotesinglbase" horiz-adv-x="278" d="M-50 -129Q-24 -70 1 -3T45 116H184L188 105Q165 53 130 -10T60 -129H-50Z" />
<glyph unicode="&#x201c;" glyph-name="quotedblleft" horiz-adv-x="433" d="M274 480Q297 532 332 595T402 714H512Q487 655 462 588T417 469H278L274 480ZM56 480Q79 532 114 595T184 714H294Q269 655 244 588T199 469H60L56 480Z" />
<glyph unicode="&#x201d;" glyph-name="quotedblright" horiz-adv-x="433" d="M270 469Q296 528 321 595T365 714H504L508 703Q485 651 450 588T380 469H270ZM52 469Q78 528 103 595T147 714H286L290 703Q267 651 232 588T162 469H52Z" />
<glyph unicode="&#x201e;" glyph-name="quotedblbase" horiz-adv-x="497" d="M169 -129Q195 -70 220 -3T264 116H403L407 105Q384 53 349 -10T279 -129H169ZM-50 -129Q-24 -70 1 -3T45 116H184L188 105Q165 53 130 -10T60 -129H-50Z" />
<glyph unicode="&#x2022;" glyph-name="bullet" horiz-adv-x="376" d="M208 210Q149 210 109 246T68 365Q68 449 108 484T208 520Q247 520 278 505T329 455T348 365Q348 283 307 247T208 210Z" />
<glyph unicode="&#x2039;" glyph-name="guilsinglleft" horiz-adv-x="324" d="M134 44L35 269V278L231 504L324 428L188 265L254 94L134 44Z" />
<glyph unicode="&#x203a;" glyph-name="guilsinglright" horiz-adv-x="324" d="M93 44L0 120L136 283L70 454L190 504L289 279V270L93 44Z" />
</font>
</defs>
</svg>
