<?xml version="1.0" standalone="no"?>
<!DOCTYPE svg PUBLIC "-//W3C//DTD SVG 1.1//EN" "http://www.w3.org/Graphics/SVG/1.1/DTD/svg11.dtd">
<svg xmlns="http://www.w3.org/2000/svg">
<defs >
<font id="PaytoneOne" horiz-adv-x="602" ><font-face
    font-family="Paytone One"
    units-per-em="1000"
    panose-1="0 0 5 0 0 0 0 0 0 0"
    ascent="1113"
    descent="-283"
    alphabetic="0" />
<glyph unicode=" " glyph-name="space" horiz-adv-x="187" />
<glyph unicode="!" glyph-name="exclam" horiz-adv-x="305" d="M47 535V690H258V535L219 252H87L47 535ZM100 -6T70 23T40 96Q40 141 71 169T153 197Q203 197 234 168T265 96Q265 49 236 22T153 -6Q100 -6 70 23Z" />
<glyph unicode="&quot;" glyph-name="quotedbl" horiz-adv-x="435" d="M30 749H195L167 451H51L30 749ZM240 749H405L377 451H261L240 749Z" />
<glyph unicode="#" glyph-name="numbersign" horiz-adv-x="636" d="M117 188H30L52 312H139L150 376H64L86 500H172L205 688H338L305 500H386L419 688H552L519 500H606L584 376H497L486 312H572L550 188H464L431 0H298L331 188H250L217 0H84L117 188ZM353 312L364
376H283L272 312H353Z" />
<glyph unicode="$" glyph-name="dollar" horiz-adv-x="580" d="M256 -12Q137 -7 43 37L84 175Q124 154 170 143T256 129V269L241 273Q144 300 92 354T40 483Q40 565 97 617T256 678V773H341V678Q437 670 526 629L474 495Q424 528 341 537V403L353 400Q447 376
498 323T550 195Q550 108 496 55T341 -10V-85H256V-12ZM256 537Q204 526 204 484Q204 465 215 453T256 428V537ZM388 147T388 183Q388 204 379 217T341 241V135Q388 147 388 183Z" />
<glyph unicode="%" glyph-name="percent" horiz-adv-x="884" d="M149 308T108 334T46 405T24 503Q24 560 47 604T113 673T208 698Q265 698 305 670T367 597T388 503Q388 446 365 402T300 333T205 308Q149 308 108 334ZM617 688H757L267 0H127L617 688ZM235 406T249
435T264 503Q264 542 248 570T205 598Q176 598 162 570T148 503Q148 463 163 435T205 406Q235 406 249 435ZM623 -10T582 15T519 85T497 186Q497 242 520 286T585 356T679 382Q733 382 774 354T838 279T860 180Q860 124 837 81T773 14T679 -10Q623 -10 582 15ZM707
90T721 119T736 186Q736 225 721 252T679 280Q651 280 636 253T621 186Q621 146 636 118T679 90Q707 90 721 119Z" />
<glyph unicode="&amp;" glyph-name="ampersand" horiz-adv-x="671" d="M183 -16T134 8T56 77T28 178Q28 306 167 371Q100 444 100 516Q100 564 127 604T203 667T316 690Q380 690 428 669T504 608T531 518Q531 460 496 412T400 338Q417 318 426 305L467 256Q506
291 546 344L646 249Q607 184 553 136L671 0H470L427 50Q345 -16 246 -16Q183 -16 134 8ZM352 455T363 470T374 514Q374 535 362 547T327 560Q275 560 275 514Q275 496 286 479T324 442Q352 455 363 470ZM305 132T326 153L244 258Q206 237 206 194Q206 166 222
149T265 132Q305 132 326 153Z" />
<glyph unicode="&apos;" glyph-name="quotesingle" horiz-adv-x="225" d="M30 749H195L167 451H51L30 749Z" />
<glyph unicode="(" glyph-name="parenleft" horiz-adv-x="417" d="M276 -118T192 -58T64 101T20 326Q20 456 65 552T195 704T395 772V646Q324 634 284 552T243 326Q243 186 279 99T395 -2V-129Q276 -118 192 -58Z" />
<glyph unicode=")" glyph-name="parenright" horiz-adv-x="417" d="M22 -2Q94 10 134 94T175 326Q175 466 136 550T22 646V772Q144 760 228 701T354 545T397 326Q397 197 353 99T224 -59T22 -129V-2Z" />
<glyph unicode="*" glyph-name="asterisk" horiz-adv-x="535" d="M71 313L185 432L31 499L84 605L219 524L208 688H330L317 525L448 607L504 499L348 432L462 312L361 231L265 376L171 231L71 313Z" />
<glyph unicode="+" glyph-name="plus" horiz-adv-x="600" d="M219 173H50V328H219V501H381V328H550V173H381V0H219V173Z" />
<glyph unicode="," glyph-name="comma" horiz-adv-x="295" d="M45 -52Q96 -52 112 -50T133 -38T138 0H45V187H250V85Q250 -30 237 -80T182 -150T45 -169V-52Z" />
<glyph unicode="-" glyph-name="hyphen" horiz-adv-x="361" d="M46 329H315V173H46V329Z" />
<glyph unicode="." glyph-name="period" horiz-adv-x="295" d="M95 -6T65 23T35 96Q35 141 66 169T148 197Q198 197 229 168T260 96Q260 49 231 22T148 -6Q95 -6 65 23Z" />
<glyph unicode="/" glyph-name="slash" horiz-adv-x="480" d="M276 688H470L204 0H10L276 688Z" />
<glyph unicode="0" glyph-name="zero" horiz-adv-x="693" d="M257 -8T186 36T74 159T33 338Q33 437 73 515T185 638T347 683Q436 683 507 639T619 515T660 338Q660 239 620 160T509 37T347 -8Q257 -8 186 36ZM377 158T401 181T440 246T454 338Q454 417 424 467T347
517Q298 517 269 468T239 338Q239 259 269 209T347 158Q377 158 401 181Z" />
<glyph unicode="1" glyph-name="one" horiz-adv-x="452" d="M43 147H127V480L43 474V604Q87 604 138 620T237 669H342V147H426V0H43V147Z" />
<glyph unicode="2" glyph-name="two" horiz-adv-x="518" d="M38 141Q156 247 216 321T276 444Q276 476 257 493T204 510Q142 510 75 471L26 620Q81 648 134 662T247 676Q317 676 369 649T450 574T478 465Q478 374 417 296T233 146H474V0H38V141Z" />
<glyph unicode="3" glyph-name="three" horiz-adv-x="523" d="M122 -11T30 28L63 175Q142 143 210 143Q292 143 292 204Q292 247 250 265T110 283V407Q199 407 243 425T288 476Q288 521 211 521Q138 521 60 487L21 623Q131 677 252 677Q344 677 401 633T459 513Q459
464 434 424T365 360Q422 334 455 289T489 189Q489 128 457 83T366 14T231 -11Q122 -11 30 28Z" />
<glyph unicode="4" glyph-name="four" horiz-adv-x="635" d="M295 163H18V303L284 669H508V301H604V162H508V0H295V163ZM295 301V499L165 301H295Z" />
<glyph unicode="5" glyph-name="five" horiz-adv-x="535" d="M145 -13T47 30L60 171Q100 156 141 148T214 140Q261 140 286 162T311 221Q311 254 293 274T246 295Q205 295 147 255L43 300L69 669H455L440 526H204L191 415Q218 432 244 439T304 446Q362 446 408
417T481 337T508 221Q508 154 473 101T377 17T237 -13Q145 -13 47 30Z" />
<glyph unicode="6" glyph-name="six" horiz-adv-x="626" d="M243 -7T176 32T71 145T34 316Q34 420 74 502T187 632T351 679Q463 679 565 612L518 481Q479 503 445 513T374 524Q309 524 275 482T232 349Q259 383 301 401T396 419Q487 419 541 364T596 216Q596 155
561 104T466 23T333 -7Q243 -7 176 32ZM367 136T389 158T411 216Q411 250 387 269T320 289Q279 289 236 271Q238 205 263 171T332 136Q367 136 389 158Z" />
<glyph unicode="7" glyph-name="seven" horiz-adv-x="466" d="M48 60L240 524H26V669H445V504L233 -17L48 60Z" />
<glyph unicode="8" glyph-name="eight" horiz-adv-x="627" d="M228 -13T164 11T65 79T30 182Q30 293 156 342Q115 376 98 411T80 494Q80 548 110 590T196 655T323 678Q387 678 437 659T516 604T545 523Q545 476 525 444T462 390Q531 354 563 308T596 198Q596 99
521 43T314 -13Q228 -13 164 11ZM388 456T388 498Q388 533 369 551T314 570Q276 570 257 557T237 518Q237 493 256 475T323 439L357 426Q388 456 388 498ZM353 125T376 139T400 178Q400 204 379 223T308 262L262 280Q230 247 230 198Q230 165 253 145T315 125Q353
125 376 139Z" />
<glyph unicode="9" glyph-name="nine" horiz-adv-x="621" d="M158 -7T56 60L103 191Q142 169 176 159T247 148Q312 148 346 190T389 323Q333 253 235 253Q138 253 84 308T30 456Q30 517 64 568T157 649T288 679Q378 679 445 640T550 527T587 356Q587 252 547 170T434
40T270 -7Q158 -7 56 60ZM342 378T385 396Q383 465 359 500T289 536Q254 536 232 514T210 454Q210 418 234 398T301 378Q342 378 385 396Z" />
<glyph unicode=":" glyph-name="colon" horiz-adv-x="295" d="M95 -6T65 23T35 96Q35 141 66 169T148 197Q198 197 229 168T260 96Q260 49 231 22T148 -6Q95 -6 65 23ZM95 308T65 337T35 410Q35 455 66 483T148 511Q198 511 229 482T260 410Q260 363 231 336T148
308Q95 308 65 337Z" />
<glyph unicode=";" glyph-name="semicolon" horiz-adv-x="295" d="M45 -52Q96 -52 112 -50T133 -38T138 0H45V187H250V85Q250 -30 237 -80T182 -150T45 -169V-52ZM95 308T65 337T35 410Q35 455 66 483T148 511Q198 511 229 482T260 410Q260 363 231 336T148 308Q95
308 65 337Z" />
<glyph unicode="&lt;" glyph-name="less" horiz-adv-x="600" d="M60 216V384L540 600V450L184 300L540 150V0L60 216Z" />
<glyph unicode="=" glyph-name="equal" horiz-adv-x="600" d="M60 411H540V277H60V411ZM60 224H540V90H60V224Z" />
<glyph unicode="&gt;" glyph-name="greater" horiz-adv-x="600" d="M60 150L416 300L60 450V600L540 384V216L60 0V150Z" />
<glyph unicode="?" glyph-name="question" horiz-adv-x="505" d="M100 302T100 332Q100 382 129 409T210 460Q239 474 250 482T261 501Q261 533 182 533Q112 533 52 507L38 659Q85 680 139 691T239 703Q310 703 365 680T450 614T481 517Q481 469 461 438T414 389T343
352Q298 332 278 316T257 273V254H117Q100 302 100 332ZM135 -6T104 22T73 96Q73 141 104 169T186 197Q234 197 266 168T298 96Q298 48 269 21T186 -6Q135 -6 104 22Z" />
<glyph unicode="@" glyph-name="at" horiz-adv-x="864" d="M320 -16T227 31T83 164T31 359Q31 469 83 556T230 691T443 740Q565 740 654 701T790 587T838 410Q838 303 793 244T665 184Q558 184 514 258Q474 185 393 185Q348 185 311 206T251 267T228 356Q228 442
288 492T454 542Q534 542 616 528V304Q634 284 652 284Q680 284 695 317T711 408Q711 624 444 624Q362 624 297 590T194 496T157 360Q157 285 192 227T292 137T439 104Q554 104 640 150L698 50Q636 15 576 0T439 -16Q320 -16 227 31ZM455 296T474 315T494 361V440H458Q411
440 386 421T360 364Q360 336 380 316T428 296Q455 296 474 315Z" />
<glyph unicode="A" glyph-name="A" horiz-adv-x="699" d="M195 688H499L698 0H463L437 132H259L230 0H5L195 688ZM413 255L348 556L280 255H413Z" />
<glyph unicode="B" glyph-name="B" horiz-adv-x="721" d="M263 -12T210 -10T65 -1V688H409Q482 688 540 668T632 609T665 521Q665 459 638 424T556 374Q696 352 696 209Q696 110 606 49T325 -12Q263 -12 210 -10ZM367 416Q406 416 431 435T457 484Q457 555 369
555H288V416H367ZM418 145T447 165T477 223Q477 263 450 284T373 306H287V148Q332 145 363 145Q418 145 447 165Z" />
<glyph unicode="C" glyph-name="C" horiz-adv-x="604" d="M289 -16T208 31T79 161T31 344Q31 446 77 528T203 656T383 703Q437 703 489 690T578 653L551 498Q479 525 421 525Q341 525 298 479T255 345Q255 260 300 213T427 165Q458 165 485 171T551 193L579 35Q492
-16 389 -16Q289 -16 208 31Z" />
<glyph unicode="D" glyph-name="D" horiz-adv-x="764" d="M65 688H364Q472 688 555 645T685 525T732 349Q732 245 687 166T558 44T364 0H65V688ZM354 180Q429 180 468 227T508 351Q508 423 470 465T354 508H286V180H354Z" />
<glyph unicode="E" glyph-name="E" horiz-adv-x="595" d="M65 688H548V536H308V411H527V285H308V152H548V0H65V688Z" />
<glyph unicode="F" glyph-name="F" horiz-adv-x="570" d="M65 688H539V536H280V397H520V271H280V0H65V688Z" />
<glyph unicode="G" glyph-name="G" horiz-adv-x="659" d="M284 -16T203 32T76 165T30 350Q30 447 76 528T206 656T395 703Q453 703 507 690T606 653L540 498Q472 526 413 526Q336 526 294 477T252 347Q252 295 271 254T324 188T403 164Q427 164 443 168V329L616
349V36Q503 -16 385 -16Q284 -16 203 32Z" />
<glyph unicode="H" glyph-name="H" horiz-adv-x="794" d="M65 688H290V414H503V688H729V0H503V270H290V0H65V688Z" />
<glyph unicode="I" glyph-name="I" horiz-adv-x="361" d="M65 688H296V0H65V688Z" />
<glyph unicode="J" glyph-name="J" horiz-adv-x="461" d="M79 -45T-1 8L46 132Q86 118 114 118Q181 118 181 201V688H396V201Q396 86 336 21T171 -45Q79 -45 -1 8Z" />
<glyph unicode="K" glyph-name="K" horiz-adv-x="767" d="M65 688H297V407H369L502 688H733V643L575 347L756 45V0H513L365 273H297V0H65V688Z" />
<glyph unicode="L" glyph-name="L" horiz-adv-x="538" d="M65 688H281V152H520V0H65V688Z" />
<glyph unicode="M" glyph-name="M" horiz-adv-x="887" d="M65 688H273L445 354L613 688H821V0H613V367L486 127H401L273 367V0H65V688Z" />
<glyph unicode="N" glyph-name="N" horiz-adv-x="784" d="M65 688H266L540 317V688H719V0H519L243 358V0H65V688Z" />
<glyph unicode="O" glyph-name="O" horiz-adv-x="798" d="M291 -16T208 30T78 157T31 343Q31 448 77 530T207 657T399 703Q507 703 590 658T720 531T767 343Q767 239 721 158T590 30T399 -16Q291 -16 208 30ZM462 166T502 215T543 344Q543 397 525 438T473 503T398
527Q357 527 324 504T273 439T255 344Q255 264 295 215T399 166Q462 166 502 215Z" />
<glyph unicode="P" glyph-name="P" horiz-adv-x="649" d="M65 688H313Q467 688 551 628T636 460Q636 392 595 341T482 263T323 235H281V0H65V688ZM377 374T406 396T435 460Q435 502 407 523T324 544H281V376Q301 374 324 374Q377 374 406 396Z" />
<glyph unicode="Q" glyph-name="Q" horiz-adv-x="798" d="M420 -14Q408 -16 398 -16Q291 -16 208 30T78 157T31 343Q31 448 77 530T207 657T399 703Q507 703 590 658T720 531T767 343Q767 260 734 187T639 61L767 -23V-61L641 -159L420 -14ZM462 166T502 215T543
344Q543 397 525 438T473 503T398 527Q357 527 324 504T273 439T255 344Q255 264 295 215T399 166Q462 166 502 215Z" />
<glyph unicode="R" glyph-name="R" horiz-adv-x="698" d="M398 -16T356 158L331 261H284V0H65V688H368Q454 688 519 663T621 591T657 485Q657 418 625 373T524 298Q531 260 540 229Q552 191 573 176T634 161Q648 161 678 165V2Q631 -16 586 -16Q398 -16 356 158ZM322
401Q396 401 426 417T457 474Q457 508 432 523T353 539H284V401H322Z" />
<glyph unicode="S" glyph-name="S" horiz-adv-x="592" d="M137 -16T40 36L90 191Q193 154 274 154Q318 154 338 164T359 196Q359 210 348 220T304 244T205 276Q124 300 79 354T34 480Q34 590 106 646T302 703Q366 703 428 690T538 650L484 499Q428 518 387 526T306
535Q240 535 240 499Q240 481 261 469T350 437Q455 409 509 352T563 214Q563 103 491 44T278 -16Q137 -16 40 36Z" />
<glyph unicode="T" glyph-name="T" horiz-adv-x="577" d="M172 536H29V688H548V536H405V0H172V536Z" />
<glyph unicode="U" glyph-name="U" horiz-adv-x="798" d="M300 -16T223 22T102 128T59 285V688H285V285Q285 225 314 195T399 165Q455 165 484 195T513 285V688H739V285Q739 197 696 129T576 22T399 -16Q300 -16 223 22Z" />
<glyph unicode="V" glyph-name="V" horiz-adv-x="672" d="M2 688H228L334 259L440 688H676L461 0H206L2 688Z" />
<glyph unicode="W" glyph-name="W" horiz-adv-x="990" d="M21 688H246L311 249L378 571H611L679 249L744 688H969L813 0H580L495 370L410 0H177L21 688Z" />
<glyph unicode="X" glyph-name="X" horiz-adv-x="633" d="M191 342L6 688H233L314 514L395 688H626L440 342L632 0H401L314 171L227 0H0L191 342Z" />
<glyph unicode="Y" glyph-name="Y" horiz-adv-x="612" d="M195 191L-3 688H206L303 379L398 688H618L410 191V0H195V191Z" />
<glyph unicode="Z" glyph-name="Z" horiz-adv-x="541" d="M36 145L271 542H45V688H495V542L265 146H505V0H36V145Z" />
<glyph unicode="[" glyph-name="bracketleft" horiz-adv-x="447" d="M58 688H413V539H273V147H413V0H58V688Z" />
<glyph unicode="\" glyph-name="backslash" horiz-adv-x="480" d="M10 688H204L470 0H276L10 688Z" />
<glyph unicode="]" glyph-name="bracketright" horiz-adv-x="447" d="M34 147H174V539H34V688H389V0H34V147Z" />
<glyph unicode="^" glyph-name="asciicircum" horiz-adv-x="600" d="M430 60L300 436L170 60H20L216 560H384L580 60H430Z" />
<glyph unicode="_" glyph-name="underscore" horiz-adv-x="475" d="M47 156H428V0H47V156Z" />
<glyph unicode="`" glyph-name="grave" horiz-adv-x="600" d="M78 709L179 888L472 683L411 576L78 709Z" />
<glyph unicode="a" glyph-name="a" horiz-adv-x="696" d="M206 -8T150 26T59 120T25 253Q25 325 59 383T150 475T271 508Q323 508 367 479T435 392V508H645V0H435V93Q385 -8 271 -8Q206 -8 150 26ZM376 150T404 178T435 246V254Q433 294 404 322T336 350Q294 350
265 321T235 250Q235 208 265 179T336 150Q376 150 404 178Z" />
<glyph unicode="b" glyph-name="b" horiz-adv-x="697" d="M312 -8T264 93V0H52V659L264 690V407Q289 460 329 484T426 508Q493 508 549 475T638 382T671 250Q671 178 638 119T548 26T427 -8Q312 -8 264 93ZM404 150T433 180T462 250Q462 292 433 321T363 350Q322
350 293 322T264 254V250Q264 208 293 179T363 150Q404 150 433 180Z" />
<glyph unicode="c" glyph-name="c" horiz-adv-x="472" d="M217 -8T156 24T60 116T25 250Q25 322 61 381T159 474T297 508Q394 508 450 468L431 335Q374 352 337 352Q289 352 261 325T233 250Q233 203 261 175T335 147Q375 147 429 164L448 24Q414 7 379 0T297
-8Q217 -8 156 24Z" />
<glyph unicode="d" glyph-name="d" horiz-adv-x="697" d="M201 -8T146 28T58 123T26 250Q26 321 59 380T149 474T270 508Q328 508 368 484T434 407V659L645 690V0H434V93Q387 -8 269 -8Q201 -8 146 28ZM377 150T405 180T434 250V254Q434 293 404 321T335 350Q293
350 265 321T236 250Q236 208 265 179T335 150Q377 150 405 180Z" />
<glyph unicode="e" glyph-name="e" horiz-adv-x="556" d="M226 -8T162 25T61 117T25 250Q25 326 62 385T162 476T302 508Q376 508 428 476T507 388T533 263Q533 245 531 237L231 198Q243 163 270 148T341 132Q409 132 488 167L513 33Q420 -8 309 -8Q226 -8 162
25ZM378 324Q362 387 302 387Q266 387 245 360T223 290L378 324Z" />
<glyph unicode="f" glyph-name="f" horiz-adv-x="435" d="M88 377H25V501H88V543Q88 654 141 711T291 768Q368 768 434 729L427 594Q369 617 330 617Q300 617 284 603T268 561Q268 535 285 501H425V377H299V0H88V377Z" />
<glyph unicode="g" glyph-name="g" horiz-adv-x="695" d="M278 -229T228 -218L244 -70Q283 -76 316 -76Q378 -76 410 -40T448 83Q389 0 268 0Q202 0 147 34T59 126T26 253Q26 323 58 381T145 474T267 508Q328 508 373 477T433 392V508H644V127Q644 -48 565 -138T333
-229Q278 -229 228 -218ZM373 150T402 178T433 246V254Q431 292 402 321T333 350Q292 350 263 321T234 250Q234 209 263 180T333 150Q373 150 402 178Z" />
<glyph unicode="h" glyph-name="h" horiz-adv-x="687" d="M50 659L261 690V398Q283 451 327 479T435 508Q531 508 585 440T640 250V0H430V271Q430 314 412 337T360 360Q336 360 313 345T276 300T261 234V0H50V659Z" />
<glyph unicode="i" glyph-name="i" horiz-adv-x="365" d="M142 -8T95 46T48 193V501H260V202Q260 179 272 167T305 154Q325 154 346 166L357 27Q335 10 300 1T226 -8Q142 -8 95 46ZM107 576T75 605T42 678Q42 721 76 750T154 779Q200 779 233 749T267 678Q267
634 233 605T154 576Q107 576 75 605Z" />
<glyph unicode="j" glyph-name="j" horiz-adv-x="315" d="M107 565T75 595T42 667Q42 709 76 738T154 768Q187 768 212 754T252 716T267 667Q267 623 234 594T154 565Q107 565 75 595ZM-50 -216T-129 -163L-83 -39Q-38 -54 -14 -54Q52 -54 52 29V501H263V29Q263
-85 204 -150T42 -216Q-50 -216 -129 -163Z" />
<glyph unicode="k" glyph-name="k" horiz-adv-x="642" d="M476 -8T436 9T369 68T323 185L264 138V0H52L53 659L265 690L264 348L521 558L636 401L475 289Q487 213 509 183T576 153Q594 153 619 159L599 -5Q569 -8 543 -8Q476 -8 436 9Z" />
<glyph unicode="l" glyph-name="l" horiz-adv-x="378" d="M141 -8T95 45T48 192V659L259 690V207Q259 179 272 167T320 154Q345 154 369 166L376 26Q309 -8 226 -8Q141 -8 95 45Z" />
<glyph unicode="m" glyph-name="m" horiz-adv-x="1026" d="M50 494H251V392Q285 451 328 479T432 508Q491 508 534 479T600 399Q664 508 786 508Q844 508 887 477T955 388T979 250V0H768V250Q768 301 751 327T702 353Q668 353 644 324T619 254V0H410V250Q410 301
393 327T343 353Q309 353 285 324T261 254V0H50V494Z" />
<glyph unicode="n" glyph-name="n" horiz-adv-x="687" d="M50 494H251V392Q309 508 435 508Q531 508 585 440T640 250V0H430V271Q430 314 412 337T360 360Q336 360 313 345T276 300T261 234V0H50V494Z" />
<glyph unicode="o" glyph-name="o" horiz-adv-x="627" d="M229 -8T164 25T62 116T25 251Q25 327 62 385T164 476T314 508Q399 508 464 476T566 385T602 251Q602 174 566 116T464 25T313 -8Q229 -8 164 25ZM356 142T382 172T409 251Q409 299 383 329T315 360Q274
360 248 330T221 251Q221 203 247 173T315 142Q356 142 382 172Z" />
<glyph unicode="p" glyph-name="p" horiz-adv-x="695" d="M50 494H261V407Q309 508 424 508Q491 508 547 475T636 382T669 250Q669 177 636 118T546 26T425 -8Q311 -8 261 93V-130L50 -170V494ZM402 150T431 180T460 250Q460 292 431 321T361 350Q320 350 291
322T262 254V250Q262 208 291 179T361 150Q402 150 431 180Z" />
<glyph unicode="q" glyph-name="q" horiz-adv-x="696" d="M435 93Q409 40 368 16T270 -8Q198 -8 143 27T57 122T26 250Q26 322 59 381T148 474T271 508Q328 508 368 484T435 407V494H646V-130L435 -170V93ZM376 150T404 178T435 246V254Q434 293 404 321T336 350Q295
350 266 320T236 250Q236 208 266 179T336 150Q376 150 404 178Z" />
<glyph unicode="r" glyph-name="r" horiz-adv-x="446" d="M50 494H261V392Q284 451 323 479T416 508L445 345Q350 345 306 325T261 260V0H50V494Z" />
<glyph unicode="s" glyph-name="s" horiz-adv-x="462" d="M118 -8T39 23L62 142Q134 116 202 116Q252 116 252 144Q252 158 238 167T183 183Q100 199 64 237T27 345Q31 424 90 466T251 508Q303 508 340 502T409 480L388 361Q359 372 325 378T267 384Q233 384 220
377T207 358Q207 336 257 327Q348 311 393 271T438 162Q438 83 383 38T223 -8Q118 -8 39 23Z" />
<glyph unicode="t" glyph-name="t" horiz-adv-x="435" d="M181 -8T132 42T83 182V377H19V501H98L191 690H292V501H408V377H292V207Q292 182 308 168T353 154Q380 154 402 166L410 26Q385 11 346 2T269 -8Q181 -8 132 42Z" />
<glyph unicode="u" glyph-name="u" horiz-adv-x="628" d="M237 -8T176 20T80 99T46 215V501H252V218Q252 185 270 167T317 148Q344 148 361 166T379 218V501H581V215Q581 149 548 99T454 20T316 -8Q237 -8 176 20Z" />
<glyph unicode="v" glyph-name="v" horiz-adv-x="570" d="M1 501H233L310 201L385 501H568L409 0H166L1 501Z" />
<glyph unicode="w" glyph-name="w" horiz-adv-x="833" d="M20 501H224L281 176L350 501H522L592 168L649 501H813L709 0H470L414 265L361 0H130L20 501Z" />
<glyph unicode="x" glyph-name="x" horiz-adv-x="555" d="M154 260L12 501H223L279 383L337 501H542L402 260L552 0H347L279 128L213 0H2L154 260Z" />
<glyph unicode="y" glyph-name="y" horiz-adv-x="668" d="M261 -229T211 -218L227 -70Q266 -76 299 -76Q358 -76 389 -41T421 93Q369 -7 254 -7Q157 -7 103 61T48 251V501H258V220Q258 186 277 164T329 141Q363 141 384 170T406 246V501H617V127Q617 -47 539 -138T316
-229Q261 -229 211 -218Z" />
<glyph unicode="z" glyph-name="z" horiz-adv-x="490" d="M31 107L207 373H38V501H454V393L287 128H458V0H31V107Z" />
<glyph unicode="{" glyph-name="braceleft" horiz-adv-x="355" d="M204 -27T136 46T67 238Q67 265 51 280T6 299V377Q67 384 67 437Q67 557 135 629T322 712V625Q261 603 261 437Q261 404 242 381T185 338Q223 318 242 295T261 238Q261 73 322 51V-36Q204 -27 136 46Z" />
<glyph unicode="|" glyph-name="bar" horiz-adv-x="313" d="M65 688H248V0H65V688Z" />
<glyph unicode="}" glyph-name="braceright" horiz-adv-x="355" d="M33 51Q95 74 95 238Q95 271 114 294T171 338Q134 357 115 380T95 437Q95 601 33 625V712Q153 702 220 629T288 437Q288 384 350 377V299Q321 296 305 281T288 238Q288 118 220 46T33 -36V51Z" />
<glyph unicode="~" glyph-name="asciitilde" horiz-adv-x="600" d="M372 140T346 148T287 171Q259 184 240 190T199 197Q161 197 143 150L37 191Q56 270 100 317T197 364Q228 364 254 356T313 333Q341 320 360 314T401 307Q439 307 457 354L563 313Q544 234 500
187T403 140Q372 140 346 148Z" />
<glyph unicode="&#xa0;" glyph-name="uni00A0" horiz-adv-x="187" />
<glyph unicode="&#xa1;" glyph-name="exclamdown" horiz-adv-x="305" d="M100 494T70 523T40 596Q40 641 71 669T153 697Q203 697 234 668T265 596Q265 549 236 522T153 494Q100 494 70 523ZM47 155L87 438H219L258 155V0H47V155Z" />
<glyph unicode="&#xa2;" glyph-name="cent" horiz-adv-x="460" d="M288 -8Q214 -6 154 27T60 118T25 250Q25 324 61 382T158 473T288 508V585H373V501Q408 493 450 468L431 340Q397 350 373 354V145Q398 149 429 159L448 24Q411 6 373 -2V-85H288V-8ZM288 350Q257
340 240 314T223 250Q223 212 239 186T288 149V350Z" />
<glyph unicode="&#xa3;" glyph-name="sterling" horiz-adv-x="524" d="M36 63Q66 64 83 86T100 146V301H35V386H100V437Q100 561 148 624T317 688Q397 688 490 650L473 514Q416 538 376 538Q347 538 331 524T314 481V386H439V301H314V146H482V0H36V63Z" />
<glyph unicode="&#xa4;" glyph-name="currency" horiz-adv-x="559" d="M36 114L107 185Q59 239 59 314Q59 388 105 442L36 511L81 556L154 483Q208 516 277 516Q345 516 403 481L478 556L523 511L452 440Q498 390 498 314Q498 240 450 187L523 114L479 69L400
147Q345 116 276 116Q207 116 157 146L81 69L36 114ZM314 230T337 254T360 314Q360 351 338 375T278 399Q241 399 218 376T195 314Q195 276 218 253Q241 230 278 230Q314 230 337 254Z" />
<glyph unicode="&#xa5;" glyph-name="yen" horiz-adv-x="661" d="M218 72H86V146H218V189H86V263H189L20 688H229L326 379L421 688H641L463 263H566V189H433V146H566V72H433V0H218V72Z" />
<glyph unicode="&#xa6;" glyph-name="brokenbar" horiz-adv-x="313" d="M65 688H248V418H65V688ZM65 270H248V0H65V270Z" />
<glyph unicode="&#xa7;" glyph-name="section" horiz-adv-x="533" d="M157 -16T54 21L76 143Q113 130 157 122T242 113Q288 113 288 136Q288 145 280 150T241 166L211 177L172 191Q120 211 81 241T42 327Q42 404 102 447Q42 486 42 563Q45 637 108 670T267 703Q386
703 463 666L442 555Q418 563 375 570T287 578Q240 578 240 559Q240 549 257 541T315 518Q367 500 403 483T467 439T494 373Q494 332 478 301T431 252Q492 213 492 138Q492 55 423 20T262 -16Q157 -16 54 21ZM304 296T317 307T331 339Q331 354 309 367T240 393Q220
391 209 380T197 348Q197 315 281 296Q304 296 317 307Z" />
<glyph unicode="&#xa8;" glyph-name="dieresis" horiz-adv-x="600" d="M112 576T80 605T47 676Q47 719 81 748T159 778Q205 778 238 748T272 676Q272 633 238 605T159 576Q112 576 80 605ZM393 576T361 606T329 676Q329 720 363 749T442 778Q475 778 500 763T539
725T553 676Q553 633 520 605T442 576Q393 576 361 606Z" />
<glyph unicode="&#xa9;" glyph-name="copyright" horiz-adv-x="697" d="M261 70T189 111T76 224T35 384Q35 471 76 543T189 656T348 698Q438 698 509 658T621 546T662 384Q662 298 620 226T506 112T348 70Q261 70 189 111ZM417 134T471 166T557 255T588 384Q588
456 557 513T472 602T348 634Q279 634 225 602T139 513T108 384Q108 312 139 255T224 166T348 134Q417 134 471 166ZM308 196T263 219T193 284T168 382Q168 436 191 478T259 544T362 568Q424 568 470 542L455 453Q416 467 383 467Q342 467 319 445T295 383Q295
344 319 321T387 298Q403 298 417 301T455 312L471 222Q422 196 365 196Q308 196 263 219Z" />
<glyph unicode="&#xaa;" glyph-name="ordfeminine" horiz-adv-x="485" d="M138 336T99 360T37 426T15 519Q15 570 37 611T99 675T187 698Q276 698 302 616V698H454V342H302V407Q285 368 258 352T187 336Q138 336 99 360ZM265 452T282 469T300 517Q300 546 282
564T238 582Q210 582 192 564T173 517Q173 488 192 470T238 452Q265 452 282 469Z" />
<glyph unicode="&#xab;" glyph-name="guillemotleft" horiz-adv-x="542" d="M26 216V396L236 545V363L140 306L236 245V63L26 216ZM286 216V396L496 545V363L399 306L496 245V63L286 216Z" />
<glyph unicode="&#xac;" glyph-name="logicalnot" horiz-adv-x="600" d="M378 261H60V416H540V85H378V261Z" />
<glyph unicode="&#xad;" glyph-name="uni00AD" horiz-adv-x="361" d="M46 329H315V173H46V329Z" />
<glyph unicode="&#xae;" glyph-name="registered" horiz-adv-x="697" d="M261 70T189 111T76 224T35 384Q35 471 76 543T189 656T348 698Q438 698 509 658T621 546T662 384Q662 298 620 226T506 112T348 70Q261 70 189 111ZM417 134T471 166T557 255T588 384Q588
456 557 513T472 602T348 634Q279 634 225 602T139 513T108 384Q108 312 139 255T224 166T348 134Q417 134 471 166ZM416 209T390 229T354 293L341 351H324V217H208V570H365Q432 570 472 542T512 466Q512 398 444 370L452 334Q456 315 465 307T492 299Q502 299
520 301V222Q495 209 463 209Q416 209 390 229ZM356 423Q374 423 386 434T399 461Q399 477 388 485T356 493H324V423H356Z" />
<glyph unicode="&#xaf;" glyph-name="overscore" horiz-adv-x="600" d="M126 714H474V586H126V714Z" />
<glyph unicode="&#xb0;" glyph-name="degree" horiz-adv-x="467" d="M180 313T135 337T62 404T34 503Q34 558 61 601T135 669T241 694Q299 694 342 670T409 603T433 506Q433 451 405 407T330 338T231 313Q180 313 135 337ZM272 413T295 438T318 504Q318 545 294
569T234 594Q198 594 174 569T150 504Q150 464 174 439T234 413Q272 413 295 438Z" />
<glyph unicode="&#xb1;" glyph-name="plusminus" horiz-adv-x="600" d="M219 371H50V526H219V688H381V526H550V371H381V209H219V371ZM60 155H550V0H60V155Z" />
<glyph unicode="&#xb2;" glyph-name="uni00B2" horiz-adv-x="290" d="M21 414Q92 479 121 517T151 578Q151 608 111 608Q95 608 76 602T43 587L14 672Q67 703 137 703Q197 703 232 670T268 582Q268 490 140 418H257V335H21V414Z" />
<glyph unicode="&#xb3;" glyph-name="uni00B3" horiz-adv-x="283" d="M67 325T12 349L31 426Q79 408 115 408Q134 408 145 417T156 441Q156 485 57 485V559Q153 559 153 595Q153 621 115 621Q74 621 31 605L12 679Q68 708 135 708Q183 708 215 683T248 619Q248
590 237 568T196 530Q264 500 264 431Q264 382 228 354T129 325Q67 325 12 349Z" />
<glyph unicode="&#xb4;" glyph-name="acute" horiz-adv-x="600" d="M128 683L421 888L522 709L189 576L128 683Z" />
<glyph unicode="&#xb5;" glyph-name="uni00B5" horiz-adv-x="600" d="M37 501H243V168Q274 148 302 148Q360 148 360 228V501H567V215Q567 150 537 97T457 14T346 -16Q296 -16 237 12V-132L37 -146V501Z" />
<glyph unicode="&#xb6;" glyph-name="paragraph" horiz-adv-x="556" d="M258 355H216Q161 355 117 376T48 435T23 521Q23 569 52 607T134 666T258 688H482V0H402V612H339V0H258V355Z" />
<glyph unicode="&#xb7;" glyph-name="middot" horiz-adv-x="305" d="M50 353H255V166H50V353Z" />
<glyph unicode="&#xb8;" glyph-name="cedilla" horiz-adv-x="600" d="M224 -248T185 -230L186 -173Q210 -181 233 -181Q260 -181 275 -169T290 -134Q290 -115 274 -103T232 -87L272 30H348L323 -45Q370 -57 391 -80T413 -140Q413 -189 376 -218T276 -248Q224 -248
185 -230Z" />
<glyph unicode="&#xb9;" glyph-name="uni00B9" horiz-adv-x="239" d="M24 413H68V590L24 586V655Q79 655 126 690H181V413H225V335H24V413Z" />
<glyph unicode="&#xba;" glyph-name="ordmasculine" horiz-adv-x="433" d="M157 336T111 359T40 423T15 518Q15 574 42 615T116 677T217 698Q276 698 321 675T392 611T418 518Q418 457 389 416T313 356T216 336Q157 336 111 359ZM242 451T258 468T275 518Q275
550 259 567T218 584Q193 584 177 567T160 518Q160 486 176 469T218 451Q242 451 258 468Z" />
<glyph unicode="&#xbb;" glyph-name="guillemotright" horiz-adv-x="541" d="M46 245L142 306L46 363V545L256 396V216L46 63V245ZM305 245L400 306L305 363V545L515 396V216L305 63V245Z" />
<glyph unicode="&#xbc;" glyph-name="onequarter" horiz-adv-x="666" d="M24 413H68V590L24 586V655Q79 655 126 690H181V413H225V335H24V413ZM437 688H547L171 0H63L437 688ZM483 88H331V165L478 369H603V165H649V88H603V0H483V88ZM483 165V273L411 165H483Z" />
<glyph unicode="&#xbd;" glyph-name="onehalf" horiz-adv-x="661" d="M24 413H68V590L24 586V655Q79 655 126 690H181V413H225V335H24V413ZM437 688H547L171 0H63L437 688ZM392 79Q463 144 492 182T522 243Q522 273 482 273Q466 273 447 267T414 252L385 337Q438
368 508 368Q568 368 603 335T639 247Q639 155 511 83H628V0H392V79Z" />
<glyph unicode="&#xbe;" glyph-name="threequarters" horiz-adv-x="713" d="M67 325T12 349L31 426Q79 408 115 408Q134 408 145 417T156 441Q156 485 57 485V559Q153 559 153 595Q153 621 115 621Q74 621 31 605L12 679Q68 708 135 708Q183 708 215 683T248 619Q248
590 237 568T196 530Q264 500 264 431Q264 382 228 354T129 325Q67 325 12 349ZM481 688H591L215 0H107L481 688ZM530 88H378V165L525 369H650V165H696V88H650V0H530V88ZM530 165V273L458 165H530Z" />
<glyph unicode="&#xbf;" glyph-name="questiondown" horiz-adv-x="505" d="M268 494T238 523T208 596Q208 641 239 669T321 697Q371 697 402 668T433 596Q433 549 404 522T321 494Q268 494 238 523ZM195 -15T140 8T55 74T24 171Q24 219 44 250T91 299T162 336Q207
356 227 372T248 415V434H388Q405 386 405 356Q405 306 376 279T295 228Q266 214 255 206T244 187Q244 155 323 155Q393 155 453 181L467 29Q420 8 366 -3T266 -15Q195 -15 140 8Z" />
<glyph unicode="&#xc0;" glyph-name="Agrave" horiz-adv-x="699" d="M195 688H499L698 0H463L437 132H259L230 0H5L195 688ZM413 255L348 556L280 255H413ZM75 896L176 1075L469 870L408 763L75 896Z" />
<glyph unicode="&#xc1;" glyph-name="Aacute" horiz-adv-x="699" d="M195 688H499L698 0H463L437 132H259L230 0H5L195 688ZM413 255L348 556L280 255H413ZM225 870L518 1075L619 896L286 763L225 870Z" />
<glyph unicode="&#xc2;" glyph-name="Acircumflex" horiz-adv-x="699" d="M195 688H499L698 0H463L437 132H259L230 0H5L195 688ZM413 255L348 556L280 255H413ZM254 1022H439L562 773H396L358 879L346 917L336 879L297 773H131L254 1022Z" />
<glyph unicode="&#xc3;" glyph-name="Atilde" horiz-adv-x="699" d="M195 688H499L698 0H463L437 132H259L230 0H5L195 688ZM413 255L348 556L280 255H413ZM104 813Q132 891 176 930T276 970Q297 970 315 964T356 944Q377 933 391 928T422 922Q437 922 450 934T481
971L589 924Q561 846 517 806T417 766Q396 766 378 772T337 792Q316 803 302 808T271 814Q256 814 243 802T212 765L104 813Z" />
<glyph unicode="&#xc4;" glyph-name="Adieresis" horiz-adv-x="699" d="M195 688H499L698 0H463L437 132H259L230 0H5L195 688ZM413 255L348 556L280 255H413ZM159 763T127 792T94 863Q94 906 128 935T206 965Q252 965 285 935T319 863Q319 820 285 792T206 763Q159
763 127 792ZM440 763T408 793T376 863Q376 907 410 936T489 965Q522 965 547 950T586 912T600 863Q600 820 567 792T489 763Q440 763 408 793Z" />
<glyph unicode="&#xc5;" glyph-name="Aring" horiz-adv-x="699" d="M195 688Q175 728 175 771Q175 822 197 861T259 922T348 944Q401 944 440 921T499 859T520 771Q520 724 499 687L698 0H463L437 132H259L230 0H5L195 688ZM375 706T390 723T406 771Q406 802 390
820T346 838Q319 838 303 820T287 771Q287 742 304 724T348 706Q375 706 390 723ZM413 255L348 556L280 255H413Z" />
<glyph unicode="&#xc6;" glyph-name="AE" horiz-adv-x="937" d="M232 688H809L835 536H567L588 411H834L855 285H610L632 152H901L927 0H448L426 132H257L216 0H-3L232 688ZM402 255L361 506L294 255H402Z" />
<glyph unicode="&#xc7;" glyph-name="Ccedilla" horiz-adv-x="604" d="M425 -57T446 -80T468 -140Q468 -189 431 -218T331 -248Q279 -248 240 -230L241 -173Q265 -181 288 -181Q315 -181 330 -169T345 -134Q345 -115 329 -103T287 -87L314 -9Q232 8 168 58T68
182T31 344Q31 446 77 528T203 656T383 703Q437 703 489 690T578 653L551 498Q479 525 421 525Q341 525 298 479T255 345Q255 260 300 213T427 165Q458 165 485 171T551 193L579 35Q492 -16 389 -16H388L378 -45Q425 -57 446 -80Z" />
<glyph unicode="&#xc8;" glyph-name="Egrave" horiz-adv-x="595" d="M65 688H548V536H308V411H527V285H308V152H548V0H65V688ZM35 896L136 1075L429 870L368 763L35 896Z" />
<glyph unicode="&#xc9;" glyph-name="Eacute" horiz-adv-x="595" d="M65 688H548V536H308V411H527V285H308V152H548V0H65V688ZM185 870L478 1075L579 896L246 763L185 870Z" />
<glyph unicode="&#xca;" glyph-name="Ecircumflex" horiz-adv-x="595" d="M65 688H548V536H308V411H527V285H308V152H548V0H65V688ZM214 1022H399L522 773H356L318 879L306 917L296 879L257 773H91L214 1022Z" />
<glyph unicode="&#xcb;" glyph-name="Edieresis" horiz-adv-x="595" d="M65 688H548V536H308V411H527V285H308V152H548V0H65V688ZM119 763T87 792T54 863Q54 906 88 935T166 965Q212 965 245 935T279 863Q279 820 245 792T166 763Q119 763 87 792ZM400 763T368
793T336 863Q336 907 370 936T449 965Q482 965 507 950T546 912T560 863Q560 820 527 792T449 763Q400 763 368 793Z" />
<glyph unicode="&#xcc;" glyph-name="Igrave" horiz-adv-x="361" d="M65 688H296V0H65V688ZM-91 896L10 1075L303 870L242 763L-91 896Z" />
<glyph unicode="&#xcd;" glyph-name="Iacute" horiz-adv-x="361" d="M65 688H296V0H65V688ZM59 870L352 1075L453 896L120 763L59 870Z" />
<glyph unicode="&#xce;" glyph-name="Icircumflex" horiz-adv-x="361" d="M65 688H296V0H65V688ZM88 1022H273L396 773H230L192 879L180 917L170 879L131 773H-35L88 1022Z" />
<glyph unicode="&#xcf;" glyph-name="Idieresis" horiz-adv-x="361" d="M65 688H296V0H65V688ZM-7 763T-39 792T-72 863Q-72 906 -38 935T40 965Q86 965 119 935T153 863Q153 820 119 792T40 763Q-7 763 -39 792ZM274 763T242 793T210 863Q210 907 244 936T323
965Q356 965 381 950T420 912T434 863Q434 820 401 792T323 763Q274 763 242 793Z" />
<glyph unicode="&#xd0;" glyph-name="Eth" horiz-adv-x="790" d="M91 302H0V387H91V688H390Q499 688 582 645T712 524T758 349Q758 245 713 166T584 44T390 0H91V302ZM379 180Q454 180 493 227T533 351Q533 423 495 465T379 508H311V387H390V302H311V180H379Z" />
<glyph unicode="&#xd1;" glyph-name="Ntilde" horiz-adv-x="784" d="M65 688H266L540 317V688H719V0H519L243 358V0H65V688ZM149 813Q177 891 221 930T321 970Q342 970 360 964T401 944Q422 933 436 928T467 922Q482 922 495 934T526 971L634 924Q606 846 562
806T462 766Q441 766 423 772T382 792Q361 803 347 808T316 814Q301 814 288 802T257 765L149 813Z" />
<glyph unicode="&#xd2;" glyph-name="Ograve" horiz-adv-x="798" d="M291 -16T208 30T78 157T31 343Q31 448 77 530T207 657T399 703Q507 703 590 658T720 531T767 343Q767 239 721 158T590 30T399 -16Q291 -16 208 30ZM462 166T502 215T543 344Q543 397 525 438T473
503T398 527Q357 527 324 504T273 439T255 344Q255 264 295 215T399 166Q462 166 502 215ZM127 896L228 1075L521 870L460 763L127 896Z" />
<glyph unicode="&#xd3;" glyph-name="Oacute" horiz-adv-x="798" d="M291 -16T208 30T78 157T31 343Q31 448 77 530T207 657T399 703Q507 703 590 658T720 531T767 343Q767 239 721 158T590 30T399 -16Q291 -16 208 30ZM462 166T502 215T543 344Q543 397 525 438T473
503T398 527Q357 527 324 504T273 439T255 344Q255 264 295 215T399 166Q462 166 502 215ZM277 870L570 1075L671 896L338 763L277 870Z" />
<glyph unicode="&#xd4;" glyph-name="Ocircumflex" horiz-adv-x="798" d="M291 -16T208 30T78 157T31 343Q31 448 77 530T207 657T399 703Q507 703 590 658T720 531T767 343Q767 239 721 158T590 30T399 -16Q291 -16 208 30ZM462 166T502 215T543 344Q543 397
525 438T473 503T398 527Q357 527 324 504T273 439T255 344Q255 264 295 215T399 166Q462 166 502 215ZM306 1022H491L614 773H448L410 879L398 917L388 879L349 773H183L306 1022Z" />
<glyph unicode="&#xd5;" glyph-name="Otilde" horiz-adv-x="798" d="M291 -16T208 30T78 157T31 343Q31 448 77 530T207 657T399 703Q507 703 590 658T720 531T767 343Q767 239 721 158T590 30T399 -16Q291 -16 208 30ZM462 166T502 215T543 344Q543 397 525 438T473
503T398 527Q357 527 324 504T273 439T255 344Q255 264 295 215T399 166Q462 166 502 215ZM156 813Q184 891 228 930T328 970Q349 970 367 964T408 944Q429 933 443 928T474 922Q489 922 502 934T533 971L641 924Q613 846 569 806T469 766Q448 766 430 772T389
792Q368 803 354 808T323 814Q308 814 295 802T264 765L156 813Z" />
<glyph unicode="&#xd6;" glyph-name="Odieresis" horiz-adv-x="798" d="M291 -16T208 30T78 157T31 343Q31 448 77 530T207 657T399 703Q507 703 590 658T720 531T767 343Q767 239 721 158T590 30T399 -16Q291 -16 208 30ZM462 166T502 215T543 344Q543 397 525
438T473 503T398 527Q357 527 324 504T273 439T255 344Q255 264 295 215T399 166Q462 166 502 215ZM211 763T179 792T146 863Q146 906 180 935T258 965Q304 965 337 935T371 863Q371 820 337 792T258 763Q211 763 179 792ZM492 763T460 793T428 863Q428 907 462
936T541 965Q574 965 599 950T638 912T652 863Q652 820 619 792T541 763Q492 763 460 793Z" />
<glyph unicode="&#xd7;" glyph-name="multiply" horiz-adv-x="600" d="M44 103L189 251L44 398L157 511L301 365L444 511L557 398L412 251L557 103L444 -10L301 136L157 -10L44 103Z" />
<glyph unicode="&#xd8;" glyph-name="Oslash" horiz-adv-x="799" d="M260 7Q154 44 93 133T31 343Q31 448 77 530T207 657T399 703Q434 703 459 699L492 813H577L539 680Q645 644 706 555T767 343Q767 239 721 158T590 30T399 -16Q365 -16 340 -12L307 -126H222L260
7ZM410 527H398Q357 527 324 504T273 439T255 344Q255 295 270 257T314 195L410 527ZM399 166Q462 166 502 215T543 344Q543 392 528 431T485 494L391 166H399Z" />
<glyph unicode="&#xd9;" glyph-name="Ugrave" horiz-adv-x="798" d="M300 -16T223 22T102 128T59 285V688H285V285Q285 225 314 195T399 165Q455 165 484 195T513 285V688H739V285Q739 197 696 129T576 22T399 -16Q300 -16 223 22ZM127 896L228 1075L521 870L460
763L127 896Z" />
<glyph unicode="&#xda;" glyph-name="Uacute" horiz-adv-x="798" d="M300 -16T223 22T102 128T59 285V688H285V285Q285 225 314 195T399 165Q455 165 484 195T513 285V688H739V285Q739 197 696 129T576 22T399 -16Q300 -16 223 22ZM277 870L570 1075L671 896L338
763L277 870Z" />
<glyph unicode="&#xdb;" glyph-name="Ucircumflex" horiz-adv-x="798" d="M300 -16T223 22T102 128T59 285V688H285V285Q285 225 314 195T399 165Q455 165 484 195T513 285V688H739V285Q739 197 696 129T576 22T399 -16Q300 -16 223 22ZM306 1022H491L614 773H448L410
879L398 917L388 879L349 773H183L306 1022Z" />
<glyph unicode="&#xdc;" glyph-name="Udieresis" horiz-adv-x="798" d="M300 -16T223 22T102 128T59 285V688H285V285Q285 225 314 195T399 165Q455 165 484 195T513 285V688H739V285Q739 197 696 129T576 22T399 -16Q300 -16 223 22ZM211 763T179 792T146 863Q146
906 180 935T258 965Q304 965 337 935T371 863Q371 820 337 792T258 763Q211 763 179 792ZM492 763T460 793T428 863Q428 907 462 936T541 965Q574 965 599 950T638 912T652 863Q652 820 619 792T541 763Q492 763 460 793Z" />
<glyph unicode="&#xdd;" glyph-name="Yacute" horiz-adv-x="612" d="M195 191L-3 688H206L303 379L398 688H618L410 191V0H195V191ZM184 870L477 1075L578 896L245 763L184 870Z" />
<glyph unicode="&#xde;" glyph-name="Thorn" horiz-adv-x="651" d="M65 688H280V618H313Q467 618 551 559T636 391Q636 323 595 272T483 194T322 166H280V0H65V688ZM375 305T405 327T435 391Q435 430 403 452T323 475H280V307Q291 305 323 305Q375 305 405 327Z" />
<glyph unicode="&#xdf;" glyph-name="germandbls" horiz-adv-x="707" d="M324 -44V117Q358 115 373 115Q420 115 447 147T474 229Q474 271 441 303T344 351V443Q380 449 403 468T427 513Q427 540 404 555T349 570Q267 570 267 493V0L52 -16V499Q52 597 132 650T341
703Q409 703 466 683T558 624T593 534Q593 490 573 457T516 402Q590 378 639 322T688 195Q688 114 647 60T539 -19T391 -45L324 -44Z" />
<glyph unicode="&#xe0;" glyph-name="agrave" horiz-adv-x="696" d="M206 -8T150 26T59 120T25 253Q25 325 59 383T150 475T271 508Q323 508 367 479T435 392V508H645V0H435V93Q385 -8 271 -8Q206 -8 150 26ZM376 150T404 178T435 246V254Q433 294 404 322T336
350Q294 350 265 321T235 250Q235 208 265 179T336 150Q376 150 404 178ZM126 709L227 888L520 683L459 576L126 709Z" />
<glyph unicode="&#xe1;" glyph-name="aacute" horiz-adv-x="696" d="M206 -8T150 26T59 120T25 253Q25 325 59 383T150 475T271 508Q323 508 367 479T435 392V508H645V0H435V93Q385 -8 271 -8Q206 -8 150 26ZM376 150T404 178T435 246V254Q433 294 404 322T336
350Q294 350 265 321T235 250Q235 208 265 179T336 150Q376 150 404 178ZM176 683L469 888L570 709L237 576L176 683Z" />
<glyph unicode="&#xe2;" glyph-name="acircumflex" horiz-adv-x="696" d="M206 -8T150 26T59 120T25 253Q25 325 59 383T150 475T271 508Q323 508 367 479T435 392V508H645V0H435V93Q385 -8 271 -8Q206 -8 150 26ZM376 150T404 178T435 246V254Q433 294 404 322T336
350Q294 350 265 321T235 250Q235 208 265 179T336 150Q376 150 404 178ZM255 835H440L563 586H397L359 692L347 730L337 692L298 586H132L255 835Z" />
<glyph unicode="&#xe3;" glyph-name="atilde" horiz-adv-x="696" d="M206 -8T150 26T59 120T25 253Q25 325 59 383T150 475T271 508Q323 508 367 479T435 392V508H645V0H435V93Q385 -8 271 -8Q206 -8 150 26ZM376 150T404 178T435 246V254Q433 294 404 322T336
350Q294 350 265 321T235 250Q235 208 265 179T336 150Q376 150 404 178ZM105 626Q133 704 177 743T277 783Q298 783 316 777T357 757Q378 746 392 741T423 735Q438 735 451 747T482 784L590 737Q562 659 518 619T418 579Q397 579 379 585T338 605Q317 616 303
621T272 627Q257 627 244 615T213 578L105 626Z" />
<glyph unicode="&#xe4;" glyph-name="adieresis" horiz-adv-x="696" d="M206 -8T150 26T59 120T25 253Q25 325 59 383T150 475T271 508Q323 508 367 479T435 392V508H645V0H435V93Q385 -8 271 -8Q206 -8 150 26ZM376 150T404 178T435 246V254Q433 294 404 322T336
350Q294 350 265 321T235 250Q235 208 265 179T336 150Q376 150 404 178ZM160 576T128 605T95 676Q95 719 129 748T207 778Q253 778 286 748T320 676Q320 633 286 605T207 576Q160 576 128 605ZM441 576T409 606T377 676Q377 720 411 749T490 778Q523 778 548 763T587
725T601 676Q601 633 568 605T490 576Q441 576 409 606Z" />
<glyph unicode="&#xe5;" glyph-name="aring" horiz-adv-x="696" d="M206 -8T150 26T59 120T25 253Q25 325 59 383T150 475T271 508Q323 508 367 479T435 392V508H645V0H435V93Q385 -8 271 -8Q206 -8 150 26ZM376 150T404 178T435 246V254Q433 294 404 322T336
350Q294 350 265 321T235 250Q235 208 265 179T336 150Q376 150 404 178ZM272 576T224 623T176 746Q176 824 224 871T348 919Q401 919 439 896T498 834T519 746Q519 669 472 623T348 576Q272 576 224 623ZM376 686T391 702T406 746Q406 774 390 791T346 809Q320
809 304 792T287 746Q287 719 304 703T348 686Q376 686 391 702Z" />
<glyph unicode="&#xe6;" glyph-name="ae" horiz-adv-x="1057" d="M435 93Q385 -8 271 -8Q206 -8 150 26T59 120T25 253Q25 325 59 383T150 475T271 508Q323 508 367 479T435 392V516L630 501V457Q694 516 788 516Q862 516 917 484T1003 395T1034 263Q1034 253
1032 237L703 198Q730 128 827 128Q902 128 989 163L1013 25Q922 -16 820 -16Q755 -16 710 -1T630 44V0L435 -16V93ZM878 324Q868 354 845 370T788 387Q745 387 721 361T694 290L878 324ZM376 150T404 178T435 246V254Q433 294 404 322T336 350Q294 350 265 321T235
250Q235 208 265 179T336 150Q376 150 404 178Z" />
<glyph unicode="&#xe7;" glyph-name="ccedilla" horiz-adv-x="472" d="M414 7T380 0T301 -8L289 -45Q336 -57 357 -80T379 -140Q379 -189 342 -218T242 -248Q190 -248 151 -230L152 -173Q176 -181 199 -181Q226 -181 241 -169T256 -134Q256 -115 240 -103T198
-87L227 -1Q135 19 80 86T25 250Q25 322 61 381T159 474T297 508Q394 508 450 468L431 335Q374 352 337 352Q289 352 261 325T233 250Q233 203 261 175T335 147Q375 147 429 164L448 24Q414 7 380 0Z" />
<glyph unicode="&#xe8;" glyph-name="egrave" horiz-adv-x="556" d="M226 -8T162 25T61 117T25 250Q25 326 62 385T162 476T302 508Q376 508 428 476T507 388T533 263Q533 245 531 237L231 198Q243 163 270 148T341 132Q409 132 488 167L513 33Q420 -8 309 -8Q226
-8 162 25ZM378 324Q362 387 302 387Q266 387 245 360T223 290L378 324ZM66 709L167 888L460 683L399 576L66 709Z" />
<glyph unicode="&#xe9;" glyph-name="eacute" horiz-adv-x="556" d="M226 -8T162 25T61 117T25 250Q25 326 62 385T162 476T302 508Q376 508 428 476T507 388T533 263Q533 245 531 237L231 198Q243 163 270 148T341 132Q409 132 488 167L513 33Q420 -8 309 -8Q226
-8 162 25ZM378 324Q362 387 302 387Q266 387 245 360T223 290L378 324ZM116 683L409 888L510 709L177 576L116 683Z" />
<glyph unicode="&#xea;" glyph-name="ecircumflex" horiz-adv-x="556" d="M226 -8T162 25T61 117T25 250Q25 326 62 385T162 476T302 508Q376 508 428 476T507 388T533 263Q533 245 531 237L231 198Q243 163 270 148T341 132Q409 132 488 167L513 33Q420 -8 309
-8Q226 -8 162 25ZM378 324Q362 387 302 387Q266 387 245 360T223 290L378 324ZM195 835H380L503 586H337L299 692L287 730L277 692L238 586H72L195 835Z" />
<glyph unicode="&#xeb;" glyph-name="edieresis" horiz-adv-x="556" d="M226 -8T162 25T61 117T25 250Q25 326 62 385T162 476T302 508Q376 508 428 476T507 388T533 263Q533 245 531 237L231 198Q243 163 270 148T341 132Q409 132 488 167L513 33Q420 -8 309
-8Q226 -8 162 25ZM378 324Q362 387 302 387Q266 387 245 360T223 290L378 324ZM100 576T68 605T35 676Q35 719 69 748T147 778Q193 778 226 748T260 676Q260 633 226 605T147 576Q100 576 68 605ZM381 576T349 606T317 676Q317 720 351 749T430 778Q463 778 488
763T527 725T541 676Q541 633 508 605T430 576Q381 576 349 606Z" />
<glyph unicode="&#xec;" glyph-name="igrave" horiz-adv-x="365" d="M142 -8T95 46T48 193V501H260V202Q260 179 272 167T305 154Q325 154 346 166L357 27Q335 10 300 1T226 -8Q142 -8 95 46ZM-68 709L33 888L326 683L265 576L-68 709Z" />
<glyph unicode="&#xed;" glyph-name="iacute" horiz-adv-x="365" d="M142 -8T95 46T48 193V501H260V202Q260 179 272 167T305 154Q325 154 346 166L357 27Q335 10 300 1T226 -8Q142 -8 95 46ZM-18 683L275 888L376 709L43 576L-18 683Z" />
<glyph unicode="&#xee;" glyph-name="icircumflex" horiz-adv-x="365" d="M142 -8T95 46T48 193V501H260V202Q260 179 272 167T305 154Q325 154 346 166L357 27Q335 10 300 1T226 -8Q142 -8 95 46ZM61 835H246L369 586H203L165 692L153 730L143 692L104 586H-62L61 835Z" />
<glyph unicode="&#xef;" glyph-name="idieresis" horiz-adv-x="365" d="M142 -8T95 46T48 193V501H260V202Q260 179 272 167T305 154Q325 154 346 166L357 27Q335 10 300 1T226 -8Q142 -8 95 46ZM-34 576T-66 605T-99 676Q-99 719 -65 748T13 778Q59 778 92 748T126
676Q126 633 92 605T13 576Q-34 576 -66 605ZM247 576T215 606T183 676Q183 720 217 749T296 778Q329 778 354 763T393 725T407 676Q407 633 374 605T296 576Q247 576 215 606Z" />
<glyph unicode="&#xf0;" glyph-name="eth" horiz-adv-x="655" d="M232 -16T166 13T63 96T26 217Q26 317 91 373T264 430Q349 430 405 385Q398 437 382 468L310 442L288 499L339 517Q329 522 313 524T283 527Q242 527 206 521T127 501L74 649Q120 675 182 689T299
703Q378 703 441 675T548 591L619 616L641 560L581 539Q626 451 626 337Q626 232 588 152T480 28T319 -16Q232 -16 166 13ZM358 147T378 179T404 275Q364 290 322 290Q283 290 259 270T235 217Q235 185 257 166T313 147Q358 147 378 179Z" />
<glyph unicode="&#xf1;" glyph-name="ntilde" horiz-adv-x="687" d="M50 494H251V392Q309 508 435 508Q531 508 585 440T640 250V0H430V271Q430 314 412 337T360 360Q336 360 313 345T276 300T261 234V0H50V494ZM101 626Q129 704 173 743T273 783Q294 783 312
777T353 757Q374 746 388 741T419 735Q434 735 447 747T478 784L586 737Q558 659 514 619T414 579Q393 579 375 585T334 605Q313 616 299 621T268 627Q253 627 240 615T209 578L101 626Z" />
<glyph unicode="&#xf2;" glyph-name="ograve" horiz-adv-x="627" d="M229 -8T164 25T62 116T25 251Q25 327 62 385T164 476T314 508Q399 508 464 476T566 385T602 251Q602 174 566 116T464 25T313 -8Q229 -8 164 25ZM356 142T382 172T409 251Q409 299 383 329T315
360Q274 360 248 330T221 251Q221 203 247 173T315 142Q356 142 382 172ZM92 709L193 888L486 683L425 576L92 709Z" />
<glyph unicode="&#xf3;" glyph-name="oacute" horiz-adv-x="627" d="M229 -8T164 25T62 116T25 251Q25 327 62 385T164 476T314 508Q399 508 464 476T566 385T602 251Q602 174 566 116T464 25T313 -8Q229 -8 164 25ZM356 142T382 172T409 251Q409 299 383 329T315
360Q274 360 248 330T221 251Q221 203 247 173T315 142Q356 142 382 172ZM142 683L435 888L536 709L203 576L142 683Z" />
<glyph unicode="&#xf4;" glyph-name="ocircumflex" horiz-adv-x="627" d="M229 -8T164 25T62 116T25 251Q25 327 62 385T164 476T314 508Q399 508 464 476T566 385T602 251Q602 174 566 116T464 25T313 -8Q229 -8 164 25ZM356 142T382 172T409 251Q409 299 383
329T315 360Q274 360 248 330T221 251Q221 203 247 173T315 142Q356 142 382 172ZM221 835H406L529 586H363L325 692L313 730L303 692L264 586H98L221 835Z" />
<glyph unicode="&#xf5;" glyph-name="otilde" horiz-adv-x="627" d="M229 -8T164 25T62 116T25 251Q25 327 62 385T164 476T314 508Q399 508 464 476T566 385T602 251Q602 174 566 116T464 25T313 -8Q229 -8 164 25ZM356 142T382 172T409 251Q409 299 383 329T315
360Q274 360 248 330T221 251Q221 203 247 173T315 142Q356 142 382 172ZM71 626Q99 704 143 743T243 783Q264 783 282 777T323 757Q344 746 358 741T389 735Q404 735 417 747T448 784L556 737Q528 659 484 619T384 579Q363 579 345 585T304 605Q283 616 269 621T238
627Q223 627 210 615T179 578L71 626Z" />
<glyph unicode="&#xf6;" glyph-name="odieresis" horiz-adv-x="627" d="M229 -8T164 25T62 116T25 251Q25 327 62 385T164 476T314 508Q399 508 464 476T566 385T602 251Q602 174 566 116T464 25T313 -8Q229 -8 164 25ZM356 142T382 172T409 251Q409 299 383 329T315
360Q274 360 248 330T221 251Q221 203 247 173T315 142Q356 142 382 172ZM126 576T94 605T61 676Q61 719 95 748T173 778Q219 778 252 748T286 676Q286 633 252 605T173 576Q126 576 94 605ZM407 576T375 606T343 676Q343 720 377 749T456 778Q489 778 514 763T553
725T567 676Q567 633 534 605T456 576Q407 576 375 606Z" />
<glyph unicode="&#xf7;" glyph-name="divide" horiz-adv-x="600" d="M247 347T219 369T190 429Q190 466 219 488T300 511Q352 511 381 489T411 429Q411 391 383 369T300 347Q247 347 219 369ZM60 322H540V180H60V322ZM247 -10T219 12T190 72Q190 109 219 131T300
154Q352 154 381 132T411 72Q411 34 383 12T300 -10Q247 -10 219 12Z" />
<glyph unicode="&#xf8;" glyph-name="oslash" horiz-adv-x="627" d="M201 9Q119 36 72 100T25 251Q25 327 62 385T164 476T314 508Q338 508 361 505L387 587H457L426 491Q508 465 555 402T602 251Q602 174 566 116T464 25T313 -8Q289 -8 266 -5L240 -87H170L201
9ZM315 362H314Q269 362 242 332T215 251Q215 194 250 162L315 362ZM314 140Q359 140 386 170T413 251Q413 309 377 340L313 140H314Z" />
<glyph unicode="&#xf9;" glyph-name="ugrave" horiz-adv-x="628" d="M237 -8T176 20T80 99T46 215V501H252V218Q252 185 270 167T317 148Q344 148 361 166T379 218V501H581V215Q581 149 548 99T454 20T316 -8Q237 -8 176 20ZM92 709L193 888L486 683L425 576L92 709Z" />
<glyph unicode="&#xfa;" glyph-name="uacute" horiz-adv-x="628" d="M237 -8T176 20T80 99T46 215V501H252V218Q252 185 270 167T317 148Q344 148 361 166T379 218V501H581V215Q581 149 548 99T454 20T316 -8Q237 -8 176 20ZM142 683L435 888L536 709L203 576L142 683Z" />
<glyph unicode="&#xfb;" glyph-name="ucircumflex" horiz-adv-x="628" d="M237 -8T176 20T80 99T46 215V501H252V218Q252 185 270 167T317 148Q344 148 361 166T379 218V501H581V215Q581 149 548 99T454 20T316 -8Q237 -8 176 20ZM221 835H406L529 586H363L325
692L313 730L303 692L264 586H98L221 835Z" />
<glyph unicode="&#xfc;" glyph-name="udieresis" horiz-adv-x="628" d="M237 -8T176 20T80 99T46 215V501H252V218Q252 185 270 167T317 148Q344 148 361 166T379 218V501H581V215Q581 149 548 99T454 20T316 -8Q237 -8 176 20ZM126 576T94 605T61 676Q61 719
95 748T173 778Q219 778 252 748T286 676Q286 633 252 605T173 576Q126 576 94 605ZM407 576T375 606T343 676Q343 720 377 749T456 778Q489 778 514 763T553 725T567 676Q567 633 534 605T456 576Q407 576 375 606Z" />
<glyph unicode="&#xfd;" glyph-name="yacute" horiz-adv-x="668" d="M261 -229T211 -218L227 -70Q266 -76 299 -76Q358 -76 389 -41T421 93Q369 -7 254 -7Q157 -7 103 61T48 251V501H258V220Q258 186 277 164T329 141Q363 141 384 170T406 246V501H617V127Q617
-47 539 -138T316 -229Q261 -229 211 -218ZM162 683L455 888L556 709L223 576L162 683Z" />
<glyph unicode="&#xfe;" glyph-name="thorn" horiz-adv-x="697" d="M52 659L263 690V407Q314 516 426 516Q493 516 549 481T638 384T671 250Q671 179 638 118T548 20T427 -16Q370 -16 329 12T263 93V-249H52V659ZM403 150T432 180T462 250Q462 295 431 322T362
350Q321 350 293 322T263 254V250Q263 208 292 179T362 150Q403 150 432 180Z" />
<glyph unicode="&#xff;" glyph-name="ydieresis" horiz-adv-x="668" d="M261 -229T211 -218L227 -70Q266 -76 299 -76Q358 -76 389 -41T421 93Q369 -7 254 -7Q157 -7 103 61T48 251V501H258V220Q258 186 277 164T329 141Q363 141 384 170T406 246V501H617V127Q617
-47 539 -138T316 -229Q261 -229 211 -218ZM146 576T114 605T81 676Q81 719 115 748T193 778Q239 778 272 748T306 676Q306 633 272 605T193 576Q146 576 114 605ZM427 576T395 606T363 676Q363 720 397 749T476 778Q509 778 534 763T573 725T587 676Q587 633 554
605T476 576Q427 576 395 606Z" />
<glyph unicode="&#x2013;" glyph-name="endash" horiz-adv-x="500" d="M46 329H454V173H46V329Z" />
<glyph unicode="&#x2014;" glyph-name="emdash" horiz-adv-x="800" d="M46 329H754V173H46V329Z" />
<glyph unicode="&#x2018;" glyph-name="quoteleft" horiz-adv-x="295" d="M45 444Q45 559 58 609T113 679T250 698V581Q199 581 183 579T162 567T157 529H250V342H45V444Z" />
<glyph unicode="&#x2019;" glyph-name="quoteright" horiz-adv-x="295" d="M45 449Q96 449 112 451T133 463T138 501H45V688H250V586Q250 471 237 421T182 351T45 332V449Z" />
<glyph unicode="&#x201a;" glyph-name="quotesinglbase" horiz-adv-x="295" d="M45 -52Q96 -52 112 -50T133 -38T138 0H45V187H250V85Q250 -30 237 -80T182 -150T45 -169V-52Z" />
<glyph unicode="&#x201c;" glyph-name="quotedblleft" horiz-adv-x="555" d="M45 444Q45 559 58 609T113 679T250 698V581Q199 581 183 579T162 567T157 529H250V342H45V444ZM305 444Q305 559 318 609T373 679T510 698V581Q459 581 443 579T422 567T417 529H510V342H305V444Z"
/>
<glyph unicode="&#x201d;" glyph-name="quotedblright" horiz-adv-x="555" d="M45 449Q96 449 112 451T133 463T138 501H45V688H250V586Q250 471 237 421T182 351T45 332V449ZM305 449Q356 449 372 451T393 463T398 501H305V688H510V586Q510 471 497 421T442 351T305
332V449Z" />
<glyph unicode="&#x201e;" glyph-name="quotedblbase" horiz-adv-x="555" d="M45 -52Q96 -52 112 -50T133 -38T138 0H45V187H250V85Q250 -30 237 -80T182 -150T45 -169V-52ZM305 -52Q356 -52 372 -50T393 -38T398 0H305V187H510V85Q510 -30 497 -80T442 -150T305
-169V-52Z" />
<glyph unicode="&#x2022;" glyph-name="bullet" horiz-adv-x="506" d="M190 56T140 82T62 154T33 259Q33 316 61 362T139 435T253 462Q316 462 366 436T445 364T473 259Q473 197 443 151T363 81T252 56Q190 56 140 82Z" />
<glyph unicode="&#x2039;" glyph-name="guilsinglleft" horiz-adv-x="282" d="M26 216V396L236 545V363L139 306L236 245V63L26 216Z" />
<glyph unicode="&#x203a;" glyph-name="guilsinglright" horiz-adv-x="282" d="M46 245L142 306L46 363V545L256 396V216L46 63V245Z" />
</font>
</defs>
</svg>
