<?xml version="1.0" standalone="no"?>
<!DOCTYPE svg PUBLIC "-//W3C//DTD SVG 1.1//EN" "http://www.w3.org/Graphics/SVG/1.1/DTD/svg11.dtd">
<svg xmlns="http://www.w3.org/2000/svg">
<defs >
<font id="Philosopher" horiz-adv-x="570" ><font-face
    font-family="Philosopher"
    units-per-em="1000"
    panose-1="0 0 8 0 0 0 0 0 0 0"
    ascent="900"
    descent="-220"
    alphabetic="0" />
<glyph unicode=" " glyph-name="space" horiz-adv-x="250" />
<glyph unicode="!" glyph-name="exclam" horiz-adv-x="248" d="M55 155L125 660H258L149 155H55ZM48 -14T35 -2T21 32Q21 63 41 85T94 108Q120 108 132 96T145 61Q145 31 125 9T72 -14Q48 -14 35 -2Z" />
<glyph unicode="&quot;" glyph-name="quotedbl" horiz-adv-x="392" d="M94 390L112 660H242L164 390H94ZM264 390L282 660H412L334 390H264Z" />
<glyph unicode="#" glyph-name="numbersign" horiz-adv-x="702" d="M69 0L135 172H12L23 237H159L227 413H114L126 478H253L329 675H428L352 478H479L555 675H654L578 478H706L694 413H552L485 237H603L592 172H460L394 0H295L361 172H234L168 0H69ZM259 237H385L453
413H326L259 237Z" />
<glyph unicode="$" glyph-name="dollar" horiz-adv-x="552" d="M184 -15Q110 -9 61 18T11 90Q11 101 32 220H60V212Q60 123 92 80T192 29L237 287L176 328Q126 361 104 395T81 472Q81 530 111 574T193 644T306 677L316 735H386L376 676Q446 670 495 642T544 570Q544
562 522 441H494V449Q494 537 463 580T368 631L325 390L400 341Q454 304 478 272T503 198Q503 136 468 90T377 18T254 -16L242 -80H172L184 -15ZM297 628Q258 616 232 587T205 518Q205 492 219 474T263 432L297 628ZM306 39T337 69T369 144Q369 174 352 196T300
245L262 31Q306 39 337 69Z" />
<glyph unicode="%" glyph-name="percent" horiz-adv-x="758" d="M145 389T109 417T72 499Q72 547 97 585T166 644T260 665Q324 665 360 637T396 557Q396 509 372 471T305 411T211 389Q145 389 109 417ZM36 0L636 660H742L142 0H36ZM264 429T290 467T316 558Q316
625 251 625Q206 625 179 586T152 497Q152 429 217 429Q264 429 290 467ZM454 -5T418 23T381 105Q381 153 406 191T475 250T568 271Q634 271 669 243T705 161Q705 113 681 75T614 16T520 -5Q454 -5 418 23ZM571 35T598 72T625 162Q625 195 608 213T559 231Q513
231 487 192T461 103Q461 35 526 35Q571 35 598 72Z" />
<glyph unicode="&amp;" glyph-name="ampersand" horiz-adv-x="633" d="M539 141T498 103L577 0H441L409 38Q409 36 381 21T312 -7T227 -20Q110 -20 58 14T5 108Q5 181 57 230T199 326Q176 349 149 396T121 496Q121 553 153 594T238 658T350 680Q429 680 471 649T513
564Q513 496 460 444T320 340L470 140Q505 173 545 221Q563 243 576 261L609 236Q598 219 579 193Q539 141 498 103ZM295 640T273 594T250 490Q250 454 262 427T291 381Q338 418 365 465T393 569Q393 605 379 622T343 640Q295 640 273 594ZM362 55T385 72Q385 72
319 160Q266 229 231 278Q136 202 136 115Q136 70 163 45T243 20Q294 20 344 46Q362 55 385 72Z" />
<glyph unicode="&apos;" glyph-name="quotesingle" horiz-adv-x="222" d="M94 390L112 660H242L164 390H94Z" />
<glyph unicode="(" glyph-name="parenleft" horiz-adv-x="321" d="M110 -144T60 -53T10 148Q10 316 108 456T372 700L382 680Q260 583 196 419T132 79Q132 -99 227 -200L210 -220Q110 -144 60 -53Z" />
<glyph unicode=")" glyph-name="parenright" horiz-adv-x="321" d="M-74 -200Q49 -103 112 60T176 400Q176 578 80 680L98 700Q198 624 248 533T298 331Q298 164 200 23T-63 -220L-74 -200Z" />
<glyph unicode="*" glyph-name="asterisk" horiz-adv-x="436" d="M170 324L215 445L101 356L67 442L220 492L85 542L149 628L232 539L229 660H341L296 539L409 628L443 542L290 492L425 442L361 356L278 446L282 324H170Z" />
<glyph unicode="+" glyph-name="plus" horiz-adv-x="547" d="M197 100L232 295H35L47 365H244L278 560H368L334 365H531L519 295H322L287 100H197Z" />
<glyph unicode="," glyph-name="comma" horiz-adv-x="230" d="M-26 -136Q10 -115 40 -83T78 -11L62 -14Q38 -14 25 -2T11 32Q11 63 31 85T84 108Q110 108 124 91T138 48Q138 -65 -13 -160L-26 -136Z" />
<glyph unicode="-" glyph-name="hyphen" horiz-adv-x="397" d="M48 217L65 312H344L327 217H48Z" />
<glyph unicode="." glyph-name="period" horiz-adv-x="226" d="M38 -14T25 -2T11 32Q11 63 31 85T84 108Q110 108 122 96T135 61Q135 31 115 9T62 -14Q38 -14 25 -2Z" />
<glyph unicode="/" glyph-name="slash" horiz-adv-x="480" d="M-25 0L412 660H524L87 0H-25Z" />
<glyph unicode="0" glyph-name="zero" horiz-adv-x="609" d="M42 -20T42 208Q42 316 75 424T184 606T375 680Q586 680 586 451Q586 343 552 235T443 54T252 -20Q42 -20 42 208ZM314 25T358 102T427 290T452 495Q452 635 367 635Q313 635 269 558T201 369T176 163Q176
92 196 59T260 25Q314 25 358 102Z" />
<glyph unicode="1" glyph-name="one" horiz-adv-x="324" d="M70 0L165 542L68 486L50 517L229 660H316L200 0H70Z" />
<glyph unicode="2" glyph-name="two" horiz-adv-x="540" d="M5 65Q27 84 51 102Q146 177 215 241T338 382T392 531Q392 582 367 608T304 635Q239 635 190 592T110 460H75Q83 509 93 544T123 600Q158 635 214 657T332 680Q413 680 472 647T532 530Q532 451 472
371T336 230T157 95Q108 61 88 45H295Q355 45 392 73T440 155H470L457 80Q450 44 428 22T358 0H-6L5 65Z" />
<glyph unicode="3" glyph-name="three" horiz-adv-x="543" d="M536 615L246 381Q253 382 271 383T310 385Q355 385 398 369T470 316T499 224Q499 155 461 99T359 12T224 -20Q134 -20 83 7T-7 88L26 117Q59 71 101 48T188 25Q239 25 278 53T338 128T359 228Q359
283 330 311T254 340Q215 340 177 330L146 321L129 359L447 615H268Q208 615 171 587T124 505H94L107 580Q114 616 136 638T206 660H544L536 615Z" />
<glyph unicode="4" glyph-name="four" horiz-adv-x="574" d="M282 0L311 170H-9L-1 210L424 660H528L449 215H539L531 170H441L412 0H282ZM68 215H319L377 543L68 215Z" />
<glyph unicode="5" glyph-name="five" horiz-adv-x="549" d="M136 -20T87 7T4 88L38 114Q66 69 109 47T198 25Q250 25 289 54T348 130T369 229Q369 286 335 315T234 344Q192 344 149 332Q138 330 105 321L72 360L136 660H525L517 616H244L194 385L225 387Q235
388 249 389T282 390Q371 390 440 352T509 228Q509 149 469 93T362 9T213 -20Q136 -20 87 7Z" />
<glyph unicode="6" glyph-name="six" horiz-adv-x="561" d="M42 -20T42 208Q42 324 77 431T192 609T395 680Q449 680 506 663Q525 657 549 646L538 618L494 626Q433 635 407 635Q330 635 276 573T198 385Q216 399 240 409Q294 433 347 433Q440 433 482 392T524
274Q524 197 489 130T390 21T242 -20Q42 -20 42 208ZM297 25T328 69T375 174T390 283Q390 388 309 388Q282 388 256 377T210 353T190 337Q173 241 173 169Q173 25 250 25Q297 25 328 69Z" />
<glyph unicode="7" glyph-name="seven" horiz-adv-x="476" d="M405 615H235Q175 615 138 587T91 505H61L74 580Q81 616 103 638T173 660H534L526 615L168 0H47L405 615Z" />
<glyph unicode="8" glyph-name="eight" horiz-adv-x="580" d="M138 -20T76 15T14 122Q14 198 70 248T217 335Q162 367 133 400T103 481Q103 547 138 592T232 658T360 680Q451 680 505 650T560 550Q560 428 394 358Q455 321 488 284T522 193Q522 122 482 74T376
3T237 -20Q138 -20 76 15ZM384 410T404 455T425 552Q425 596 403 615T352 635Q322 635 297 617T257 570T242 510Q242 442 346 384Q384 410 404 455ZM283 25T314 43T364 94T383 166Q383 212 353 245T265 311Q210 283 180 233T149 118Q149 71 174 48T245 25Q283 25
314 43Z" />
<glyph unicode="9" glyph-name="nine" horiz-adv-x="561" d="M123 -20T72 -3Q45 6 29 14L40 42L84 33Q138 25 171 25Q248 25 302 87T380 275Q360 261 338 251Q284 227 232 227Q139 227 97 268T55 386Q55 463 90 530T189 639T336 680Q537 680 537 451Q537 335 501
228T386 51T183 -20Q123 -20 72 -3ZM296 272T322 283T368 307T388 323Q406 425 406 491Q406 635 328 635Q280 635 249 591T204 485T189 375Q189 323 208 298T269 272Q296 272 322 283Z" />
<glyph unicode=":" glyph-name="colon" horiz-adv-x="239" d="M104 339T92 351T79 386Q79 416 99 438T152 461Q178 461 190 449T203 414Q203 384 183 362T130 339Q104 339 92 351ZM44 -14T31 -2T17 32Q17 63 37 85T90 108Q116 108 128 96T141 61Q141 31 121 9T68
-14Q44 -14 31 -2Z" />
<glyph unicode=";" glyph-name="semicolon" horiz-adv-x="251" d="M109 339T97 351T84 386Q84 416 104 438T157 461Q183 461 195 449T208 414Q208 384 188 362T135 339Q109 339 97 351ZM-15 -136Q21 -115 51 -83T89 -11L73 -14Q49 -14 36 -2T22 32Q22 63 42 85T95
108Q121 108 135 91T149 48Q149 -65 -2 -160L-15 -136Z" />
<glyph unicode="&lt;" glyph-name="less" horiz-adv-x="611" d="M514 74L33 300L46 370L606 596L590 505L168 335L530 165L514 74Z" />
<glyph unicode="=" glyph-name="equal" horiz-adv-x="670" d="M78 385L91 455H640L627 385H78ZM47 205L59 275H608L596 205H47Z" />
<glyph unicode="&gt;" glyph-name="greater" horiz-adv-x="610" d="M25 74L41 165L463 335L101 505L117 596L597 370L584 300L25 74Z" />
<glyph unicode="?" glyph-name="question" horiz-adv-x="500" d="M192 199T213 234T273 318Q306 360 325 389T357 457T371 541Q371 592 350 613T288 635Q157 635 89 447H59L61 455Q73 516 82 547T112 599Q147 633 206 656T326 680Q409 680 459 640T510 526Q510
476 493 439T449 376T378 312Q326 269 296 236T249 156H181Q192 199 213 234ZM161 -14T148 -2T134 32Q134 63 154 85T207 108Q233 108 245 96T258 61Q258 31 238 9T185 -14Q161 -14 148 -2Z" />
<glyph unicode="@" glyph-name="at" horiz-adv-x="877" d="M202 -180T111 -97T20 143Q20 282 79 405T249 604T511 680Q616 680 693 643T812 535T854 364Q854 279 827 197T739 60T587 5Q547 5 516 15T472 60Q458 45 439 32Q401 5 347 5Q261 5 218 54T174 183Q174
256 205 328T295 448T434 495Q486 495 516 467Q531 454 539 440H544L587 485H672L604 102Q603 99 603 87Q603 51 635 51Q689 51 722 105T770 231T784 363Q784 495 710 565T503 635Q374 635 281 567T139 385T90 143Q90 6 163 -64T368 -135Q461 -135 543 -111T701
-40L720 -80Q643 -128 555 -154T360 -180Q202 -180 111 -97ZM396 50T413 58T448 82Q462 94 477 115L524 385Q518 403 507 417Q482 450 446 450Q398 450 367 398T321 277T306 157Q306 50 375 50Q396 50 413 58Z" />
<glyph unicode="A" glyph-name="A" horiz-adv-x="647" d="M520 -4T473 23T408 126L395 182H129L15 0H-37L374 660H419L549 126Q573 33 635 26L631 1Q613 -4 582 -4Q520 -4 473 23ZM158 227H384L320 488L158 227Z" />
<glyph unicode="B" glyph-name="B" horiz-adv-x="646" d="M104 318T125 441T146 575Q146 603 133 616T89 630H79L84 660H354Q469 660 545 632T621 518Q621 453 574 407T454 341Q598 326 598 217Q598 102 503 51T268 0H48Q104 318 125 441ZM316 361Q362 361 399
380T459 434T482 518Q482 572 444 596T347 620Q319 620 304 616L286 613L241 361H316ZM260 40Q312 40 357 59T429 116T457 210Q457 316 308 316H233L186 50Q195 46 205 45Q227 40 255 40H260Z" />
<glyph unicode="C" glyph-name="C" horiz-adv-x="680" d="M226 -20T164 13T70 107T38 246Q38 350 90 450T234 615T438 680Q526 680 599 651T672 545Q672 507 660 447H630Q628 539 585 587T460 635Q366 635 302 574T208 420T177 232Q177 138 219 82T353 25Q423
25 488 62T601 168L631 141Q569 57 494 19T315 -20Q226 -20 164 13Z" />
<glyph unicode="D" glyph-name="D" horiz-adv-x="737" d="M141 530Q146 562 146 575Q146 603 133 616T89 630H79L84 660H356Q534 660 625 593T717 402Q717 284 658 193T495 51T266 0H48L141 530ZM270 40Q358 40 426 93T531 230T568 403Q568 503 516 561T370 620H362Q329
620 309 616L286 613L186 47L208 43Q221 40 260 40H270Z" />
<glyph unicode="E" glyph-name="E" horiz-adv-x="602" d="M104 318T125 441T146 575Q146 603 133 616T89 630H79L84 660H525Q598 660 598 602Q598 593 581 495H551Q554 513 554 528Q554 615 447 615H286L242 365H502L494 320H234L185 45H356Q413 45 455 70T535
159L560 149L517 70Q497 33 477 17T418 0H48Q104 318 125 441Z" />
<glyph unicode="F" glyph-name="F" horiz-adv-x="542" d="M141 530Q146 562 146 575Q146 603 133 616T89 630H79L84 660H503Q576 660 576 602Q576 593 559 495H529Q532 513 532 528Q532 574 505 594T425 615H286L241 360H461L453 315H233L178 0H48L141 530Z" />
<glyph unicode="G" glyph-name="G" horiz-adv-x="734" d="M253 -20T184 17T78 122T40 273Q40 375 92 469T235 621T436 680Q525 680 600 650T676 543Q676 510 666 460H636Q633 551 590 593T458 635Q363 635 299 573T205 416T175 226Q175 20 350 20Q430 20 490 46L521
224Q531 277 577 311T737 346L732 321Q668 321 651 226L620 47Q557 12 489 -4T343 -20Q253 -20 184 17Z" />
<glyph unicode="H" glyph-name="H" horiz-adv-x="723" d="M141 530Q146 562 146 575Q146 603 133 616T89 630H79L84 660H204Q244 660 261 645T278 593Q278 562 271 530L242 365H512L564 660H694L600 130Q596 109 596 87Q596 59 609 45T653 30H663L658 0H538Q498
0 481 15T464 69Q464 94 470 130L504 320H234L178 0H48L141 530Z" />
<glyph unicode="I" glyph-name="I" horiz-adv-x="307" d="M82 0T65 15T48 69Q48 94 54 130L148 660H278L184 130Q180 109 180 87Q180 59 193 45T237 30H247L242 0H122Q82 0 65 15Z" />
<glyph unicode="J" glyph-name="J" horiz-adv-x="280" d="M-84 -107Q-36 -101 -6 -60T41 83L143 660H273L171 83Q156 -5 129 -51T52 -117T-90 -137L-84 -107Z" />
<glyph unicode="K" glyph-name="K" horiz-adv-x="694" d="M519 -10T466 15T359 110L228 278L179 0H49Q114 368 130 465T146 575Q146 603 133 616T89 630H79L84 660H204Q244 660 261 645T279 592Q279 581 270 530T256 447L238 340L449 555Q495 604 542 632T645
660H715L709 625Q647 625 600 610T513 554L332 370L520 130Q552 89 592 59T661 24L657 0Q625 -10 582 -10Q519 -10 466 15Z" />
<glyph unicode="L" glyph-name="L" horiz-adv-x="567" d="M141 530Q146 562 146 575Q146 603 133 616T89 630H79L84 660H204Q244 660 261 645T278 593Q278 562 271 530L185 45H530L523 0H48L141 530Z" />
<glyph unicode="M" glyph-name="M" horiz-adv-x="869" d="M701 -45T660 -10T618 100Q618 123 625 170L688 524L377 0H344L171 544L76 0H26L142 660H264L419 169L711 660H842L755 170Q744 107 744 70Q744 -10 795 -20L791 -45Q701 -45 660 -10Z" />
<glyph unicode="N" glyph-name="N" horiz-adv-x="695" d="M188 495L101 0H51L104 302Q149 559 149 566Q149 630 72 630H67L72 660H142Q198 660 231 646T282 600L556 200L637 660H687L570 -3H524L188 495Z" />
<glyph unicode="O" glyph-name="O" horiz-adv-x="735" d="M230 -20T168 15T73 112T40 256Q40 361 91 459T233 618T438 680Q523 680 585 645T680 548T713 404Q713 299 662 201T520 42T315 -20Q230 -20 168 15ZM410 25T467 92T551 254T578 438Q578 533 540 584T430
635Q344 635 287 568T203 404T176 221Q176 127 213 76T323 25Q410 25 467 92Z" />
<glyph unicode="P" glyph-name="P" horiz-adv-x="580" d="M104 318T125 441T146 575Q146 603 133 616T89 630H79L84 660H359Q451 660 524 627T598 500Q598 428 559 376T456 295T320 267H225L178 0H48Q104 318 125 441ZM292 307Q344 307 382 335T439 410T459 511Q459
569 429 594T352 620Q323 620 307 616L286 613L232 307H292Z" />
<glyph unicode="Q" glyph-name="Q" horiz-adv-x="737" d="M485 -205T384 -157T215 -4Q133 21 87 91T41 256Q41 361 92 459T234 618T439 680Q524 680 586 645T681 548T714 404Q714 314 677 230T572 83T413 -7Q421 -54 452 -93T527 -156T613 -179L608 -205Q485 -205
384 -157ZM411 25T468 92T552 254T579 438Q579 533 541 584T431 635Q345 635 288 568T204 404T177 221Q177 127 214 76T324 25Q411 25 468 92Z" />
<glyph unicode="R" glyph-name="R" horiz-adv-x="616" d="M456 -10T417 22T342 135L272 302H232L179 0H48Q104 318 125 441T146 575Q146 603 133 616T89 630H79L84 660H360Q454 660 527 629T600 511Q600 432 546 382T406 310L480 135Q521 37 585 25L581 0Q573
-4 552 -7T511 -10Q456 -10 417 22ZM299 342Q345 342 382 365T440 428T461 516Q461 569 430 594T353 620Q324 620 308 616L287 613L239 342H299Z" />
<glyph unicode="S" glyph-name="S" horiz-adv-x="562" d="M169 -17T122 -4T45 33T16 91Q16 100 37 220H65V213Q65 115 104 72T228 28Q264 28 297 41T352 80T374 144Q374 177 354 200T291 254L181 328Q131 361 109 395T86 472Q86 535 122 582T217 653T343 678Q396
678 443 665T520 628T549 570Q549 562 527 441H499V452Q499 548 461 590T346 633Q312 633 281 620T230 580T210 518Q210 487 229 466T294 414L405 341Q459 304 483 272T508 198Q508 129 467 81T360 8T222 -17Q169 -17 122 -4Z" />
<glyph unicode="T" glyph-name="T" horiz-adv-x="577" d="M290 615H219Q163 615 129 587T83 495H53L68 580Q75 616 97 638T167 660H637L629 615H420L312 0H182L290 615Z" />
<glyph unicode="U" glyph-name="U" horiz-adv-x="697" d="M196 -10T141 40T86 195Q86 217 95 274T138 530Q143 562 143 575Q143 603 130 616T86 630L91 660H201Q241 660 258 645T275 593Q275 562 268 530Q232 318 223 257T213 174Q213 103 241 67T332 30Q441 30
498 91T580 288L646 660H696L630 288Q605 140 531 65T313 -10Q196 -10 141 40Z" />
<glyph unicode="V" glyph-name="V" horiz-adv-x="637" d="M109 543Q95 598 77 621T29 648L32 668L75 670Q141 670 185 645T250 543L342 169L640 660H691L285 -10H245L109 543Z" />
<glyph unicode="W" glyph-name="W" horiz-adv-x="905" d="M103 543Q91 598 73 621T23 648L26 668L69 670Q136 670 182 646T244 543L318 198L454 454L434 543Q423 597 401 620T347 648L350 668L390 670Q458 670 503 646T565 543L644 179L900 660H948L593 -9H553L468
383L262 -9H222L103 543Z" />
<glyph unicode="X" glyph-name="X" horiz-adv-x="645" d="M268 311L165 530Q146 571 114 603T50 640L54 660H164Q215 660 250 629T307 550L371 416L607 660H672L392 371L506 130Q525 88 557 56T621 20L618 0H508Q457 0 422 32T364 110L290 266L33 0H-32L268 311Z" />
<glyph unicode="Y" glyph-name="Y" horiz-adv-x="639" d="M273 264L143 530Q124 572 92 604T29 640L33 660H142Q193 660 228 629T285 550L385 345L635 660H700L408 291L357 0H227L273 264Z" />
<glyph unicode="Z" glyph-name="Z" horiz-adv-x="599" d="M-12 32L463 616H246Q190 616 156 588T110 495H80L95 580Q102 616 124 638T194 660H649L148 45H535L528 0H-17L-12 32Z" />
<glyph unicode="[" glyph-name="bracketleft" horiz-adv-x="332" d="M-17 -200L138 680H383L375 635H250L111 -155H236L228 -200H-17Z" />
<glyph unicode="\" glyph-name="backslash" horiz-adv-x="475" d="M293 0L88 660H200L405 0H293Z" />
<glyph unicode="]" glyph-name="bracketright" horiz-adv-x="332" d="M-64 -200L-56 -155H68L207 635H82L90 680H335L180 -200H-64Z" />
<glyph unicode="^" glyph-name="asciicircum" horiz-adv-x="514" d="M28 330L304 680H348L502 330H404L305 557L126 330H28Z" />
<glyph unicode="_" glyph-name="underscore" horiz-adv-x="434" d="M-51 -70L-38 0H382L369 -70H-51Z" />
<glyph unicode="`" glyph-name="grave" horiz-adv-x="227" d="M167 477L89 680H214L241 477H167Z" />
<glyph unicode="a" glyph-name="a" horiz-adv-x="550" d="M112 -10T68 40T24 170Q24 242 55 314T146 433T284 480Q336 480 366 452Q381 439 389 425H394L437 470H522L457 100L440 0H355L327 45H322Q310 30 290 17Q252 -10 198 -10Q112 -10 68 40ZM247 35T264 43T299
67Q314 80 327 100L375 370Q369 388 358 402Q333 435 296 435Q248 435 217 384T171 263T156 144Q156 35 226 35Q247 35 264 43Z" />
<glyph unicode="b" glyph-name="b" horiz-adv-x="550" d="M197 -10T168 17Q152 30 145 45H140L98 0H13Q69 318 90 441T111 575Q111 603 98 616T54 630H44L49 660H169Q209 660 226 645T243 593Q243 565 222 450Q231 455 253 465Q294 480 332 480Q421 480 465 431T510
297Q510 224 479 153T390 36T251 -10Q197 -10 168 17ZM288 35T319 86T364 205T378 325Q378 379 361 407T304 435Q274 435 240 420L214 405L160 100Q166 82 177 67Q201 35 239 35Q288 35 319 86Z" />
<glyph unicode="c" glyph-name="c" horiz-adv-x="498" d="M127 -10T76 42T25 180Q25 262 61 330T162 439T313 480Q381 480 428 466T475 400Q475 372 462 305H432Q433 313 433 329Q433 382 404 408T320 435Q264 435 228 389T174 279T157 157Q157 35 255 35Q303
35 339 56T412 118L439 95Q401 49 353 20T227 -10Q127 -10 76 42Z" />
<glyph unicode="d" glyph-name="d" horiz-adv-x="550" d="M113 -10T69 40T25 173Q25 248 56 319T147 435T289 480Q327 480 363 465Q380 457 389 450L397 497Q408 565 408 575Q408 603 395 616T351 630H341L346 660H466Q506 660 523 645T540 593Q540 582 525 489T469
165L440 0H355L327 45H322Q310 30 290 17Q252 -10 198 -10Q113 -10 69 40ZM247 35T264 43T299 67Q314 80 327 100L381 405Q372 412 360 420Q328 435 301 435Q249 435 217 385T171 267T157 144Q157 91 173 63T226 35Q247 35 264 43Z" />
<glyph unicode="e" glyph-name="e" horiz-adv-x="508" d="M127 -10T76 43T25 182Q25 259 59 327T157 438T303 480Q392 480 441 448T490 358Q490 278 423 239T264 200H159Q153 169 153 144Q153 90 176 63T240 35Q288 35 324 56T397 118L424 95Q387 50 339 20T217
-10Q127 -10 76 43ZM272 245Q309 245 332 282T355 362Q355 398 338 416T295 435Q199 435 167 245H272Z" />
<glyph unicode="f" glyph-name="f" horiz-adv-x="345" d="M-92 -165Q-44 -156 -16 -115T29 25L99 425H39L47 470H107L112 497Q127 582 183 626T338 670Q365 670 389 666T426 653Q450 637 457 610L411 575Q399 599 380 612T335 625Q300 625 277 596T242 497L237
470H367L359 425H229L159 25Q144 -59 116 -105T38 -170T-96 -190L-92 -165Z" />
<glyph unicode="g" glyph-name="g" horiz-adv-x="550" d="M101 -200T63 -170T3 -95L38 -72Q62 -112 89 -133T162 -155Q219 -155 259 -109T316 35L317 40Q303 31 286 25Q249 10 206 10Q117 10 72 57T27 185Q27 257 58 325T147 437T284 480Q336 480 366 452Q381
439 389 425H394L437 470H522L446 35Q428 -72 356 -136T174 -200Q101 -200 63 -170ZM268 55T298 70Q313 77 324 85L375 370Q369 388 358 402Q333 435 296 435Q247 435 216 387T172 275T159 158Q159 108 176 82T234 55Q268 55 298 70Z" />
<glyph unicode="h" glyph-name="h" horiz-adv-x="546" d="M105 530Q110 562 110 575Q110 603 97 616T53 630H43L48 660H168Q208 660 225 645T242 593Q242 562 235 530L219 442Q234 451 253 461Q297 480 336 480Q407 480 452 449T498 344Q498 329 489 269T442 0H312Q344
182 356 255T368 340Q368 387 349 408T297 430Q269 430 237 412Q224 405 211 395L142 0H12L105 530Z" />
<glyph unicode="i" glyph-name="i" horiz-adv-x="271" d="M159 524T143 541T127 584Q127 613 145 634T193 656Q224 656 240 639T256 596Q256 564 240 544T190 524Q159 524 143 541ZM92 340Q97 372 97 385Q97 413 84 426T40 440H30L35 470H155Q195 470 212 455T229
403Q229 384 222 340L163 0H33L92 340Z" />
<glyph unicode="j" glyph-name="j" horiz-adv-x="270" d="M159 524T143 541T127 584Q127 613 145 634T193 656Q224 656 240 639T256 596Q256 567 238 546T190 524Q159 524 143 541ZM-84 -165Q-36 -156 -8 -115T37 25L84 300Q97 375 97 385Q97 413 84 426T40 440H30L35
470H155Q195 470 212 455T229 403Q229 389 219 323T167 25Q152 -59 124 -105T46 -170T-88 -190L-84 -165Z" />
<glyph unicode="k" glyph-name="k" horiz-adv-x="507" d="M342 -10T309 8T251 70L177 196L143 0H13Q69 318 90 441T111 575Q111 603 98 616T54 630H44L49 660H169Q209 660 226 645T243 593Q243 576 233 514T186 245L333 393Q374 434 407 452T490 470H510L506 444Q476
444 450 432T397 394L279 276L381 100Q418 33 461 24L457 0Q449 -4 427 -7T386 -10Q342 -10 309 8Z" />
<glyph unicode="l" glyph-name="l" horiz-adv-x="261" d="M73 318T94 441T115 575Q115 603 102 616T58 630H48L53 660H173Q213 660 230 645T247 593Q247 582 232 489T176 165L147 0H17Q73 318 94 441Z" />
<glyph unicode="m" glyph-name="m" horiz-adv-x="827" d="M73 242T78 272Q96 380 96 386Q96 414 84 427T40 440H30L35 470H134Q201 470 213 432H217Q279 480 351 480Q400 480 432 462T479 423Q507 449 542 464T631 480Q779 480 779 348Q779 333 770 274T722 0H592Q630
214 639 274T649 348Q649 430 587 430Q560 430 536 420T495 392L497 383Q500 362 500 354Q500 341 488 265T442 0H312Q350 214 359 274T369 348Q369 430 307 430Q286 430 262 418T223 390V385Q223 383 223 380T224 370Q224 341 162 0H32Q73 242 78 272Z" />
<glyph unicode="n" glyph-name="n" horiz-adv-x="577" d="M91 340Q96 372 96 387Q96 413 84 426T40 440H30L35 470H134Q168 470 186 462T212 433Q267 480 366 480Q448 480 488 448T529 348Q529 328 524 296L472 0H342L394 297Q398 317 398 343Q398 430 322 430Q291
430 266 422T225 399Q226 392 226 379Q226 361 223 346L162 0H32L91 340Z" />
<glyph unicode="o" glyph-name="o" horiz-adv-x="553" d="M130 -10T77 43T24 184Q24 259 61 327T165 438T312 480Q408 480 461 427T514 286Q514 211 477 143T373 32T226 -10Q130 -10 77 43ZM284 35T317 82T365 195T381 313Q381 371 362 403T304 435Q254 435 221
388T173 275T157 157Q157 99 176 67T234 35Q284 35 317 82Z" />
<glyph unicode="p" glyph-name="p" horiz-adv-x="569" d="M54 129T75 252T96 386Q96 414 84 427T40 440H30L35 470H134Q169 470 187 461T211 428Q275 480 356 480Q441 480 485 430T529 297Q529 218 496 148T403 34T265 -10Q223 -10 191 5Q175 11 165 20L128 -190H-2Q54
129 75 252ZM305 35T337 87T383 207T397 326Q397 379 381 407T328 435Q272 435 224 394V389L225 375Q225 357 173 65Q182 56 194 50Q222 35 253 35Q305 35 337 87Z" />
<glyph unicode="q" glyph-name="q" horiz-adv-x="549" d="M312 20Q300 12 281 5Q245 -10 202 -10Q113 -10 69 39T24 173Q24 246 55 317T144 434T283 480Q335 480 365 452Q380 439 388 425H393L436 470H521L405 -190H275L312 20ZM264 35T294 50Q309 57 320 65L374
370Q368 388 357 402Q332 435 295 435Q246 435 215 384T170 265T156 145Q156 91 173 63T230 35Q264 35 294 50Z" />
<glyph unicode="r" glyph-name="r" horiz-adv-x="420" d="M425 450T432 434T440 415L382 376Q378 385 368 395Q348 415 320 415Q261 415 225 384Q224 379 224 369Q224 364 224 354T221 336L162 0H32Q73 242 78 272Q96 380 96 386Q96 414 84 427T40 440H30L35 470H134Q168
470 186 462T212 433Q275 480 346 480Q389 480 414 460Q425 450 432 434Z" />
<glyph unicode="s" glyph-name="s" horiz-adv-x="469" d="M112 -10T63 6T13 75Q13 100 22 150H57V147Q57 96 84 66T167 35Q210 35 245 53T280 111Q280 134 261 150T203 184L155 206Q103 231 77 259T50 325Q50 376 81 411T162 463T265 480Q332 480 381 464T431
395Q431 370 422 320H387V323Q387 374 360 404T277 435Q239 435 209 415T179 356Q179 335 193 321T238 293L294 268Q354 242 381 215T409 147Q409 94 375 59T288 7T179 -10Q112 -10 63 6Z" />
<glyph unicode="t" glyph-name="t" horiz-adv-x="355" d="M117 -10T86 17T54 99Q54 107 65 177T108 425H48L56 470H116L132 560L193 620H273L246 470H356L348 425H238Q181 106 181 86Q181 58 191 47T222 35Q252 35 280 48Q289 52 305 62L314 34Q302 24 279 12Q233
-10 177 -10Q117 -10 86 17Z" />
<glyph unicode="u" glyph-name="u" horiz-adv-x="567" d="M124 -10T86 20T47 119Q47 133 54 181T81 340Q86 372 86 385Q86 413 73 426T29 440H19L24 470H144Q184 470 201 455T218 403Q218 372 211 340Q192 227 184 177T176 114Q176 71 192 53T243 35Q264 35 281
43T316 67Q331 80 344 100L409 470H539L457 0H372L344 45H339Q325 31 302 17Q259 -10 205 -10Q124 -10 86 20Z" />
<glyph unicode="v" glyph-name="v" horiz-adv-x="502" d="M88 355Q72 411 57 433T17 458L21 478L58 480Q125 480 166 454T228 355L282 163L472 470H526L229 -10H193L88 355Z" />
<glyph unicode="w" glyph-name="w" horiz-adv-x="776" d="M89 355Q74 411 58 434T14 459L18 478L66 480Q132 480 169 453T226 355L277 164L373 324L364 355Q349 409 333 433T294 459L298 478L336 480Q405 480 446 453T506 355L563 154L740 470H793L525 -10H479L398
271L233 -10H188L89 355Z" />
<glyph unicode="x" glyph-name="x" horiz-adv-x="497" d="M180 209L113 370Q98 405 78 425T34 450L37 470H132Q178 470 204 450T246 390L280 309L439 470H506L301 262L369 100Q384 65 404 45T448 20L445 0H350Q304 0 278 20T236 80L201 161L42 0H-25L180 209Z" />
<glyph unicode="y" glyph-name="y" horiz-adv-x="509" d="M10 -165Q65 -165 102 -144T172 -68L202 -14L92 380Q81 418 62 437T13 460L16 480H104Q148 480 178 459T220 400L291 148L469 470H522L226 -65Q182 -143 141 -171T44 -200H4L10 -165Z" />
<glyph unicode="z" glyph-name="z" horiz-adv-x="495" d="M-3 31L329 425H211Q148 425 118 403T80 330H50L60 390Q67 426 89 448T159 470H515L156 45H419L412 0H-8L-3 31Z" />
<glyph unicode="{" glyph-name="braceleft" horiz-adv-x="312" d="M122 -205T83 -167T44 -68Q44 -45 48 -22T60 35Q66 60 70 87T75 136Q75 171 56 194T-7 224L-1 256Q99 270 119 370L143 510Q156 584 210 633T365 691L359 656Q325 650 308 625T281 552L251 380Q241
323 207 290T106 240Q204 211 204 132Q204 103 200 78T185 6Q176 -35 172 -60T167 -113Q167 -140 177 -155T212 -176L206 -211Q122 -205 83 -167Z" />
<glyph unicode="|" glyph-name="bar" horiz-adv-x="264" d="M-15 -190L138 680H268L115 -190H-15Z" />
<glyph unicode="}" glyph-name="braceright" horiz-adv-x="312" d="M-60 -176Q-26 -170 -9 -145T18 -72L48 100Q58 157 92 190T193 240Q95 269 95 348Q95 375 99 401T113 468Q132 544 132 592Q132 620 121 635T86 656L92 691Q176 685 215 647T254 548Q254 525
250 498T239 446Q231 412 227 389T223 342Q223 307 243 285T306 256L300 224Q246 216 217 186T180 110L155 -30Q142 -104 88 -153T-66 -211L-60 -176Z" />
<glyph unicode="~" glyph-name="asciitilde" horiz-adv-x="614" d="M388 167T356 178T278 211Q241 229 216 238T167 247Q126 247 104 232T76 187H36Q50 266 86 304T184 343Q219 343 250 332T328 299Q369 280 392 272T440 263Q481 263 503 278T530 323H570Q556
244 521 206T423 167Q388 167 356 178Z" />
<glyph unicode="&#xa0;" glyph-name="uni00A0" horiz-adv-x="250" />
<glyph unicode="&#xa1;" glyph-name="exclamdown" horiz-adv-x="241" d="M109 358T96 371T83 406Q83 436 104 458T156 480Q180 480 193 468T207 434Q207 403 187 381T135 358Q109 358 96 371ZM-29 -194L79 311H173L104 -194H-29Z" />
<glyph unicode="&#xa2;" glyph-name="cent" horiz-adv-x="496" d="M190 -8Q105 0 62 50T18 180Q18 254 50 318T140 425T276 478L283 520H343L336 479Q395 476 431 462T468 400Q468 372 455 305H425Q426 313 426 328Q426 377 401 403T328 434L258 35Q301 37 335
58T405 118L432 95Q395 52 354 25T250 -8L243 -50H183L190 -8ZM266 424Q205 393 178 317T150 155Q150 69 199 45L266 424Z" />
<glyph unicode="&#xa3;" glyph-name="sterling" horiz-adv-x="536" d="M-7 30Q20 39 37 58T66 115T91 220L109 320H49L57 365H117L134 460Q154 575 223 622T376 670Q442 670 487 655T533 588Q533 569 527 535H472Q469 583 448 604T388 625Q294 625 264 460L247
365H377L369 320H239L221 220Q201 102 120 45H310Q369 45 402 74T447 165H477L462 80Q455 44 433 22T363 0H-12L-7 30Z" />
<glyph unicode="&#xa4;" glyph-name="currency" horiz-adv-x="607" d="M101 190H51L59 235H109L118 285H68L76 330H126Q166 549 166 575Q166 602 153 616T109 630H99L104 660H379Q485 660 550 623T615 511Q615 438 570 387T455 310T308 285H248L239 235H489L481
190H231L198 0H68L101 190ZM316 330Q363 331 399 356T455 423T475 513Q475 566 444 593T372 620Q327 620 306 615L256 330H316Z" />
<glyph unicode="&#xa5;" glyph-name="yen" horiz-adv-x="716" d="M306 135H222L230 180H314L321 220H237L245 265H328L199 530Q180 572 148 604T85 640L89 660H198Q249 660 284 629T341 550L441 345L691 660H756L464 291L459 265H545L537 220H451L444 180H530L522
135H436L413 0H283L306 135Z" />
<glyph unicode="&#xa6;" glyph-name="brokenbar" horiz-adv-x="267" d="M77 327L139 680H269L207 327H77ZM-14 -190L48 163H178L116 -190H-14Z" />
<glyph unicode="&#xa7;" glyph-name="section" horiz-adv-x="452" d="M78 -200T32 -180T-15 -109Q-15 -95 -12 -76T-7 -49H25V-55Q25 -103 47 -129T114 -155Q159 -155 186 -124T213 -45Q213 -24 203 -7T181 22T138 60Q138 60 114 78Q72 109 51 135T29 203Q29 257
70 301T169 370Q135 396 116 425T96 492Q96 543 124 584T199 647T300 670Q358 670 404 650T450 578Q450 561 443 519H411V522Q411 571 389 598T322 625Q277 625 251 594T224 515Q224 481 243 459T302 408Q354 370 380 340T407 266Q407 212 367 169T265 100Q340
46 340 -23Q340 -75 312 -115T237 -178T136 -200Q78 -200 32 -180ZM260 136T275 165T291 231Q291 264 268 291T204 344Q177 333 161 304T144 240Q144 207 167 179T232 125Q260 136 275 165Z" />
<glyph unicode="&#xa8;" glyph-name="dieresis" horiz-adv-x="282" d="M104 690T92 702T80 736Q80 763 100 782T147 802Q170 802 182 790T194 758Q194 731 175 711T127 690Q104 690 92 702ZM274 690T262 702T250 736Q250 763 270 782T317 802Q340 802 352 790T364
758Q364 731 345 711T297 690Q274 690 262 702Z" />
<glyph unicode="&#xa9;" glyph-name="copyright" horiz-adv-x="806" d="M255 -28T184 8T75 111T36 262Q36 373 95 471T255 628T475 688Q569 688 640 652T749 549T788 397Q788 287 729 189T568 32T349 -28Q255 -28 184 8ZM453 17T536 69T669 209T718 395Q718 469
688 525T600 612T467 643Q369 643 286 591T155 451T106 263Q106 190 136 134T223 48T356 17Q453 17 536 69ZM287 102T240 151T192 280Q192 347 226 413T321 522T453 565Q515 565 564 544T614 469Q614 452 608 414Q608 412 608 412T607 409H576Q575 473 550 503T467
533Q407 533 367 493T306 393T286 272Q286 211 313 173T397 134Q483 134 558 230L580 212Q538 153 488 128T371 102Q287 102 240 151Z" />
<glyph unicode="&#xaa;" glyph-name="ordfeminine" horiz-adv-x="323" d="M115 396T94 409T73 451Q73 502 118 524T226 547H242Q246 568 246 586Q246 635 211 635Q185 635 169 622T142 583H113Q120 625 138 641Q157 660 226 660Q270 660 294 644T318 584Q318 575
307 512Q304 495 300 468T288 401H242L225 426Q190 396 150 396Q115 396 94 409ZM201 421T226 455L238 522H222Q192 522 169 504T145 453Q145 436 153 429T174 421Q201 421 226 455Z" />
<glyph unicode="&#xab;" glyph-name="guillemotleft" horiz-adv-x="428" d="M147 30L23 225L216 420H280L148 226L211 30H147ZM275 80L198 225L326 370H390L302 225L339 80H275Z" />
<glyph unicode="&#xac;" glyph-name="logicalnot" horiz-adv-x="665" d="M486 115L504 220H49L62 290H607L576 115H486Z" />
<glyph unicode="&#xad;" glyph-name="uni00AD" horiz-adv-x="397" d="M48 217L65 312H344L327 217H48Z" />
<glyph unicode="&#xae;" glyph-name="registered" horiz-adv-x="806" d="M255 -25T184 11T75 112T36 262Q36 373 95 470T255 626T474 685Q567 685 638 649T749 548T788 397Q788 287 729 190T568 34T349 -25Q255 -25 184 11ZM454 20T537 71T669 209T718 395Q718
469 688 524T600 609T466 640Q368 640 286 589T155 451T106 264Q106 191 136 136T223 50T357 20Q454 20 537 71ZM488 118T465 138T419 212L371 320H351L317 125H229L291 477Q295 494 295 510Q295 539 272 539H254L256 555H429Q500 555 543 533T587 458Q587 407
554 374T463 326L512 216Q529 178 544 160T582 139L580 125Q578 123 563 121T526 118Q488 118 465 138ZM437 349T465 380T493 461Q493 526 421 526L397 525Q394 524 387 524L356 351Q360 350 367 350Q374 349 390 349Q437 349 465 380Z" />
<glyph unicode="&#xaf;" glyph-name="overscore" horiz-adv-x="494" d="M171 557V642H450V557H171Z" />
<glyph unicode="&#xb0;" glyph-name="degree" horiz-adv-x="418" d="M153 360T116 394T78 487Q78 540 103 584T174 654T279 680Q349 680 386 646T424 553Q424 500 399 456T328 386T223 360Q153 360 116 394ZM262 420T287 436T328 481T343 542Q343 577 323 598T269
620Q241 620 216 604T175 560T159 499Q159 463 179 442T233 420Q262 420 287 436Z" />
<glyph unicode="&#xb1;" glyph-name="plusminus" horiz-adv-x="583" d="M12 55L25 125H222L252 295H55L67 365H264L298 560H388L354 365H551L539 295H342L312 125H509L496 55H12Z" />
<glyph unicode="&#xb2;" glyph-name="uni00B2" horiz-adv-x="319" d="M74 400Q94 418 110 431T137 455Q183 494 205 516T239 563T251 624Q251 645 242 653T214 662Q156 662 127 583H111Q116 610 120 626T135 653Q151 669 177 679T232 689Q271 689 297 674T323
621Q323 588 309 563T274 519T211 468Q202 461 178 442T132 404H213Q242 404 257 414T277 448H292L286 413Q280 377 241 377H70L74 400Z" />
<glyph unicode="&#xb3;" glyph-name="uni00B3" horiz-adv-x="305" d="M130 367T107 380T67 418L83 430Q110 394 160 394Q184 394 205 417T227 478Q227 524 177 524Q156 524 133 518L122 546L259 653H181Q130 653 123 610H110L116 643Q122 680 161 680H314L311
662L163 547Q180 551 203 551Q242 551 270 533T299 478Q299 439 277 414T224 378T169 367Q130 367 107 380Z" />
<glyph unicode="&#xb4;" glyph-name="acute" horiz-adv-x="201" d="M93 700L160 840H279L148 700H93Z" />
<glyph unicode="&#xb5;" glyph-name="uni00B5" horiz-adv-x="552" d="M97 470H227L186 235Q177 183 177 144Q177 35 246 35Q303 35 342 100L407 470H537L455 0H370L342 45H337Q324 29 306 17Q270 -10 223 -10Q193 -10 171 1T131 35L91 -190H-19L97 470Z" />
<glyph unicode="&#xb6;" glyph-name="paragraph" horiz-adv-x="636" d="M255 270Q197 270 152 290T82 348T56 433Q56 497 93 549T193 630T324 660H664L656 615H601L459 -190H339L481 615H436L294 -190H174L255 270Z" />
<glyph unicode="&#xb7;" glyph-name="middot" horiz-adv-x="227" d="M85 270T73 282T60 317Q60 347 80 369T133 392Q159 392 171 380T184 345Q184 315 164 293T111 270Q85 270 73 282Z" />
<glyph unicode="&#xb8;" glyph-name="cedilla" horiz-adv-x="200" d="M-39 -160H11Q30 -160 42 -150T57 -123Q57 -110 49 -103T23 -95H-22L-5 0H60L51 -50Q88 -50 108 -67T128 -113Q128 -155 96 -180T23 -206H-47L-39 -160Z" />
<glyph unicode="&#xb9;" glyph-name="uni00B9" horiz-adv-x="213" d="M96 377L138 614L100 594L88 616L167 680H221L168 377H96Z" />
<glyph unicode="&#xba;" glyph-name="ordmasculine" horiz-adv-x="338" d="M131 367T107 398T82 482Q82 529 99 577T152 657T240 689Q292 689 317 658T342 576Q342 528 325 480T271 400T183 367Q131 367 107 398ZM219 392T238 430T265 517T273 601Q273 635 264
649T236 664Q206 664 187 626T159 538T151 455Q151 392 188 392Q219 392 238 430Z" />
<glyph unicode="&#xbb;" glyph-name="guillemotright" horiz-adv-x="427" d="M130 30L261 226L199 420H263L386 225L194 30H130ZM20 80L107 225L71 370H135L211 225L84 80H20Z" />
<glyph unicode="&#xbc;" glyph-name="onequarter" horiz-adv-x="619" d="M131 377L173 614L135 594L123 616L202 680H256L203 377H131ZM-22 0L549 660H644L73 0H-22ZM419 0L431 73H286L291 97L477 304H544L508 100H542L537 73H503L491 0H419ZM330 100H436L462
246L330 100Z" />
<glyph unicode="&#xbd;" glyph-name="onehalf" horiz-adv-x="633" d="M131 377L173 614L135 594L123 616L202 680H256L203 377H131ZM-22 0L549 660H644L73 0H-22ZM328 23L357 47Q425 102 464 148T504 248Q504 268 495 276T468 285Q410 285 381 206H365Q374 260
388 276Q405 292 431 302T486 312Q524 312 550 296T576 244Q576 209 555 177T505 120T429 60Q402 42 385 27H466Q494 27 510 37T531 71H546L540 36Q534 0 495 0H324L328 23Z" />
<glyph unicode="&#xbe;" glyph-name="threequarters" horiz-adv-x="627" d="M125 367T102 380T62 418L78 430Q105 394 155 394Q184 394 203 419T222 478Q222 524 172 524Q151 524 128 518L117 546L254 653H176Q125 653 118 610H105L111 643Q117 680 156 680H309L306
662L158 547Q175 551 198 551Q237 551 265 533T294 478Q294 429 255 398T164 367Q125 367 102 380ZM-3 0L568 660H663L92 0H-3ZM428 0L440 73H295L300 97L486 304H553L517 100H551L546 73H512L500 0H428ZM339 100H445L471 246L339 100Z" />
<glyph unicode="&#xbf;" glyph-name="questiondown" horiz-adv-x="492" d="M250 360T237 372T223 406Q223 437 243 459T295 482Q321 482 334 469T347 434Q347 404 326 382T274 360Q250 360 237 372ZM71 -212T21 -172T-30 -58Q-30 -9 -11 29T35 95T109 161Q164
206 192 237T232 312H300Q289 269 267 233T208 150Q159 88 134 40T109 -73Q109 -124 131 -145T192 -167Q253 -167 304 -122T391 21H421Q410 -40 400 -74T367 -130Q334 -164 274 -188T154 -212Q71 -212 21 -172Z" />
<glyph unicode="&#xc0;" glyph-name="Agrave" horiz-adv-x="647" d="M520 -4T473 23T408 126L395 182H129L15 0H-37L374 660H419L549 126Q573 33 635 26L631 1Q613 -4 582 -4Q520 -4 473 23ZM158 227H384L320 488L158 227ZM373 715L292 855H411L428 715H373Z" />
<glyph unicode="&#xc1;" glyph-name="Aacute" horiz-adv-x="647" d="M520 -4T473 23T408 126L395 182H129L15 0H-37L374 660H419L549 126Q573 33 635 26L631 1Q613 -4 582 -4Q520 -4 473 23ZM158 227H384L320 488L158 227ZM379 700L446 840H565L434 700H379Z" />
<glyph unicode="&#xc2;" glyph-name="Acircumflex" horiz-adv-x="647" d="M520 -4T473 23T408 126L395 182H129L15 0H-37L374 660H419L549 126Q573 33 635 26L631 1Q613 -4 582 -4Q520 -4 473 23ZM158 227H384L320 488L158 227ZM253 685L355 810H485L543 685H483L412
765L313 685H253Z" />
<glyph unicode="&#xc3;" glyph-name="Atilde" horiz-adv-x="647" d="M520 -4T473 23T408 126L395 182H129L15 0H-37L374 660H419L549 126Q573 33 635 26L631 1Q613 -4 582 -4Q520 -4 473 23ZM158 227H384L320 488L158 227ZM299 756T320 778T374 800Q391 800 402
794T427 776Q437 768 444 764T459 760Q475 760 487 772T501 800H541Q530 744 510 722T456 700Q439 700 427 706T402 724Q400 726 394 730T382 737T370 740Q354 740 343 728T328 700H288Q299 756 320 778Z" />
<glyph unicode="&#xc4;" glyph-name="Adieresis" horiz-adv-x="647" d="M520 -4T473 23T408 126L395 182H129L15 0H-37L374 660H419L549 126Q573 33 635 26L631 1Q613 -4 582 -4Q520 -4 473 23ZM158 227H384L320 488L158 227ZM297 725T285 737T273 769Q273 796
292 816T340 837Q363 837 375 825T387 791Q387 765 367 745T320 725Q297 725 285 737ZM477 725T465 737T453 769Q453 796 472 816T520 837Q543 837 555 825T567 791Q567 765 547 745T500 725Q477 725 465 737Z" />
<glyph unicode="&#xc5;" glyph-name="Aring" horiz-adv-x="647" d="M520 -4T473 23T408 126L395 182H129L15 0H-37L348 619Q331 629 319 646T307 688Q307 717 322 742T364 784T421 800Q457 800 479 779T501 724Q501 691 482 663T429 619L549 126Q573 33 635 26L631
1Q613 -4 582 -4Q520 -4 473 23ZM419 660Q434 668 442 683T450 716Q450 734 440 744T413 755Q390 755 374 737T358 693Q358 673 374 660H419ZM158 227H384L320 488L158 227Z" />
<glyph unicode="&#xc6;" glyph-name="AE" horiz-adv-x="873" d="M420 660H796Q869 660 869 602Q869 593 852 495H822Q825 513 825 528Q825 615 718 615H557L513 365H773L765 320H505L456 45H627Q684 45 726 70T806 159L831 149L788 70Q768 33 748 17T689 0H319L352
190H134L-6 0H-66L420 660ZM167 235H360L421 579L167 235Z" />
<glyph unicode="&#xc7;" glyph-name="Ccedilla" horiz-adv-x="680" d="M240 -160H290Q309 -160 321 -150T336 -123Q336 -110 328 -103T302 -95H257L271 -17Q159 -5 99 66T38 246Q38 350 90 450T234 615T438 680Q526 680 599 651T672 545Q672 507 660 447H630Q628
539 585 587T460 635Q366 635 302 574T208 420T177 232Q177 138 219 82T353 25Q423 25 488 62T601 168L631 141Q571 60 501 22T335 -19L330 -50Q367 -50 387 -67T407 -113Q407 -154 377 -180T302 -206H232L240 -160Z" />
<glyph unicode="&#xc8;" glyph-name="Egrave" horiz-adv-x="602" d="M104 318T125 441T146 575Q146 603 133 616T89 630H79L84 660H525Q598 660 598 602Q598 593 581 495H551Q554 513 554 528Q554 615 447 615H286L242 365H502L494 320H234L185 45H356Q413 45
455 70T535 159L560 149L517 70Q497 33 477 17T418 0H48Q104 318 125 441ZM350 715L269 855H388L405 715H350Z" />
<glyph unicode="&#xc9;" glyph-name="Eacute" horiz-adv-x="602" d="M104 318T125 441T146 575Q146 603 133 616T89 630H79L84 660H525Q598 660 598 602Q598 593 581 495H551Q554 513 554 528Q554 615 447 615H286L242 365H502L494 320H234L185 45H356Q413 45
455 70T535 159L560 149L517 70Q497 33 477 17T418 0H48Q104 318 125 441ZM357 700L424 840H543L412 700H357Z" />
<glyph unicode="&#xca;" glyph-name="Ecircumflex" horiz-adv-x="602" d="M104 318T125 441T146 575Q146 603 133 616T89 630H79L84 660H525Q598 660 598 602Q598 593 581 495H551Q554 513 554 528Q554 615 447 615H286L242 365H502L494 320H234L185 45H356Q413
45 455 70T535 159L560 149L517 70Q497 33 477 17T418 0H48Q104 318 125 441ZM241 722L343 847H473L531 722H471L400 802L301 722H241Z" />
<glyph unicode="&#xcb;" glyph-name="Edieresis" horiz-adv-x="602" d="M104 318T125 441T146 575Q146 603 133 616T89 630H79L84 660H525Q598 660 598 602Q598 593 581 495H551Q554 513 554 528Q554 615 447 615H286L242 365H502L494 320H234L185 45H356Q413
45 455 70T535 159L560 149L517 70Q497 33 477 17T418 0H48Q104 318 125 441ZM274 725T262 737T250 769Q250 796 269 816T317 837Q340 837 352 825T364 791Q364 765 344 745T297 725Q274 725 262 737ZM454 725T442 737T430 769Q430 796 449 816T497 837Q520 837
532 825T544 791Q544 765 524 745T477 725Q454 725 442 737Z" />
<glyph unicode="&#xcc;" glyph-name="Igrave" horiz-adv-x="307" d="M82 0T65 15T48 69Q48 94 54 130L148 660H278L184 130Q180 109 180 87Q180 59 193 45T237 30H247L242 0H122Q82 0 65 15ZM183 715L102 855H221L238 715H183Z" />
<glyph unicode="&#xcd;" glyph-name="Iacute" horiz-adv-x="307" d="M82 0T65 15T48 69Q48 94 54 130L148 660H278L184 130Q180 109 180 87Q180 59 193 45T237 30H247L242 0H122Q82 0 65 15ZM188 700L255 840H374L243 700H188Z" />
<glyph unicode="&#xce;" glyph-name="Icircumflex" horiz-adv-x="307" d="M82 0T65 15T48 69Q48 94 54 130L148 660H278L184 130Q180 109 180 87Q180 59 193 45T237 30H247L242 0H122Q82 0 65 15ZM329 685L431 810H561L619 685H559L488 765L389 685H329Z" />
<glyph unicode="&#xcf;" glyph-name="Idieresis" horiz-adv-x="307" d="M82 0T65 15T48 69Q48 94 54 130L148 660H278L184 130Q180 109 180 87Q180 59 193 45T237 30H247L242 0H122Q82 0 65 15ZM107 725T95 737T83 769Q83 796 102 816T150 837Q173 837 185 825T197
791Q197 765 177 745T130 725Q107 725 95 737ZM287 725T275 737T263 769Q263 796 282 816T330 837Q353 837 365 825T377 791Q377 765 357 745T310 725Q287 725 275 737Z" />
<glyph unicode="&#xd0;" glyph-name="Eth" horiz-adv-x="737" d="M101 305H31L40 355H110Q146 552 146 575Q146 603 133 616T89 630H79L84 660H356Q534 660 625 593T717 402Q717 284 658 193T495 51T266 0H48L101 305ZM270 40Q358 40 426 93T531 230T568 403Q568
503 516 561T370 620H362Q329 620 309 616L286 613L240 355H315L306 305H231L186 47L208 43Q221 40 260 40H270Z" />
<glyph unicode="&#xd1;" glyph-name="Ntilde" horiz-adv-x="695" d="M188 495L101 0H51L104 302Q149 559 149 566Q149 630 72 630H67L72 660H142Q198 660 231 646T282 600L556 200L637 660H687L570 -3H524L188 495ZM322 750T343 772T397 794Q414 794 425 788T450
770Q460 762 467 758T482 754Q498 754 510 766T524 794H564Q553 738 533 716T479 694Q462 694 450 700T425 718Q423 720 417 724T405 731T393 734Q377 734 366 722T351 694H311Q322 750 343 772Z" />
<glyph unicode="&#xd2;" glyph-name="Ograve" horiz-adv-x="735" d="M230 -20T168 15T73 112T40 256Q40 361 91 459T233 618T438 680Q523 680 585 645T680 548T713 404Q713 299 662 201T520 42T315 -20Q230 -20 168 15ZM410 25T467 92T551 254T578 438Q578 533
540 584T430 635Q344 635 287 568T203 404T176 221Q176 127 213 76T323 25Q410 25 467 92ZM417 715L336 855H455L472 715H417Z" />
<glyph unicode="&#xd3;" glyph-name="Oacute" horiz-adv-x="735" d="M230 -20T168 15T73 112T40 256Q40 361 91 459T233 618T438 680Q523 680 585 645T680 548T713 404Q713 299 662 201T520 42T315 -20Q230 -20 168 15ZM410 25T467 92T551 254T578 438Q578 533
540 584T430 635Q344 635 287 568T203 404T176 221Q176 127 213 76T323 25Q410 25 467 92ZM417 724L484 864H603L472 724H417Z" />
<glyph unicode="&#xd4;" glyph-name="Ocircumflex" horiz-adv-x="735" d="M230 -20T168 15T73 112T40 256Q40 361 91 459T233 618T438 680Q523 680 585 645T680 548T713 404Q713 299 662 201T520 42T315 -20Q230 -20 168 15ZM410 25T467 92T551 254T578 438Q578
533 540 584T430 635Q344 635 287 568T203 404T176 221Q176 127 213 76T323 25Q410 25 467 92ZM307 730L409 855H539L597 730H537L466 810L367 730H307Z" />
<glyph unicode="&#xd5;" glyph-name="Otilde" horiz-adv-x="735" d="M230 -20T168 15T73 112T40 256Q40 361 91 459T233 618T438 680Q523 680 585 645T680 548T713 404Q713 299 662 201T520 42T315 -20Q230 -20 168 15ZM410 25T467 92T551 254T578 438Q578 533
540 584T430 635Q344 635 287 568T203 404T176 221Q176 127 213 76T323 25Q410 25 467 92ZM342 794T363 816T417 838Q434 838 445 832T470 814Q480 806 487 802T502 798Q518 798 530 810T544 838H584Q573 782 553 760T499 738Q482 738 470 744T445 762Q443 764
437 768T425 775T413 778Q397 778 386 766T371 738H331Q342 794 363 816Z" />
<glyph unicode="&#xd6;" glyph-name="Odieresis" horiz-adv-x="735" d="M230 -20T168 15T73 112T40 256Q40 361 91 459T233 618T438 680Q523 680 585 645T680 548T713 404Q713 299 662 201T520 42T315 -20Q230 -20 168 15ZM410 25T467 92T551 254T578 438Q578
533 540 584T430 635Q344 635 287 568T203 404T176 221Q176 127 213 76T323 25Q410 25 467 92ZM341 725T329 737T317 769Q317 796 336 816T384 837Q407 837 419 825T431 791Q431 765 411 745T364 725Q341 725 329 737ZM521 725T509 737T497 769Q497 796 516 816T564
837Q587 837 599 825T611 791Q611 765 591 745T544 725Q521 725 509 737Z" />
<glyph unicode="&#xd7;" glyph-name="multiply" horiz-adv-x="490" d="M80 132L28 195L191 334L78 472L153 536L267 398L430 537L483 474L318 334L432 196L357 133L244 271L80 132Z" />
<glyph unicode="&#xd8;" glyph-name="Oslash" horiz-adv-x="734" d="M113 56Q77 92 59 142T40 254Q40 359 91 457T233 618T438 680Q517 680 576 649L599 680H691L635 607Q673 570 692 518T712 403Q712 298 661 201T519 42T315 -20Q234 -20 173 13L147 -20H55L113
56ZM532 593Q493 635 430 635Q343 635 286 567T203 402T176 218Q176 185 183 145L532 593ZM410 25T467 92T551 255T578 438Q578 486 569 522L217 70Q255 25 323 25Q410 25 467 92Z" />
<glyph unicode="&#xd9;" glyph-name="Ugrave" horiz-adv-x="697" d="M196 -10T141 40T86 195Q86 217 95 274T138 530Q143 562 143 575Q143 603 130 616T86 630L91 660H201Q241 660 258 645T275 593Q275 562 268 530Q232 318 223 257T213 174Q213 103 241 67T332
30Q441 30 498 91T580 288L646 660H696L630 288Q605 140 531 65T313 -10Q196 -10 141 40ZM398 715L317 855H436L453 715H398Z" />
<glyph unicode="&#xda;" glyph-name="Uacute" horiz-adv-x="697" d="M196 -10T141 40T86 195Q86 217 95 274T138 530Q143 562 143 575Q143 603 130 616T86 630L91 660H201Q241 660 258 645T275 593Q275 562 268 530Q232 318 223 257T213 174Q213 103 241 67T332
30Q441 30 498 91T580 288L646 660H696L630 288Q605 140 531 65T313 -10Q196 -10 141 40ZM409 681L476 821H595L464 681H409Z" />
<glyph unicode="&#xdb;" glyph-name="Ucircumflex" horiz-adv-x="697" d="M196 -10T141 40T86 195Q86 217 95 274T138 530Q143 562 143 575Q143 603 130 616T86 630L91 660H201Q241 660 258 645T275 593Q275 562 268 530Q232 318 223 257T213 174Q213 103 241
67T332 30Q441 30 498 91T580 288L646 660H696L630 288Q605 140 531 65T313 -10Q196 -10 141 40ZM315 681L417 806H547L605 681H545L474 761L375 681H315Z" />
<glyph unicode="&#xdc;" glyph-name="Udieresis" horiz-adv-x="697" d="M196 -10T141 40T86 195Q86 217 95 274T138 530Q143 562 143 575Q143 603 130 616T86 630L91 660H201Q241 660 258 645T275 593Q275 562 268 530Q232 318 223 257T213 174Q213 103 241 67T332
30Q441 30 498 91T580 288L646 660H696L630 288Q605 140 531 65T313 -10Q196 -10 141 40ZM322 725T310 737T298 769Q298 796 317 816T365 837Q388 837 400 825T412 791Q412 765 392 745T345 725Q322 725 310 737ZM502 725T490 737T478 769Q478 796 497 816T545
837Q568 837 580 825T592 791Q592 765 572 745T525 725Q502 725 490 737Z" />
<glyph unicode="&#xdd;" glyph-name="Yacute" horiz-adv-x="639" d="M273 264L143 530Q124 572 92 604T29 640L33 660H142Q193 660 228 629T285 550L385 345L635 660H700L408 291L357 0H227L273 264ZM383 671L450 811H569L438 671H383Z" />
<glyph unicode="&#xde;" glyph-name="Thorn" horiz-adv-x="557" d="M118 381T136 487T154 605Q154 633 141 646T97 660H87L92 690H212Q252 690 269 675T286 623Q286 595 277 550Q550 544 550 363Q550 223 452 156T195 80L175 -30H45Q118 381 136 487ZM298 133T354
198T410 363Q410 494 269 504L203 125Q298 133 354 198Z" />
<glyph unicode="&#xdf;" glyph-name="germandbls" horiz-adv-x="574" d="M278 -10T238 10T198 77Q198 100 203 120H233V116Q233 83 255 59T318 35Q351 35 375 57T400 116Q400 145 382 165T328 211Q287 242 267 266T246 328Q246 365 264 391T320 452Q355 485 372
510T390 569Q390 596 375 610T332 625Q252 625 230 500L142 0H12L100 500Q117 598 179 634T345 670Q433 670 475 648T518 584Q518 539 494 510T425 446Q390 420 373 401T356 356Q356 327 376 307T437 260Q483 229 506 204T530 140Q530 93 501 59T425 8T330 -10Q278
-10 238 10Z" />
<glyph unicode="&#xe0;" glyph-name="agrave" horiz-adv-x="550" d="M112 -10T68 40T24 170Q24 242 55 314T146 433T284 480Q336 480 366 452Q381 439 389 425H394L437 470H522L457 100L440 0H355L327 45H322Q310 30 290 17Q252 -10 198 -10Q112 -10 68 40ZM247
35T264 43T299 67Q314 80 327 100L375 370Q369 388 358 402Q333 435 296 435Q248 435 217 384T171 263T156 144Q156 35 226 35Q247 35 264 43ZM300 525L219 665H338L355 525H300Z" />
<glyph unicode="&#xe1;" glyph-name="aacute" horiz-adv-x="550" d="M112 -10T68 40T24 170Q24 242 55 314T146 433T284 480Q336 480 366 452Q381 439 389 425H394L437 470H522L457 100L440 0H355L327 45H322Q310 30 290 17Q252 -10 198 -10Q112 -10 68 40ZM247
35T264 43T299 67Q314 80 327 100L375 370Q369 388 358 402Q333 435 296 435Q248 435 217 384T171 263T156 144Q156 35 226 35Q247 35 264 43ZM290 526L357 666H476L345 526H290Z" />
<glyph unicode="&#xe2;" glyph-name="acircumflex" horiz-adv-x="550" d="M112 -10T68 40T24 170Q24 242 55 314T146 433T284 480Q336 480 366 452Q381 439 389 425H394L437 470H522L457 100L440 0H355L327 45H322Q310 30 290 17Q252 -10 198 -10Q112 -10 68 40ZM247
35T264 43T299 67Q314 80 327 100L375 370Q369 388 358 402Q333 435 296 435Q248 435 217 384T171 263T156 144Q156 35 226 35Q247 35 264 43ZM174 531L276 656H406L464 531H404L333 611L234 531H174Z" />
<glyph unicode="&#xe3;" glyph-name="atilde" horiz-adv-x="550" d="M112 -10T68 40T24 170Q24 242 55 314T146 433T284 480Q336 480 366 452Q381 439 389 425H394L437 470H522L457 100L440 0H355L327 45H322Q310 30 290 17Q252 -10 198 -10Q112 -10 68 40ZM247
35T264 43T299 67Q314 80 327 100L375 370Q369 388 358 402Q333 435 296 435Q248 435 217 384T171 263T156 144Q156 35 226 35Q247 35 264 43ZM229 592T250 614T304 636Q321 636 332 630T357 612Q367 604 374 600T389 596Q405 596 417 608T431 636H471Q460 580
440 558T386 536Q369 536 357 542T332 560Q330 562 324 566T312 573T300 576Q284 576 273 564T258 536H218Q229 592 250 614Z" />
<glyph unicode="&#xe4;" glyph-name="adieresis" horiz-adv-x="550" d="M112 -10T68 40T24 170Q24 242 55 314T146 433T284 480Q336 480 366 452Q381 439 389 425H394L437 470H522L457 100L440 0H355L327 45H322Q310 30 290 17Q252 -10 198 -10Q112 -10 68 40ZM247
35T264 43T299 67Q314 80 327 100L375 370Q369 388 358 402Q333 435 296 435Q248 435 217 384T171 263T156 144Q156 35 226 35Q247 35 264 43ZM224 535T212 547T200 579Q200 606 219 626T267 647Q290 647 302 635T314 601Q314 575 294 555T247 535Q224 535 212
547ZM404 535T392 547T380 579Q380 606 399 626T447 647Q470 647 482 635T494 601Q494 575 474 555T427 535Q404 535 392 547Z" />
<glyph unicode="&#xe5;" glyph-name="aring" horiz-adv-x="550" d="M112 -10T68 40T24 170Q24 242 55 314T146 433T284 480Q336 480 366 452Q381 439 389 425H394L437 470H522L457 100L440 0H355L327 45H322Q310 30 290 17Q252 -10 198 -10Q112 -10 68 40ZM247
35T264 43T299 67Q314 80 327 100L375 370Q369 388 358 402Q333 435 296 435Q248 435 217 384T171 263T156 144Q156 35 226 35Q247 35 264 43ZM295 520T273 541T251 596Q251 625 266 651T307 694T365 710Q401 710 423 689T445 634Q445 605 430 579T389 536T331
520Q295 520 273 541ZM362 565T378 583T394 626Q394 644 384 654T357 665Q334 665 318 647T302 604Q302 586 312 576T339 565Q362 565 378 583Z" />
<glyph unicode="&#xe6;" glyph-name="ae" horiz-adv-x="792" d="M80 -10T40 18T0 97Q0 193 89 227T302 262H317Q324 297 324 334Q324 386 305 410T247 435Q208 435 180 416T131 345H76Q83 382 91 404T119 445Q138 463 177 471T255 480Q317 480 358 456T414 389Q450
434 495 457T590 480Q677 480 724 447T771 356Q771 210 553 210H448L447 207Q441 173 441 145Q441 35 527 35Q575 35 611 56T684 118L711 95Q674 50 626 20T504 -10Q394 -10 350 80Q323 42 274 16T159 -10Q80 -10 40 18ZM560 255Q598 255 619 284T641 357Q641 394
624 414T582 435Q540 435 506 391T455 255H560ZM229 40T263 72Q279 86 289 105L309 217H294Q223 217 179 192T135 100Q135 73 148 57T188 40Q229 40 263 72Z" />
<glyph unicode="&#xe7;" glyph-name="ccedilla" horiz-adv-x="498" d="M162 -142H202Q221 -142 233 -132T248 -105Q248 -92 240 -85T214 -77H175L187 -7Q106 4 66 53T25 180Q25 257 61 326T164 437T313 480Q381 480 428 466T475 400Q475 372 462 305H432Q433 313
433 329Q433 382 404 408T320 435Q264 435 228 389T174 279T157 157Q157 35 255 35Q303 35 339 56T412 118L439 95Q404 52 360 23T246 -9L242 -32Q276 -32 296 -48T316 -94Q316 -133 287 -160T214 -188H154L162 -142Z" />
<glyph unicode="&#xe8;" glyph-name="egrave" horiz-adv-x="508" d="M127 -10T76 43T25 182Q25 259 59 327T157 438T303 480Q392 480 441 448T490 358Q490 278 423 239T264 200H159Q153 169 153 144Q153 90 176 63T240 35Q288 35 324 56T397 118L424 95Q387 50
339 20T217 -10Q127 -10 76 43ZM272 245Q309 245 332 282T355 362Q355 398 338 416T295 435Q199 435 167 245H272ZM299 525L218 665H337L354 525H299Z" />
<glyph unicode="&#xe9;" glyph-name="eacute" horiz-adv-x="508" d="M127 -10T76 43T25 182Q25 259 59 327T157 438T303 480Q392 480 441 448T490 358Q490 278 423 239T264 200H159Q153 169 153 144Q153 90 176 63T240 35Q288 35 324 56T397 118L424 95Q387 50
339 20T217 -10Q127 -10 76 43ZM272 245Q309 245 332 282T355 362Q355 398 338 416T295 435Q199 435 167 245H272ZM274 526L341 666H460L329 526H274Z" />
<glyph unicode="&#xea;" glyph-name="ecircumflex" horiz-adv-x="508" d="M127 -10T76 43T25 182Q25 259 59 327T157 438T303 480Q392 480 441 448T490 358Q490 278 423 239T264 200H159Q153 169 153 144Q153 90 176 63T240 35Q288 35 324 56T397 118L424 95Q387
50 339 20T217 -10Q127 -10 76 43ZM272 245Q309 245 332 282T355 362Q355 398 338 416T295 435Q199 435 167 245H272ZM172 526L274 651H404L462 526H402L331 606L232 526H172Z" />
<glyph unicode="&#xeb;" glyph-name="edieresis" horiz-adv-x="508" d="M127 -10T76 43T25 182Q25 259 59 327T157 438T303 480Q392 480 441 448T490 358Q490 278 423 239T264 200H159Q153 169 153 144Q153 90 176 63T240 35Q288 35 324 56T397 118L424 95Q387
50 339 20T217 -10Q127 -10 76 43ZM272 245Q309 245 332 282T355 362Q355 398 338 416T295 435Q199 435 167 245H272ZM223 535T211 547T199 579Q199 606 218 626T266 647Q289 647 301 635T313 601Q313 575 293 555T246 535Q223 535 211 547ZM403 535T391 547T379
579Q379 606 398 626T446 647Q469 647 481 635T493 601Q493 575 473 555T426 535Q403 535 391 547Z" />
<glyph unicode="&#xec;" glyph-name="igrave" horiz-adv-x="271" d="M81 283Q97 374 97 385Q97 413 84 426T40 440H30L35 470H155Q195 470 212 455T229 403Q229 388 218 320T163 0H33L81 283ZM121 525L40 665H159L176 525H121Z" />
<glyph unicode="&#xed;" glyph-name="iacute" horiz-adv-x="271" d="M81 283Q97 374 97 385Q97 413 84 426T40 440H30L35 470H155Q195 470 212 455T229 403Q229 388 218 320T163 0H33L81 283ZM141 526L208 666H327L196 526H141Z" />
<glyph unicode="&#xee;" glyph-name="icircumflex" horiz-adv-x="271" d="M81 283Q97 374 97 385Q97 413 84 426T40 440H30L35 470H155Q195 470 212 455T229 403Q229 388 218 320T163 0H33L81 283ZM37 532L139 657H269L327 532H267L196 612L97 532H37Z" />
<glyph unicode="&#xef;" glyph-name="idieresis" horiz-adv-x="271" d="M81 283Q97 374 97 385Q97 413 84 426T40 440H30L35 470H155Q195 470 212 455T229 403Q229 388 218 320T163 0H33L81 283ZM45 535T33 547T21 579Q21 606 40 626T88 647Q111 647 123 635T135
601Q135 575 115 555T68 535Q45 535 33 547ZM225 535T213 547T201 579Q201 606 220 626T268 647Q291 647 303 635T315 601Q315 575 295 555T248 535Q225 535 213 547Z" />
<glyph unicode="&#xf0;" glyph-name="eth" horiz-adv-x="558" d="M126 -10T75 42T24 180Q24 255 59 324T157 437T302 480Q351 480 383 459T428 400Q426 452 417 489T389 555L334 508L301 548L356 595Q340 613 316 619T258 625Q237 625 219 620L203 616L195 648Q214
659 239 664T286 670Q327 670 355 661T407 634L458 680L492 642L442 600Q480 560 502 500T524 364Q524 272 492 187T393 46T226 -10Q126 -10 75 42ZM282 35T315 82T365 194T381 308Q381 364 363 399T304 435Q256 435 223 388T173 275T157 160Q157 99 178 67T234
35Q282 35 315 82Z" />
<glyph unicode="&#xf1;" glyph-name="ntilde" horiz-adv-x="577" d="M91 340Q96 372 96 387Q96 413 84 426T40 440H30L35 470H134Q168 470 186 462T212 433Q267 480 366 480Q448 480 488 448T529 348Q529 328 524 296L472 0H342L394 297Q398 317 398 343Q398 430
322 430Q291 430 266 422T225 399Q226 392 226 379Q226 361 223 346L162 0H32L91 340ZM236 600T257 622T311 644Q328 644 339 638T364 620Q374 612 381 608T396 604Q412 604 424 616T438 644H478Q467 588 447 566T393 544Q376 544 364 550T339 568Q337 570 331
574T319 581T307 584Q291 584 280 572T265 544H225Q236 600 257 622Z" />
<glyph unicode="&#xf2;" glyph-name="ograve" horiz-adv-x="553" d="M130 -10T77 43T24 184Q24 259 61 327T165 438T312 480Q408 480 461 427T514 286Q514 211 477 143T373 32T226 -10Q130 -10 77 43ZM284 35T317 82T365 195T381 313Q381 371 362 403T304 435Q254
435 221 388T173 275T157 157Q157 99 176 67T234 35Q284 35 317 82ZM351 525L270 665H389L406 525H351Z" />
<glyph unicode="&#xf3;" glyph-name="oacute" horiz-adv-x="553" d="M130 -10T77 43T24 184Q24 259 61 327T165 438T312 480Q408 480 461 427T514 286Q514 211 477 143T373 32T226 -10Q130 -10 77 43ZM284 35T317 82T365 195T381 313Q381 371 362 403T304 435Q254
435 221 388T173 275T157 157Q157 99 176 67T234 35Q284 35 317 82ZM277 526L344 666H463L332 526H277Z" />
<glyph unicode="&#xf4;" glyph-name="ocircumflex" horiz-adv-x="553" d="M130 -10T77 43T24 184Q24 259 61 327T165 438T312 480Q408 480 461 427T514 286Q514 211 477 143T373 32T226 -10Q130 -10 77 43ZM284 35T317 82T365 195T381 313Q381 371 362 403T304
435Q254 435 221 388T173 275T157 157Q157 99 176 67T234 35Q284 35 317 82ZM175 526L277 651H407L465 526H405L334 606L235 526H175Z" />
<glyph unicode="&#xf5;" glyph-name="otilde" horiz-adv-x="553" d="M130 -10T77 43T24 184Q24 259 61 327T165 438T312 480Q408 480 461 427T514 286Q514 211 477 143T373 32T226 -10Q130 -10 77 43ZM284 35T317 82T365 195T381 313Q381 371 362 403T304 435Q254
435 221 388T173 275T157 157Q157 99 176 67T234 35Q284 35 317 82ZM214 592T235 614T289 636Q306 636 317 630T342 612Q352 604 359 600T374 596Q390 596 402 608T416 636H456Q445 580 425 558T371 536Q354 536 342 542T317 560Q315 562 309 566T297 573T285 576Q269
576 258 564T243 536H203Q214 592 235 614Z" />
<glyph unicode="&#xf6;" glyph-name="odieresis" horiz-adv-x="553" d="M130 -10T77 43T24 184Q24 259 61 327T165 438T312 480Q408 480 461 427T514 286Q514 211 477 143T373 32T226 -10Q130 -10 77 43ZM284 35T317 82T365 195T381 313Q381 371 362 403T304 435Q254
435 221 388T173 275T157 157Q157 99 176 67T234 35Q284 35 317 82ZM260 535T248 547T236 579Q236 606 255 626T303 647Q326 647 338 635T350 601Q350 575 330 555T283 535Q260 535 248 547ZM440 535T428 547T416 579Q416 606 435 626T483 647Q506 647 518 635T530
601Q530 575 510 555T463 535Q440 535 428 547Z" />
<glyph unicode="&#xf7;" glyph-name="divide" horiz-adv-x="547" d="M276 425T264 437T252 471Q252 498 272 517T319 537Q342 537 354 525T366 493Q366 466 347 446T299 425Q276 425 264 437ZM47 297L58 362H518L507 297H47ZM223 123T211 135T199 169Q199 196
219 215T266 235Q289 235 301 223T313 191Q313 164 294 144T246 123Q223 123 211 135Z" />
<glyph unicode="&#xf8;" glyph-name="oslash" horiz-adv-x="553" d="M164 -10T114 16L100 0H8L62 60Q24 110 24 184Q24 259 61 327T165 438T312 480Q374 480 424 454L438 470H530L475 410Q514 359 514 286Q514 211 477 143T373 32T226 -10Q164 -10 114 16ZM367
392Q346 435 304 435Q254 435 222 388T174 278T156 162L367 392ZM284 35T316 81T364 190T381 307L170 77Q189 35 234 35Q284 35 316 81Z" />
<glyph unicode="&#xf9;" glyph-name="ugrave" horiz-adv-x="567" d="M124 -10T86 20T47 119Q47 133 54 181T81 340Q86 372 86 385Q86 413 73 426T29 440H19L24 470H144Q184 470 201 455T218 403Q218 372 211 340Q192 227 184 177T176 114Q176 71 192 53T243 35Q264
35 281 43T316 67Q331 80 344 100L409 470H539L457 0H372L344 45H339Q325 31 302 17Q259 -10 205 -10Q124 -10 86 20ZM299 525L218 665H337L354 525H299Z" />
<glyph unicode="&#xfa;" glyph-name="uacute" horiz-adv-x="567" d="M124 -10T86 20T47 119Q47 133 54 181T81 340Q86 372 86 385Q86 413 73 426T29 440H19L24 470H144Q184 470 201 455T218 403Q218 372 211 340Q192 227 184 177T176 114Q176 71 192 53T243 35Q264
35 281 43T316 67Q331 80 344 100L409 470H539L457 0H372L344 45H339Q325 31 302 17Q259 -10 205 -10Q124 -10 86 20ZM285 500L352 640H471L340 500H285Z" />
<glyph unicode="&#xfb;" glyph-name="ucircumflex" horiz-adv-x="567" d="M124 -10T86 20T47 119Q47 133 54 181T81 340Q86 372 86 385Q86 413 73 426T29 440H19L24 470H144Q184 470 201 455T218 403Q218 372 211 340Q192 227 184 177T176 114Q176 71 192 53T243
35Q264 35 281 43T316 67Q331 80 344 100L409 470H539L457 0H372L344 45H339Q325 31 302 17Q259 -10 205 -10Q124 -10 86 20ZM174 526L276 651H406L464 526H404L333 606L234 526H174Z" />
<glyph unicode="&#xfc;" glyph-name="udieresis" horiz-adv-x="567" d="M124 -10T86 20T47 119Q47 133 54 181T81 340Q86 372 86 385Q86 413 73 426T29 440H19L24 470H144Q184 470 201 455T218 403Q218 372 211 340Q192 227 184 177T176 114Q176 71 192 53T243
35Q264 35 281 43T316 67Q331 80 344 100L409 470H539L457 0H372L344 45H339Q325 31 302 17Q259 -10 205 -10Q124 -10 86 20ZM223 535T211 547T199 579Q199 606 218 626T266 647Q289 647 301 635T313 601Q313 575 293 555T246 535Q223 535 211 547ZM403 535T391
547T379 579Q379 606 398 626T446 647Q469 647 481 635T493 601Q493 575 473 555T426 535Q403 535 391 547Z" />
<glyph unicode="&#xfd;" glyph-name="yacute" horiz-adv-x="509" d="M10 -165Q65 -165 102 -144T172 -68L202 -14L92 380Q81 418 62 437T13 460L16 480H104Q148 480 178 459T220 400L291 148L469 470H522L226 -65Q182 -143 141 -171T44 -200H4L10 -165ZM288 500L355
640H474L343 500H288Z" />
<glyph unicode="&#xfe;" glyph-name="thorn" horiz-adv-x="544" d="M111 546T111 575Q111 603 98 616T54 630H44L49 660H169Q209 660 226 645T243 593Q243 572 221 445Q271 480 341 480Q423 480 464 434T505 306Q505 229 476 156T387 37T245 -10Q189 -10 144 10L109
-190H-21Q111 546 111 575ZM270 35T304 82T355 195T371 314Q371 372 352 403T298 435Q255 435 214 405L151 50Q189 35 218 35Q270 35 304 82Z" />
<glyph unicode="&#xff;" glyph-name="ydieresis" horiz-adv-x="509" d="M10 -165Q65 -165 102 -144T172 -68L202 -14L92 380Q81 418 62 437T13 460L16 480H104Q148 480 178 459T220 400L291 148L469 470H522L226 -65Q182 -143 141 -171T44 -200H4L10 -165ZM214
535T202 547T190 579Q190 606 209 626T257 647Q280 647 292 635T304 601Q304 575 284 555T237 535Q214 535 202 547ZM394 535T382 547T370 579Q370 606 389 626T437 647Q460 647 472 635T484 601Q484 575 464 555T417 535Q394 535 382 547Z" />
<glyph unicode="&#x2013;" glyph-name="endash" horiz-adv-x="624" d="M55 227L66 292H560L549 227H55Z" />
<glyph unicode="&#x2014;" glyph-name="emdash" horiz-adv-x="894" d="M55 227L66 292H830L819 227H55Z" />
<glyph unicode="&#x2018;" glyph-name="quoteleft" horiz-adv-x="218" d="M108 420T94 437T80 480Q80 542 122 595T231 688L245 664Q209 644 179 612T141 539L156 542Q180 542 193 530T207 496Q207 465 187 443T135 420Q108 420 94 437Z" />
<glyph unicode="&#x2019;" glyph-name="quoteright" horiz-adv-x="220" d="M75 436Q111 456 141 488T179 561L164 558Q140 558 127 570T113 604Q113 635 133 657T185 680Q212 680 226 663T240 620Q240 558 198 505T89 412L75 436Z" />
<glyph unicode="&#x201a;" glyph-name="quotesinglbase" horiz-adv-x="230" d="M-26 -136Q10 -115 40 -83T78 -11L62 -14Q38 -14 25 -2T11 32Q11 63 31 85T84 108Q110 108 124 91T138 48Q138 -65 -13 -160L-26 -136Z" />
<glyph unicode="&#x201c;" glyph-name="quotedblleft" horiz-adv-x="400" d="M108 420T94 437T80 480Q80 542 122 595T231 688L245 664Q209 644 179 612T141 539L156 542Q180 542 193 530T207 496Q207 465 187 443T135 420Q108 420 94 437ZM290 420T276 437T262
480Q262 542 304 595T413 688L427 664Q391 644 361 612T323 539L338 542Q362 542 375 530T389 496Q389 465 369 443T317 420Q290 420 276 437Z" />
<glyph unicode="&#x201d;" glyph-name="quotedblright" horiz-adv-x="402" d="M75 436Q111 456 141 488T179 561L164 558Q140 558 127 570T113 604Q113 635 133 657T185 680Q212 680 226 663T240 620Q240 558 198 505T89 412L75 436ZM257 436Q293 456 323 488T361
561L346 558Q322 558 309 570T295 604Q295 635 315 657T367 680Q394 680 408 663T422 620Q422 558 380 505T271 412L257 436Z" />
<glyph unicode="&#x201e;" glyph-name="quotedblbase" horiz-adv-x="412" d="M-26 -136Q10 -115 40 -83T78 -11L62 -14Q38 -14 25 -2T11 32Q11 63 31 85T84 108Q110 108 124 91T138 48Q138 -65 -13 -160L-26 -136ZM156 -136Q192 -115 222 -83T260 -11L244 -14Q220
-14 207 -2T193 32Q193 63 213 85T266 108Q292 108 306 91T320 48Q320 -65 169 -160L156 -136Z" />
<glyph unicode="&#x2022;" glyph-name="bullet" horiz-adv-x="352" d="M110 207T79 234T48 307Q48 347 69 380T127 433T206 453Q259 453 290 425T322 352Q322 313 300 280T241 227T163 207Q110 207 79 234Z" />
<glyph unicode="&#x2039;" glyph-name="guilsinglleft" horiz-adv-x="297" d="M147 30L23 225L216 420H280L148 226L211 30H147Z" />
<glyph unicode="&#x203a;" glyph-name="guilsinglright" horiz-adv-x="295" d="M-2 30L129 226L67 420H131L254 225L62 30H-2Z" />
</font>
</defs>
</svg>
