<?xml version="1.0" standalone="no"?>
<!DOCTYPE svg PUBLIC "-//W3C//DTD SVG 1.1//EN" "http://www.w3.org/Graphics/SVG/1.1/DTD/svg11.dtd">
<svg xmlns="http://www.w3.org/2000/svg">
<defs >
<font id="Poppins" horiz-adv-x="836" ><font-face
    font-family="Poppins ExtraLight"
    units-per-em="1000"
    panose-1="0 0 3 0 0 0 0 0 0 0"
    ascent="1050"
    descent="-350"
    alphabetic="0" />
<glyph unicode=" " glyph-name="space" horiz-adv-x="293" />
<glyph unicode="!" glyph-name="exclam" horiz-adv-x="251" d="M224 702L124 171H85L174 702H224ZM62 -3T53 5T44 28Q44 48 58 61T91 75Q105 75 114 67T123 44Q123 24 109 11T76 -3Q62 -3 53 5Z" />
<glyph unicode="&quot;" glyph-name="quotedbl" horiz-adv-x="230" d="M180 794L139 608H107L130 794H180ZM282 794L242 608H209L232 794H282Z" />
<glyph unicode="#" glyph-name="numbersign" horiz-adv-x="777" d="M605 463L530 271H679L672 231H514L424 0H380L470 231H234L144 0H100L190 231H30L37 271H206L281 463H123L130 503H296L389 740H433L340 503H576L669 740H713L620 503H772L765 463H605ZM561 463H325L250
271H486L561 463Z" />
<glyph unicode="$" glyph-name="dollar" horiz-adv-x="566" d="M448 700T488 655T528 548H480Q479 589 451 625T363 669L310 373Q365 357 399 341T457 296T480 218Q480 197 476 177Q468 131 439 89T360 20T243 -7L229 -87H197L211 -6Q133 1 88 46T43 156Q43 167
44 173H91Q89 144 101 114T142 61T218 33L273 341Q217 357 183 372T125 417T101 493Q101 513 105 532Q118 609 180 658T338 709L353 796H385L369 708Q448 700 488 655ZM148 519T148 505Q148 454 182 428T280 383L331 671Q260 671 212 636T151 534Q148 519 148 505ZM434
192T434 206Q434 258 400 285T303 331L250 31Q325 32 372 73T431 175Q434 192 434 206Z" />
<glyph unicode="%" glyph-name="percent" horiz-adv-x="580" d="M91 593T113 630T171 688T251 710Q301 710 331 680T362 601Q362 555 340 518T282 460T202 439Q152 439 122 468T91 547Q91 593 113 630ZM597 702L56 0H9L550 702H597ZM197 678T163 642T129 550Q129
513 150 492T208 470Q256 470 290 506T324 598Q324 635 303 656T245 678Q197 678 163 642ZM245 146T266 183T324 242T404 263Q454 263 485 233T516 154Q516 136 514 127Q504 67 459 29T357 -9Q306 -9 276 21T245 100Q245 146 266 183ZM356 231T325 203T285 127Q282
114 282 102Q282 65 303 44T362 23Q404 23 435 51T476 127Q478 143 478 150Q478 188 457 209T398 231Q356 231 325 203Z" />
<glyph unicode="&amp;" glyph-name="ampersand" horiz-adv-x="699" d="M552 176T514 135L622 0H566L483 103Q422 44 361 17T227 -11Q136 -11 81 38T26 167Q26 251 82 315T234 414Q207 448 195 477T182 538Q182 587 206 626T275 688T373 710Q435 710 474 678T513
592Q513 583 511 567H466Q468 579 468 586Q468 626 440 648T368 671Q308 671 268 635T228 544Q228 516 241 489T280 428L489 166Q530 212 570 266L643 361H692L603 243Q552 176 514 135ZM295 29T349 54T458 134L258 384H257Q170 354 121 300T71 172Q71 108 115
69T232 29Q295 29 349 54Z" />
<glyph unicode="&apos;" glyph-name="quotesingle" horiz-adv-x="133" d="M186 794L142 608H110L130 794H186Z" />
<glyph unicode="(" glyph-name="parenleft" horiz-adv-x="380" d="M144 -116T112 -16T80 206Q80 340 118 476T229 731T401 934H450L449 929Q348 843 275 726T164 477T125 212Q125 98 156 -2T247 -181V-186H199Q144 -116 112 -16Z" />
<glyph unicode=")" glyph-name="parenright" horiz-adv-x="379" d="M-28 -186V-181Q122 -50 206 141T290 532Q290 648 258 749T163 929L164 934H212Q270 864 302 763T334 540Q334 407 296 272T187 17T20 -186H-28Z" />
<glyph unicode="*" glyph-name="asterisk" horiz-adv-x="449" d="M442 651L455 617L298 546L429 473L406 440L283 524L261 360H223L258 524L106 439L91 475L249 546L119 619L142 651L266 567L288 730H326L291 567L442 651Z" />
<glyph unicode="+" glyph-name="plus" horiz-adv-x="622" d="M580 355H346L305 120H261L302 355H71L77 395H310L351 630H395L354 395H587L580 355Z" />
<glyph unicode="," glyph-name="comma" horiz-adv-x="143" d="M82 105L-56 -151H-91L30 105H82Z" />
<glyph unicode="-" glyph-name="hyphen" horiz-adv-x="482" d="M651 395L644 356H268L275 395H651Z" />
<glyph unicode="." glyph-name="period" horiz-adv-x="149" d="M11 -3T2 5T-7 28Q-7 48 7 61T40 75Q54 75 63 67T72 44Q72 24 58 11T25 -3Q11 -3 2 5Z" />
<glyph unicode="/" glyph-name="slash" horiz-adv-x="400" d="M476 937L6 -161H-39L430 937H476Z" />
<glyph unicode="0" glyph-name="zero" horiz-adv-x="602" d="M113 529T179 622T379 716Q479 716 522 662T565 507Q565 443 549 357Q519 184 452 90T251 -5Q151 -5 109 49T66 203Q66 269 82 357Q113 529 179 622ZM520 443T520 505Q520 587 486 631T372 675Q294
675 246 635T170 526T126 357Q110 271 110 208Q110 125 144 81T258 36Q335 36 384 77T459 187T504 357Q520 443 520 505Z" />
<glyph unicode="1" glyph-name="one" horiz-adv-x="259" d="M91 665L99 706H247L122 0H76L194 665H91Z" />
<glyph unicode="2" glyph-name="two" horiz-adv-x="570" d="M218 163T347 284T497 514Q501 533 501 556Q501 612 468 645T362 678Q275 678 220 625T142 485H98Q124 595 196 656T369 717Q448 717 497 679T546 563Q546 539 542 516Q520 392 383 265T82 41H481L474
3H2L7 33Q218 163 347 284Z" />
<glyph unicode="3" glyph-name="three" horiz-adv-x="580" d="M132 616T203 668T376 720Q462 720 507 680T552 575Q552 559 549 542Q537 478 490 432T361 376V370Q426 360 464 323T502 223Q502 205 499 185Q484 101 419 48T247 -6Q146 -6 90 48T38 201H82Q81 126
125 80T254 34Q340 34 392 77T456 188Q459 205 459 220Q459 286 404 319T244 352H225L232 391H253Q479 392 504 539Q507 554 507 569Q507 621 471 651T368 681Q293 681 234 642T152 525H107Q132 616 203 668Z" />
<glyph unicode="4" glyph-name="four" horiz-adv-x="593" d="M10 180L16 215L484 708H536L449 219H563L556 180H442L410 0H366L398 180H10ZM483 654L70 219H406L483 654Z" />
<glyph unicode="5" glyph-name="five" horiz-adv-x="605" d="M580 671H196L145 384Q179 422 235 446T353 471Q454 471 500 421T547 293Q547 269 542 241Q523 135 452 65T261 -5Q163 -5 109 48T56 193H100Q102 116 147 76T268 35Q364 35 423 91T499 240Q503 261
503 286Q503 355 462 393T341 432Q278 432 224 404T134 327H92L160 711H587L580 671Z" />
<glyph unicode="6" glyph-name="six" horiz-adv-x="621" d="M538 605T503 644T395 683Q286 683 217 598T120 322Q148 391 216 431T366 472Q458 472 508 424T558 288Q558 255 553 229Q542 165 508 112T417 27T281 -5Q166 -5 118 52T70 214Q70 266 84 350Q116 529
192 625T402 721Q495 721 539 670T578 532H536Q538 605 503 644ZM301 433T251 412T163 349T115 245Q111 224 111 198Q111 125 154 79T286 33Q372 33 432 85T509 228Q514 260 514 281Q514 354 472 393T352 433Q301 433 251 412Z" />
<glyph unicode="7" glyph-name="seven" horiz-adv-x="517" d="M548 674L149 0H99L504 671H88L95 710H555L548 674Z" />
<glyph unicode="8" glyph-name="eight" horiz-adv-x="616" d="M175 385T147 420T119 504Q119 520 122 538Q137 620 207 671T387 722Q484 722 536 681T589 571Q589 555 586 538Q575 476 532 432T416 370Q479 356 513 318T547 221Q547 205 544 185Q527 89 450 33T255
-23Q152 -23 95 21T37 144Q37 166 41 185Q54 257 104 305T232 370Q175 385 147 420ZM294 683T236 645T165 534Q163 525 163 507Q163 450 206 418T328 386Q414 386 471 425T542 534Q545 549 545 563Q545 621 501 652T380 683Q294 683 236 645ZM230 350T165 310T85
186Q82 168 82 151Q82 86 130 51T262 15Q357 15 421 60T499 186Q502 204 502 220Q502 286 452 318T321 350Q230 350 165 310Z" />
<glyph unicode="9" glyph-name="nine" horiz-adv-x="620" d="M115 113T151 73T262 33Q368 33 435 116T530 390Q503 324 437 285T291 246Q199 246 148 294T96 428Q96 456 102 487Q113 551 147 604T238 688T374 720Q486 720 533 664T581 504Q581 452 567 368Q535
185 462 90T253 -6Q159 -6 115 46T75 186H117Q115 113 151 73ZM354 284T404 305T490 369T536 471Q540 492 540 518Q540 590 498 636T368 682Q283 682 222 630T145 487Q140 457 140 437Q140 364 182 324T303 284Q354 284 404 305Z" />
<glyph unicode=":" glyph-name="colon" horiz-adv-x="150" d="M11 -3T2 5T-7 28Q-7 48 7 61T40 75Q54 75 63 67T72 44Q72 24 58 11T25 -3Q11 -3 2 5ZM11 441T2 449T-7 472Q-7 492 7 505T40 519Q54 519 63 511T72 488Q72 468 58 455T25 441Q11 441 2 449Z" />
<glyph unicode=";" glyph-name="semicolon" horiz-adv-x="184" d="M103 443T94 451T85 474Q85 494 99 507T132 521Q146 521 155 513T164 490Q164 470 150 457T117 443Q103 443 94 451ZM104 105L-34 -151H-69L52 105H104Z" />
<glyph unicode="&lt;" glyph-name="less" horiz-adv-x="442" d="M296 141L73 375L378 610H434L129 375L352 141H296Z" />
<glyph unicode="=" glyph-name="equal" horiz-adv-x="620" d="M596 491L589 450H93L100 491H596ZM562 300L555 260H58L65 300H562Z" />
<glyph unicode="&gt;" glyph-name="greater" horiz-adv-x="437" d="M118 610H174L397 375L92 141H36L340 375L118 610Z" />
<glyph unicode="?" glyph-name="question" horiz-adv-x="497" d="M402 709T451 666T501 548Q501 537 497 509Q459 298 204 296L178 168H140L166 330H187Q294 330 364 367T453 509Q456 527 456 542Q456 602 417 636T312 671Q235 671 183 629T116 516H73Q89 605
157 657T318 709Q402 709 451 666ZM115 -3T106 5T97 28Q97 48 111 61T144 75Q158 75 167 67T176 44Q176 24 162 11T129 -3Q115 -3 106 5Z" />
<glyph unicode="@" glyph-name="at" horiz-adv-x="981" d="M650 630T731 588T856 471T901 299Q901 222 878 152T810 38T706 -6Q659 -6 635 23T612 102Q582 51 533 23T428 -6Q353 -6 311 40T268 164Q268 237 298 300T383 402T507 441Q562 441 598 415T647 338L663
428H703L651 135Q648 119 648 103Q648 68 664 48T712 28Q757 28 791 68T843 169T862 294Q862 386 823 454T710 559T539 596Q418 596 319 536T163 372T106 145Q106 51 145 -17T256 -120T426 -156Q515 -156 590 -123L598 -157Q511 -191 415 -191Q313 -191 234 -151T111
-36T67 139Q67 275 129 387T300 565T545 630Q650 630 731 588ZM632 248T632 268Q632 329 600 367T506 405Q448 405 404 372T335 284T311 170Q311 105 344 68T440 31Q510 31 563 83T629 227Q632 248 632 268Z" />
<glyph unicode="A" glyph-name="A" horiz-adv-x="627" d="M463 180H130L31 0H-18L361 686H411L547 0H498L463 180ZM456 217L376 628L150 217H456Z" />
<glyph unicode="B" glyph-name="B" horiz-adv-x="579" d="M545 460T502 419T400 363Q452 354 484 315T517 219Q517 203 514 188Q499 105 431 53T255 0H33L158 702H377Q469 702 514 664T560 563Q560 546 557 528Q545 460 502 419ZM401 382T450 420T511 524Q514
539 514 554Q514 605 478 634T367 663H196L146 382H322Q401 382 450 420ZM472 206T472 221Q472 278 429 311T311 344H139L85 38H260Q345 38 400 79T469 191Q472 206 472 221Z" />
<glyph unicode="C" glyph-name="C" horiz-adv-x="770" d="M86 454T143 535T285 663T465 709Q585 709 657 653T750 496H698Q681 575 620 621T458 668Q377 668 305 630T181 519T113 350Q107 313 107 280Q107 204 137 149T221 64T346 34Q447 34 524 80T647 206H698Q643
105 551 49T339 -7Q256 -7 193 28T95 128T60 275Q60 314 67 350Q86 454 143 535Z" />
<glyph unicode="D" glyph-name="D" horiz-adv-x="704" d="M508 702T589 632T670 434Q670 398 662 350Q633 184 521 92T229 0H33L158 702H354Q508 702 589 632ZM396 36T493 119T617 350Q624 388 624 427Q624 540 555 602T347 664H196L85 36H237Q396 36 493 119Z" />
<glyph unicode="E" glyph-name="E" horiz-adv-x="491" d="M196 665L144 370H424L417 334H138L85 37H395L388 0H33L158 702H512L505 665H196Z" />
<glyph unicode="F" glyph-name="F" horiz-adv-x="481" d="M519 702L512 665H196L144 370H421L414 333H137L78 0H33L158 702H519Z" />
<glyph unicode="G" glyph-name="G" horiz-adv-x="787" d="M85 454T143 535T288 662T471 708Q584 708 656 652T750 495H698Q681 574 620 621T464 668Q381 668 307 629T182 518T113 350Q107 314 107 280Q107 204 138 149T224 63T352 33Q432 33 503 69T625 171T696
328H383L390 365H749L743 335Q723 237 666 160T524 38T345 -7Q260 -7 196 28T96 127T60 276Q60 314 67 350Q85 454 143 535Z" />
<glyph unicode="H" glyph-name="H" horiz-adv-x="664" d="M657 702L532 0H487L548 341H139L78 0H33L158 702H203L145 377H554L612 702H657Z" />
<glyph unicode="I" glyph-name="I" horiz-adv-x="210" d="M203 702L78 0H33L158 702H203Z" />
<glyph unicode="J" glyph-name="J" horiz-adv-x="463" d="M450 702L354 157Q341 84 288 39T158 -7Q88 -7 51 29T13 133Q13 158 17 179H62Q58 151 58 139Q58 91 84 62T165 33Q229 33 264 69T309 157L405 702H450Z" />
<glyph unicode="K" glyph-name="K" horiz-adv-x="531" d="M179 350L460 0H401L137 329L78 0H33L158 702H203L144 369L526 702H583L179 350Z" />
<glyph unicode="L" glyph-name="L" horiz-adv-x="408" d="M85 36H346L339 0H33L158 702H203L85 36Z" />
<glyph unicode="M" glyph-name="M" horiz-adv-x="820" d="M810 687L688 0H643L749 594L379 0H343L183 590L78 0H33L155 687H202L372 60L763 687H810Z" />
<glyph unicode="N" glyph-name="N" horiz-adv-x="667" d="M535 0H490L189 628L78 0H33L157 701H202L504 75L614 701H659L535 0Z" />
<glyph unicode="O" glyph-name="O" horiz-adv-x="790" d="M261 -8T197 27T97 128T62 277Q62 393 115 492T262 649T470 708Q556 708 620 673T719 573T754 424Q754 307 701 208T554 51T346 -8Q261 -8 197 27ZM452 33T533 86T661 228T707 422Q707 498 677 553T591
638T463 668Q362 668 281 615T154 472T108 280Q108 204 139 149T225 63T352 33Q452 33 533 86Z" />
<glyph unicode="P" glyph-name="P" horiz-adv-x="546" d="M531 411T464 360T282 308H133L78 0H33L158 702H352Q453 702 502 662T551 549Q551 525 547 504Q531 411 464 360ZM475 347T501 504Q505 524 505 547Q505 663 345 663H196L140 347H289Q475 347 501 504Z" />
<glyph unicode="Q" glyph-name="Q" horiz-adv-x="791" d="M754 336T723 257T636 118T506 25L673 -143H609L459 8Q401 -8 346 -8Q261 -8 197 27T97 128T62 277Q62 393 115 492T262 649T470 708Q556 708 620 673T719 573T754 424Q754 336 723 257ZM108 204T139 149T225
63T352 33Q452 33 533 86T661 228T707 422Q707 498 677 553T591 638T463 668Q362 668 281 615T154 472T108 280Q108 204 139 149Z" />
<glyph unicode="R" glyph-name="R" horiz-adv-x="561" d="M453 702T503 660T553 544Q553 521 549 501Q534 420 480 368T335 303L466 0H412L285 299H281H132L78 0H33L158 702H351Q453 702 503 660ZM506 520T506 542Q506 663 344 663H196L138 337H288Q381 337 435
382T502 501Q506 520 506 542Z" />
<glyph unicode="S" glyph-name="S" horiz-adv-x="547" d="M174 -7T127 17T57 82T39 173H84Q82 140 96 108T147 53T245 31Q327 31 376 74T426 190Q426 233 404 261T351 306T264 344Q206 367 172 385T115 435T91 515Q91 522 93 540Q98 587 127 625T205 686T320 709Q383
709 428 687T495 628T515 550H469Q470 577 454 605T402 652T316 671Q238 671 188 632T137 523Q137 485 157 460T208 418T291 381Q350 357 386 338T447 284T472 197Q472 189 470 167Q464 119 436 80T357 17T241 -7Q174 -7 127 17Z" />
<glyph unicode="T" glyph-name="T" horiz-adv-x="495" d="M545 702L538 665H338L221 0H176L293 665H93L100 702H545Z" />
<glyph unicode="U" glyph-name="U" horiz-adv-x="645" d="M199 702L121 264Q115 227 115 196Q115 112 159 73T281 33Q373 33 435 88T519 264L597 702H642L564 264Q540 127 463 60T274 -7Q179 -7 124 42T69 191Q69 228 76 264L154 702H199Z" />
<glyph unicode="V" glyph-name="V" horiz-adv-x="639" d="M153 702L280 57L637 702H687L295 0H245L102 702H153Z" />
<glyph unicode="W" glyph-name="W" horiz-adv-x="929" d="M974 702L656 0H607L526 631L222 0H173L106 702H156L211 66L515 702H567L643 66L924 702H974Z" />
<glyph unicode="X" glyph-name="X" horiz-adv-x="543" d="M310 351L458 0H407L274 315L37 0H-14L258 354L111 702H162L293 391L532 702H583L310 351Z" />
<glyph unicode="Y" glyph-name="Y" horiz-adv-x="541" d="M591 702L295 284L245 0H200L250 284L101 702H153L280 327L539 702H591Z" />
<glyph unicode="Z" glyph-name="Z" horiz-adv-x="506" d="M50 40H426L418 0H-10L-3 38L476 661H116L124 702H535L528 663L50 40Z" />
<glyph unicode="[" glyph-name="bracketleft" horiz-adv-x="300" d="M343 937L336 898H255L71 -144H152L145 -183H21L218 937H343Z" />
<glyph unicode="\" glyph-name="backslash" horiz-adv-x="463" d="M280 -161L144 937H191L325 -161H280Z" />
<glyph unicode="]" glyph-name="bracketright" horiz-adv-x="300" d="M118 -185H-7L0 -147H81L265 896H184L190 934H315L118 -185Z" />
<glyph unicode="^" glyph-name="asciicircum" horiz-adv-x="579" d="M67 172H21L343 686H381L522 172H476L353 628L67 172Z" />
<glyph unicode="_" glyph-name="underscore" horiz-adv-x="603" d="M489 -33L482 -74H1L8 -33H489Z" />
<glyph unicode="`" glyph-name="grave" horiz-adv-x="264" d="M289 624L283 587L109 711L117 755L289 624Z" />
<glyph unicode="a" glyph-name="a" horiz-adv-x="673" d="M68 356T112 419T223 516T365 550Q450 550 502 508T568 401L593 543H638L541 0H497L522 143Q487 77 419 35T265 -8Q166 -8 107 50T47 209Q47 239 53 272Q68 356 112 419ZM550 302T550 325Q550 410 499
460T364 511Q298 511 243 483T150 400T99 272Q94 239 94 216Q94 129 143 81T279 32Q342 32 398 61T493 145T545 272Q550 302 550 325Z" />
<glyph unicode="b" glyph-name="b" horiz-adv-x="673" d="M185 466T252 508T405 550Q506 550 565 493T624 335Q624 305 618 272Q603 188 559 125T449 27T307 -8Q222 -8 170 34T103 142L78 0H33L164 740H209L149 400Q185 466 252 508ZM577 297T577 329Q577 415
527 463T392 511Q329 511 273 482T178 398T126 272Q121 240 121 219Q121 133 172 83T307 32Q373 32 428 61T521 144T572 272Q577 297 577 329Z" />
<glyph unicode="c" glyph-name="c" horiz-adv-x="621" d="M68 357T113 420T223 516T365 550Q467 550 523 499T581 362H534Q533 431 486 471T358 512Q299 512 245 486T152 405T99 272Q93 241 93 212Q93 124 143 78T273 31Q353 31 414 71T502 181H550Q518 95 443
44T266 -8Q166 -8 107 49T47 207Q47 238 53 272Q68 357 113 420Z" />
<glyph unicode="d" glyph-name="d" horiz-adv-x="673" d="M68 356T112 419T223 516T365 550Q448 550 501 509T568 401L628 740H672L541 0H497L523 144Q488 77 420 35T266 -8Q166 -8 107 50T47 209Q47 239 53 272Q68 356 112 419ZM550 302T550 325Q550 410 499
460T364 511Q298 511 243 483T150 400T99 272Q94 239 94 216Q94 129 143 81T279 32Q342 32 398 61T493 145T545 272Q550 302 550 325Z" />
<glyph unicode="e" glyph-name="e" horiz-adv-x="625" d="M435 550T483 524T556 453T581 353Q581 329 577 309Q571 273 565 255H96Q92 223 92 209Q92 123 144 77T275 31Q354 31 415 70T503 178H550Q518 95 444 44T268 -8Q168 -8 108 50T47 208Q47 239 53 272Q68
357 113 420T223 516T366 550Q435 550 483 524ZM536 319T536 349Q536 428 486 470T358 512Q301 512 248 487T156 412T102 290H529Q536 319 536 349Z" />
<glyph unicode="f" glyph-name="f" horiz-adv-x="322" d="M285 709T250 679T202 581L195 543H336L329 503H188L99 0H54L142 503H61L68 543H149L156 581Q171 667 221 708T370 749L363 709Q285 709 250 679Z" />
<glyph unicode="g" glyph-name="g" horiz-adv-x="673" d="M450 550T503 509T568 402L593 543H638L539 -17Q525 -92 483 -148T379 -235T248 -266Q146 -266 88 -217T24 -85H69Q77 -150 125 -188T255 -227Q312 -227 362 -202T448 -129T494 -17L522 142Q487 77 419
35T266 -8Q166 -8 107 50T47 209Q47 239 53 272Q68 356 112 419T223 516T365 550Q450 550 503 509ZM550 302T550 325Q550 410 499 460T364 511Q298 511 243 483T150 400T99 272Q94 239 94 216Q94 129 143 81T279 32Q342 32 398 61T493 145T545 272Q550 302 550
325Z" />
<glyph unicode="h" glyph-name="h" horiz-adv-x="623" d="M459 554T509 510T559 378Q559 351 553 318L497 0H453L509 315Q514 347 514 368Q514 440 474 477T362 515Q274 515 212 459T130 293V294L78 0H33L164 740H209L154 427Q188 489 247 521T378 554Q459 554 509 510Z" />
<glyph unicode="i" glyph-name="i" horiz-adv-x="210" d="M159 664T150 672T141 695Q141 715 155 728T187 742Q201 742 210 733T220 710Q220 690 206 677T173 664Q159 664 150 672ZM175 543L78 0H33L130 543H175Z" />
<glyph unicode="j" glyph-name="j" horiz-adv-x="217" d="M167 664T158 672T148 695Q148 715 162 728T194 742Q208 742 217 733T227 710Q227 690 213 677T181 664Q167 664 158 672ZM61 -140Q51 -198 18 -227T-77 -256H-119L-113 -216H-76Q-34 -216 -12 -198T17
-136L137 543H182L61 -140Z" />
<glyph unicode="k" glyph-name="k" horiz-adv-x="437" d="M159 273L377 0H315L122 249L78 0H33L164 740H209L131 297L407 543H470L159 273Z" />
<glyph unicode="l" glyph-name="l" horiz-adv-x="210" d="M209 740L78 0H33L164 740H209Z" />
<glyph unicode="m" glyph-name="m" horiz-adv-x="1013" d="M853 554T901 510T949 378Q949 351 943 318L886 0H842L898 315Q903 340 903 371Q903 441 866 478T760 515Q676 515 615 457T534 289V290L482 0H438L494 315Q499 340 499 371Q499 441 462 478T356 515Q272
515 211 457T130 289V291L78 0H33L130 543H175L154 427Q189 490 246 522T369 554Q443 554 489 516T543 403Q576 477 638 515T773 554Q853 554 901 510Z" />
<glyph unicode="n" glyph-name="n" horiz-adv-x="623" d="M459 554T509 510T559 378Q559 351 553 318L497 0H453L509 315Q514 347 514 368Q514 440 474 477T362 515Q278 515 217 463T133 310L78 0H33L130 543H175L155 429Q189 490 247 522T376 554Q459 554 509 510Z" />
<glyph unicode="o" glyph-name="o" horiz-adv-x="645" d="M171 -8T110 51T48 211Q48 303 89 381T205 504T370 550Q436 550 487 524T566 448T595 331Q595 239 553 161T438 38T273 -8Q171 -8 110 51ZM357 31T418 72T514 181T549 329Q549 418 496 465T363 512Q284
512 223 471T128 362T94 214Q94 125 146 78T279 31Q357 31 418 72Z" />
<glyph unicode="p" glyph-name="p" horiz-adv-x="673" d="M184 465T252 507T405 550Q506 550 565 493T624 335Q624 305 618 272Q603 188 559 125T449 27T307 -8Q222 -8 169 34T103 142L33 -256H-11L130 543H174L149 400Q184 465 252 507ZM577 297T577 329Q577
415 527 463T392 511Q329 511 273 482T178 398T126 272Q121 240 121 219Q121 133 172 83T307 32Q373 32 428 61T521 144T572 272Q577 297 577 329Z" />
<glyph unicode="q" glyph-name="q" horiz-adv-x="673" d="M68 356T112 419T223 516T365 550Q450 550 503 508T568 401L593 543H638L497 -256H452L522 142Q488 77 420 35T265 -8Q166 -8 107 50T47 209Q47 239 53 272Q68 356 112 419ZM550 302T550 325Q550 410 499
460T364 511Q298 511 243 483T150 400T99 272Q94 239 94 216Q94 129 143 81T279 32Q342 32 398 61T493 145T545 272Q550 302 550 325Z" />
<glyph unicode="r" glyph-name="r" horiz-adv-x="350" d="M186 488T242 521T377 554L368 507H354Q274 507 213 462T134 313L78 0H33L130 543H175L154 426Q186 488 242 521Z" />
<glyph unicode="s" glyph-name="s" horiz-adv-x="497" d="M120 -8T71 32T27 146H72Q67 93 102 62T207 30Q278 30 320 61T362 143Q362 173 345 193T303 225T233 253Q183 270 152 286T99 330T77 403Q77 446 102 479T171 531T269 550Q344 550 394 512T444 410Q444
397 443 390H399Q400 395 400 406Q400 454 362 483T265 513Q203 513 163 484T122 404Q122 371 140 350T184 316T256 287Q306 270 335 255T386 213T407 144Q407 74 351 33T204 -8Q120 -8 71 32Z" />
<glyph unicode="t" glyph-name="t" horiz-adv-x="347" d="M126 145Q122 125 122 105Q122 69 142 55T208 40H268L261 0H193Q133 0 105 23T76 99Q76 122 80 145L144 504H62L69 543H151L175 681H221L197 543H357L350 504H190L126 145Z" />
<glyph unicode="u" glyph-name="u" horiz-adv-x="623" d="M588 543L492 0H447L468 117Q434 56 375 24T247 -9Q164 -9 114 35T63 168Q63 201 68 227L125 543H169L113 230Q108 198 108 178Q108 105 148 68T260 30Q348 30 410 86T491 252V249L543 543H588Z" />
<glyph unicode="v" glyph-name="v" horiz-adv-x="531" d="M227 53L512 543H561L240 0H193L65 543H113L227 53Z" />
<glyph unicode="w" glyph-name="w" horiz-adv-x="809" d="M839 543L572 0H529L441 482L182 0H139L65 543H112L172 57L431 543H475L561 57L793 543H839Z" />
<glyph unicode="x" glyph-name="x" horiz-adv-x="438" d="M245 274L372 0H320L209 238L16 0H-32L192 274L67 543H119L227 311L416 543H464L245 274Z" />
<glyph unicode="y" glyph-name="y" horiz-adv-x="524" d="M114 543L231 56L506 543H554L97 -255H48L195 1L65 543H114Z" />
<glyph unicode="z" glyph-name="z" horiz-adv-x="424" d="M43 38H348L341 0H-15L-8 38L372 505H81L88 543H430L423 505L43 38Z" />
<glyph unicode="{" glyph-name="braceleft" horiz-adv-x="354" d="M84 393Q151 410 179 442T217 524Q223 559 225 599T227 649Q228 696 230 727T238 789Q250 862 293 896T405 931H445L438 891H404Q353 891 322 867T281 787Q274 747 272 703T270 649Q270 641 268
599T260 523Q239 398 122 374V372Q169 357 190 333T211 267Q211 240 201 199T171 91Q152 29 142 -10T132 -75Q132 -146 221 -146H256L249 -186H208Q150 -186 119 -160T87 -81Q87 -53 98 -10T129 99Q148 164 157 201T167 261Q167 297 148 317T77 352L84 393Z" />
<glyph unicode="|" glyph-name="bar" horiz-adv-x="226" d="M70 -93H25L180 784H225L70 -93Z" />
<glyph unicode="}" glyph-name="braceright" horiz-adv-x="354" d="M237 334T209 300T173 221Q165 174 163 93Q161 8 152 -44Q139 -117 96 -151T-15 -186H-56L-49 -146H-14Q37 -146 68 -122T108 -42Q117 10 119 99Q119 108 121 148T129 222Q138 279 174 318T272
372V374Q179 397 179 489Q179 505 182 523Q189 557 215 643Q227 678 238 716T254 787Q257 804 257 817Q257 891 168 891H134L141 931H181Q302 931 302 826Q302 809 299 789Q288 733 261 652Q250 619 241 585T226 524Q223 509 223 494Q223 419 312 393L305 352Q237
334 209 300Z" />
<glyph unicode="~" glyph-name="asciitilde" horiz-adv-x="450" d="M57 321T89 349T164 377Q189 377 206 368T246 341Q266 325 280 318T313 310Q338 310 359 329T391 376H428Q410 324 377 296T301 268Q277 268 260 277T220 303Q201 318 186 326T152 334Q127 334
106 316T74 268H38Q57 321 89 349Z" />
<glyph unicode="&#xa0;" glyph-name="uni00A0" horiz-adv-x="293" />
<glyph unicode="&#xa1;" glyph-name="exclamdown" horiz-adv-x="284" d="M206 557T215 549T224 526Q224 506 210 493T177 479Q163 479 154 487T145 510Q145 530 159 543T192 557Q206 557 215 549ZM44 -148L144 383H183L94 -148H44Z" />
<glyph unicode="&#xa2;" glyph-name="cent" horiz-adv-x="615" d="M287 480T237 456T152 384T103 267Q98 237 98 218Q98 138 145 97T269 55Q344 55 400 94T482 203H525Q498 121 431 70T272 16L253 -92H221L241 17Q154 23 105 75T55 212Q55 235 60 267Q79 375 152
442T328 517L346 619H378L360 518Q451 515 500 464T548 332H505Q505 400 462 440T343 480Q287 480 237 456Z" />
<glyph unicode="&#xa3;" glyph-name="sterling" horiz-adv-x="568" d="M476 714T520 666T565 540Q565 526 564 518H521Q522 525 522 538Q522 599 485 637T382 675Q316 675 265 635T199 517Q195 494 195 468Q195 435 201 400T209 355H402L396 321H215Q220 291 220
266Q220 241 216 221Q207 169 181 127T105 39H476L469 -1H58L55 30Q108 81 136 121T174 217Q177 240 177 259Q177 291 171 321H56L62 355H165Q151 421 151 462Q151 485 156 518Q166 575 198 619T280 689T389 714Q476 714 520 666Z" />
<glyph unicode="&#xa4;" glyph-name="currency" horiz-adv-x="514" d="M419 489Q438 456 438 413Q438 397 435 377Q423 312 380 266L431 206L403 183L354 242Q303 203 243 203Q181 203 145 242L76 183L56 206L128 266Q111 300 111 339Q111 351 115 377Q127 443
168 489L117 550L145 573L195 513Q246 551 305 551Q363 551 401 513L472 573L492 550L419 489ZM399 395T399 410Q399 460 371 490T299 520Q247 520 207 481T154 377Q151 358 151 341Q151 290 178 262T249 234Q299 234 342 273T396 377Q399 395 399 410Z" />
<glyph unicode="&#xa5;" glyph-name="yen" horiz-adv-x="574" d="M366 359H527L521 324L341 323L313 284L303 227H504L497 191H297L263 0H218L252 191H52L59 227H258L268 284L254 323L76 324L82 359H241L120 702H171L298 327L557 702H609L366 359Z" />
<glyph unicode="&#xa6;" glyph-name="brokenbar" horiz-adv-x="226" d="M180 784H225L161 424H116L180 784ZM70 -93H25L89 268H134L70 -93Z" />
<glyph unicode="&#xa7;" glyph-name="section" horiz-adv-x="569" d="M485 569Q489 621 455 660T342 700Q277 700 235 675T183 600Q181 586 181 581Q181 544 214 519T327 472Q421 446 470 412T519 314Q519 268 493 226T417 154T301 120Q363 101 400 73T437 -3Q437
-9 435 -25Q424 -85 369 -124T228 -164Q137 -164 87 -121T43 1H88Q85 -55 119 -92T235 -130Q298 -130 339 -104T390 -27Q392 -13 392 -8Q392 28 358 52T245 99Q151 125 102 159T53 256Q53 302 80 345T157 417T274 450Q212 468 174 497T135 576Q135 583 137 597Q148
657 205 696T348 735Q437 735 486 691T530 569H485ZM472 359T429 390T308 421Q245 421 198 399T125 340T100 263Q100 212 143 181T265 150Q327 150 374 172T447 230T472 307Q472 359 429 390Z" />
<glyph unicode="&#xa8;" glyph-name="dieresis" horiz-adv-x="317" d="M135 625T126 634T117 657Q117 674 130 687T162 701Q175 701 183 692T192 670Q192 652 179 639T149 625Q135 625 126 634ZM279 625T270 634T261 657Q261 674 274 687T306 701Q319 701 328
692T337 670Q337 652 324 639T293 625Q279 625 270 634Z" />
<glyph unicode="&#xa9;" glyph-name="copyright" horiz-adv-x="799" d="M563 703T628 669T728 571T763 426Q763 387 756 351Q738 249 681 169T538 44T352 -1Q263 -1 198 34T97 132T62 278Q62 307 69 351Q87 453 144 533T288 658T475 703Q563 703 628 669ZM376
677T297 636T166 520T97 351Q91 315 91 281Q91 205 122 147T213 57T356 24Q451 24 529 66T660 182T728 351Q735 395 735 423Q735 499 704 556T614 645T471 677Q376 677 297 636ZM397 587T344 560T252 479T200 352Q195 320 195 297Q195 211 245 163T373 115Q445
115 508 155T604 268H561Q532 212 484 182T380 152Q317 152 277 191T237 302Q237 327 241 350Q253 414 284 459T359 528T450 551Q505 551 543 521T590 434H633Q626 507 578 547T456 587Q397 587 344 560Z" />
<glyph unicode="&#xaa;" glyph-name="ordfeminine" horiz-adv-x="439" d="M96 609T150 659T277 709Q332 709 364 683T403 611L419 703H457L396 354H358L374 445Q352 399 311 373T214 347Q152 347 116 386T79 489Q79 508 82 529Q96 609 150 659ZM391 546T391 563Q391
616 360 646T278 677Q221 677 177 637T121 528Q118 510 118 493Q118 440 147 410T226 379Q286 379 331 419T388 528Q391 546 391 563Z" />
<glyph unicode="&#xab;" glyph-name="guillemotleft" horiz-adv-x="405" d="M121 120L48 295L182 470H231L94 295L170 120H121ZM278 120L205 295L339 470H389L252 295L327 120H278Z" />
<glyph unicode="&#xac;" glyph-name="logicalnot" horiz-adv-x="719" d="M698 427L665 243H622L648 389H74L81 427H698Z" />
<glyph unicode="&#xad;" glyph-name="uni00AD" horiz-adv-x="482" d="M651 395L644 356H268L275 395H651Z" />
<glyph unicode="&#xae;" glyph-name="registered" horiz-adv-x="494" d="M398 709T441 666T485 553Q485 542 481 514Q471 459 439 414T358 344T255 318Q182 318 139 361T95 475Q95 486 99 514Q108 569 140 613T221 683T325 709Q398 709 441 666ZM456 532T456 549Q456
609 420 646T320 683Q247 683 194 636T127 514Q124 496 124 479Q124 419 160 382T260 344Q333 344 386 392T453 514Q456 532 456 549ZM353 621T368 608T384 571Q384 540 364 520T313 497L360 408L324 407L279 497H247L230 407H199L237 621H325Q353 621 368 608ZM357
592T317 592H263L251 525H305Q344 525 351 559Q357 592 317 592Z" />
<glyph unicode="&#xaf;" glyph-name="overscore" horiz-adv-x="388" d="M429 688L423 653H99L105 688H429Z" />
<glyph unicode="&#xb0;" glyph-name="degree" horiz-adv-x="375" d="M86 599T138 646T261 694Q322 694 357 658T393 560Q393 549 389 521Q375 442 323 395T200 347Q139 347 104 382T69 480Q69 502 73 521Q86 599 138 646ZM354 547T354 558Q354 608 328 635T255
663Q202 663 163 625T111 521Q107 493 107 482Q107 432 133 405T205 378Q259 378 298 416T350 521Q354 547 354 558Z" />
<glyph unicode="&#xb1;" glyph-name="plusminus" horiz-adv-x="623" d="M593 425L585 385H352L313 165H270L309 385H76L84 425H316L352 631H395L359 425H593ZM33 140H542L535 100H26L33 140Z" />
<glyph unicode="&#xb2;" glyph-name="twosuperior" horiz-adv-x="311" d="M313 565T285 533T203 459L103 384H290L284 352H50L55 377L185 481Q226 515 249 542T280 605Q282 617 282 623Q282 650 266 663T224 677Q190 677 167 657T132 600H94Q105 647 140 677T230
708Q272 708 297 686T322 628Q322 621 320 607Q313 565 285 533Z" />
<glyph unicode="&#xb3;" glyph-name="threesuperior" horiz-adv-x="313" d="M109 657T145 682T234 708Q278 708 305 686T333 626Q333 589 312 563T252 528V526Q305 508 305 457Q305 429 289 404T241 363T168 347Q115 347 88 372T65 447H103Q99 378 172 378Q214
378 239 400T265 457Q265 483 245 497T193 512H138L144 541H200Q236 541 260 558T291 608Q292 613 292 621Q292 646 275 661T227 676Q192 676 169 660T134 616H96Q109 657 145 682Z" />
<glyph unicode="&#xb4;" glyph-name="acute" horiz-adv-x="260" d="M305 711L87 587L93 624L313 755L305 711Z" />
<glyph unicode="&#xb5;" glyph-name="uni00B5" horiz-adv-x="628" d="M593 543L497 0H452L475 130Q441 60 383 25T257 -11Q195 -11 152 18T98 114L33 -256H-11L130 543H174L123 258Q117 222 117 192Q117 111 158 70T273 28Q357 28 417 84T496 250V249L548 543H593Z" />
<glyph unicode="&#xb6;" glyph-name="paragraph" horiz-adv-x="527" d="M395 0H354L469 650H372L256 0H215L267 293H263Q161 293 110 335T58 449Q58 461 62 489Q78 579 148 633T332 687H517L395 0Z" />
<glyph unicode="&#xb7;" glyph-name="middot" horiz-adv-x="148" d="M12 314T3 322T-6 345Q-6 365 8 378T41 392Q55 392 64 384T73 361Q73 341 59 328T26 314Q12 314 3 322Z" />
<glyph unicode="&#xb8;" glyph-name="cedilla" horiz-adv-x="257" d="M90 -75T119 -93T149 -147Q149 -195 114 -225T20 -256H-62L-56 -222H17Q60 -222 81 -208T108 -164Q109 -160 109 -153Q109 -109 37 -109H-4L16 7H51L36 -78Q90 -75 119 -93Z" />
<glyph unicode="&#xb9;" glyph-name="onesuperior" horiz-adv-x="169" d="M104 673L110 704H203L140 352H102L158 673H104Z" />
<glyph unicode="&#xba;" glyph-name="ordmasculine" horiz-adv-x="421" d="M91 581T120 622T193 686T286 709Q352 709 392 670T432 566Q432 546 428 527Q419 473 390 432T317 367T223 344Q158 344 119 383T79 489Q79 508 82 527Q91 581 120 622ZM393 552T393 563Q393
617 362 647T281 677Q223 677 178 637T121 526Q118 507 118 490Q118 436 148 407T229 377Q286 377 331 416T389 526Q393 552 393 563Z" />
<glyph unicode="&#xbb;" glyph-name="guillemotright" horiz-adv-x="405" d="M159 295L84 470H133L205 295L72 120H23L159 295ZM316 295L241 470H291L363 295L230 120H180L316 295Z" />
<glyph unicode="&#xbc;" glyph-name="onequarter" horiz-adv-x="557" d="M122 673L128 704H221L158 352H120L176 673H122ZM534 702L53 0H10L491 702H534ZM482 74H430L416 0H378L391 74H215L220 100L435 354H479L434 103H487L482 74ZM432 303L262 103H397L432 303Z" />
<glyph unicode="&#xbd;" glyph-name="onehalf" horiz-adv-x="622" d="M123 352L179 673H125L131 704H224L161 352H123ZM519 702L40 0H-3L476 702H519ZM623 212T595 180T513 106L413 31H600L594 -1H360L365 24L495 128Q536 162 559 189T590 252Q592 264 592 270Q592
297 576 310T534 324Q500 324 477 304T442 247H404Q415 294 450 324T540 355Q582 355 607 333T632 275Q632 268 630 254Q623 212 595 180Z" />
<glyph unicode="&#xbe;" glyph-name="threequarters" horiz-adv-x="588" d="M125 657T161 682T250 708Q294 708 321 686T349 626Q349 589 328 563T268 528V526Q321 508 321 457Q321 429 305 404T257 363T184 347Q131 347 104 372T81 447H119Q115 378 188 378Q230
378 255 400T281 457Q281 483 261 497T209 512H154L160 541H216Q252 541 276 558T307 608Q308 613 308 621Q308 646 291 661T243 676Q208 676 185 660T150 616H112Q125 657 161 682ZM596 702L110 0H66L553 702H596ZM516 74H464L450 0H412L425 74H250L254 100L469
354H513L469 103H521L516 74ZM466 303L296 103H431L466 303Z" />
<glyph unicode="&#xbf;" glyph-name="questiondown" horiz-adv-x="482" d="M375 545T384 537T393 514Q393 494 379 481T346 467Q332 467 323 475T314 498Q314 518 328 531T361 545Q375 545 384 537ZM88 -167T39 -124T-11 -6Q-11 5 -7 33Q31 244 286 246L312 374H350L324
212H303Q196 212 126 175T37 33Q34 15 34 0Q34 -60 73 -94T178 -129Q255 -129 307 -87T374 26H417Q401 -63 333 -115T172 -167Q88 -167 39 -124Z" />
<glyph unicode="&#xc0;" glyph-name="Agrave" horiz-adv-x="627" d="M463 180H130L31 0H-18L361 686H411L547 0H498L463 180ZM456 217L376 628L150 217H456ZM486 768L480 731L306 855L314 899L486 768Z" />
<glyph unicode="&#xc1;" glyph-name="Aacute" horiz-adv-x="627" d="M463 180H130L31 0H-18L361 686H411L547 0H498L463 180ZM456 217L376 628L150 217H456ZM502 855L284 731L290 768L510 899L502 855Z" />
<glyph unicode="&#xc2;" glyph-name="Acircumflex" horiz-adv-x="627" d="M463 180H130L31 0H-18L361 686H411L547 0H498L463 180ZM456 217L376 628L150 217H456ZM413 840L270 758L276 796L420 878L533 796L527 758L413 840Z" />
<glyph unicode="&#xc3;" glyph-name="Atilde" horiz-adv-x="627" d="M463 180H130L31 0H-18L361 686H411L547 0H498L463 180ZM456 217L376 628L150 217H456ZM294 787T317 808T371 829Q389 829 400 823T426 803Q439 791 448 786T473 780Q490 780 504 792T525 826H555Q545
790 521 769T466 747Q447 747 436 753T408 774Q394 785 385 790T363 796Q328 796 313 749H283Q294 787 317 808Z" />
<glyph unicode="&#xc4;" glyph-name="Adieresis" horiz-adv-x="627" d="M463 180H130L31 0H-18L361 686H411L547 0H498L463 180ZM456 217L376 628L150 217H456ZM316 769T307 778T298 801Q298 818 311 831T343 845Q356 845 364 836T373 814Q373 796 360 783T330
769Q316 769 307 778ZM460 769T451 778T442 801Q442 818 455 831T487 845Q500 845 509 836T518 814Q518 796 505 783T474 769Q460 769 451 778Z" />
<glyph unicode="&#xc5;" glyph-name="Aring" horiz-adv-x="627" d="M463 180H130L31 0H-18L361 686H411L547 0H498L463 180ZM456 217L376 628L150 217H456ZM328 895T360 921T432 947Q468 947 490 927T512 872Q512 821 478 789T398 756Q363 756 341 776T318 832Q318
837 320 851Q328 895 360 921ZM482 891T467 904T426 918Q398 918 377 900T350 852Q349 847 349 838Q349 814 364 800T403 785Q435 785 458 808T482 867Q482 891 467 904Z" />
<glyph unicode="&#xc6;" glyph-name="AE" horiz-adv-x="859" d="M564 665L512 370H792L785 334H506L454 37H763L756 0H402L434 180H150L11 0H-39L506 702H880L873 665H564ZM517 654L179 217H440L517 654Z" />
<glyph unicode="&#xc7;" glyph-name="Ccedilla" horiz-adv-x="770" d="M377 668T305 630T181 519T113 350Q107 313 107 280Q107 204 137 149T221 64T346 34Q447 34 524 80T647 206H698Q647 113 565 58T375 -6L362 -78Q416 -75 445 -93T475 -147Q475 -195 440 -225T346
-256H264L270 -222H343Q386 -222 407 -208T434 -164Q435 -160 435 -153Q435 -109 363 -109H322L340 -7H339Q256 -7 193 28T95 128T60 275Q60 314 67 350Q86 454 143 535T285 663T465 709Q585 709 657 653T750 496H698Q681 575 620 621T458 668Q377 668 305 630Z"
/>
<glyph unicode="&#xc8;" glyph-name="Egrave" horiz-adv-x="491" d="M196 665L144 370H424L417 334H138L85 37H395L388 0H33L158 702H512L505 665H196ZM413 768L407 731L233 855L241 899L413 768Z" />
<glyph unicode="&#xc9;" glyph-name="Eacute" horiz-adv-x="491" d="M196 665L144 370H424L417 334H138L85 37H395L388 0H33L158 702H512L505 665H196ZM429 855L211 731L217 768L437 899L429 855Z" />
<glyph unicode="&#xca;" glyph-name="Ecircumflex" horiz-adv-x="491" d="M196 665L144 370H424L417 334H138L85 37H395L388 0H33L158 702H512L505 665H196ZM340 840L197 758L203 796L347 878L460 796L454 758L340 840Z" />
<glyph unicode="&#xcb;" glyph-name="Edieresis" horiz-adv-x="491" d="M196 665L144 370H424L417 334H138L85 37H395L388 0H33L158 702H512L505 665H196ZM243 769T234 778T225 801Q225 818 238 831T270 845Q283 845 291 836T300 814Q300 796 287 783T257 769Q243
769 234 778ZM387 769T378 778T369 801Q369 818 382 831T414 845Q427 845 436 836T445 814Q445 796 432 783T401 769Q387 769 378 778Z" />
<glyph unicode="&#xcc;" glyph-name="Igrave" horiz-adv-x="210" d="M203 702L78 0H33L158 702H203ZM277 768L271 731L97 855L105 899L277 768Z" />
<glyph unicode="&#xcd;" glyph-name="Iacute" horiz-adv-x="210" d="M203 702L78 0H33L158 702H203ZM293 855L75 731L81 768L301 899L293 855Z" />
<glyph unicode="&#xce;" glyph-name="Icircumflex" horiz-adv-x="210" d="M203 702L78 0H33L158 702H203ZM204 840L61 758L67 796L211 878L324 796L318 758L204 840Z" />
<glyph unicode="&#xcf;" glyph-name="Idieresis" horiz-adv-x="210" d="M203 702L78 0H33L158 702H203ZM107 769T98 778T89 801Q89 818 102 831T134 845Q147 845 155 836T164 814Q164 796 151 783T121 769Q107 769 98 778ZM251 769T242 778T233 801Q233 818 246
831T278 845Q291 845 300 836T309 814Q309 796 296 783T265 769Q251 769 242 778Z" />
<glyph unicode="&#xd0;" glyph-name="Eth" horiz-adv-x="736" d="M541 702T622 632T703 433Q703 396 695 350Q666 184 553 92T262 0H66L124 330H19L27 371H132L190 702H386Q541 702 622 632ZM656 388T656 427Q656 540 587 602T379 664H228L177 371H395L388 330H169L118
36H269Q429 36 526 119T649 350Q656 388 656 427Z" />
<glyph unicode="&#xd1;" glyph-name="Ntilde" horiz-adv-x="667" d="M535 0H490L189 628L78 0H33L157 701H202L504 75L614 701H659L535 0ZM314 787T337 808T391 829Q409 829 420 823T446 803Q459 791 468 786T493 780Q510 780 524 792T545 826H575Q565 790 541
769T486 747Q467 747 456 753T428 774Q414 785 405 790T383 796Q348 796 333 749H303Q314 787 337 808Z" />
<glyph unicode="&#xd2;" glyph-name="Ograve" horiz-adv-x="790" d="M261 -8T197 27T97 128T62 277Q62 393 115 492T262 649T470 708Q556 708 620 673T719 573T754 424Q754 307 701 208T554 51T346 -8Q261 -8 197 27ZM452 33T533 86T661 228T707 422Q707 498 677
553T591 638T463 668Q362 668 281 615T154 472T108 280Q108 204 139 149T225 63T352 33Q452 33 533 86ZM575 770L569 733L395 857L403 901L575 770Z" />
<glyph unicode="&#xd3;" glyph-name="Oacute" horiz-adv-x="790" d="M261 -8T197 27T97 128T62 277Q62 393 115 492T262 649T470 708Q556 708 620 673T719 573T754 424Q754 307 701 208T554 51T346 -8Q261 -8 197 27ZM452 33T533 86T661 228T707 422Q707 498 677
553T591 638T463 668Q362 668 281 615T154 472T108 280Q108 204 139 149T225 63T352 33Q452 33 533 86ZM591 857L373 733L379 770L599 901L591 857Z" />
<glyph unicode="&#xd4;" glyph-name="Ocircumflex" horiz-adv-x="790" d="M261 -8T197 27T97 128T62 277Q62 393 115 492T262 649T470 708Q556 708 620 673T719 573T754 424Q754 307 701 208T554 51T346 -8Q261 -8 197 27ZM452 33T533 86T661 228T707 422Q707
498 677 553T591 638T463 668Q362 668 281 615T154 472T108 280Q108 204 139 149T225 63T352 33Q452 33 533 86ZM501 842L358 760L364 798L508 880L621 798L615 760L501 842Z" />
<glyph unicode="&#xd5;" glyph-name="Otilde" horiz-adv-x="790" d="M261 -8T197 27T97 128T62 277Q62 393 115 492T262 649T470 708Q556 708 620 673T719 573T754 424Q754 307 701 208T554 51T346 -8Q261 -8 197 27ZM452 33T533 86T661 228T707 422Q707 498 677
553T591 638T463 668Q362 668 281 615T154 472T108 280Q108 204 139 149T225 63T352 33Q452 33 533 86ZM383 789T406 810T460 831Q478 831 489 825T515 805Q528 793 537 788T562 782Q579 782 593 794T614 828H644Q634 792 610 771T555 749Q536 749 525 755T497
776Q483 787 474 792T452 798Q417 798 402 751H372Q383 789 406 810Z" />
<glyph unicode="&#xd6;" glyph-name="Odieresis" horiz-adv-x="790" d="M261 -8T197 27T97 128T62 277Q62 393 115 492T262 649T470 708Q556 708 620 673T719 573T754 424Q754 307 701 208T554 51T346 -8Q261 -8 197 27ZM452 33T533 86T661 228T707 422Q707 498
677 553T591 638T463 668Q362 668 281 615T154 472T108 280Q108 204 139 149T225 63T352 33Q452 33 533 86ZM404 771T395 780T386 803Q386 820 399 833T431 847Q444 847 452 838T461 816Q461 798 448 785T418 771Q404 771 395 780ZM548 771T539 780T530 803Q530
820 543 833T575 847Q588 847 597 838T606 816Q606 798 593 785T562 771Q548 771 539 780Z" />
<glyph unicode="&#xd7;" glyph-name="multiply" horiz-adv-x="530" d="M312 375L455 202L420 173L277 346L74 173L50 203L253 376L111 548L146 577L288 405L490 577L514 547L312 375Z" />
<glyph unicode="&#xd8;" glyph-name="Oslash" horiz-adv-x="790" d="M702 600Q754 528 754 424Q754 307 701 208T554 51T346 -8Q279 -8 224 14T131 79L45 0H3L114 101Q62 173 62 277Q62 393 115 492T262 649T470 708Q537 708 592 686T684 622L772 702H814L702
600ZM108 193T148 133L650 591Q618 629 570 648T463 668Q362 668 281 615T154 472T108 280Q108 193 148 133ZM707 507T668 568L165 110Q198 72 246 53T352 33Q452 33 533 86T661 228T707 422Q707 507 668 568Z" />
<glyph unicode="&#xd9;" glyph-name="Ugrave" horiz-adv-x="645" d="M199 702L121 264Q115 227 115 196Q115 112 159 73T281 33Q373 33 435 88T519 264L597 702H642L564 264Q540 127 463 60T274 -7Q179 -7 124 42T69 191Q69 228 76 264L154 702H199ZM495 768L489
731L315 855L323 899L495 768Z" />
<glyph unicode="&#xda;" glyph-name="Uacute" horiz-adv-x="645" d="M199 702L121 264Q115 227 115 196Q115 112 159 73T281 33Q373 33 435 88T519 264L597 702H642L564 264Q540 127 463 60T274 -7Q179 -7 124 42T69 191Q69 228 76 264L154 702H199ZM511 855L293
731L299 768L519 899L511 855Z" />
<glyph unicode="&#xdb;" glyph-name="Ucircumflex" horiz-adv-x="645" d="M199 702L121 264Q115 227 115 196Q115 112 159 73T281 33Q373 33 435 88T519 264L597 702H642L564 264Q540 127 463 60T274 -7Q179 -7 124 42T69 191Q69 228 76 264L154 702H199ZM421
840L278 758L284 796L428 878L541 796L535 758L421 840Z" />
<glyph unicode="&#xdc;" glyph-name="Udieresis" horiz-adv-x="645" d="M199 702L121 264Q115 227 115 196Q115 112 159 73T281 33Q373 33 435 88T519 264L597 702H642L564 264Q540 127 463 60T274 -7Q179 -7 124 42T69 191Q69 228 76 264L154 702H199ZM324 769T315
778T306 801Q306 818 319 831T351 845Q364 845 372 836T381 814Q381 796 368 783T338 769Q324 769 315 778ZM468 769T459 778T450 801Q450 818 463 831T495 845Q508 845 517 836T526 814Q526 796 513 783T482 769Q468 769 459 778Z" />
<glyph unicode="&#xdd;" glyph-name="Yacute" horiz-adv-x="541" d="M591 702L295 284L245 0H200L250 284L101 702H153L280 327L539 702H591ZM460 855L242 731L248 768L468 899L460 855Z" />
<glyph unicode="&#xde;" glyph-name="Thorn" horiz-adv-x="546" d="M504 258T437 206T255 154H105L78 0H33L158 702H202L175 548H325Q426 548 475 508T524 396Q524 372 520 351Q504 258 437 206ZM447 194T475 351Q479 379 479 391Q479 449 441 479T318 510H169L113
194H262Q447 194 475 351Z" />
<glyph unicode="&#xdf;" glyph-name="germandbls" horiz-adv-x="613" d="M141 653T205 709T368 766Q451 766 496 731T541 638Q541 600 525 570T485 519T424 469Q382 438 363 417T343 370Q343 346 366 329T452 290Q508 271 534 242T560 167Q560 117 535 77T466
14T365 -9Q290 -9 247 33T203 146L204 164H249Q244 102 276 65T371 28Q411 28 443 45T495 94T514 162Q514 195 491 217T418 257Q352 280 325 303T297 363Q297 401 320 428T394 494Q444 532 469 562T495 633Q495 675 460 701T361 727Q282 727 233 681T168 555L71
0H26L124 559Q141 653 205 709Z" />
<glyph unicode="&#xe0;" glyph-name="agrave" horiz-adv-x="673" d="M68 356T112 419T223 516T365 550Q450 550 502 508T568 401L593 543H638L541 0H497L522 143Q487 77 419 35T265 -8Q166 -8 107 50T47 209Q47 239 53 272Q68 356 112 419ZM550 302T550 325Q550
410 499 460T364 511Q298 511 243 483T150 400T99 272Q94 239 94 216Q94 129 143 81T279 32Q342 32 398 61T493 145T545 272Q550 302 550 325ZM486 624L480 587L306 711L314 755L486 624Z" />
<glyph unicode="&#xe1;" glyph-name="aacute" horiz-adv-x="673" d="M68 356T112 419T223 516T365 550Q450 550 502 508T568 401L593 543H638L541 0H497L522 143Q487 77 419 35T265 -8Q166 -8 107 50T47 209Q47 239 53 272Q68 356 112 419ZM550 302T550 325Q550
410 499 460T364 511Q298 511 243 483T150 400T99 272Q94 239 94 216Q94 129 143 81T279 32Q342 32 398 61T493 145T545 272Q550 302 550 325ZM502 711L284 587L290 624L510 755L502 711Z" />
<glyph unicode="&#xe2;" glyph-name="acircumflex" horiz-adv-x="673" d="M68 356T112 419T223 516T365 550Q450 550 502 508T568 401L593 543H638L541 0H497L522 143Q487 77 419 35T265 -8Q166 -8 107 50T47 209Q47 239 53 272Q68 356 112 419ZM550 302T550 325Q550
410 499 460T364 511Q298 511 243 483T150 400T99 272Q94 239 94 216Q94 129 143 81T279 32Q342 32 398 61T493 145T545 272Q550 302 550 325ZM413 696L270 614L276 652L420 734L533 652L527 614L413 696Z" />
<glyph unicode="&#xe3;" glyph-name="atilde" horiz-adv-x="673" d="M68 356T112 419T223 516T365 550Q450 550 502 508T568 401L593 543H638L541 0H497L522 143Q487 77 419 35T265 -8Q166 -8 107 50T47 209Q47 239 53 272Q68 356 112 419ZM550 302T550 325Q550
410 499 460T364 511Q298 511 243 483T150 400T99 272Q94 239 94 216Q94 129 143 81T279 32Q342 32 398 61T493 145T545 272Q550 302 550 325ZM294 643T317 664T371 685Q389 685 400 679T426 659Q439 647 448 642T473 636Q490 636 504 648T525 682H555Q545 646
521 625T466 603Q447 603 436 609T408 630Q394 641 385 646T363 652Q328 652 313 605H283Q294 643 317 664Z" />
<glyph unicode="&#xe4;" glyph-name="adieresis" horiz-adv-x="673" d="M68 356T112 419T223 516T365 550Q450 550 502 508T568 401L593 543H638L541 0H497L522 143Q487 77 419 35T265 -8Q166 -8 107 50T47 209Q47 239 53 272Q68 356 112 419ZM550 302T550 325Q550
410 499 460T364 511Q298 511 243 483T150 400T99 272Q94 239 94 216Q94 129 143 81T279 32Q342 32 398 61T493 145T545 272Q550 302 550 325ZM316 625T307 634T298 657Q298 674 311 687T343 701Q356 701 364 692T373 670Q373 652 360 639T330 625Q316 625 307
634ZM460 625T451 634T442 657Q442 674 455 687T487 701Q500 701 509 692T518 670Q518 652 505 639T474 625Q460 625 451 634Z" />
<glyph unicode="&#xe5;" glyph-name="aring" horiz-adv-x="673" d="M68 356T112 419T223 516T365 550Q450 550 502 508T568 401L593 543H638L541 0H497L522 143Q487 77 419 35T265 -8Q166 -8 107 50T47 209Q47 239 53 272Q68 356 112 419ZM550 302T550 325Q550
410 499 460T364 511Q298 511 243 483T150 400T99 272Q94 239 94 216Q94 129 143 81T279 32Q342 32 398 61T493 145T545 272Q550 302 550 325ZM328 751T360 777T432 803Q468 803 490 783T512 728Q512 677 478 645T398 612Q363 612 341 632T318 688Q318 693 320
707Q328 751 360 777ZM482 747T467 760T426 774Q398 774 377 756T350 708Q349 703 349 694Q349 670 364 656T403 641Q435 641 458 664T482 723Q482 747 467 760Z" />
<glyph unicode="&#xe6;" glyph-name="ae" horiz-adv-x="1122" d="M934 550T982 524T1054 453T1078 353Q1078 329 1074 309Q1067 277 1060 255H587Q584 233 584 212Q584 153 609 112T676 51T768 31Q850 31 912 70T999 178H1047Q1015 95 941 44T767 -8Q686 -8 631
33T566 151L540 0H497L524 150Q488 79 419 36T266 -8Q166 -8 107 50T47 209Q47 239 53 272Q68 356 112 419T223 516T366 550Q450 550 502 508T567 394L593 543H636L610 394Q649 470 717 510T865 550Q934 550 982 524ZM1033 319T1033 348Q1033 427 982 469T854 512Q796
512 743 487T649 412T594 290H1026Q1033 319 1033 348ZM550 302T550 325Q550 410 499 460T364 511Q298 511 243 483T150 400T99 272Q94 239 94 216Q94 129 143 81T279 32Q342 32 398 61T493 145T545 272Q550 302 550 325Z" />
<glyph unicode="&#xe7;" glyph-name="ccedilla" horiz-adv-x="621" d="M353 31T414 71T502 181H550Q519 99 449 48T282 -8L270 -78Q324 -75 353 -93T383 -147Q383 -195 348 -225T254 -256H172L178 -222H251Q294 -222 315 -208T342 -164Q343 -160 343 -153Q343
-109 271 -109H230L248 -7Q155 -2 101 54T47 207Q47 238 53 272Q68 357 113 420T223 516T365 550Q467 550 523 499T581 362H534Q533 431 486 471T358 512Q299 512 245 486T152 405T99 272Q93 241 93 212Q93 124 143 78T273 31Q353 31 414 71Z" />
<glyph unicode="&#xe8;" glyph-name="egrave" horiz-adv-x="625" d="M435 550T483 524T556 453T581 353Q581 329 577 309Q571 273 565 255H96Q92 223 92 209Q92 123 144 77T275 31Q354 31 415 70T503 178H550Q518 95 444 44T268 -8Q168 -8 108 50T47 208Q47 239
53 272Q68 357 113 420T223 516T366 550Q435 550 483 524ZM536 319T536 349Q536 428 486 470T358 512Q301 512 248 487T156 412T102 290H529Q536 319 536 349ZM460 624L454 587L280 711L288 755L460 624Z" />
<glyph unicode="&#xe9;" glyph-name="eacute" horiz-adv-x="625" d="M435 550T483 524T556 453T581 353Q581 329 577 309Q571 273 565 255H96Q92 223 92 209Q92 123 144 77T275 31Q354 31 415 70T503 178H550Q518 95 444 44T268 -8Q168 -8 108 50T47 208Q47 239
53 272Q68 357 113 420T223 516T366 550Q435 550 483 524ZM536 319T536 349Q536 428 486 470T358 512Q301 512 248 487T156 412T102 290H529Q536 319 536 349ZM476 711L258 587L264 624L484 755L476 711Z" />
<glyph unicode="&#xea;" glyph-name="ecircumflex" horiz-adv-x="625" d="M435 550T483 524T556 453T581 353Q581 329 577 309Q571 273 565 255H96Q92 223 92 209Q92 123 144 77T275 31Q354 31 415 70T503 178H550Q518 95 444 44T268 -8Q168 -8 108 50T47 208Q47
239 53 272Q68 357 113 420T223 516T366 550Q435 550 483 524ZM536 319T536 349Q536 428 486 470T358 512Q301 512 248 487T156 412T102 290H529Q536 319 536 349ZM387 696L244 614L250 652L394 734L507 652L501 614L387 696Z" />
<glyph unicode="&#xeb;" glyph-name="edieresis" horiz-adv-x="625" d="M435 550T483 524T556 453T581 353Q581 329 577 309Q571 273 565 255H96Q92 223 92 209Q92 123 144 77T275 31Q354 31 415 70T503 178H550Q518 95 444 44T268 -8Q168 -8 108 50T47 208Q47
239 53 272Q68 357 113 420T223 516T366 550Q435 550 483 524ZM536 319T536 349Q536 428 486 470T358 512Q301 512 248 487T156 412T102 290H529Q536 319 536 349ZM289 625T280 634T271 657Q271 674 284 687T316 701Q329 701 337 692T346 670Q346 652 333 639T303
625Q289 625 280 634ZM433 625T424 634T415 657Q415 674 428 687T460 701Q473 701 482 692T491 670Q491 652 478 639T447 625Q433 625 424 634Z" />
<glyph unicode="&#xec;" glyph-name="igrave" horiz-adv-x="210" d="M175 543L78 0H33L130 543H175ZM508 624L502 587L328 711L336 755L508 624Z" />
<glyph unicode="&#xed;" glyph-name="iacute" horiz-adv-x="210" d="M175 543L78 0H33L130 543H175ZM524 711L306 587L312 624L532 755L524 711Z" />
<glyph unicode="&#xee;" glyph-name="icircumflex" horiz-adv-x="210" d="M175 543L78 0H33L130 543H175ZM435 696L292 614L298 652L442 734L555 652L549 614L435 696Z" />
<glyph unicode="&#xef;" glyph-name="idieresis" horiz-adv-x="210" d="M175 543L78 0H33L130 543H175ZM338 625T329 634T320 657Q320 674 333 687T365 701Q378 701 386 692T395 670Q395 652 382 639T352 625Q338 625 329 634ZM482 625T473 634T464 657Q464 674
477 687T509 701Q522 701 531 692T540 670Q540 652 527 639T496 625Q482 625 473 634Z" />
<glyph unicode="&#xf0;" glyph-name="eth" horiz-adv-x="643" d="M632 712L505 670Q603 548 603 401Q603 361 595 310Q567 155 480 74T271 -8Q167 -8 108 52T49 214Q49 247 55 283Q69 364 113 425T224 520T368 554Q446 554 498 514T563 391Q562 470 541 533T469
658L313 606L318 635L450 679Q426 707 390 740H437Q464 716 486 691L637 742L632 712ZM547 297T547 329Q547 417 496 466T364 515Q301 515 246 488T152 409T101 283Q95 249 95 219Q95 130 144 81T277 31Q339 31 395 59T490 142T542 272Q547 297 547 329Z" />
<glyph unicode="&#xf1;" glyph-name="ntilde" horiz-adv-x="623" d="M459 554T509 510T559 378Q559 351 553 318L497 0H453L509 315Q514 347 514 368Q514 440 474 477T362 515Q278 515 217 463T133 310L78 0H33L130 543H175L155 429Q189 490 247 522T376 554Q459
554 509 510ZM251 643T274 664T328 685Q346 685 357 679T383 659Q396 647 405 642T430 636Q447 636 461 648T482 682H512Q502 646 478 625T423 603Q404 603 393 609T365 630Q351 641 342 646T320 652Q285 652 270 605H240Q251 643 274 664Z" />
<glyph unicode="&#xf2;" glyph-name="ograve" horiz-adv-x="645" d="M171 -8T110 51T48 211Q48 303 89 381T205 504T370 550Q436 550 487 524T566 448T595 331Q595 239 553 161T438 38T273 -8Q171 -8 110 51ZM357 31T418 72T514 181T549 329Q549 418 496 465T363
512Q284 512 223 471T128 362T94 214Q94 125 146 78T279 31Q357 31 418 72ZM469 632L463 595L289 719L297 763L469 632Z" />
<glyph unicode="&#xf3;" glyph-name="oacute" horiz-adv-x="645" d="M171 -8T110 51T48 211Q48 303 89 381T205 504T370 550Q436 550 487 524T566 448T595 331Q595 239 553 161T438 38T273 -8Q171 -8 110 51ZM357 31T418 72T514 181T549 329Q549 418 496 465T363
512Q284 512 223 471T128 362T94 214Q94 125 146 78T279 31Q357 31 418 72ZM485 719L267 595L273 632L493 763L485 719Z" />
<glyph unicode="&#xf4;" glyph-name="ocircumflex" horiz-adv-x="645" d="M171 -8T110 51T48 211Q48 303 89 381T205 504T370 550Q436 550 487 524T566 448T595 331Q595 239 553 161T438 38T273 -8Q171 -8 110 51ZM357 31T418 72T514 181T549 329Q549 418 496
465T363 512Q284 512 223 471T128 362T94 214Q94 125 146 78T279 31Q357 31 418 72ZM396 704L253 622L259 660L403 742L516 660L510 622L396 704Z" />
<glyph unicode="&#xf5;" glyph-name="otilde" horiz-adv-x="645" d="M171 -8T110 51T48 211Q48 303 89 381T205 504T370 550Q436 550 487 524T566 448T595 331Q595 239 553 161T438 38T273 -8Q171 -8 110 51ZM357 31T418 72T514 181T549 329Q549 418 496 465T363
512Q284 512 223 471T128 362T94 214Q94 125 146 78T279 31Q357 31 418 72ZM278 651T301 672T355 693Q373 693 384 687T410 667Q423 655 432 650T457 644Q474 644 488 656T509 690H539Q529 654 505 633T450 611Q431 611 420 617T392 638Q378 649 369 654T347 660Q312
660 297 613H267Q278 651 301 672Z" />
<glyph unicode="&#xf6;" glyph-name="odieresis" horiz-adv-x="645" d="M171 -8T110 51T48 211Q48 303 89 381T205 504T370 550Q436 550 487 524T566 448T595 331Q595 239 553 161T438 38T273 -8Q171 -8 110 51ZM357 31T418 72T514 181T549 329Q549 418 496 465T363
512Q284 512 223 471T128 362T94 214Q94 125 146 78T279 31Q357 31 418 72ZM299 633T290 642T281 665Q281 682 294 695T326 709Q339 709 347 700T356 678Q356 660 343 647T313 633Q299 633 290 642ZM443 633T434 642T425 665Q425 682 438 695T470 709Q483 709 492
700T501 678Q501 660 488 647T457 633Q443 633 434 642Z" />
<glyph unicode="&#xf7;" glyph-name="divide" horiz-adv-x="613" d="M329 552T320 560T311 583Q311 603 325 616T358 630Q372 630 381 622T390 599Q390 579 376 566T343 552Q329 552 320 560ZM584 395L577 355H67L74 395H584ZM263 123T254 131T245 154Q245 174
259 187T292 201Q306 201 315 193T324 170Q324 150 310 137T277 123Q263 123 254 131Z" />
<glyph unicode="&#xf8;" glyph-name="oslash" horiz-adv-x="645" d="M554 467Q595 412 595 331Q595 239 553 161T438 38T273 -8Q221 -8 178 8T106 55L46 0H9L89 74Q48 131 48 211Q48 303 89 381T205 504T370 550Q477 550 538 487L599 543H636L554 467ZM94 150T123
105L505 456Q479 484 443 498T363 512Q284 512 223 471T128 362T94 214Q94 150 123 105ZM549 393T520 436L139 86Q164 59 200 45T279 31Q357 31 418 72T514 181T549 329Q549 393 520 436Z" />
<glyph unicode="&#xf9;" glyph-name="ugrave" horiz-adv-x="623" d="M588 543L492 0H447L468 117Q434 56 375 24T247 -9Q164 -9 114 35T63 168Q63 201 68 227L125 543H169L113 230Q108 198 108 178Q108 105 148 68T260 30Q348 30 410 86T491 252V249L543 543H588ZM460
624L454 587L280 711L288 755L460 624Z" />
<glyph unicode="&#xfa;" glyph-name="uacute" horiz-adv-x="623" d="M588 543L492 0H447L468 117Q434 56 375 24T247 -9Q164 -9 114 35T63 168Q63 201 68 227L125 543H169L113 230Q108 198 108 178Q108 105 148 68T260 30Q348 30 410 86T491 252V249L543 543H588ZM476
711L258 587L264 624L484 755L476 711Z" />
<glyph unicode="&#xfb;" glyph-name="ucircumflex" horiz-adv-x="623" d="M588 543L492 0H447L468 117Q434 56 375 24T247 -9Q164 -9 114 35T63 168Q63 201 68 227L125 543H169L113 230Q108 198 108 178Q108 105 148 68T260 30Q348 30 410 86T491 252V249L543
543H588ZM386 696L243 614L249 652L393 734L506 652L500 614L386 696Z" />
<glyph unicode="&#xfc;" glyph-name="udieresis" horiz-adv-x="623" d="M588 543L492 0H447L468 117Q434 56 375 24T247 -9Q164 -9 114 35T63 168Q63 201 68 227L125 543H169L113 230Q108 198 108 178Q108 105 148 68T260 30Q348 30 410 86T491 252V249L543 543H588ZM289
625T280 634T271 657Q271 674 284 687T316 701Q329 701 337 692T346 670Q346 652 333 639T303 625Q289 625 280 634ZM433 625T424 634T415 657Q415 674 428 687T460 701Q473 701 482 692T491 670Q491 652 478 639T447 625Q433 625 424 634Z" />
<glyph unicode="&#xfd;" glyph-name="yacute" horiz-adv-x="524" d="M114 543L231 56L506 543H554L97 -255H48L195 1L65 543H114ZM426 711L208 587L214 624L434 755L426 711Z" />
<glyph unicode="&#xfe;" glyph-name="thorn" horiz-adv-x="673" d="M183 461T251 505T405 550Q506 550 565 493T624 335Q624 305 618 272Q603 188 559 125T449 27T307 -8Q221 -8 169 37T105 155L33 -256H-11L164 740H209L147 389Q183 461 251 505ZM577 297T577
329Q577 415 527 463T392 511Q329 511 273 482T178 398T126 272Q121 240 121 219Q121 133 172 83T307 32Q373 32 428 61T521 144T572 272Q577 297 577 329Z" />
<glyph unicode="&#xff;" glyph-name="ydieresis" horiz-adv-x="524" d="M114 543L231 56L506 543H554L97 -255H48L195 1L65 543H114ZM240 625T231 634T222 657Q222 674 235 687T267 701Q280 701 288 692T297 670Q297 652 284 639T254 625Q240 625 231 634ZM384
625T375 634T366 657Q366 674 379 687T411 701Q424 701 433 692T442 670Q442 652 429 639T398 625Q384 625 375 634Z" />
<glyph unicode="&#x2013;" glyph-name="endash" horiz-adv-x="615" d="M584 395L577 356H67L74 395H584Z" />
<glyph unicode="&#x2014;" glyph-name="emdash" horiz-adv-x="807" d="M775 395L768 356H67L74 395H775Z" />
<glyph unicode="&#x2018;" glyph-name="quoteleft" horiz-adv-x="172" d="M115 497H58L172 702H207L115 497Z" />
<glyph unicode="&#x2019;" glyph-name="quoteright" horiz-adv-x="172" d="M167 702H224L110 497H75L167 702Z" />
<glyph unicode="&#x201a;" glyph-name="quotesinglbase" horiz-adv-x="127" d="M9 98H65L-49 -106H-83L9 98Z" />
<glyph unicode="&#x201c;" glyph-name="quotedblleft" horiz-adv-x="300" d="M115 497H58L172 702H207L115 497ZM243 497H187L301 702H335L243 497Z" />
<glyph unicode="&#x201d;" glyph-name="quotedblright" horiz-adv-x="300" d="M167 702H224L110 497H75L167 702ZM296 702H352L238 497H204L296 702Z" />
<glyph unicode="&#x201e;" glyph-name="quotedblbase" horiz-adv-x="271" d="M9 98H65L-49 -106H-83L9 98ZM152 98H209L95 -106H60L152 98Z" />
<glyph unicode="&#x2022;" glyph-name="bullet" horiz-adv-x="311" d="M107 227T82 251T57 314Q57 347 75 376T122 423T184 441Q223 441 248 416T274 353Q274 320 257 291T209 245T146 227Q107 227 82 251Z" />
<glyph unicode="&#x2039;" glyph-name="guilsinglleft" horiz-adv-x="247" d="M121 120L48 295L182 470H231L94 295L170 120H121Z" />
<glyph unicode="&#x203a;" glyph-name="guilsinglright" horiz-adv-x="247" d="M159 295L84 470H133L205 295L72 120H23L159 295Z" />
</font>
</defs>
</svg>
