<?xml version="1.0" standalone="no"?>
<!DOCTYPE svg PUBLIC "-//W3C//DTD SVG 1.1//EN" "http://www.w3.org/Graphics/SVG/1.1/DTD/svg11.dtd">
<svg xmlns="http://www.w3.org/2000/svg">
<defs >
<font id="Rajdhani" horiz-adv-x="473" ><font-face
    font-family="Rajdhani Light"
    units-per-em="1000"
    panose-1="2 0 0 0 0 0 0 0 0 0"
    ascent="930"
    descent="-346"
    alphabetic="0" />
<glyph unicode=" " glyph-name="space" horiz-adv-x="280" />
<glyph unicode="!" glyph-name="exclam" horiz-adv-x="237" d="M100 550V634Q100 643 108 643H129Q137 643 137 634V550Q137 461 134 347T128 218T120 203H116Q111 203 109 214Q100 280 100 550ZM135 128V9Q135 0 127 0H110Q102 0 102 9V128Q102 137 110 137H127Q135
137 135 128Z" />
<glyph unicode="&quot;" glyph-name="quotedbl" horiz-adv-x="324" d="M89 441H86Q77 441 77 451L70 633Q70 643 79 643H96Q105 643 105 633L98 451Q98 441 89 441ZM238 441H235Q226 441 226 451L219 633Q219 643 228 643H245Q254 643 254 633L247 451Q247 441 238 441Z" />
<glyph unicode="#" glyph-name="numbersign" horiz-adv-x="679" d="M610 470Q619 470 619 462V450Q619 442 610 442H508L439 201H539Q548 201 548 193V181Q548 173 539 173H431L384 11Q381 0 372 0H361Q352 0 356 15L402 173H192L145 11Q142 0 133 0H122Q112 0
117 15L163 173H69Q60 173 60 181V193Q60 201 69 201H171L240 442H140Q131 442 131 450V462Q131 470 140 470H248L295 632Q298 643 308 643H316Q328 643 323 628L277 470H487L534 632Q537 643 547 643H555Q566 643 562 628L516 470H610ZM410 201L479 442H269L200
201H410Z" />
<glyph unicode="$" glyph-name="dollar" horiz-adv-x="498" d="M270 -98H256Q248 -98 248 -89V0H209Q148 0 112 37T75 136V170Q75 179 83 179H97Q105 179 105 170V137Q105 86 132 57T209 28H289Q339 28 366 57T393 137V208Q393 265 367 288T287 312H215Q148 312
112 340T75 440V509Q75 571 111 608T209 645H248V734Q248 743 256 743H270Q278 743 278 734V645H289Q350 645 386 608T423 509V479Q423 470 415 470H401Q393 470 393 479V508Q393 559 366 588T289 617H209Q159 617 132 588T105 508V440Q105 384 130 362T209 339H290Q423
339 423 210V136Q423 74 387 37T289 0H278V-89Q278 -98 270 -98Z" />
<glyph unicode="%" glyph-name="percent" horiz-adv-x="711" d="M545 265H529Q480 265 461 244T442 171V123Q442 71 461 50T529 28H545Q594 28 612 49T631 123V171Q631 223 613 244T545 265ZM529 293H545Q605 293 633 264T661 172V122Q661 59 633 30T545 0H529Q469
0 441 29T412 122V172Q412 234 440 263T529 293ZM183 620H167Q118 620 99 599T80 526V478Q80 426 99 405T167 383H183Q232 383 250 404T269 478V526Q269 578 251 599T183 620ZM167 648H183Q243 648 271 619T299 527V477Q299 414 271 385T183 355H167Q107 355 79
384T50 477V527Q50 589 78 618T167 648ZM219 0H209Q199 0 204 12L479 632Q484 643 492 643H502Q512 643 506 629L232 11Q227 0 219 0Z" />
<glyph unicode="&amp;" glyph-name="ampersand" horiz-adv-x="592" d="M299 0H214Q153 0 117 35T80 133V225Q80 275 106 311T187 349Q139 406 139 467V510Q139 572 175 607T273 643H295Q356 643 392 608T429 510V461Q429 452 421 452H407Q399 452 399 461V509Q399
560 372 587T295 615H273Q223 615 196 588T169 509V468Q169 435 178 413T212 363L279 286H523Q532 286 532 278V266Q532 258 523 258H303L521 6Q523 2 519 0H500Q493 0 487 6L424 78Q411 41 378 21T299 0ZM214 28H299Q386 28 400 105L204 330Q158 327 134 300T110
224V134Q110 83 137 56T214 28Z" />
<glyph unicode="&apos;" glyph-name="quotesingle" horiz-adv-x="185" d="M94 441H91Q82 441 82 451L75 633Q75 643 84 643H101Q110 643 110 633L103 451Q100 441 94 441Z" />
<glyph unicode="(" glyph-name="parenleft" horiz-adv-x="277" d="M207 635V623Q207 615 198 615H194Q144 615 117 586T90 506V35Q90 -16 117 -45T194 -74H198Q207 -74 207 -82V-94Q207 -102 198 -102H194Q133 -102 97 -65T60 34V507Q60 569 96 606T194 643H198Q207
643 207 635Z" />
<glyph unicode=")" glyph-name="parenright" horiz-adv-x="277" d="M60 -94V-82Q60 -74 69 -74H73Q123 -74 150 -45T177 35V506Q177 557 150 586T73 615H69Q60 615 60 623V635Q60 643 69 643H73Q134 643 170 606T207 507V34Q207 -28 171 -65T73 -102H69Q60 -102 60 -94Z" />
<glyph unicode="*" glyph-name="asterisk" horiz-adv-x="408" d="M189 617V634Q189 643 197 643H212Q220 643 220 634V617Q220 543 204 511Q246 543 318 563Q326 566 328 558L332 544Q336 536 326 533L309 528Q235 505 204 511Q245 481 278 434L289 419Q294 414
287 408L275 400Q268 395 263 402Q208 479 204 511Q186 461 143 402Q139 396 132 400L120 409Q113 412 119 421Q147 460 169 482T204 511Q150 511 82 535Q73 538 76 545L81 559Q83 567 92 564Q178 537 204 511Q189 553 189 617Z" />
<glyph unicode="+" glyph-name="plus" horiz-adv-x="512" d="M271 335H433Q442 335 442 327V315Q442 307 433 307H271V144Q271 135 263 135H249Q241 135 241 144V307H79Q70 307 70 315V327Q70 335 79 335H241V498Q241 507 249 507H263Q271 507 271 498V335Z" />
<glyph unicode="," glyph-name="comma" horiz-adv-x="187" d="M112 128V49Q112 34 86 -95Q84 -101 80 -101T75 -95V128Q75 137 83 137H104Q112 137 112 128Z" />
<glyph unicode="-" glyph-name="hyphen" horiz-adv-x="312" d="M263 306H49Q40 306 40 314V326Q40 334 49 334H263Q272 334 272 326V314Q272 306 263 306Z" />
<glyph unicode="." glyph-name="period" horiz-adv-x="187" d="M112 128V9Q112 0 104 0H83Q75 0 75 9V128Q75 137 83 137H104Q112 137 112 128Z" />
<glyph unicode="/" glyph-name="slash" horiz-adv-x="393" d="M92 0H79Q66 0 71 12L289 632Q293 643 302 643H316Q327 643 322 629L105 11Q101 0 92 0Z" />
<glyph unicode="0" glyph-name="zero" horiz-adv-x="508" d="M204 28H304Q354 28 381 57T408 137V506Q408 557 381 586T304 615H204Q154 615 127 586T100 506V137Q100 86 127 57T204 28ZM304 0H204Q143 0 107 37T70 136V507Q70 569 106 606T204 643H304Q365 643
401 606T438 507V136Q438 74 402 37T304 0Z" />
<glyph unicode="1" glyph-name="one" horiz-adv-x="312" d="M40 538V544Q40 557 51 563L186 638Q196 643 202 643H214Q222 643 222 634V9Q222 0 214 0H200Q192 0 192 9V610L56 533Q40 522 40 538Z" />
<glyph unicode="2" glyph-name="two" horiz-adv-x="474" d="M64 8V94Q64 169 127 214L327 363Q380 402 380 468V509Q380 560 353 587T276 615H194Q144 615 117 588T90 509V461Q90 452 82 452H68Q60 452 60 461V510Q60 572 96 607T194 643H276Q337 643 373 608T410
510V467Q410 389 346 342L144 191Q94 153 94 98V28H405Q414 28 414 20V8Q414 0 405 0H73Q64 0 64 8Z" />
<glyph unicode="3" glyph-name="three" horiz-adv-x="493" d="M227 338H289Q339 338 366 365T393 444V509Q393 560 366 587T289 615H204Q154 615 127 588T100 509V471Q100 462 92 462H78Q70 462 70 471V510Q70 572 106 607T204 643H289Q350 643 386 608T423 510V443Q423
349 339 324Q423 302 423 205V133Q423 71 387 36T289 0H204Q143 0 107 35T70 133V183Q70 192 78 192H92Q100 192 100 183V134Q100 83 127 56T204 28H289Q339 28 366 55T393 134V204Q393 255 366 282T289 310H227Q218 310 218 318V330Q218 338 227 338Z" />
<glyph unicode="4" glyph-name="four" horiz-adv-x="515" d="M360 163V621L84 163H360ZM382 0H368Q360 0 360 9V135H59Q50 135 50 143V155Q50 162 56 171L334 632Q340 643 353 643H382Q390 643 390 634V163H466Q475 163 475 155V143Q475 135 466 135H390V9Q390 0 382 0Z" />
<glyph unicode="5" glyph-name="five" horiz-adv-x="476" d="M282 371H186Q159 371 142 363T119 345T108 327T96 318H78Q70 318 70 327V634Q70 643 78 643H397Q406 643 406 635V623Q406 615 397 615H100V350Q119 399 186 399H282Q343 399 379 364T416 266V136Q416
74 380 37T282 0H204Q143 0 107 37T70 136V176Q70 185 78 185H92Q100 185 100 176V137Q100 86 127 57T204 28H282Q332 28 359 57T386 137V265Q386 316 359 343T282 371Z" />
<glyph unicode="6" glyph-name="six" horiz-adv-x="490" d="M194 28H286Q336 28 363 57T390 137V240Q390 291 363 320T286 349H90V137Q90 86 117 57T194 28ZM286 0H194Q133 0 97 37T60 136V507Q60 569 96 606T194 643H380Q389 643 389 635V623Q389 615 380 615H194Q144
615 117 586T90 506V377H286Q347 377 383 340T420 241V136Q420 74 384 37T286 0Z" />
<glyph unicode="7" glyph-name="seven" horiz-adv-x="367" d="M109 0H99Q87 0 93 14L314 615H24Q15 615 15 623V635Q15 643 24 643H338Q347 643 347 635V625Q347 618 344 611L123 9Q120 0 109 0Z" />
<glyph unicode="8" glyph-name="eight" horiz-adv-x="513" d="M204 28H309Q359 28 386 55T413 134V204Q413 255 386 282T309 310H204Q154 310 127 283T100 204V134Q100 83 127 56T204 28ZM204 338H309Q359 338 386 365T413 444V509Q413 560 386 587T309 615H204Q154
615 127 588T100 509V444Q100 393 127 366T204 338ZM309 0H204Q143 0 107 35T70 133V205Q70 295 144 324Q70 353 70 443V510Q70 572 106 607T204 643H309Q370 643 406 608T443 510V443Q443 353 369 324Q443 295 443 205V133Q443 71 407 36T309 0Z" />
<glyph unicode="9" glyph-name="nine" horiz-adv-x="490" d="M194 294H390V506Q390 557 363 586T286 615H194Q144 615 117 586T90 506V403Q90 352 117 323T194 294ZM286 0H100Q91 0 91 8V20Q91 28 100 28H286Q336 28 363 57T390 137V266H194Q133 266 97 303T60
402V507Q60 569 96 606T194 643H286Q347 643 383 606T420 507V136Q420 74 384 37T286 0Z" />
<glyph unicode=":" glyph-name="colon" horiz-adv-x="187" d="M112 501V382Q112 373 104 373H83Q75 373 75 382V501Q75 510 83 510H104Q112 510 112 501ZM112 128V9Q112 0 104 0H83Q75 0 75 9V128Q75 137 83 137H104Q112 137 112 128Z" />
<glyph unicode=";" glyph-name="semicolon" horiz-adv-x="187" d="M112 128V49Q112 34 86 -95Q84 -101 80 -101T75 -95V128Q75 137 83 137H104Q112 137 112 128ZM112 501V382Q112 373 104 373H83Q75 373 75 382V501Q75 510 83 510H104Q112 510 112 501Z" />
<glyph unicode="&lt;" glyph-name="less" horiz-adv-x="500" d="M436 475V461Q436 453 429 451L92 321L429 191Q436 189 436 181V167Q436 157 425 161L73 300Q64 304 64 311V331Q64 338 73 342L425 481Q436 485 436 475Z" />
<glyph unicode="=" glyph-name="equal" horiz-adv-x="522" d="M84 422H438Q447 422 447 414V402Q447 394 438 394H84Q75 394 75 402V414Q75 422 84 422ZM84 248H438Q447 248 447 240V228Q447 220 438 220H84Q75 220 75 228V240Q75 248 84 248Z" />
<glyph unicode="&gt;" glyph-name="greater" horiz-adv-x="522" d="M75 461V475Q75 485 86 481L438 342Q447 338 447 331V311Q447 304 438 300L86 161Q75 157 75 167V181Q75 189 82 191L419 321L82 451Q75 453 75 461Z" />
<glyph unicode="?" glyph-name="question" horiz-adv-x="475" d="M266 128V9Q266 0 258 0H237Q229 0 229 9V128Q229 137 237 137H258Q266 137 266 128ZM263 251V212Q263 203 255 203H241Q233 203 233 212V247Q233 290 244 313T293 368L324 396Q365 431 365 475V508Q365
559 338 586T261 614H214Q164 614 137 587T110 508V461Q110 452 102 452H88Q80 452 80 461V509Q80 571 116 606T214 642H261Q322 642 358 607T395 509V474Q395 419 347 379L307 345Q277 320 270 303T263 251Z" />
<glyph unicode="@" glyph-name="at" horiz-adv-x="755" d="M521 -58H339Q241 -58 166 10T90 197V348Q90 467 165 535T339 603H531Q592 603 628 566T665 467V219Q665 157 629 120T531 83H508Q496 83 488 91T480 112V137H476Q448 85 368 85Q307 85 271 122T234 221V324Q234
386 270 423T368 460H502Q510 460 510 451V119Q510 111 519 111H531Q581 111 608 140T635 220V466Q635 517 608 546T531 575H337Q250 575 185 512T120 349V196Q120 96 185 33T337 -30H521Q530 -30 530 -38V-50Q530 -58 521 -58ZM480 217V424Q480 432 471 432H368Q318
432 291 403T264 323V222Q264 171 291 142T368 113H369Q419 113 449 140T480 217Z" />
<glyph unicode="A" glyph-name="A" horiz-adv-x="526" d="M51 0H37Q28 0 31 9L241 634Q244 643 251 643H275Q282 643 285 634L495 9Q498 0 489 0H474Q467 0 464 9L403 183H123L62 9Q58 0 51 0ZM261 605L134 213H392L265 605H261Z" />
<glyph unicode="B" glyph-name="B" horiz-adv-x="544" d="M129 28H335Q385 28 412 55T439 134V205Q439 311 325 311H129Q120 311 120 303V36Q120 28 129 28ZM129 339H325Q376 339 404 366T433 445V509Q433 560 406 587T329 615H129Q120 615 120 607V347Q120 339
129 339ZM90 9V634Q90 643 98 643H329Q390 643 426 608T463 510V444Q463 351 375 325Q411 323 440 290T469 206V133Q469 71 433 36T335 0H98Q90 0 90 9Z" />
<glyph unicode="C" glyph-name="C" horiz-adv-x="543" d="M344 0H214Q153 0 117 37T80 136V507Q80 569 116 606T214 643H344Q405 643 441 606T478 507V457Q478 448 470 448H456Q448 448 448 457V506Q448 557 421 586T344 615H214Q164 615 137 586T110 506V137Q110
86 137 57T214 28H344Q394 28 421 57T448 137V186Q448 195 456 195H470Q478 195 478 186V136Q478 74 442 37T344 0Z" />
<glyph unicode="D" glyph-name="D" horiz-adv-x="558" d="M129 28H344Q394 28 421 57T448 137V506Q448 557 421 586T344 615H129Q120 615 120 607V36Q120 28 129 28ZM90 9V634Q90 643 98 643H344Q405 643 441 606T478 507V136Q478 74 442 37T344 0H98Q90 0 90 9Z" />
<glyph unicode="E" glyph-name="E" horiz-adv-x="481" d="M402 0H98Q90 0 90 9V634Q90 643 98 643H402Q411 643 411 635V623Q411 615 402 615H129Q120 615 120 607V350Q120 342 129 342H376Q385 342 385 334V322Q385 314 376 314H129Q120 314 120 306V36Q120 28
129 28H402Q411 28 411 20V8Q411 0 402 0Z" />
<glyph unicode="F" glyph-name="F" horiz-adv-x="462" d="M112 0H98Q90 0 90 9V634Q90 643 98 643H403Q412 643 412 635V623Q412 615 403 615H129Q120 615 120 607V341Q120 333 129 333H376Q385 333 385 325V313Q385 305 376 305H129Q120 305 120 297V9Q120 0 112 0Z" />
<glyph unicode="G" glyph-name="G" horiz-adv-x="538" d="M324 0H214Q153 0 117 37T80 136V507Q80 569 116 606T214 643H324Q385 643 421 606T458 507V457Q458 448 450 448H436Q428 448 428 457V506Q428 557 401 586T324 615H214Q164 615 137 586T110 506V137Q110
86 137 57T214 28H324Q374 28 401 57T428 137V288Q428 296 419 296H290Q281 296 281 304V316Q281 324 290 324H440Q458 324 458 305V136Q458 74 422 37T324 0Z" />
<glyph unicode="H" glyph-name="H" horiz-adv-x="568" d="M112 0H98Q90 0 90 9V634Q90 643 98 643H112Q120 643 120 634V350Q120 342 129 342H439Q448 342 448 350V634Q448 643 456 643H470Q478 643 478 634V9Q478 0 470 0H456Q448 0 448 9V306Q448 314 439 314H129Q120
314 120 306V9Q120 0 112 0Z" />
<glyph unicode="I" glyph-name="I" horiz-adv-x="220" d="M125 634V9Q125 0 117 0H103Q95 0 95 9V634Q95 643 103 643H117Q125 643 125 634Z" />
<glyph unicode="J" glyph-name="J" horiz-adv-x="493" d="M386 643H400Q408 643 408 635V136Q408 74 372 37T274 0H174Q113 0 77 37T40 136V216Q40 225 48 225H62Q70 225 70 216V137Q70 86 97 57T174 28H274Q324 28 351 57T378 137V634Q378 643 386 643Z" />
<glyph unicode="K" glyph-name="K" horiz-adv-x="523" d="M112 0H98Q90 0 90 9V634Q90 643 98 643H112Q120 643 120 634V242H124Q130 255 139 267L420 634Q427 643 436 643H455Q465 643 457 634L253 363L491 9Q497 0 487 0H471Q462 0 456 9L234 339L120 202V9Q120
0 112 0Z" />
<glyph unicode="L" glyph-name="L" horiz-adv-x="452" d="M413 0H98Q90 0 90 9V634Q90 643 98 643H112Q120 643 120 634V38Q120 30 129 30H413Q422 30 422 22V8Q422 0 413 0Z" />
<glyph unicode="M" glyph-name="M" horiz-adv-x="688" d="M562 643H590Q598 643 598 634V9Q598 0 590 0H576Q568 0 568 9V585H564L366 148Q362 140 354 140H335Q327 140 323 148L124 586H120V9Q120 0 112 0H98Q90 0 90 9V634Q90 643 98 643H126Q131 643 133 639L342
177H346L555 639Q557 643 562 643Z" />
<glyph unicode="N" glyph-name="N" horiz-adv-x="578" d="M112 0H98Q90 0 90 9V634Q90 643 98 643H112Q117 643 119 639L454 72H458V634Q458 643 466 643H480Q488 643 488 634V9Q488 0 480 0H470Q463 0 458 8L124 573H120V9Q120 0 112 0Z" />
<glyph unicode="O" glyph-name="O" horiz-adv-x="553" d="M214 28H339Q389 28 416 57T443 137V506Q443 557 416 586T339 615H214Q164 615 137 586T110 506V137Q110 86 137 57T214 28ZM339 0H214Q153 0 117 37T80 136V507Q80 569 116 606T214 643H339Q400 643 436
606T473 507V136Q473 74 437 37T339 0Z" />
<glyph unicode="P" glyph-name="P" horiz-adv-x="523" d="M112 0H98Q90 0 90 9V634Q90 643 98 643H324Q385 643 421 606T458 507V384Q458 322 422 285T324 248H129Q120 248 120 240V9Q120 0 112 0ZM129 276H324Q374 276 401 305T428 385V506Q428 557 401 586T324
615H129Q120 615 120 607V284Q120 276 129 276Z" />
<glyph unicode="Q" glyph-name="Q" horiz-adv-x="553" d="M214 28H339Q389 28 416 57T443 137V506Q443 557 416 586T339 615H214Q164 615 137 586T110 506V137Q110 86 137 57T214 28ZM412 -133H396Q387 -133 381 -124L304 0H214Q153 0 117 37T80 136V507Q80 569
116 606T214 643H339Q400 643 436 606T473 507V136Q473 74 437 37T339 0L416 -124Q422 -133 412 -133Z" />
<glyph unicode="R" glyph-name="R" horiz-adv-x="530" d="M112 0H98Q90 0 90 9V634Q90 643 98 643H323Q384 643 420 606T457 507V407Q457 351 427 316T346 273V269L469 9Q474 0 465 0H447Q439 0 434 9L312 271H129Q120 271 120 263V9Q120 0 112 0ZM129 299H323Q373
299 400 328T427 408V506Q427 557 400 586T323 615H129Q120 615 120 607V307Q120 299 129 299Z" />
<glyph unicode="S" glyph-name="S" horiz-adv-x="568" d="M90 136V176Q90 185 98 185H112Q120 185 120 176V137Q120 86 147 57T224 28H344Q394 28 421 57T448 137V187Q448 234 411 261T322 301T217 326T127 368T90 447V507Q90 569 126 606T224 643H344Q405 643
441 606T478 507V477Q478 468 470 468H456Q448 468 448 477V506Q448 557 421 586T344 615H224Q174 615 147 586T120 506V448Q120 374 246 346Q299 335 351 322T441 276T478 189V136Q478 74 442 37T344 0H224Q163 0 127 37T90 136Z" />
<glyph unicode="T" glyph-name="T" horiz-adv-x="414" d="M214 0H200Q192 0 192 9V607Q192 615 183 615H29Q20 615 20 623V635Q20 643 29 643H385Q394 643 394 635V623Q394 615 385 615H231Q222 615 222 607V9Q222 0 214 0Z" />
<glyph unicode="U" glyph-name="U" horiz-adv-x="550" d="M443 643H457Q465 643 465 635V136Q465 74 429 37T331 0H219Q158 0 122 37T85 136V634Q85 643 93 643H107Q115 643 115 634V137Q115 86 142 57T219 28H331Q381 28 408 57T435 137V634Q435 643 443 643Z" />
<glyph unicode="V" glyph-name="V" horiz-adv-x="494" d="M259 0H235Q228 0 225 9L31 634Q28 643 37 643H52Q59 643 62 634L245 44H249L432 634Q435 643 442 643H457Q466 643 463 634L269 9Q266 0 259 0Z" />
<glyph unicode="W" glyph-name="W" horiz-adv-x="790" d="M219 0H192Q184 0 181 9L36 634Q34 643 44 643H58Q65 643 68 634L203 38H207L374 634Q377 643 385 643H404Q412 643 415 634L583 38H587L722 634Q724 643 733 643H748Q757 643 754 634L609 9Q607 0 599
0H572Q564 0 561 9L397 599H393L229 9Q226 0 219 0Z" />
<glyph unicode="X" glyph-name="X" horiz-adv-x="494" d="M58 0H42Q33 0 38 9L228 342L49 634Q44 643 54 643H68Q77 643 82 634L246 365H250L413 634Q418 643 426 643H442Q451 643 446 634L268 343L457 9Q462 0 453 0H437Q430 0 426 7L249 317H245L69 7Q65 0 58 0Z" />
<glyph unicode="Y" glyph-name="Y" horiz-adv-x="486" d="M250 0H236Q228 0 228 9V245L31 634Q26 643 36 643H54Q61 643 65 634L241 284H245L421 634Q425 643 432 643H450Q460 643 455 634L258 245V9Q258 0 250 0Z" />
<glyph unicode="Z" glyph-name="Z" horiz-adv-x="471" d="M40 8V25Q40 31 42 34L386 611V615H59Q50 615 50 623V635Q50 643 59 643H412Q421 643 421 635V616Q421 611 419 608L75 32V28H422Q431 28 431 20V8Q431 0 422 0H49Q40 0 40 8Z" />
<glyph unicode="[" glyph-name="bracketleft" horiz-adv-x="277" d="M198 -102H68Q60 -102 60 -93V634Q60 643 68 643H198Q207 643 207 635V623Q207 615 198 615H99Q90 615 90 607V-66Q90 -74 99 -74H198Q207 -74 207 -82V-94Q207 -102 198 -102Z" />
<glyph unicode="\" glyph-name="backslash" horiz-adv-x="393" d="M77 643H91Q100 643 104 632L322 12Q326 0 314 0H301Q292 0 288 11L71 629Q66 643 77 643Z" />
<glyph unicode="]" glyph-name="bracketright" horiz-adv-x="277" d="M60 -94V-82Q60 -74 69 -74H168Q177 -74 177 -66V607Q177 615 168 615H69Q60 615 60 623V635Q60 643 69 643H199Q207 643 207 634V-93Q207 -102 199 -102H69Q60 -102 60 -94Z" />
<glyph unicode="^" glyph-name="asciicircum" horiz-adv-x="453" d="M79 365H69Q55 365 62 377L196 632Q202 643 215 643H238Q251 643 257 632L391 377Q398 365 384 365H374Q366 365 360 374L226 626L93 374Q87 365 79 365Z" />
<glyph unicode="_" glyph-name="underscore" horiz-adv-x="372" d="M363 -96H9Q0 -96 0 -88V-76Q0 -68 9 -68H363Q372 -68 372 -76V-88Q372 -96 363 -96Z" />
<glyph unicode="`" glyph-name="grave" horiz-adv-x="261" d="M186 574H178Q170 574 164 582L72 694Q69 698 70 700T76 703H106Q116 703 121 694L189 583Q194 574 186 574Z" />
<glyph unicode="a" glyph-name="a" horiz-adv-x="498" d="M278 0H204Q143 0 107 37T70 136V374Q70 436 106 473T204 510H410Q418 510 418 501V9Q418 0 410 0H396Q388 0 388 9V52H384Q356 0 278 0ZM388 132V474Q388 482 379 482H204Q154 482 127 453T100 373V137Q100
86 127 57T204 28H276Q326 28 357 55T388 132Z" />
<glyph unicode="b" glyph-name="b" horiz-adv-x="498" d="M119 28H294Q344 28 371 57T398 137V383Q398 434 371 463T294 492H222Q172 492 141 465T110 388V36Q110 28 119 28ZM80 9V694Q80 703 88 703H102Q110 703 110 694V468H114Q142 520 220 520H294Q355 520
391 483T428 384V136Q428 74 392 37T294 0H88Q80 0 80 9Z" />
<glyph unicode="c" glyph-name="c" horiz-adv-x="390" d="M355 20V8Q355 0 346 0H204Q143 0 107 37T70 136V374Q70 436 106 473T204 510H346Q355 510 355 502V490Q355 482 346 482H204Q154 482 127 453T100 373V137Q100 86 127 57T204 28H346Q355 28 355 20Z" />
<glyph unicode="d" glyph-name="d" horiz-adv-x="498" d="M278 0H204Q143 0 107 37T70 136V374Q70 436 106 473T204 510H278Q356 510 384 458H388V694Q388 703 396 703H410Q418 703 418 694V9Q418 0 410 0H396Q388 0 388 9V52H384Q356 0 278 0ZM388 132V378Q388
428 357 455T276 482H204Q154 482 127 453T100 373V137Q100 86 127 57T204 28H276Q326 28 357 55T388 132Z" />
<glyph unicode="e" glyph-name="e" horiz-adv-x="491" d="M409 0H204Q143 0 107 37T70 136V374Q70 436 106 473T204 510H292Q353 510 389 473T426 374V247Q426 237 417 237H109Q100 237 100 229V137Q100 86 127 57T204 28H409Q418 28 418 20V8Q418 0 409 0ZM109
265H387Q396 265 396 273V373Q396 424 369 453T292 482H204Q154 482 127 453T100 373V273Q100 265 109 265Z" />
<glyph unicode="f" glyph-name="f" horiz-adv-x="290" d="M164 510H258Q267 510 267 502V490Q267 482 258 482H164Q155 482 155 474V9Q155 0 147 0H133Q125 0 125 9V474Q125 482 116 482H48Q39 482 39 490V502Q39 510 48 510H116Q125 510 125 518V569Q125 703
243 703H258Q267 703 267 695V683Q267 675 258 675H243Q195 675 175 649T155 568V518Q155 510 164 510Z" />
<glyph unicode="g" glyph-name="g" horiz-adv-x="503" d="M283 30H209Q148 30 112 67T75 166V374Q75 436 111 473T209 510H415Q423 510 423 501V3Q423 -59 387 -96T289 -133H110Q101 -133 101 -125V-113Q101 -105 110 -105H289Q339 -105 366 -76T393 4V82H389Q361
30 283 30ZM393 162V474Q393 482 384 482H209Q159 482 132 453T105 373V167Q105 116 132 87T209 58H281Q331 58 362 85T393 162Z" />
<glyph unicode="h" glyph-name="h" horiz-adv-x="503" d="M102 0H88Q80 0 80 9V694Q80 703 88 703H102Q110 703 110 694V458H114Q142 510 220 510H294Q355 510 391 473T428 374V9Q428 0 420 0H406Q398 0 398 9V373Q398 424 371 453T294 482H222Q172 482 141 455T110
378V9Q110 0 102 0Z" />
<glyph unicode="i" glyph-name="i" horiz-adv-x="200" d="M85 593V692Q85 701 93 701H107Q115 701 115 692V593Q115 584 107 584H93Q85 584 85 593ZM85 9V501Q85 510 93 510H107Q115 510 115 501V9Q115 0 107 0H93Q85 0 85 9Z" />
<glyph unicode="j" glyph-name="j" horiz-adv-x="200" d="M85 593V692Q85 701 93 701H107Q115 701 115 692V593Q115 584 107 584H93Q85 584 85 593ZM-19 -133H-39Q-48 -133 -48 -125V-113Q-48 -105 -39 -105H-19Q31 -105 58 -76T85 4V501Q85 510 93 510H107Q115
510 115 501V3Q115 -59 79 -96T-19 -133Z" />
<glyph unicode="k" glyph-name="k" horiz-adv-x="420" d="M366 510H380Q391 510 384 501L225 266V262L405 9Q412 0 402 0H385Q374 0 367 9L192 258Q188 264 192 270L350 503Q355 510 366 510ZM102 0H88Q80 0 80 9V694Q80 703 88 703H102Q110 703 110 694V9Q110 0 102 0Z" />
<glyph unicode="l" glyph-name="l" horiz-adv-x="200" d="M107 0H93Q85 0 85 9V694Q85 703 93 703H107Q115 703 115 694V9Q115 0 107 0Z" />
<glyph unicode="m" glyph-name="m" horiz-adv-x="761" d="M102 0H88Q80 0 80 9V501Q80 510 88 510H102Q110 510 110 501V458H114Q142 510 220 510H264Q352 510 385 439Q399 474 436 492T512 510H552Q613 510 649 473T686 374V9Q686 0 678 0H664Q656 0 656 9V373Q656
424 629 453T552 482H512Q461 482 430 453T398 373V9Q398 0 390 0H376Q368 0 368 9V373Q368 424 341 453T264 482H222Q172 482 141 455T110 378V9Q110 0 102 0Z" />
<glyph unicode="n" glyph-name="n" horiz-adv-x="503" d="M102 0H88Q80 0 80 9V501Q80 510 88 510H102Q110 510 110 501V458H114Q142 510 220 510H294Q355 510 391 473T428 374V9Q428 0 420 0H406Q398 0 398 9V373Q398 424 371 453T294 482H222Q172 482 141 455T110
378V9Q110 0 102 0Z" />
<glyph unicode="o" glyph-name="o" horiz-adv-x="493" d="M289 0H204Q143 0 107 37T70 136V374Q70 436 106 473T204 510H289Q350 510 386 473T423 374V136Q423 74 387 37T289 0ZM204 28H289Q339 28 366 57T393 137V373Q393 424 366 453T289 482H204Q154 482 127
453T100 373V137Q100 86 127 57T204 28Z" />
<glyph unicode="p" glyph-name="p" horiz-adv-x="498" d="M102 -153H88Q80 -153 80 -144V501Q80 510 88 510H102Q110 510 110 501V458H114Q142 510 220 510H294Q355 510 391 473T428 374V136Q428 74 392 37T294 0H220Q142 0 114 52H110V-144Q110 -153 102 -153ZM222
28H294Q344 28 371 57T398 137V373Q398 424 371 453T294 482H222Q172 482 141 455T110 378V132Q110 82 141 55T222 28Z" />
<glyph unicode="q" glyph-name="q" horiz-adv-x="498" d="M388 137V474Q388 482 379 482H204Q154 482 127 453T100 373V137Q100 86 127 57T204 28H274Q325 28 356 57T388 137ZM274 0H204Q143 0 107 37T70 136V374Q70 436 106 473T204 510H410Q418 510 418 501V-144Q418
-153 410 -153H396Q388 -153 388 -144V54H384Q370 29 349 16T313 2T274 0Z" />
<glyph unicode="r" glyph-name="r" horiz-adv-x="303" d="M102 0H88Q80 0 80 9V501Q80 510 88 510H102Q110 510 110 501V456H114Q125 476 152 493T224 510H264Q273 510 273 502V490Q273 482 264 482H223Q172 482 141 450T110 363V9Q110 0 102 0Z" />
<glyph unicode="s" glyph-name="s" horiz-adv-x="429" d="M238 0H68Q59 0 59 8V20Q59 28 68 28H238Q339 28 339 108V138Q339 175 326 198T279 233L147 279Q95 297 75 323T54 398Q54 510 176 510H337Q346 510 346 502V490Q346 482 337 482H176Q130 482 108 461T85
413V386Q85 354 101 337T153 307L284 260Q337 245 353 211T369 116T337 28T238 0Z" />
<glyph unicode="t" glyph-name="t" horiz-adv-x="346" d="M105 482H39Q30 482 30 490V502Q30 510 39 510H105Q114 510 114 518V596Q114 605 122 605H136Q144 605 144 596V518Q144 510 153 510H282Q291 510 291 502V490Q291 482 282 482H153Q144 482 144 474V134Q144
84 173 56T254 28H292Q301 28 301 20V8Q301 0 292 0H254Q192 0 153 36T114 133V474Q114 482 105 482Z" />
<glyph unicode="u" glyph-name="u" horiz-adv-x="503" d="M283 0H209Q148 0 112 37T75 136V501Q75 510 83 510H97Q105 510 105 501V137Q105 86 132 57T209 28H281Q331 28 362 55T393 132V501Q393 510 401 510H415Q423 510 423 501V9Q423 0 415 0H401Q393 0 393
9V52H389Q361 0 283 0Z" />
<glyph unicode="v" glyph-name="v" horiz-adv-x="402" d="M27 510H43Q50 510 53 501L199 41H203L349 501Q352 510 359 510H375Q384 510 381 501L223 9Q220 0 212 0H190Q182 0 179 9L21 501Q18 510 27 510Z" />
<glyph unicode="w" glyph-name="w" horiz-adv-x="679" d="M202 0H182Q174 0 171 9L21 501Q18 510 27 510H42Q49 510 52 501L190 41H194L322 501Q324 510 333 510H347Q356 510 358 501L484 41H488L626 501Q629 510 636 510H652Q661 510 658 501L508 9Q505 0 497
0H476Q468 0 465 9L341 454H337L213 9Q210 0 202 0Z" />
<glyph unicode="x" glyph-name="x" horiz-adv-x="400" d="M51 0H31Q22 0 28 9L178 260L37 501Q31 510 40 510H59Q66 510 72 501L198 283H202L325 501Q331 510 338 510H357Q366 510 360 501L221 262L372 9Q378 0 369 0H346Q342 0 336 9L202 240H198L64 9Q58 0 51 0Z" />
<glyph unicode="y" glyph-name="y" horiz-adv-x="456" d="M59 -147Q50 -147 50 -139V-127Q50 -119 59 -119H88Q128 -119 144 -105T169 -84T186 -58T199 -32Q217 8 222 27H212Q204 27 201 36L31 501Q28 510 37 510H53Q60 510 63 501L226 56H230L393 501Q396 510
403 510H419Q428 510 425 501L255 36Q224 -53 208 -79Q165 -146 88 -147H59Z" />
<glyph unicode="z" glyph-name="z" horiz-adv-x="393" d="M35 8V17Q35 23 37 26L312 478V482H50Q41 482 41 490V502Q41 510 50 510H343Q352 510 352 502V490Q352 485 350 482L76 32V28H349Q358 28 358 20V8Q358 0 349 0H44Q35 0 35 8Z" />
<glyph unicode="{" glyph-name="braceleft" horiz-adv-x="293" d="M220 643H224Q233 643 233 635V623Q233 615 224 615H220Q179 615 163 588T146 506V365Q146 287 94 270Q146 253 146 175V35Q146 -19 162 -46T220 -74H224Q233 -74 233 -82V-94Q233 -102 224 -102H220Q168
-102 142 -66T116 34V174Q116 218 100 237T49 256Q40 256 40 264V276Q40 284 49 284Q83 284 99 303T116 366V507Q116 571 142 607T220 643Z" />
<glyph unicode="|" glyph-name="bar" horiz-adv-x="200" d="M115 634V9Q115 0 107 0H93Q85 0 85 9V634Q85 643 93 643H107Q115 643 115 634Z" />
<glyph unicode="}" glyph-name="braceright" horiz-adv-x="293" d="M157 507V366Q157 322 173 303T224 284Q233 284 233 276V264Q233 256 224 256Q190 256 174 237T157 174V34Q157 -30 131 -66T53 -102H49Q40 -102 40 -94V-82Q40 -74 49 -74H53Q94 -74 110 -47T127
35V175Q127 253 179 270Q127 287 127 365V506Q127 560 111 587T53 615H49Q40 615 40 623V635Q40 643 49 643H53Q105 643 131 607T157 507Z" />
<glyph unicode="~" glyph-name="asciitilde" horiz-adv-x="512" d="M189 325T164 325T78 305Q70 305 70 315V324Q70 331 95 342T157 353T259 339T348 324T434 344Q442 344 442 334V325Q442 318 417 307T356 296T255 310Z" />
<glyph unicode="&#xa0;" glyph-name="uni00A0" horiz-adv-x="280" />
<glyph unicode="&#xa1;" glyph-name="exclamdown" horiz-adv-x="237" d="M127 506H110Q102 506 102 515V634Q102 643 110 643H127Q135 643 135 634V515Q135 506 127 506ZM116 440H120Q125 440 127 425T133 296T137 93V9Q137 0 129 0H108Q100 0 100 9V93Q100 363
109 429Q111 440 116 440Z" />
<glyph unicode="&#xa2;" glyph-name="cent" horiz-adv-x="410" d="M267 -89H253Q245 -89 245 -80V0H204Q143 0 107 37T70 136V374Q70 436 106 473T204 510H245V605Q245 614 253 614H267Q275 614 275 605V510H366Q375 510 375 502V490Q375 482 366 482H204Q154
482 127 453T100 373V137Q100 86 127 57T204 28H366Q375 28 375 20V8Q375 0 366 0H275V-80Q275 -89 267 -89Z" />
<glyph unicode="&#xa3;" glyph-name="sterling" horiz-adv-x="520" d="M116 28H441Q450 28 450 20V8Q450 0 441 0H49Q40 0 40 8V20Q40 28 49 28H61Q81 28 97 49T114 100V280H49Q40 280 40 288V300Q40 308 49 308H114V510Q114 572 150 607T248 643H313Q374 643
410 608T447 510V481Q447 472 439 472H425Q417 472 417 481V509Q417 560 390 587T313 615H248Q198 615 171 588T144 509V308H320Q329 308 329 300V288Q329 280 320 280H144V102Q144 76 138 59Q128 32 116 32V28Z" />
<glyph unicode="&#xa5;" glyph-name="yen" horiz-adv-x="487" d="M250 0H236Q228 0 228 9V175H42Q33 175 33 183V195Q33 203 42 203H228V245L193 315H42Q33 315 33 323V335Q33 343 42 343H179L31 634Q27 643 36 643H55Q62 643 66 634L241 284H245L420 634Q424
643 431 643H450Q460 643 455 634L308 343H444Q453 343 453 335V323Q453 315 444 315H294L258 245V203H444Q453 203 453 195V183Q453 175 444 175H258V9Q258 0 250 0Z" />
<glyph unicode="&#xa6;" glyph-name="brokenbar" horiz-adv-x="193" d="M113 634V385Q113 376 105 376H88Q80 376 80 385V634Q80 643 88 643H105Q113 643 113 634ZM113 258V9Q113 0 105 0H88Q80 0 80 9V258Q80 267 88 267H105Q113 267 113 258Z" />
<glyph unicode="&#xa7;" glyph-name="section" horiz-adv-x="444" d="M354 303Q354 342 334 360T274 386L163 405Q115 415 90 440V348Q90 273 168 259L279 240Q328 232 354 209V303ZM253 0H73Q64 0 64 8V20Q64 28 73 28H253Q313 28 333 55T354 126T334 187T274
213L163 232Q60 252 60 348V521Q60 643 181 643H342Q351 643 351 635V623Q351 615 342 615H181Q138 615 114 591T90 524T106 461T168 432L279 413Q330 404 357 379T384 303V133Q384 71 356 36T253 0Z" />
<glyph unicode="&#xa8;" glyph-name="dieresis" horiz-adv-x="326" d="M70 583V694Q70 703 78 703H92Q100 703 100 694V583Q100 574 92 574H78Q70 574 70 583ZM226 583V694Q226 703 234 703H248Q256 703 256 694V583Q256 574 248 574H234Q226 574 226 583Z" />
<glyph unicode="&#xa9;" glyph-name="copyright" horiz-adv-x="728" d="M495 402V384Q495 375 487 375H473Q465 375 465 384V401Q465 451 444 470T371 490H350Q299 490 278 471T256 401V235Q256 185 277 166T350 146H371Q422 146 443 165T465 235V258Q465 267
473 267H487Q495 267 495 258V234Q495 173 464 146T371 118H350Q288 118 257 145T226 234V402Q226 463 257 490T350 518H371Q433 518 464 491T495 402ZM209 28H519Q569 28 596 57T623 137V506Q623 557 596 586T519 615H209Q159 615 132 586T105 506V137Q105 86
132 57T209 28ZM209 643H519Q580 643 616 606T653 507V136Q653 74 617 37T519 0H209Q148 0 112 37T75 136V507Q75 569 111 606T209 643Z" />
<glyph unicode="&#xab;" glyph-name="guillemotleft" horiz-adv-x="425" d="M355 112V96Q355 90 352 88T344 91L211 229Q202 240 202 248V262Q202 270 211 281L344 419Q348 424 351 422T355 414V398Q355 391 350 385L225 255L350 125Q355 119 355 112ZM223 112V96Q223
90 220 88T212 91L79 229Q70 240 70 248V262Q70 270 79 281L212 419Q216 424 219 422T223 414V398Q223 391 218 385L93 255L218 125Q223 119 223 112Z" />
<glyph unicode="&#xae;" glyph-name="registered" horiz-adv-x="430" d="M233 625H186V556H233Q253 556 253 577V605Q253 625 233 625ZM163 477V637Q163 646 171 646H233Q253 646 264 634T276 602V579Q276 546 250 537L278 477Q282 468 275 468H265Q258 468 256
474L228 535H186V477Q186 468 178 468H171Q163 468 163 477ZM175 431H254Q293 431 314 454T336 517V595Q336 635 315 658T254 681H175Q136 681 115 658T93 595V517Q93 477 114 454T175 431ZM254 409H175Q127 409 99 438T70 516V596Q70 645 98 674T175 703H254Q302
703 331 674T360 596V516Q360 467 331 438T254 409Z" />
<glyph unicode="&#xaf;" glyph-name="overscore" horiz-adv-x="362" d="M283 627H79Q70 627 70 635V644Q70 652 79 652H283Q292 652 292 644V635Q292 627 283 627Z" />
<glyph unicode="&#xb0;" glyph-name="degree" horiz-adv-x="276" d="M156 511H119Q70 511 70 560V657Q70 704 119 704H156Q179 704 192 692T206 657V560Q206 537 193 524T156 511ZM144 536Q165 536 171 543T178 571V643Q178 664 172 671T144 678H132Q111 678 105
671T98 643V571Q98 550 104 543T132 536H144Z" />
<glyph unicode="&#xb1;" glyph-name="plusminus" horiz-adv-x="512" d="M271 378H433Q442 378 442 370V358Q442 350 433 350H271V230Q271 221 263 221H249Q241 221 241 230V350H79Q70 350 70 358V370Q70 378 79 378H241V498Q241 507 249 507H263Q271 507 271 498V378ZM79
163H433Q442 163 442 155V143Q442 135 433 135H79Q70 135 70 143V155Q70 163 79 163Z" />
<glyph unicode="&#xb4;" glyph-name="acute" horiz-adv-x="261" d="M155 703H185Q189 703 190 701T189 694L97 582Q91 574 83 574H75Q67 574 72 583L140 694Q144 703 155 703Z" />
<glyph unicode="&#xb6;" glyph-name="paragraph" horiz-adv-x="504" d="M192 0H178Q170 0 170 9V323Q110 324 80 351T50 439V527Q50 588 81 615T174 643H405Q414 643 414 635V9Q414 0 406 0H392Q384 0 384 9V605Q384 613 375 613H209Q200 613 200 605V9Q200 0 192 0Z" />
<glyph unicode="&#xb7;" glyph-name="middot" horiz-adv-x="207" d="M122 378V259Q122 250 114 250H93Q85 250 85 259V378Q85 387 93 387H114Q122 387 122 378Z" />
<glyph unicode="&#xb8;" glyph-name="cedilla" horiz-adv-x="254" d="M105 -54Q145 -54 164 -67T184 -111V-121Q184 -178 105 -178H86Q77 -178 77 -170V-160Q77 -152 86 -152H102Q157 -152 157 -118V-116Q157 -96 145 -88T102 -80H93Q76 -80 71 -68T77 -45L135
20H170L105 -50V-54Z" />
<glyph unicode="&#xbb;" glyph-name="guillemotright" horiz-adv-x="425" d="M202 398V414Q202 420 205 422T213 419L346 281Q355 270 355 262V248Q355 240 346 229L213 91Q208 86 205 88T202 96V112Q202 119 207 125L332 255L207 385Q202 391 202 398ZM70 398V414Q70
420 73 422T81 419L214 281Q223 270 223 262V248Q223 240 214 229L81 91Q76 86 73 88T70 96V112Q70 119 75 125L200 255L75 385Q70 391 70 398Z" />
<glyph unicode="&#xbf;" glyph-name="questiondown" horiz-adv-x="475" d="M209 514V633Q209 642 217 642H238Q246 642 246 633V514Q246 505 238 505H217Q209 505 209 514ZM212 391V430Q212 439 220 439H234Q242 439 242 430V395Q242 352 231 329T182 274L151
246Q110 211 110 167V134Q110 83 137 56T214 28H261Q311 28 338 55T365 134V181Q365 190 373 190H387Q395 190 395 181V133Q395 71 359 36T261 0H214Q153 0 117 35T80 133V168Q80 223 128 263L168 297Q198 322 205 339T212 391Z" />
<glyph unicode="&#xc0;" glyph-name="Agrave" horiz-adv-x="526" d="M263 707H255Q247 707 241 715L149 827Q146 831 147 833T153 836H183Q194 836 198 827L266 716Q271 707 263 707ZM51 0H37Q28 0 31 9L241 634Q244 643 251 643H275Q282 643 285 634L495 9Q498
0 489 0H474Q467 0 464 9L403 183H123L62 9Q58 0 51 0ZM261 605L134 213H392L265 605H261Z" />
<glyph unicode="&#xc1;" glyph-name="Aacute" horiz-adv-x="526" d="M344 836H374Q378 836 379 834T378 827L286 715Q280 707 272 707H264Q256 707 261 716L329 827Q334 836 344 836ZM51 0H37Q28 0 31 9L241 634Q244 643 251 643H275Q282 643 285 634L495 9Q498
0 489 0H474Q467 0 464 9L403 183H123L62 9Q58 0 51 0ZM261 605L134 213H392L265 605H261Z" />
<glyph unicode="&#xc2;" glyph-name="Acircumflex" horiz-adv-x="526" d="M347 707H333Q324 707 322 712L263 817L204 712Q202 707 193 707H179Q168 707 175 718L239 827Q245 836 258 836H268Q281 836 287 827L351 718Q358 707 347 707ZM51 0H37Q28 0 31 9L241
634Q244 643 251 643H275Q282 643 285 634L495 9Q498 0 489 0H474Q467 0 464 9L403 183H123L62 9Q58 0 51 0ZM261 605L134 213H392L265 605H261Z" />
<glyph unicode="&#xc3;" glyph-name="Atilde" horiz-adv-x="526" d="M264 726T252 714T211 702T172 719T160 780V819Q160 828 168 828H175Q183 828 183 819V781Q183 748 189 736T213 723T236 733T253 776T275 820T315 831T354 814T366 753V711Q366 702 358 702H351Q343
702 343 711V752Q343 785 337 797T311 810T284 792Q282 787 273 757ZM51 0H37Q28 0 31 9L241 634Q244 643 251 643H275Q282 643 285 634L495 9Q498 0 489 0H474Q467 0 464 9L403 183H123L62 9Q58 0 51 0ZM261 605L134 213H392L265 605H261Z" />
<glyph unicode="&#xc4;" glyph-name="Adieresis" horiz-adv-x="526" d="M170 716V827Q170 836 178 836H192Q200 836 200 827V716Q200 707 192 707H178Q170 707 170 716ZM326 716V827Q326 836 334 836H348Q356 836 356 827V716Q356 707 348 707H334Q326 707 326
716ZM51 0H37Q28 0 31 9L241 634Q244 643 251 643H275Q282 643 285 634L495 9Q498 0 489 0H474Q467 0 464 9L403 183H123L62 9Q58 0 51 0ZM261 605L134 213H392L265 605H261Z" />
<glyph unicode="&#xc5;" glyph-name="Aring" horiz-adv-x="526" d="M266 692H256Q219 692 200 712T180 771V793Q180 831 199 851T256 871H266Q303 871 323 851T344 793V771Q344 734 324 713T266 692ZM256 715H266Q319 715 319 772V792Q319 848 266 848H256Q204
848 204 792V772Q204 715 256 715ZM51 0H37Q28 0 31 9L241 634Q244 643 251 643H275Q282 643 285 634L495 9Q498 0 489 0H474Q467 0 464 9L403 183H123L62 9Q58 0 51 0ZM261 605L134 213H392L265 605H261Z" />
<glyph unicode="&#xc6;" glyph-name="AE" horiz-adv-x="771" d="M24 0H5Q-4 0 1 9L356 634Q361 643 370 643H692Q701 643 701 635V623Q701 615 692 615H419Q410 615 410 607V350Q410 342 419 342H666Q675 342 675 334V322Q675 314 666 314H419Q410 314 410 306V36Q410
28 419 28H692Q701 28 701 20V8Q701 0 692 0H388Q380 0 380 9V183H135L36 9Q31 0 24 0ZM380 213V607H376L152 213H380Z" />
<glyph unicode="&#xc7;" glyph-name="Ccedilla" horiz-adv-x="543" d="M470 448H456Q448 448 448 457V506Q448 557 421 586T344 615H214Q164 615 137 586T110 506V137Q110 86 137 57T214 28H344Q394 28 421 57T448 137V186Q448 195 456 195H470Q478 195 478 186V136Q478
74 442 37T344 0H318L272 -50V-54Q312 -54 331 -67T351 -111V-121Q351 -178 272 -178H253Q244 -178 244 -170V-160Q244 -152 253 -152H269Q299 -152 311 -145T324 -118V-116Q324 -96 312 -88T269 -80H260Q242 -80 238 -68T244 -45L284 0H214Q153 0 117 37T80 136V507Q80
569 116 606T214 643H344Q405 643 441 606T478 507V457Q478 448 470 448Z" />
<glyph unicode="&#xc8;" glyph-name="Egrave" horiz-adv-x="481" d="M268 707H260Q252 707 246 715L154 827Q151 831 152 833T158 836H188Q198 836 203 827L271 716Q276 707 268 707ZM402 0H98Q90 0 90 9V634Q90 643 98 643H402Q411 643 411 635V623Q411 615 402
615H129Q120 615 120 607V350Q120 342 129 342H376Q385 342 385 334V322Q385 314 376 314H129Q120 314 120 306V36Q120 28 129 28H402Q411 28 411 20V8Q411 0 402 0Z" />
<glyph unicode="&#xc9;" glyph-name="Eacute" horiz-adv-x="481" d="M319 836H349Q353 836 354 834T353 827L261 715Q255 707 247 707H239Q231 707 236 716L304 827Q308 836 319 836ZM402 0H98Q90 0 90 9V634Q90 643 98 643H402Q411 643 411 635V623Q411 615 402
615H129Q120 615 120 607V350Q120 342 129 342H376Q385 342 385 334V322Q385 314 376 314H129Q120 314 120 306V36Q120 28 129 28H402Q411 28 411 20V8Q411 0 402 0Z" />
<glyph unicode="&#xca;" glyph-name="Ecircumflex" horiz-adv-x="481" d="M334 707H320Q312 707 309 712L250 817L191 712Q188 707 180 707H166Q155 707 162 718L226 827Q232 836 245 836H255Q268 836 274 827L338 718Q345 707 334 707ZM402 0H98Q90 0 90 9V634Q90
643 98 643H402Q411 643 411 635V623Q411 615 402 615H129Q120 615 120 607V350Q120 342 129 342H376Q385 342 385 334V322Q385 314 376 314H129Q120 314 120 306V36Q120 28 129 28H402Q411 28 411 20V8Q411 0 402 0Z" />
<glyph unicode="&#xcb;" glyph-name="Edieresis" horiz-adv-x="481" d="M157 716V827Q157 836 165 836H179Q187 836 187 827V716Q187 707 179 707H165Q157 707 157 716ZM313 716V827Q313 836 321 836H335Q343 836 343 827V716Q343 707 335 707H321Q313 707 313
716ZM402 0H98Q90 0 90 9V634Q90 643 98 643H402Q411 643 411 635V623Q411 615 402 615H129Q120 615 120 607V350Q120 342 129 342H376Q385 342 385 334V322Q385 314 376 314H129Q120 314 120 306V36Q120 28 129 28H402Q411 28 411 20V8Q411 0 402 0Z" />
<glyph unicode="&#xcc;" glyph-name="Igrave" horiz-adv-x="220" d="M115 707H107Q99 707 93 715L1 827Q-2 831 -1 833T5 836H35Q46 836 50 827L118 716Q123 707 115 707ZM125 634V9Q125 0 117 0H103Q95 0 95 9V634Q95 643 103 643H117Q125 643 125 634Z" />
<glyph unicode="&#xcd;" glyph-name="Iacute" horiz-adv-x="221" d="M186 836H216Q220 836 221 834T220 827L128 715Q122 707 114 707H106Q98 707 103 716L171 827Q176 836 186 836ZM125 634V9Q125 0 117 0H103Q95 0 95 9V634Q95 643 103 643H117Q125 643 125 634Z" />
<glyph unicode="&#xce;" glyph-name="Icircumflex" horiz-adv-x="220" d="M194 707H180Q172 707 169 712L110 817L51 712Q48 707 40 707H26Q15 707 22 718L86 827Q92 836 105 836H115Q128 836 134 827L198 718Q205 707 194 707ZM125 634V9Q125 0 117 0H103Q95
0 95 9V634Q95 643 103 643H117Q125 643 125 634Z" />
<glyph unicode="&#xcf;" glyph-name="Idieresis" horiz-adv-x="220" d="M17 716V827Q17 836 25 836H39Q47 836 47 827V716Q47 707 39 707H25Q17 707 17 716ZM173 716V827Q173 836 181 836H195Q203 836 203 827V716Q203 707 195 707H181Q173 707 173 716ZM125 634V9Q125
0 117 0H103Q95 0 95 9V634Q95 643 103 643H117Q125 643 125 634Z" />
<glyph unicode="&#xd0;" glyph-name="Eth" horiz-adv-x="500" d="M129 28H344Q394 28 421 57T448 137V506Q448 557 421 586T344 615H129Q120 615 120 607V348Q120 340 129 340H295Q304 340 304 332V320Q304 312 295 312H129Q120 312 120 304V36Q120 28 129 28ZM344
0H98Q90 0 90 9V304Q90 312 81 312H35Q26 312 26 320V332Q26 340 35 340H81Q90 340 90 348V634Q90 643 98 643H344Q405 643 441 606T478 507V136Q478 74 442 37T344 0Z" />
<glyph unicode="&#xd1;" glyph-name="Ntilde" horiz-adv-x="578" d="M290 726T278 714T237 702T198 719T186 780V819Q186 828 194 828H201Q209 828 209 819V781Q209 748 215 736T239 723T262 733T279 776T301 820T341 831T380 814T392 753V711Q392 702 384 702H377Q369
702 369 711V752Q369 785 363 797T337 810T310 792Q308 787 299 757ZM112 0H98Q90 0 90 9V634Q90 643 98 643H112Q117 643 119 639L454 72H458V634Q458 643 466 643H480Q488 643 488 634V9Q488 0 480 0H470Q463 0 458 8L124 573H120V9Q120 0 112 0Z" />
<glyph unicode="&#xd2;" glyph-name="Ograve" horiz-adv-x="553" d="M286 707H278Q270 707 264 715L172 827Q169 831 170 833T176 836H206Q216 836 221 827L289 716Q294 707 286 707ZM214 28H339Q389 28 416 57T443 137V506Q443 557 416 586T339 615H214Q164 615
137 586T110 506V137Q110 86 137 57T214 28ZM339 0H214Q153 0 117 37T80 136V507Q80 569 116 606T214 643H339Q400 643 436 606T473 507V136Q473 74 437 37T339 0Z" />
<glyph unicode="&#xd3;" glyph-name="Oacute" horiz-adv-x="553" d="M345 836H375Q379 836 380 834T379 827L287 715Q281 707 273 707H265Q257 707 262 716L330 827Q334 836 345 836ZM214 28H339Q389 28 416 57T443 137V506Q443 557 416 586T339 615H214Q164 615
137 586T110 506V137Q110 86 137 57T214 28ZM339 0H214Q153 0 117 37T80 136V507Q80 569 116 606T214 643H339Q400 643 436 606T473 507V136Q473 74 437 37T339 0Z" />
<glyph unicode="&#xd4;" glyph-name="Ocircumflex" horiz-adv-x="553" d="M360 707H346Q338 707 335 712L276 817L217 712Q214 707 206 707H192Q181 707 188 718L252 827Q258 836 271 836H281Q294 836 300 827L364 718Q371 707 360 707ZM214 28H339Q389 28 416
57T443 137V506Q443 557 416 586T339 615H214Q164 615 137 586T110 506V137Q110 86 137 57T214 28ZM339 0H214Q153 0 117 37T80 136V507Q80 569 116 606T214 643H339Q400 643 436 606T473 507V136Q473 74 437 37T339 0Z" />
<glyph unicode="&#xd5;" glyph-name="Otilde" horiz-adv-x="553" d="M277 726T265 714T224 702T185 719T173 780V819Q173 828 181 828H188Q196 828 196 819V781Q196 748 202 736T226 723T249 733T266 776T288 820T328 831T367 814T379 753V711Q379 702 371 702H364Q356
702 356 711V752Q356 785 350 797T324 810T297 792Q295 787 286 757ZM214 28H339Q389 28 416 57T443 137V506Q443 557 416 586T339 615H214Q164 615 137 586T110 506V137Q110 86 137 57T214 28ZM339 0H214Q153 0 117 37T80 136V507Q80 569 116 606T214 643H339Q400
643 436 606T473 507V136Q473 74 437 37T339 0Z" />
<glyph unicode="&#xd6;" glyph-name="Odieresis" horiz-adv-x="553" d="M183 716V827Q183 836 191 836H205Q213 836 213 827V716Q213 707 205 707H191Q183 707 183 716ZM339 716V827Q339 836 347 836H361Q369 836 369 827V716Q369 707 361 707H347Q339 707 339
716ZM214 28H339Q389 28 416 57T443 137V506Q443 557 416 586T339 615H214Q164 615 137 586T110 506V137Q110 86 137 57T214 28ZM339 0H214Q153 0 117 37T80 136V507Q80 569 116 606T214 643H339Q400 643 436 606T473 507V136Q473 74 437 37T339 0Z" />
<glyph unicode="&#xd7;" glyph-name="multiply" horiz-adv-x="485" d="M264 321L381 204Q388 197 381 192L371 182Q366 175 359 182L242 299L125 182Q118 175 113 182L103 192Q96 197 103 204L220 321L103 438Q96 445 103 450L113 460Q118 467 125 460L242 343L359
460Q366 467 371 460L381 450Q388 445 381 438L264 321Z" />
<glyph unicode="&#xd8;" glyph-name="Oslash" horiz-adv-x="553" d="M473 507V136Q473 74 437 37T339 0H214Q136 0 102 56L71 13Q65 6 58 10L49 16Q43 21 49 30L88 84Q80 110 80 136V507Q80 569 116 606T214 643H339Q415 643 451 588L481 629Q487 637 494 633L503
627Q510 622 503 613L465 560Q473 534 473 507ZM110 506V137Q110 123 111 116L432 562Q409 615 339 615H214Q164 615 137 586T110 506ZM443 137V506Q443 521 442 528L121 82Q144 28 214 28H339Q389 28 416 57T443 137Z" />
<glyph unicode="&#xd9;" glyph-name="Ugrave" horiz-adv-x="550" d="M292 707H284Q276 707 270 715L178 827Q175 831 176 833T182 836H212Q222 836 227 827L295 716Q300 707 292 707ZM443 643H457Q465 643 465 635V136Q465 74 429 37T331 0H219Q158 0 122 37T85
136V634Q85 643 93 643H107Q115 643 115 634V137Q115 86 142 57T219 28H331Q381 28 408 57T435 137V634Q435 643 443 643Z" />
<glyph unicode="&#xda;" glyph-name="Uacute" horiz-adv-x="550" d="M343 836H373Q377 836 378 834T377 827L285 715Q279 707 271 707H263Q255 707 260 716L328 827Q332 836 343 836ZM443 643H457Q465 643 465 635V136Q465 74 429 37T331 0H219Q158 0 122 37T85
136V634Q85 643 93 643H107Q115 643 115 634V137Q115 86 142 57T219 28H331Q381 28 408 57T435 137V634Q435 643 443 643Z" />
<glyph unicode="&#xdb;" glyph-name="Ucircumflex" horiz-adv-x="550" d="M359 707H345Q336 707 334 712L275 817L216 712Q214 707 205 707H191Q180 707 187 718L251 827Q257 836 270 836H280Q293 836 299 827L363 718Q370 707 359 707ZM443 643H457Q465 643 465
635V136Q465 74 429 37T331 0H219Q158 0 122 37T85 136V634Q85 643 93 643H107Q115 643 115 634V137Q115 86 142 57T219 28H331Q381 28 408 57T435 137V634Q435 643 443 643Z" />
<glyph unicode="&#xdc;" glyph-name="Udieresis" horiz-adv-x="550" d="M182 716V827Q182 836 190 836H204Q212 836 212 827V716Q212 707 204 707H190Q182 707 182 716ZM338 716V827Q338 836 346 836H360Q368 836 368 827V716Q368 707 360 707H346Q338 707 338
716ZM443 643H457Q465 643 465 635V136Q465 74 429 37T331 0H219Q158 0 122 37T85 136V634Q85 643 93 643H107Q115 643 115 634V137Q115 86 142 57T219 28H331Q381 28 408 57T435 137V634Q435 643 443 643Z" />
<glyph unicode="&#xdd;" glyph-name="Yacute" horiz-adv-x="486" d="M315 836H345Q349 836 350 834T349 827L257 715Q251 707 243 707H235Q227 707 232 716L300 827Q304 836 315 836ZM250 0H236Q228 0 228 9V245L31 634Q26 643 36 643H54Q61 643 65 634L241 284H245L421
634Q425 643 432 643H450Q460 643 455 634L258 245V9Q258 0 250 0Z" />
<glyph unicode="&#xde;" glyph-name="Thorn" horiz-adv-x="500" d="M164 161H288Q338 161 365 190T392 270V373Q392 424 365 453T288 482H164Q155 482 155 474V169Q155 161 164 161ZM147 0H133Q125 0 125 9V634Q125 643 133 643H147Q155 643 155 634V518Q155 510
164 510H288Q349 510 385 473T422 374V269Q422 207 386 170T288 133H164Q155 133 155 125V9Q155 0 147 0Z" />
<glyph unicode="&#xdf;" glyph-name="germandbls" horiz-adv-x="539" d="M248 340H312Q363 340 393 369T424 449V506Q424 557 397 586T320 615H219Q169 615 142 586T115 506V9Q115 0 107 0H93Q85 0 85 9V507Q85 569 121 606T219 643H320Q381 643 417 606T454 507V448Q454
406 433 375T377 326Q415 315 439 281T464 204V136Q464 74 428 37T330 0H227Q218 0 218 8V20Q218 28 227 28H330Q380 28 407 57T434 137V203Q434 253 399 282T312 312H248Q239 312 239 319V332Q239 340 248 340Z" />
<glyph unicode="&#xe0;" glyph-name="agrave" horiz-adv-x="498" d="M286 574H278Q270 574 264 582L172 694Q169 698 170 700T176 703H206Q216 703 221 694L289 583Q294 574 286 574ZM278 0H204Q143 0 107 37T70 136V374Q70 436 106 473T204 510H410Q418 510 418
501V9Q418 0 410 0H396Q388 0 388 9V52H384Q356 0 278 0ZM388 132V474Q388 482 379 482H204Q154 482 127 453T100 373V137Q100 86 127 57T204 28H276Q326 28 357 55T388 132Z" />
<glyph unicode="&#xe1;" glyph-name="aacute" horiz-adv-x="498" d="M328 703H358Q362 703 363 701T362 694L270 582Q264 574 256 574H248Q240 574 245 583L313 694Q318 703 328 703ZM278 0H204Q143 0 107 37T70 136V374Q70 436 106 473T204 510H410Q418 510 418
501V9Q418 0 410 0H396Q388 0 388 9V52H384Q356 0 278 0ZM388 132V474Q388 482 379 482H204Q154 482 127 453T100 373V137Q100 86 127 57T204 28H276Q326 28 357 55T388 132Z" />
<glyph unicode="&#xe2;" glyph-name="acircumflex" horiz-adv-x="498" d="M345 574H331Q322 574 320 579L261 684L202 579Q200 574 191 574H177Q166 574 173 585L237 694Q243 703 256 703H266Q279 703 285 694L349 585Q356 574 345 574ZM278 0H204Q143 0 107 37T70
136V374Q70 436 106 473T204 510H410Q418 510 418 501V9Q418 0 410 0H396Q388 0 388 9V52H384Q356 0 278 0ZM388 132V474Q388 482 379 482H204Q154 482 127 453T100 373V137Q100 86 127 57T204 28H276Q326 28 357 55T388 132Z" />
<glyph unicode="&#xe3;" glyph-name="atilde" horiz-adv-x="500" d="M168 655V694Q168 703 176 703H183Q191 703 191 694V656Q191 623 197 611T221 598T244 608T261 651T283 695T323 706T362 689T374 628V586Q374 577 366 577H359Q351 577 351 586V627Q351 660
345 672T319 685T292 667Q290 662 281 632T260 589T219 577T180 594T168 655ZM278 0H204Q143 0 107 37T70 136V374Q70 436 106 473T204 510H410Q418 510 418 501V9Q418 0 410 0H396Q388 0 388 9V52H384Q356 0 278 0ZM388 132V474Q388 482 379 482H204Q154 482 127
453T100 373V137Q100 86 127 57T204 28H276Q326 28 357 55T388 132Z" />
<glyph unicode="&#xe4;" glyph-name="adieresis" horiz-adv-x="498" d="M172 583V694Q172 703 180 703H194Q202 703 202 694V583Q202 574 194 574H180Q172 574 172 583ZM328 583V694Q328 703 336 703H350Q358 703 358 694V583Q358 574 350 574H336Q328 574 328
583ZM278 0H204Q143 0 107 37T70 136V374Q70 436 106 473T204 510H410Q418 510 418 501V9Q418 0 410 0H396Q388 0 388 9V52H384Q356 0 278 0ZM388 132V474Q388 482 379 482H204Q154 482 127 453T100 373V137Q100 86 127 57T204 28H276Q326 28 357 55T388 132Z"
/>
<glyph unicode="&#xe5;" glyph-name="aring" horiz-adv-x="498" d="M388 132V474Q388 482 379 482H204Q154 482 127 453T100 373V137Q100 86 127 57T204 28H276Q326 28 357 55T388 132ZM278 0H204Q143 0 107 37T70 136V374Q70 436 106 473T204 510H410Q418 510
418 501V9Q418 0 410 0H396Q388 0 388 9V52H384Q356 0 278 0ZM193 663V623Q193 596 204 586T243 576H257Q285 576 296 586T308 623V663Q308 689 297 699T257 709H243Q216 709 205 699T193 663ZM169 622V664Q169 701 187 716T243 732H257Q333 732 333 664V622Q333
553 257 553H243Q205 553 187 569T169 622Z" />
<glyph unicode="&#xe6;" glyph-name="ae" horiz-adv-x="806" d="M418 202V137Q418 86 445 57T522 28H727Q736 28 736 20V8Q736 0 727 0H522Q431 0 402 69Q371 0 278 0H204Q143 0 107 37T70 136V164Q70 226 106 263T204 300H379Q388 300 388 308V373Q388 424 361
453T284 482H132Q123 482 123 490V502Q123 510 132 510H284Q374 510 404 441Q436 510 528 510H602Q663 510 699 473T736 374V220Q736 210 727 210H427Q418 210 418 202ZM706 246V373Q706 424 679 453T602 482H530Q480 482 449 455T418 378V246Q418 238 427 238H697Q706
238 706 246ZM388 132V264Q388 272 379 272H204Q154 272 127 243T100 163V137Q100 86 127 57T204 28H276Q326 28 357 55T388 132Z" />
<glyph unicode="&#xe7;" glyph-name="ccedilla" horiz-adv-x="390" d="M346 482H204Q154 482 127 453T100 373V137Q100 86 127 57T204 28H346Q355 28 355 20V8Q355 0 346 0H274L228 -50V-54Q268 -54 287 -67T307 -111V-121Q307 -178 228 -178H209Q200 -178 200
-170V-160Q200 -152 209 -152H225Q280 -152 280 -118V-116Q280 -96 268 -88T225 -80H216Q198 -80 194 -68T200 -45L240 0H204Q143 0 107 37T70 136V374Q70 436 106 473T204 510H346Q355 510 355 502V490Q355 482 346 482Z" />
<glyph unicode="&#xe8;" glyph-name="egrave" horiz-adv-x="491" d="M263 574H255Q247 574 241 582L149 694Q146 698 147 700T153 703H183Q194 703 198 694L266 583Q271 574 263 574ZM409 0H204Q143 0 107 37T70 136V374Q70 436 106 473T204 510H292Q353 510 389
473T426 374V247Q426 237 417 237H109Q100 237 100 229V137Q100 86 127 57T204 28H409Q418 28 418 20V8Q418 0 409 0ZM109 265H387Q396 265 396 273V373Q396 424 369 453T292 482H204Q154 482 127 453T100 373V273Q100 265 109 265Z" />
<glyph unicode="&#xe9;" glyph-name="eacute" horiz-adv-x="491" d="M304 703H334Q338 703 339 701T338 694L246 582Q240 574 232 574H224Q216 574 221 583L289 694Q294 703 304 703ZM409 0H204Q143 0 107 37T70 136V374Q70 436 106 473T204 510H292Q353 510 389
473T426 374V247Q426 237 417 237H109Q100 237 100 229V137Q100 86 127 57T204 28H409Q418 28 418 20V8Q418 0 409 0ZM109 265H387Q396 265 396 273V373Q396 424 369 453T292 482H204Q154 482 127 453T100 373V273Q100 265 109 265Z" />
<glyph unicode="&#xea;" glyph-name="ecircumflex" horiz-adv-x="491" d="M332 574H318Q310 574 307 579L248 684L189 579Q186 574 178 574H164Q153 574 160 585L224 694Q230 703 243 703H253Q266 703 272 694L336 585Q343 574 332 574ZM409 0H204Q143 0 107 37T70
136V374Q70 436 106 473T204 510H292Q353 510 389 473T426 374V247Q426 237 417 237H109Q100 237 100 229V137Q100 86 127 57T204 28H409Q418 28 418 20V8Q418 0 409 0ZM109 265H387Q396 265 396 273V373Q396 424 369 453T292 482H204Q154 482 127 453T100 373V273Q100
265 109 265Z" />
<glyph unicode="&#xeb;" glyph-name="edieresis" horiz-adv-x="491" d="M155 583V694Q155 703 163 703H177Q185 703 185 694V583Q185 574 177 574H163Q155 574 155 583ZM311 583V694Q311 703 319 703H333Q341 703 341 694V583Q341 574 333 574H319Q311 574 311
583ZM409 0H204Q143 0 107 37T70 136V374Q70 436 106 473T204 510H292Q353 510 389 473T426 374V247Q426 237 417 237H109Q100 237 100 229V137Q100 86 127 57T204 28H409Q418 28 418 20V8Q418 0 409 0ZM109 265H387Q396 265 396 273V373Q396 424 369 453T292 482H204Q154
482 127 453T100 373V273Q100 265 109 265Z" />
<glyph unicode="&#xec;" glyph-name="igrave" horiz-adv-x="200" d="M104 574H96Q88 574 82 582L-10 694Q-13 698 -12 700T-6 703H24Q34 703 39 694L107 583Q112 574 104 574ZM85 9V501Q85 510 93 510H107Q115 510 115 501V9Q115 0 107 0H93Q85 0 85 9Z" />
<glyph unicode="&#xed;" glyph-name="iacute" horiz-adv-x="198" d="M174 703H204Q208 703 209 701T208 694L116 582Q110 574 102 574H94Q86 574 91 583L159 694Q164 703 174 703ZM85 9V501Q85 510 93 510H107Q115 510 115 501V9Q115 0 107 0H93Q85 0 85 9Z" />
<glyph unicode="&#xee;" glyph-name="icircumflex" horiz-adv-x="200" d="M184 574H170Q162 574 159 579L100 684L41 579Q38 574 30 574H16Q5 574 12 585L76 694Q82 703 95 703H105Q118 703 124 694L188 585Q195 574 184 574ZM85 9V501Q85 510 93 510H107Q115
510 115 501V9Q115 0 107 0H93Q85 0 85 9Z" />
<glyph unicode="&#xef;" glyph-name="idieresis" horiz-adv-x="200" d="M7 583V694Q7 703 15 703H29Q37 703 37 694V583Q37 574 29 574H15Q7 574 7 583ZM163 583V694Q163 703 171 703H185Q193 703 193 694V583Q193 574 185 574H171Q163 574 163 583ZM85 9V501Q85
510 93 510H107Q115 510 115 501V9Q115 0 107 0H93Q85 0 85 9Z" />
<glyph unicode="&#xf0;" glyph-name="eth" horiz-adv-x="483" d="M418 357V136Q418 74 382 37T284 0H204Q143 0 107 37T70 136V274Q70 336 106 373T204 410H278Q356 410 384 358H388Q388 402 363 434L252 559L148 471Q141 467 136 472L131 479Q126 485 133 492L235
578L149 675Q142 684 149 690L155 695Q162 700 168 693L256 596L363 687Q370 691 375 686L380 679Q385 672 379 667L273 577L386 451Q418 414 418 357ZM388 137V278Q388 328 357 355T276 382H204Q154 382 127 353T100 273V137Q100 86 127 57T204 28H284Q334 28
361 57T388 137Z" />
<glyph unicode="&#xf1;" glyph-name="ntilde" horiz-adv-x="503" d="M151 655V694Q151 703 159 703H166Q174 703 174 694V656Q174 623 180 611T204 598T227 608T244 651T266 695T306 706T345 689T357 628V586Q357 577 349 577H342Q334 577 334 586V627Q334 660
328 672T302 685T275 667Q273 662 264 632T243 589T202 577T163 594T151 655ZM102 0H88Q80 0 80 9V501Q80 510 88 510H102Q110 510 110 501V458H114Q142 510 220 510H294Q355 510 391 473T428 374V9Q428 0 420 0H406Q398 0 398 9V373Q398 424 371 453T294 482H222Q172
482 141 455T110 378V9Q110 0 102 0Z" />
<glyph unicode="&#xf2;" glyph-name="ograve" horiz-adv-x="493" d="M253 574H245Q237 574 231 582L139 694Q136 698 137 700T143 703H173Q184 703 188 694L256 583Q261 574 253 574ZM289 0H204Q143 0 107 37T70 136V374Q70 436 106 473T204 510H289Q350 510 386
473T423 374V136Q423 74 387 37T289 0ZM204 28H289Q339 28 366 57T393 137V373Q393 424 366 453T289 482H204Q154 482 127 453T100 373V137Q100 86 127 57T204 28Z" />
<glyph unicode="&#xf3;" glyph-name="oacute" horiz-adv-x="493" d="M321 703H351Q355 703 356 701T355 694L263 582Q257 574 249 574H241Q233 574 238 583L306 694Q310 703 321 703ZM289 0H204Q143 0 107 37T70 136V374Q70 436 106 473T204 510H289Q350 510 386
473T423 374V136Q423 74 387 37T289 0ZM204 28H289Q339 28 366 57T393 137V373Q393 424 366 453T289 482H204Q154 482 127 453T100 373V137Q100 86 127 57T204 28Z" />
<glyph unicode="&#xf4;" glyph-name="ocircumflex" horiz-adv-x="493" d="M330 574H316Q308 574 305 579L246 684L187 579Q184 574 176 574H162Q151 574 158 585L222 694Q228 703 241 703H251Q264 703 270 694L334 585Q341 574 330 574ZM289 0H204Q143 0 107 37T70
136V374Q70 436 106 473T204 510H289Q350 510 386 473T423 374V136Q423 74 387 37T289 0ZM204 28H289Q339 28 366 57T393 137V373Q393 424 366 453T289 482H204Q154 482 127 453T100 373V137Q100 86 127 57T204 28Z" />
<glyph unicode="&#xf5;" glyph-name="otilde" horiz-adv-x="493" d="M143 655V694Q143 703 151 703H158Q166 703 166 694V656Q166 623 172 611T196 598T219 608T236 651T258 695T298 706T337 689T349 628V586Q349 577 341 577H334Q326 577 326 586V627Q326 660
320 672T294 685T267 667Q265 662 256 632T235 589T194 577T155 594T143 655ZM289 0H204Q143 0 107 37T70 136V374Q70 436 106 473T204 510H289Q350 510 386 473T423 374V136Q423 74 387 37T289 0ZM204 28H289Q339 28 366 57T393 137V373Q393 424 366 453T289 482H204Q154
482 127 453T100 373V137Q100 86 127 57T204 28Z" />
<glyph unicode="&#xf6;" glyph-name="odieresis" horiz-adv-x="493" d="M153 583V694Q153 703 161 703H175Q183 703 183 694V583Q183 574 175 574H161Q153 574 153 583ZM309 583V694Q309 703 317 703H331Q339 703 339 694V583Q339 574 331 574H317Q309 574 309
583ZM289 0H204Q143 0 107 37T70 136V374Q70 436 106 473T204 510H289Q350 510 386 473T423 374V136Q423 74 387 37T289 0ZM204 28H289Q339 28 366 57T393 137V373Q393 424 366 453T289 482H204Q154 482 127 453T100 373V137Q100 86 127 57T204 28Z" />
<glyph unicode="&#xf7;" glyph-name="divide" horiz-adv-x="522" d="M246 144V208Q246 217 254 217H268Q276 217 276 208V144Q276 135 268 135H254Q246 135 246 144ZM438 307H84Q75 307 75 315V327Q75 335 84 335H438Q447 335 447 327V315Q447 307 438 307ZM246
434V498Q246 507 254 507H268Q276 507 276 498V434Q276 425 268 425H254Q246 425 246 434Z" />
<glyph unicode="&#xf8;" glyph-name="oslash" horiz-adv-x="521" d="M437 374V136Q437 74 401 37T303 0H218Q130 0 97 71L55 28Q48 21 43 28L33 37Q27 43 33 49L87 103Q84 118 84 136V374Q84 436 120 473T218 510H303Q391 510 424 440L466 482Q472 488 478 483L488
473Q494 468 487 461L434 408Q437 392 437 374ZM114 373V130L401 417Q380 482 303 482H218Q168 482 141 453T114 373ZM407 137V381L120 93Q141 28 218 28H303Q353 28 380 57T407 137Z" />
<glyph unicode="&#xf9;" glyph-name="ugrave" horiz-adv-x="503" d="M258 574H250Q242 574 236 582L144 694Q141 698 142 700T148 703H178Q188 703 193 694L261 583Q266 574 258 574ZM283 0H209Q148 0 112 37T75 136V501Q75 510 83 510H97Q105 510 105 501V137Q105
86 132 57T209 28H281Q331 28 362 55T393 132V501Q393 510 401 510H415Q423 510 423 501V9Q423 0 415 0H401Q393 0 393 9V52H389Q361 0 283 0Z" />
<glyph unicode="&#xfa;" glyph-name="uacute" horiz-adv-x="503" d="M323 703H353Q357 703 358 701T357 694L265 582Q259 574 251 574H243Q235 574 240 583L308 694Q312 703 323 703ZM283 0H209Q148 0 112 37T75 136V501Q75 510 83 510H97Q105 510 105 501V137Q105
86 132 57T209 28H281Q331 28 362 55T393 132V501Q393 510 401 510H415Q423 510 423 501V9Q423 0 415 0H401Q393 0 393 9V52H389Q361 0 283 0Z" />
<glyph unicode="&#xfb;" glyph-name="ucircumflex" horiz-adv-x="503" d="M333 574H319Q310 574 308 579L249 684L190 579Q188 574 179 574H165Q154 574 161 585L225 694Q231 703 244 703H254Q267 703 273 694L337 585Q344 574 333 574ZM283 0H209Q148 0 112 37T75
136V501Q75 510 83 510H97Q105 510 105 501V137Q105 86 132 57T209 28H281Q331 28 362 55T393 132V501Q393 510 401 510H415Q423 510 423 501V9Q423 0 415 0H401Q393 0 393 9V52H389Q361 0 283 0Z" />
<glyph unicode="&#xfc;" glyph-name="udieresis" horiz-adv-x="503" d="M156 583V694Q156 703 164 703H178Q186 703 186 694V583Q186 574 178 574H164Q156 574 156 583ZM312 583V694Q312 703 320 703H334Q342 703 342 694V583Q342 574 334 574H320Q312 574 312
583ZM283 0H209Q148 0 112 37T75 136V501Q75 510 83 510H97Q105 510 105 501V137Q105 86 132 57T209 28H281Q331 28 362 55T393 132V501Q393 510 401 510H415Q423 510 423 501V9Q423 0 415 0H401Q393 0 393 9V52H389Q361 0 283 0Z" />
<glyph unicode="&#xfd;" glyph-name="yacute" horiz-adv-x="456" d="M305 703H335Q339 703 340 701T339 694L247 582Q241 574 233 574H225Q217 574 222 583L290 694Q294 703 305 703ZM59 -147Q50 -147 50 -139V-127Q50 -119 59 -119H88Q128 -119 144 -105T169
-84T186 -58T199 -32Q217 8 222 27H212Q204 27 201 36L31 501Q28 510 37 510H53Q60 510 63 501L226 56H230L393 501Q396 510 403 510H419Q428 510 425 501L255 36Q224 -53 208 -79Q165 -146 88 -147H59Z" />
<glyph unicode="&#xfe;" glyph-name="thorn" horiz-adv-x="503" d="M227 28H299Q349 28 376 57T403 137V373Q403 424 376 453T299 482H227Q177 482 146 455T115 378V132Q115 82 146 55T227 28ZM115 52V-124Q115 -133 107 -133H93Q85 -133 85 -124V694Q85 703 93
703H107Q115 703 115 694V458H119Q147 510 225 510H299Q360 510 396 473T433 374V136Q433 74 397 37T299 0H225Q147 0 119 52H115Z" />
<glyph unicode="&#xff;" glyph-name="ydieresis" horiz-adv-x="456" d="M135 583V694Q135 703 143 703H157Q165 703 165 694V583Q165 574 157 574H143Q135 574 135 583ZM291 583V694Q291 703 299 703H313Q321 703 321 694V583Q321 574 313 574H299Q291 574 291
583ZM59 -147Q50 -147 50 -139V-127Q50 -119 59 -119H88Q128 -119 144 -105T169 -84T186 -58T199 -32Q217 8 222 27H212Q204 27 201 36L31 501Q28 510 37 510H53Q60 510 63 501L226 56H230L393 501Q396 510 403 510H419Q428 510 425 501L255 36Q224 -53 208 -79Q165
-146 88 -147H59Z" />
<glyph unicode="&#x2013;" glyph-name="endash" horiz-adv-x="412" d="M363 306H49Q40 306 40 314V326Q40 334 49 334H363Q372 334 372 326V314Q372 306 363 306Z" />
<glyph unicode="&#x2014;" glyph-name="emdash" horiz-adv-x="512" d="M40 314V326Q40 334 49 334H463Q472 334 472 326V314Q472 306 463 306H49Q40 306 40 314Z" />
<glyph unicode="&#x2018;" glyph-name="quoteleft" horiz-adv-x="177" d="M70 414V493Q70 508 96 637Q98 643 102 643T107 637V414Q107 405 99 405H78Q70 405 70 414Z" />
<glyph unicode="&#x2019;" glyph-name="quoteright" horiz-adv-x="177" d="M107 634V555Q107 540 81 411Q80 405 75 405T70 411V634Q70 643 78 643H99Q107 643 107 634Z" />
<glyph unicode="&#x201a;" glyph-name="quotesinglbase" horiz-adv-x="187" d="M112 126V47Q112 32 86 -97Q84 -103 80 -103T75 -97V126Q75 135 83 135H104Q112 135 112 126Z" />
<glyph unicode="&#x201c;" glyph-name="quotedblleft" horiz-adv-x="324" d="M217 414V493Q217 508 243 637Q244 643 249 643T254 637V414Q254 405 246 405H225Q217 405 217 414ZM70 414V493Q70 508 96 637Q98 643 102 643T107 637V414Q107 405 99 405H78Q70 405 70 414Z" />
<glyph unicode="&#x201d;" glyph-name="quotedblright" horiz-adv-x="324" d="M107 634V555Q107 540 81 411Q80 405 75 405T70 411V634Q70 643 78 643H99Q107 643 107 634ZM254 634V555Q254 540 228 411Q226 405 222 405T217 411V634Q217 643 225 643H246Q254
643 254 634Z" />
<glyph unicode="&#x201e;" glyph-name="quotedblbase" horiz-adv-x="334" d="M112 126V47Q112 32 86 -97Q84 -103 80 -103T75 -97V126Q75 135 83 135H104Q112 135 112 126ZM259 126V47Q259 32 233 -97Q232 -103 227 -103T222 -97V126Q222 135 230 135H251Q259
135 259 126Z" />
<glyph unicode="&#x2022;" glyph-name="bullet" horiz-adv-x="267" d="M167 388V249Q167 240 159 240H108Q100 240 100 249V388Q100 397 108 397H159Q167 397 167 388Z" />
<glyph unicode="&#x2039;" glyph-name="guilsinglleft" horiz-adv-x="293" d="M223 112V96Q223 90 220 88T212 91L79 229Q70 240 70 248V262Q70 270 79 281L212 419Q216 424 219 422T223 414V398Q223 391 218 385L93 255L218 125Q223 119 223 112Z" />
<glyph unicode="&#x203a;" glyph-name="guilsinglright" horiz-adv-x="293" d="M70 398V414Q70 420 73 422T81 419L214 281Q223 270 223 262V248Q223 240 214 229L81 91Q76 86 73 88T70 96V112Q70 119 75 125L200 255L75 385Q70 391 70 398Z" />
</font>
</defs>
</svg>
