<?xml version="1.0" standalone="no"?>
<!DOCTYPE svg PUBLIC "-//W3C//DTD SVG 1.1//EN" "http://www.w3.org/Graphics/SVG/1.1/DTD/svg11.dtd">
<svg xmlns="http://www.w3.org/2000/svg">
<defs >
<font id="Rajdhani" horiz-adv-x="493" ><font-face
    font-family="Rajdhani"
    units-per-em="1000"
    panose-1="2 0 0 0 0 0 0 0 0 0"
    ascent="930"
    descent="-346"
    alphabetic="0" />
<glyph unicode=" " glyph-name="space" horiz-adv-x="220" />
<glyph unicode="!" glyph-name="exclam" horiz-adv-x="238" d="M50 467V622Q50 643 71 643H166Q187 643 187 622V467Q187 427 183 378T176 304T172 265T170 249Q166 228 147 228H90Q71 228 67 249Q67 250 65 265T61 304T56 356Q50 438 50 467ZM184 144V21Q184
0 164 0H76Q56 0 56 22V143Q56 163 76 163H164Q184 163 184 144Z" />
<glyph unicode="&quot;" glyph-name="quotedbl" horiz-adv-x="353" d="M100 414H85Q66 414 64 437L37 624Q34 643 55 643H132Q152 643 149 624L123 435Q118 414 100 414ZM267 414H252Q233 414 231 437L204 624Q201 643 222 643H299Q319 643 316 624L290 435Q285
414 267 414Z" />
<glyph unicode="#" glyph-name="numbersign" horiz-adv-x="669" d="M614 503Q634 503 634 482V423Q634 401 614 401H516L478 242H565Q585 242 585 220V161Q585 140 565 140H453L424 21Q420 0 402 0H339Q316 0 322 22L351 140H238L209 21Q203 0 183 0H124Q102 0
107 22L136 140H56Q35 140 35 161V220Q35 242 56 242H161L199 401H105Q84 401 84 423V482Q84 503 105 503H224L253 622Q258 643 275 643H337Q360 643 355 621L326 503H439L468 622Q474 643 494 643H552Q576 643 570 621L541 503H614ZM376 242L414 401H301L263 242H376Z"
/>
<glyph unicode="$" glyph-name="dollar" horiz-adv-x="527" d="M296 -98H236Q215 -98 215 -77V0H208Q132 0 90 43T47 164V183Q47 204 68 204H153Q174 204 174 183V176Q174 138 189 124T244 110H284Q323 110 338 125T354 181V196Q354 221 339 235T304 254Q286 258
234 263T155 275T102 301Q46 337 46 442V479Q46 558 88 600T208 643H215V722Q215 743 236 743H296Q317 743 317 722V643H319Q390 643 431 599T472 479V460Q472 439 451 439H366Q345 439 345 460V467Q345 505 331 519T275 533H243Q202 533 188 518T173 457V437Q173
415 188 403T222 386Q244 382 296 378T375 365T428 338Q481 300 481 202V164Q481 86 438 43T319 0H317V-77Q317 -98 296 -98Z" />
<glyph unicode="%" glyph-name="percent" horiz-adv-x="741" d="M567 235H544Q522 235 514 227T506 197V110Q506 88 514 80T544 71H567Q588 71 596 80T605 110V197Q605 218 597 226T567 235ZM525 306H584Q636 306 663 279T690 201V105Q690 54 663 27T584 0H525Q474
0 447 27T419 105V201Q419 252 446 279T525 306ZM197 573H174Q152 573 144 565T136 534V447Q136 426 144 418T174 409H197Q219 409 227 417T235 447V534Q235 555 227 564T197 573ZM156 644H215Q267 644 294 617T321 539V443Q321 392 294 365T215 338H156Q105 338
78 365T50 443V539Q50 590 77 617T156 644ZM271 0H219Q196 0 204 21Q236 103 323 321T442 622Q451 643 468 643H521Q544 643 536 622L298 21Q290 0 271 0Z" />
<glyph unicode="&amp;" glyph-name="ampersand" horiz-adv-x="618" d="M222 111H264Q306 111 312 151L203 279Q179 278 170 263T160 212V169Q160 138 174 125T222 111ZM264 0H203Q124 0 81 42T38 162V220Q38 270 64 308T139 353Q100 404 100 470V481Q100 558 146
600T273 643H306Q385 643 428 601T471 481V447Q471 425 450 425H365Q344 425 344 447V479Q344 510 332 523T294 537H286Q257 537 244 524T231 479V466Q231 427 275 377L322 323H544Q565 323 565 301V233Q565 212 544 212H414L577 18Q582 12 580 6T571 0H464Q440
0 429 14L385 66Q374 31 346 16T264 0Z" />
<glyph unicode="&apos;" glyph-name="quotesingle" horiz-adv-x="188" d="M102 449H85Q66 449 63 468L39 593Q36 609 57 609H131Q152 609 148 593L125 466Q120 449 102 449Z" />
<glyph unicode="(" glyph-name="parenleft" horiz-adv-x="306" d="M233 554H230Q145 554 145 438V103Q145 -13 232 -13H233Q244 -13 248 -17T252 -31V-87Q252 -96 249 -99T233 -102H230Q142 -102 93 -49T43 119V422Q43 536 93 589T231 643H234Q245 643 248 640T252
628V572Q252 562 248 558T233 554Z" />
<glyph unicode=")" glyph-name="parenright" horiz-adv-x="306" d="M43 -87V-31Q43 -13 62 -13H63Q150 -13 150 103V438Q150 554 63 554H62Q43 554 43 572V628Q43 637 47 640T62 643H63Q151 643 201 590T252 422V119Q252 5 202 -48T63 -102H62Q51 -102 47 -99T43 -87Z" />
<glyph unicode="*" glyph-name="asterisk" horiz-adv-x="398" d="M152 615V624Q152 643 172 643H222Q242 643 242 624V615Q242 575 224 532Q221 524 218 517T212 504T206 494T202 486Q229 519 242 531Q270 557 319 573Q336 578 344 560L359 512Q365 493 346 487Q311
474 275 474Q233 475 208 481Q286 454 321 398Q332 382 317 371L276 342Q260 332 248 346Q200 404 200 484Q197 420 184 393Q175 371 156 341Q146 327 128 338L88 368Q69 378 83 395Q106 427 122 438T148 457T168 468T183 476T200 484Q114 460 60 478L51 481Q34
487 40 506L55 554Q61 573 80 566Q140 549 194 490L198 486Q196 489 194 493T187 503T180 516T172 532T165 551T158 571Q152 591 152 615Z" />
<glyph unicode="+" glyph-name="plus" horiz-adv-x="565" d="M336 373H472Q485 373 490 368T495 349V293Q495 270 472 270H336V132Q336 108 312 108H253Q229 108 229 132V270H93Q70 270 70 293V349Q70 362 75 367T93 373H229V510Q229 534 253 534H312Q336 534
336 510V373Z" />
<glyph unicode="," glyph-name="comma" horiz-adv-x="204" d="M166 144V66Q166 39 143 4L74 -97Q67 -107 55 -107Q38 -107 38 -87V143Q38 163 58 163H147Q166 163 166 144Z" />
<glyph unicode="-" glyph-name="hyphen" horiz-adv-x="312" d="M251 268H61Q40 268 40 289V348Q40 370 61 370H251Q272 370 272 348V289Q272 268 251 268Z" />
<glyph unicode="." glyph-name="period" horiz-adv-x="204" d="M166 144V21Q166 0 147 0H58Q38 0 38 21V143Q38 163 58 163H147Q166 163 166 144Z" />
<glyph unicode="/" glyph-name="slash" horiz-adv-x="409" d="M124 0H47Q23 0 31 21Q63 103 145 321T259 622Q268 643 286 643H363Q387 643 379 622L151 21Q143 0 124 0Z" />
<glyph unicode="0" glyph-name="zero" horiz-adv-x="536" d="M239 110H298Q330 110 343 123T356 169V474Q356 506 343 519T298 533H239Q207 533 194 520T181 474V169Q181 137 194 124T239 110ZM318 0H218Q139 0 96 42T53 163V480Q53 559 96 601T218 643H318Q396
643 439 601T482 480V163Q482 85 439 43T318 0Z" />
<glyph unicode="1" glyph-name="one" horiz-adv-x="334" d="M23 464V546Q23 563 38 572L129 629Q152 643 168 643H248Q269 643 269 622V21Q269 9 265 5T249 0H163Q142 0 142 21V508L44 452Q23 443 23 464Z" />
<glyph unicode="2" glyph-name="two" d="M47 21V116Q47 173 96 213L280 369Q325 406 325 449V479Q325 510 311 523T263 537H228Q196 537 183 524T170 479V447Q170 425 149 425H64Q43 425 43 447V481Q43 559 86 601T208 643H284Q363 643 406 601T449 481V441Q449
363 389 312L201 152Q189 141 189 128V112H428Q449 112 449 91V21Q449 0 428 0H68Q47 0 47 21Z" />
<glyph unicode="3" glyph-name="three" horiz-adv-x="509" d="M219 374H270Q303 374 317 387T332 432V479Q332 510 318 523T270 537H222Q190 537 177 524T164 479V454Q164 433 143 433H58Q37 433 37 454V481Q37 559 80 601T202 643H291Q370 643 413 601T456 481V431Q456
347 377 322Q456 305 456 213V162Q456 84 413 42T291 0H202Q123 0 80 42T37 162V190Q37 212 58 212H143Q164 212 164 190V164Q164 132 177 119T222 106H270Q303 106 317 119T332 164V213Q332 244 318 257T270 271H219Q198 271 198 292V352Q198 374 219 374Z" />
<glyph unicode="4" glyph-name="four" horiz-adv-x="541" d="M318 227V536L156 227H318ZM417 0H339Q318 0 318 21V117H70Q53 117 43 127T33 154V193Q33 223 43 242L242 612Q252 630 260 636T286 643H399Q416 643 426 633T437 606V227H509Q529 227 529 207V140Q529
117 509 117H437V21Q437 9 433 5T417 0Z" />
<glyph unicode="5" glyph-name="five" horiz-adv-x="506" d="M273 327H226Q200 327 187 306T158 285H75Q54 285 54 305V622Q54 643 75 643H423Q444 643 444 622V546Q444 525 423 525H181V378Q198 428 265 428H307Q462 428 462 273V163Q462 85 419 43T298 0H210Q131
0 88 42T45 163V183Q45 205 66 205H151Q172 205 172 183V164Q172 133 185 120T230 106H277Q309 106 324 119T339 164V254Q339 296 325 311T273 327Z" />
<glyph unicode="6" glyph-name="six" horiz-adv-x="525" d="M237 110H294Q326 110 339 123T353 169V238Q353 270 340 283T294 297H179V169Q179 137 192 124T237 110ZM315 0H217Q138 0 95 42T52 163V480Q52 559 95 601T217 643H421Q442 643 442 622V553Q442 533
421 533H237Q206 533 193 520T179 474V407H315Q394 407 437 365T480 244V163Q480 84 437 42T315 0Z" />
<glyph unicode="7" glyph-name="seven" horiz-adv-x="431" d="M169 0H75Q66 0 63 5T64 21L275 527H40Q19 527 19 548V622Q19 643 40 643H390Q411 643 411 622V538Q411 518 397 484L203 19Q195 0 169 0Z" />
<glyph unicode="8" glyph-name="eight" horiz-adv-x="542" d="M237 109H305Q337 109 350 122T363 166V212Q363 244 350 259T305 274H237Q205 274 192 259T179 212V166Q179 135 192 122T237 109ZM237 373H305Q337 373 350 388T363 435V477Q363 508 350 521T305
534H237Q205 534 192 521T179 477V435Q179 403 192 388T237 373ZM324 0H218Q138 0 96 39T53 156V202Q53 294 119 323Q53 350 53 445V488Q53 565 95 604T218 643H324Q403 643 445 604T488 488V445Q488 398 470 365T423 323Q488 297 488 201V156Q488 79 446 40T324
0Z" />
<glyph unicode="9" glyph-name="nine" horiz-adv-x="525" d="M229 339H345V474Q345 506 332 519T286 533H229Q197 533 184 520T171 474V397Q171 366 184 353T229 339ZM306 0H95Q73 0 73 21V90Q73 110 95 110H286Q318 110 331 123T344 169V229H208Q129 229 86 271T43
391V480Q43 559 86 601T208 643H306Q385 643 428 601T471 480V163Q471 84 428 42T306 0Z" />
<glyph unicode=":" glyph-name="colon" horiz-adv-x="204" d="M166 491V368Q166 347 147 347H58Q38 347 38 370V490Q38 510 58 510H147Q166 510 166 491ZM166 144V21Q166 0 147 0H58Q38 0 38 22V143Q38 163 58 163H147Q166 163 166 144Z" />
<glyph unicode=";" glyph-name="semicolon" horiz-adv-x="204" d="M166 144V66Q166 39 143 4L74 -97Q67 -107 55 -107Q38 -107 38 -87V143Q38 163 58 163H147Q166 163 166 144ZM166 491V368Q166 347 147 347H58Q38 347 38 370V490Q38 510 58 510H147Q166 510 166 491Z" />
<glyph unicode="&lt;" glyph-name="less" horiz-adv-x="563" d="M494 501V435Q494 411 475 406L174 327L475 248Q494 244 494 219V154Q494 132 470 139L96 260Q69 269 69 300V354Q69 385 96 394L470 515Q494 524 494 501Z" />
<glyph unicode="=" glyph-name="equal" horiz-adv-x="567" d="M94 471H473Q486 471 491 466T496 447V393Q496 380 491 375T473 369H94Q81 369 76 374T71 393V447Q71 460 76 465T94 471ZM94 274H473Q486 274 491 269T496 250V196Q496 183 491 178T473 172H94Q81
172 76 177T71 196V250Q71 263 76 268T94 274Z" />
<glyph unicode="&gt;" glyph-name="greater" horiz-adv-x="567" d="M71 435V501Q71 524 95 515L469 394Q496 385 496 354V300Q496 269 469 260L95 139Q71 132 71 154V219Q71 244 90 248L391 327L90 406Q71 411 71 435Z" />
<glyph unicode="?" glyph-name="question" horiz-adv-x="466" d="M289 144V21Q289 0 270 0H181Q161 0 161 22V143Q161 163 181 163H270Q289 163 289 144ZM288 275V249Q288 228 267 228H188Q167 228 167 249V276Q167 309 178 329T215 371L271 417Q303 442 303 472V478Q303
509 289 522T241 536H223Q192 536 179 523T165 478V457Q165 435 144 435H59Q38 435 38 457V480Q38 558 81 600T203 642H262Q341 642 384 600T427 480V466Q427 417 382 378L314 323Q288 299 288 275Z" />
<glyph unicode="@" glyph-name="at" horiz-adv-x="746" d="M561 157Q625 159 625 224V414Q625 471 587 501T491 531H302Q220 531 175 485T129 353V192Q129 108 178 61T311 14H491Q512 14 512 -7V-37Q512 -58 491 -58H312Q200 -58 129 7T57 178V361Q57 463 124
533T294 603H499Q586 603 642 552T698 421V215Q698 157 660 120T564 83H506Q479 83 460 96T440 134V138H436Q412 83 337 83Q276 83 238 122T199 238V297Q199 374 239 417T347 460H520Q542 460 542 439V169Q542 157 561 157ZM440 253V353Q440 365 428 365H368Q336
365 323 352T310 306V235Q310 204 323 191T368 177H371Q440 177 440 253Z" />
<glyph unicode="A" glyph-name="A" horiz-adv-x="557" d="M132 0H36Q18 0 24 21L182 622Q189 643 212 643H345Q370 643 375 622L533 21Q539 0 521 0H425Q414 0 410 4T404 21L376 131H181L153 21Q151 9 147 5T132 0ZM277 522L205 233H353L281 522H277Z" />
<glyph unicode="B" glyph-name="B" horiz-adv-x="555" d="M203 106H315Q348 106 362 119T377 164V222Q377 253 362 266T313 279H203Q192 279 192 268V117Q192 106 203 106ZM203 382H305Q337 382 352 395T367 440V479Q367 510 353 523T306 537H203Q192 537 192
526V393Q192 382 203 382ZM65 21V622Q65 643 86 643H326Q405 643 448 601T491 481V440Q491 355 412 330Q452 324 476 298T500 222V162Q500 84 457 42T336 0H86Q65 0 65 21Z" />
<glyph unicode="C" glyph-name="C" horiz-adv-x="538" d="M329 0H220Q141 0 98 42T55 163V480Q55 559 98 601T220 643H329Q407 643 450 601T494 480V433Q494 411 472 411H388Q367 411 367 433V474Q367 506 354 519T308 533H240Q209 533 196 520T182 474V169Q182
137 195 124T240 110H308Q340 110 353 123T367 169V210Q367 232 388 232H472Q494 232 494 210V163Q494 85 451 43T329 0Z" />
<glyph unicode="D" glyph-name="D" horiz-adv-x="553" d="M203 110H312Q344 110 357 123T371 169V474Q371 506 358 519T312 533H203Q192 533 192 522V121Q192 110 203 110ZM65 21V622Q65 643 86 643H333Q411 643 454 601T498 480V163Q498 85 455 43T333 0H86Q65 0 65 21Z" />
<glyph unicode="E" glyph-name="E" horiz-adv-x="479" d="M413 0H86Q65 0 65 21V622Q65 643 86 643H413Q433 643 433 622V554Q433 533 413 533H204Q192 533 192 522V392Q192 381 204 381H375Q396 381 396 360V292Q396 271 375 271H204Q192 271 192 260V121Q192
110 204 110H413Q433 110 433 89V21Q433 0 413 0Z" />
<glyph unicode="F" glyph-name="F" horiz-adv-x="450" d="M171 0H86Q65 0 65 21V622Q65 643 86 643H405Q425 643 425 622V554Q425 533 405 533H204Q192 533 192 522V367Q192 355 204 355H375Q396 355 396 334V267Q396 245 375 245H204Q192 245 192 234V21Q192 0 171 0Z" />
<glyph unicode="G" glyph-name="G" horiz-adv-x="545" d="M326 0H220Q141 0 98 42T55 163V480Q55 559 98 601T220 643H326Q404 643 447 601T490 480V450Q490 428 469 428H384Q363 428 363 450V474Q363 506 350 519T305 533H240Q209 533 196 520T182 474V169Q182
137 195 124T240 110H305Q337 110 350 123T363 169V232Q363 243 352 243H292Q271 243 271 264V332Q271 353 292 353H467Q490 353 490 330V163Q490 85 447 43T326 0Z" />
<glyph unicode="H" glyph-name="H" horiz-adv-x="576" d="M171 0H86Q65 0 65 21V622Q65 643 86 643H171Q192 643 192 622V387Q192 376 204 376H373Q384 376 384 387V622Q384 643 405 643H490Q511 643 511 622V21Q511 0 490 0H405Q384 0 384 21V255Q384 266 373
266H204Q192 266 192 255V21Q192 0 171 0Z" />
<glyph unicode="I" glyph-name="I" horiz-adv-x="267" d="M197 622V21Q197 0 176 0H91Q70 0 70 21V622Q70 643 91 643H176Q197 643 197 622Z" />
<glyph unicode="J" glyph-name="J" horiz-adv-x="521" d="M356 643H440Q461 643 461 623V163Q461 85 418 43T297 0H197Q118 0 75 42T32 163V257Q32 278 53 278H138Q159 278 159 257V169Q159 137 172 124T217 110H276Q308 110 321 123T334 169V622Q334 643 356 643Z" />
<glyph unicode="K" glyph-name="K" horiz-adv-x="558" d="M171 0H86Q65 0 65 21V622Q65 643 86 643H171Q192 643 192 622V337H194Q202 361 225 399L377 622Q390 643 416 643H514Q525 643 527 637T522 620L332 357L544 25Q551 13 547 7T528 0H455Q420 0 408 21L255
266L192 192V21Q192 0 171 0Z" />
<glyph unicode="L" glyph-name="L" horiz-adv-x="449" d="M415 0H86Q65 0 65 21V622Q65 643 86 643H171Q192 643 192 622V122Q192 111 204 111H415Q435 111 435 89V21Q435 0 415 0Z" />
<glyph unicode="M" glyph-name="M" horiz-adv-x="726" d="M492 643H640Q661 643 661 622V21Q661 0 640 0H558Q537 0 537 21V495H533L431 160Q425 140 406 140H322Q303 140 297 160L193 496H189V21Q189 9 185 5T168 0H86Q65 0 65 21V622Q65 643 86 643H235Q249
643 254 629L360 276H366L473 629Q476 643 492 643Z" />
<glyph unicode="N" glyph-name="N" horiz-adv-x="585" d="M169 0H86Q65 0 65 21V622Q65 643 86 643H161Q182 643 189 629L391 250H395V622Q395 643 416 643H499Q520 643 520 622V21Q520 0 499 0H426Q404 0 394 20L194 392H190V21Q190 0 169 0Z" />
<glyph unicode="O" glyph-name="O" horiz-adv-x="552" d="M240 110H311Q343 110 356 123T370 169V474Q370 506 357 519T311 533H240Q208 533 195 520T182 474V169Q182 137 195 124T240 110ZM332 0H220Q141 0 98 42T55 163V480Q55 559 98 601T220 643H332Q411 643
454 601T497 480V163Q497 84 454 42T332 0Z" />
<glyph unicode="P" glyph-name="P" horiz-adv-x="530" d="M171 0H86Q65 0 65 21V622Q65 643 86 643H330Q408 643 451 601T494 480V384Q494 306 451 264T330 221H204Q192 221 192 210V21Q192 0 171 0ZM203 332H309Q341 332 354 345T367 390V474Q367 506 354 519T309
533H203Q192 533 192 522V343Q192 332 203 332Z" />
<glyph unicode="Q" glyph-name="Q" horiz-adv-x="569" d="M249 110H320Q352 110 365 123T379 169V474Q379 506 366 519T320 533H249Q217 533 204 520T191 474V169Q191 137 204 124T249 110ZM432 -133H359Q332 -133 320 -112L255 0H228Q149 0 106 42T63 163V480Q63
559 106 601T228 643H340Q419 643 462 601T505 480V163Q505 97 474 56T384 4L448 -107Q453 -119 448 -126T432 -133Z" />
<glyph unicode="R" glyph-name="R" horiz-adv-x="547" d="M171 0H86Q65 0 65 21V622Q65 643 86 643H324Q402 643 446 600T490 479V401Q490 288 401 251V247L508 24Q517 0 491 0H410Q392 0 384 4T371 21L271 237H204Q192 237 192 226V21Q192 0 171 0ZM203 339H301Q333
339 348 352T363 396V474Q363 505 348 519T301 533H203Q192 533 192 522V350Q192 339 203 339Z" />
<glyph unicode="S" glyph-name="S" horiz-adv-x="539" d="M49 164V184Q49 205 70 205H155Q176 205 176 184V176Q176 138 191 124T246 110H293Q332 110 347 125T363 181V193Q363 222 340 237T281 256T206 267T130 289T72 342T48 444V479Q48 557 92 600T214 643H314Q393
643 437 600T481 479V460Q481 439 460 439H375Q354 439 354 460V466Q354 505 339 519T284 533H245Q204 533 190 518T175 457V438Q175 391 257 384Q342 377 408 350Q443 335 466 297T490 198V164Q490 86 446 43T324 0H215Q137 0 93 43T49 164Z" />
<glyph unicode="T" glyph-name="T" horiz-adv-x="443" d="M264 0H180Q158 0 158 21V522Q158 533 147 533H33Q12 533 12 554V622Q12 643 33 643H411Q432 643 432 622V554Q432 533 411 533H297Q285 533 285 522V21Q285 0 264 0Z" />
<glyph unicode="U" glyph-name="U" horiz-adv-x="560" d="M394 643H478Q500 643 500 623V163Q500 85 457 43T335 0H225Q146 0 103 42T60 163V622Q60 643 81 643H166Q187 643 187 622V169Q187 137 200 124T245 110H314Q346 110 359 123T373 169V622Q373 643 394 643Z" />
<glyph unicode="V" glyph-name="V" horiz-adv-x="521" d="M327 0H196Q175 0 171 21L16 620Q9 643 36 643H130Q150 643 154 622L259 130H263L368 622Q372 643 392 643H486Q511 643 506 620L351 21Q346 0 327 0Z" />
<glyph unicode="W" glyph-name="W" horiz-adv-x="807" d="M287 0H147Q125 0 122 21L15 622Q12 643 36 643H140Q163 643 164 622L222 129H229L325 625Q328 643 346 643H458Q477 643 480 626L578 129H586L643 621Q644 643 667 643H771Q795 643 792 621L684 21Q681
0 661 0H520Q499 0 496 21L406 490H402L311 21Q307 0 287 0Z" />
<glyph unicode="X" glyph-name="X" horiz-adv-x="540" d="M138 0H39Q29 0 25 6T25 22L180 329L30 621Q26 629 30 636T44 643H140Q165 643 173 622L268 407H272L366 622Q376 643 398 643H496Q506 643 510 636T511 620L359 329L514 23Q519 13 515 7T500 0H400Q379
0 371 20L272 236H268L168 20Q159 0 138 0Z" />
<glyph unicode="Y" glyph-name="Y" horiz-adv-x="517" d="M301 0H216Q195 0 195 21V235L12 621Q8 630 12 636T26 643H132Q148 643 156 622L256 379H263L361 622Q368 643 385 643H491Q501 643 505 637T505 621L322 235V21Q322 0 301 0Z" />
<glyph unicode="Z" glyph-name="Z" horiz-adv-x="521" d="M48 21V81Q48 114 61 130L326 521V525H87Q66 525 66 546V622Q66 643 87 643H442Q462 643 462 622V536Q462 506 447 484L198 122V118H452Q472 118 472 99V23Q472 0 452 0H69Q48 0 48 21Z" />
<glyph unicode="[" glyph-name="bracketleft" horiz-adv-x="323" d="M241 -98H97Q77 -98 77 -76V622Q77 643 97 643H241Q261 643 261 622V579Q261 558 241 558H191Q179 558 179 546V-1Q179 -13 191 -13H241Q261 -13 261 -34V-77Q261 -98 241 -98Z" />
<glyph unicode="\" glyph-name="backslash" horiz-adv-x="409" d="M46 643H124Q142 643 151 622Q183 539 265 321T379 21Q387 0 363 0H286Q267 0 259 21L31 622Q23 643 46 643Z" />
<glyph unicode="]" glyph-name="bracketright" horiz-adv-x="323" d="M60 -77V-34Q60 -13 81 -13H131Q142 -13 142 -1V546Q142 558 131 558H81Q60 558 60 579V622Q60 643 81 643H224Q244 643 244 622V-76Q244 -98 224 -98H81Q60 -98 60 -77Z" />
<glyph unicode="^" glyph-name="asciicircum" horiz-adv-x="511" d="M138 362H61Q35 362 46 383L166 612Q175 630 184 636T210 643H300Q317 643 326 637T344 612L464 383Q475 362 449 362H372Q355 362 345 382L255 561L165 382Q155 362 138 362Z" />
<glyph unicode="_" glyph-name="underscore" horiz-adv-x="372" d="M351 -112H21Q0 -112 0 -90V-64Q0 -43 21 -43H351Q372 -43 372 -64V-90Q372 -112 351 -112Z" />
<glyph unicode="`" glyph-name="grave" horiz-adv-x="298" d="M231 574H166Q150 574 139 587L58 683Q51 691 54 697T68 703H167Q186 703 197 684L241 595Q252 574 231 574Z" />
<glyph unicode="a" glyph-name="a" horiz-adv-x="518" d="M234 0H210Q131 0 88 42T45 163V347Q45 426 88 468T210 510H441Q463 510 463 489V21Q463 0 441 0H357Q336 0 336 21V54H332Q321 27 293 14T234 0ZM336 186V389Q336 400 324 400H230Q198 400 185 387T172
341V169Q172 137 185 124T230 110H267Q336 110 336 186Z" />
<glyph unicode="b" glyph-name="b" horiz-adv-x="526" d="M193 110H295Q327 110 340 123T354 169V343Q354 375 341 388T295 402H251Q182 402 182 326V121Q182 110 193 110ZM55 21V682Q55 703 76 703H161Q182 703 182 682V457H186Q197 484 225 498T284 512H316Q395
512 438 470T481 349V163Q481 84 438 42T316 0H76Q55 0 55 21Z" />
<glyph unicode="c" glyph-name="c" horiz-adv-x="411" d="M380 89V20Q380 9 376 5T359 0H210Q131 0 88 42T45 163V347Q45 426 88 468T210 510H359Q380 510 380 489V420Q380 409 376 405T359 400H230Q199 400 186 387T172 341V169Q172 137 185 124T230 110H359Q380
110 380 89Z" />
<glyph unicode="d" glyph-name="d" horiz-adv-x="526" d="M242 0H201Q124 0 85 42T45 163V347Q45 426 84 468T201 510H242Q273 510 301 497T340 456H344V682Q344 703 365 703H450Q471 703 471 682V21Q471 0 450 0H365Q344 0 344 21V54H340Q329 27 301 14T242 0ZM344
186V324Q344 400 275 400H230Q198 400 185 387T172 341V169Q172 137 185 124T230 110H275Q344 110 344 186Z" />
<glyph unicode="e" glyph-name="e" horiz-adv-x="494" d="M431 0H210Q131 0 88 42T45 163V347Q45 426 88 468T210 510H289Q368 510 411 468T454 347V220Q454 199 433 199H182Q170 199 170 188V166Q170 135 183 122T229 108H431Q452 108 452 86V20Q452 9 448 5T431
0ZM182 284H318Q329 284 329 295V343Q329 375 316 388T271 401H229Q197 401 184 388T171 343V295Q171 284 182 284Z" />
<glyph unicode="f" glyph-name="f" horiz-adv-x="354" d="M240 510H320Q332 510 336 506T341 490V421Q341 400 320 400H240Q229 400 229 389V21Q229 0 207 0H123Q102 0 102 21V389Q102 400 90 400H44Q23 400 23 421V490Q23 502 27 506T44 510H90Q102 510 102 521V540Q102
619 143 661T264 703H321Q333 703 337 699T341 683V614Q341 593 321 593H284Q252 593 241 580T229 534V521Q229 510 240 510Z" />
<glyph unicode="g" glyph-name="g" horiz-adv-x="519" d="M235 23H202Q125 23 86 65T46 186V347Q46 426 89 468T211 510H442Q464 510 464 489V-4Q464 -82 421 -124T299 -166H107Q95 -166 91 -162T86 -146V-77Q86 -56 107 -56H278Q310 -56 323 -43T337 2V78H333Q322
51 294 37T235 23ZM337 209V389Q337 400 325 400H231Q199 400 186 387T173 341V192Q173 160 186 147T231 134H268Q337 134 337 209Z" />
<glyph unicode="h" glyph-name="h" horiz-adv-x="523" d="M161 0H76Q55 0 55 21V682Q55 703 76 703H161Q182 703 182 682V456H186Q208 510 284 510H316Q473 510 473 347V21Q473 0 451 0H367Q346 0 346 21V341Q346 373 333 386T287 400H251Q182 400 182 324V21Q182
0 161 0Z" />
<glyph unicode="i" glyph-name="i" horiz-adv-x="247" d="M60 596V683Q60 703 80 703H167Q187 703 187 684V596Q187 576 167 576H80Q60 576 60 596ZM60 21V489Q60 510 80 510H166Q187 510 187 489V21Q187 8 183 4T167 0H81Q60 0 60 21Z" />
<glyph unicode="j" glyph-name="j" horiz-adv-x="247" d="M60 596V683Q60 703 80 703H167Q187 703 187 684V596Q187 576 167 576H80Q60 576 60 596ZM21 -166H-46Q-67 -166 -67 -145V-77Q-67 -56 -46 -56H-18Q27 -56 43 -40T60 21V489Q60 510 81 510H166Q187 510
187 489V-2Q187 -80 143 -123T21 -166Z" />
<glyph unicode="k" glyph-name="k" horiz-adv-x="472" d="M347 510H444Q456 510 460 503T457 485L324 266V262L463 25Q469 15 464 8T446 0H360Q343 0 336 4T320 21L193 244Q184 260 193 277L313 490Q324 510 347 510ZM161 0H76Q55 0 55 21V682Q55 703 76 703H161Q182
703 182 682V21Q182 0 161 0Z" />
<glyph unicode="l" glyph-name="l" horiz-adv-x="247" d="M166 0H81Q60 0 60 21V682Q60 703 81 703H166Q187 703 187 682V21Q187 0 166 0Z" />
<glyph unicode="m" glyph-name="m" horiz-adv-x="798" d="M161 0H76Q55 0 55 21V489Q55 510 76 510H161Q182 510 182 489V456H186Q198 480 226 495T292 510H320Q407 510 445 446Q479 510 562 510H591Q668 510 707 468T747 347V21Q747 0 726 0H641Q620 0 620 21V341Q620
373 607 386T562 400H537Q468 400 468 323V21Q468 0 446 0H362Q341 0 341 21V341Q341 373 328 386T282 400H251Q182 400 182 324V21Q182 0 161 0Z" />
<glyph unicode="n" glyph-name="n" horiz-adv-x="523" d="M161 0H76Q55 0 55 21V489Q55 510 76 510H161Q182 510 182 489V456H186Q208 510 284 510H316Q473 510 473 347V21Q473 0 451 0H367Q346 0 346 21V341Q346 373 333 386T287 400H251Q182 400 182 324V21Q182
0 161 0Z" />
<glyph unicode="o" glyph-name="o" horiz-adv-x="509" d="M299 0H210Q131 0 88 42T45 163V347Q45 426 88 468T210 510H299Q377 510 420 468T464 347V163Q464 85 421 43T299 0ZM229 109H280Q312 109 325 122T339 167V343Q339 375 326 388T280 401H229Q197 401 184
388T171 343V167Q171 135 184 122T229 109Z" />
<glyph unicode="p" glyph-name="p" horiz-adv-x="526" d="M161 -136H76Q55 -136 55 -116V489Q55 510 76 510H161Q182 510 182 489V456H186Q197 483 225 496T284 510H325Q402 510 441 468T481 347V163Q481 84 442 42T325 0H284Q253 0 225 13T186 54H182V-116Q182
-136 161 -136ZM251 110H295Q327 110 340 123T354 169V341Q354 373 341 386T295 400H251Q182 400 182 324V186Q182 110 251 110Z" />
<glyph unicode="q" glyph-name="q" horiz-adv-x="518" d="M336 187V389Q336 400 324 400H230Q198 400 185 387T172 341V169Q172 137 185 124T230 110H266Q336 110 336 187ZM233 0H210Q131 0 88 42T45 163V347Q45 426 88 468T210 510H441Q463 510 463 489V-116Q463
-136 441 -136H357Q336 -136 336 -116V55H332Q308 0 233 0Z" />
<glyph unicode="r" glyph-name="r" horiz-adv-x="349" d="M161 0H76Q55 0 55 21V489Q55 510 76 510H161Q182 510 182 489V455H186Q197 482 225 496T284 510H320Q340 510 340 489V420Q340 408 336 404T320 400H251Q182 400 182 322V21Q182 0 161 0Z" />
<glyph unicode="s" glyph-name="s" horiz-adv-x="438" d="M248 0H58Q38 0 38 21V85Q38 96 42 100T58 105H225Q274 105 274 135V140Q274 164 233 186L134 241Q83 267 59 297T35 374Q35 444 72 477T188 510H355Q375 510 375 489V424Q375 413 371 409T355 404H216Q167
404 167 379V374Q167 352 210 329L311 269Q363 241 384 212T405 134Q405 0 248 0Z" />
<glyph unicode="t" glyph-name="t" horiz-adv-x="353" d="M66 400H26Q14 400 10 404T5 420V489Q5 510 26 510H66Q77 510 77 521V616Q77 637 99 637H183Q204 637 204 616V521Q204 510 216 510H294Q315 510 315 489V420Q315 409 311 405T294 400H216Q204 400 204
389V168Q204 137 218 124T264 110H304Q325 110 325 89V20Q325 9 321 5T304 0H243Q164 0 121 42T77 162V389Q77 400 66 400Z" />
<glyph unicode="u" glyph-name="u" horiz-adv-x="523" d="M239 0H206Q129 0 90 42T50 163V489Q50 510 71 510H156Q177 510 177 489V169Q177 137 190 124T235 110H272Q341 110 341 186V489Q341 510 362 510H446Q468 510 468 489V21Q468 0 446 0H362Q341 0 341 21V54H337Q326
27 298 14T239 0Z" />
<glyph unicode="v" glyph-name="v" horiz-adv-x="468" d="M33 510H121Q141 510 145 489L231 113H238L322 489Q326 510 347 510H435Q456 510 450 489L324 22Q320 0 297 0H170Q149 0 143 22L18 489Q12 510 33 510Z" />
<glyph unicode="w" glyph-name="w" horiz-adv-x="696" d="M259 0H145Q126 0 121 21L21 489Q17 510 36 510H132Q154 510 156 489L201 147H209L280 489Q283 510 303 510H391Q412 510 416 489L485 147H493L539 489Q542 510 563 510H659Q679 510 674 489L574 21Q570
0 550 0H436Q416 0 412 21L351 359H343L283 21Q280 0 259 0Z" />
<glyph unicode="x" glyph-name="x" horiz-adv-x="462" d="M137 0H36Q10 0 22 21L148 260L22 489Q12 510 34 510H136Q160 510 167 489L230 337H234L289 489Q296 510 320 510H420Q446 510 433 489L313 260L442 21Q447 12 444 6T430 0H327Q306 0 297 21L234 174H230L167
21Q160 0 137 0Z" />
<glyph unicode="y" glyph-name="y" horiz-adv-x="471" d="M138 -169H74Q54 -169 54 -147V-80Q54 -58 74 -58H95Q158 -58 180 -41T215 27H162Q143 27 137 48L20 489Q14 510 35 510H124Q144 510 149 489L235 120H239L324 489Q328 510 349 510H433Q458 510 453 488L331
0Q309 -83 263 -126T138 -169Z" />
<glyph unicode="z" glyph-name="z" horiz-adv-x="449" d="M31 21V54Q31 88 50 112L262 397V401H61Q40 401 40 423V489Q40 510 61 510H387Q408 510 408 489V429Q408 397 392 377L196 113V109H398Q419 109 419 87V21Q419 0 398 0H52Q31 0 31 21Z" />
<glyph unicode="{" glyph-name="braceleft" horiz-adv-x="315" d="M235 643H243Q263 643 263 622V575Q263 554 243 554H240Q209 554 198 541T186 495V369Q186 328 172 305T124 270Q186 253 186 172V46Q186 14 197 1T240 -13H243Q263 -13 263 -34V-81Q263 -102
243 -102H235Q86 -102 86 61V162Q86 215 44 215Q23 215 23 237V304Q23 326 44 326Q86 326 86 379V480Q86 643 235 643Z" />
<glyph unicode="|" glyph-name="bar" horiz-adv-x="231" d="M159 622V21Q159 0 137 0H94Q73 0 73 21V622Q73 643 94 643H137Q159 643 159 622Z" />
<glyph unicode="}" glyph-name="braceright" horiz-adv-x="315" d="M201 480V379Q201 350 211 338T243 326Q263 326 263 304V237Q263 215 243 215Q221 215 211 203T201 162V61Q201 -102 51 -102H44Q23 -102 23 -81V-34Q23 -13 44 -13H47Q77 -13 88 0T100 46V172Q100
253 162 270Q100 290 100 369V495Q100 527 89 540T47 554H44Q23 554 23 575V622Q23 643 44 643H51Q201 643 201 480Z" />
<glyph unicode="~" glyph-name="asciitilde" horiz-adv-x="565" d="M346 258T278 273T180 289T120 274T84 259Q70 259 70 273V331Q70 346 76 354T108 373T174 384T279 368T380 352T445 367T481 382Q495 382 495 369V310Q495 284 467 273Q434 258 390 258Z" />
<glyph unicode="&#xa0;" glyph-name="uni00A0" horiz-adv-x="220" />
<glyph unicode="&#xa1;" glyph-name="exclamdown" horiz-adv-x="238" d="M164 480H76Q56 480 56 500V621Q56 643 76 643H164Q184 643 184 622V499Q184 480 164 480ZM90 415H147Q166 415 170 394Q170 393 172 378T176 339T180 288Q187 216 187 176V21Q187 0 166
0H71Q50 0 50 21V176Q50 266 58 329T67 394Q71 415 90 415Z" />
<glyph unicode="&#xa2;" glyph-name="cent" horiz-adv-x="430" d="M287 -94H224Q204 -94 204 -74V0H197Q125 0 85 43T45 163V347Q45 423 85 466T197 510H204V587Q204 607 224 607H287Q306 607 306 588V510H353Q366 510 378 505T391 489V420Q391 400 369 400H230Q199
400 186 387T172 341V169Q172 137 185 124T230 110H369Q391 110 391 90V21Q391 0 369 0H306V-75Q306 -94 287 -94Z" />
<glyph unicode="&#xa3;" glyph-name="sterling" horiz-adv-x="557" d="M170 103H474Q494 103 494 81V21Q494 0 474 0H44Q23 0 23 21V81Q23 103 44 103H51Q91 103 91 167V249H44Q23 249 23 271V331Q23 352 44 352H91V481Q91 559 134 601T256 643H321Q400 643 443
601T486 481V456Q486 435 464 435H380Q359 435 359 456V479Q359 511 346 524T300 537H277Q244 537 230 524T215 479V352H325Q346 352 346 331V271Q346 249 325 249H215V184Q215 151 202 129T170 107V103Z" />
<glyph unicode="&#xa5;" glyph-name="yen" horiz-adv-x="543" d="M314 0H229Q208 0 208 21V153H69Q46 153 46 176V214Q46 238 69 238H203V245L176 303H69Q46 303 46 326V364Q46 388 69 388H136L24 622Q15 643 37 643H145Q154 643 158 639Q161 635 269 366H273Q383
636 386 639T399 643H506Q528 643 519 622L408 388H473Q486 388 491 383T496 364V326Q496 303 473 303H367L340 245V238H473Q486 238 491 233T496 214V176Q496 153 473 153H335V21Q335 0 314 0Z" />
<glyph unicode="&#xa6;" glyph-name="brokenbar" horiz-adv-x="230" d="M158 622V392Q158 371 137 371H93Q72 371 72 392V622Q72 643 93 643H137Q158 643 158 622ZM158 251V21Q158 0 137 0H93Q72 0 72 21V251Q72 272 93 272H137Q158 272 158 251Z" />
<glyph unicode="&#xa7;" glyph-name="section" horiz-adv-x="490" d="M312 301Q312 336 268 349Q213 363 177 376V344Q177 306 223 293Q293 276 312 268V301ZM265 0H98Q77 0 77 21V90Q77 110 98 110H255Q302 110 302 143Q302 159 289 168T241 185L155 204Q60 225
60 335V508Q60 572 101 607T223 643H387Q407 643 407 622V553Q407 542 403 538T387 533H227Q187 533 187 502Q187 487 200 477T249 459L335 440Q430 417 430 310V137Q430 72 388 36T265 0Z" />
<glyph unicode="&#xa8;" glyph-name="dieresis" horiz-adv-x="416" d="M53 595V683Q53 703 73 703H152Q172 703 172 684V595Q172 574 152 574H73Q53 574 53 595ZM243 595V683Q243 703 263 703H342Q362 703 362 684V595Q362 574 342 574H263Q243 574 243 595Z" />
<glyph unicode="&#xa9;" glyph-name="copyright" horiz-adv-x="703" d="M490 403V375Q490 362 477 362H424Q410 362 410 375V389Q410 423 402 431T357 439H352Q317 439 309 431T300 389V256Q300 221 308 213T352 205H357Q393 205 401 213T410 256V270Q410 284
424 284H477Q490 284 490 270V241Q490 190 462 163T381 135H329Q277 135 248 162T219 241V403Q219 455 248 482T329 509H381Q433 509 461 482T490 403ZM214 74H489Q526 74 543 89T560 140V503Q560 539 543 554T489 569H214Q177 569 160 554T143 503V140Q143 104
160 89T214 74ZM189 643H515Q574 643 607 610T641 519V124Q641 66 608 33T515 0H189Q130 0 97 33T63 124V519Q63 577 96 610T189 643Z" />
<glyph unicode="&#xab;" glyph-name="guillemotleft" horiz-adv-x="454" d="M409 150V95Q409 84 403 81T388 85L239 200Q227 209 223 215T219 237V278Q219 299 239 313L388 428Q397 435 403 432T409 418V363Q409 346 389 334L287 257L389 180Q409 167 409 150ZM235
150V95Q235 84 229 81T214 85L65 200Q53 209 49 215T45 237V278Q45 299 65 313L214 428Q223 435 229 432T235 418V363Q235 346 215 334L113 257L215 180Q235 167 235 150Z" />
<glyph unicode="&#xae;" glyph-name="registered" horiz-adv-x="475" d="M249 603H219V554H249Q260 554 260 565V593Q260 603 249 603ZM174 467V625Q174 636 178 640T194 644H253Q306 644 306 598V560Q306 530 285 520L307 474Q319 449 293 449H283Q270 449 265
462L240 518H219V467Q219 456 216 453T201 449H194Q182 449 178 452T174 467ZM172 416H303Q334 416 347 429T361 474V619Q361 650 348 663T303 677H172Q140 677 127 664T114 619V474Q114 442 127 429T172 416ZM315 368H160Q115 368 89 393T62 462V631Q62 674 88
699T160 725H315Q361 725 387 700T413 631V462Q413 418 387 393T315 368Z" />
<glyph unicode="&#xaf;" glyph-name="overscore" horiz-adv-x="345" d="M271 595H74Q53 595 53 617V661Q53 682 74 682H271Q292 682 292 661V617Q292 595 271 595Z" />
<glyph unicode="&#xb0;" glyph-name="degree" horiz-adv-x="379" d="M220 510H158Q109 510 109 559V656Q109 703 158 703H220Q243 703 256 691T270 656V559Q270 536 257 523T220 510ZM196 557Q209 557 213 561T218 578V634Q218 648 214 652T196 656H182Q168 656
164 652T160 634V578Q160 565 164 561T182 557H196Z" />
<glyph unicode="&#xb1;" glyph-name="plusminus" horiz-adv-x="565" d="M336 442H472Q485 442 490 437T495 418V365Q495 352 490 347T472 341H336V272Q336 248 312 248H253Q229 248 229 272V341H93Q80 341 75 346T70 365V418Q70 431 75 436T93 442H229V510Q229
534 253 534H312Q336 534 336 510V442ZM93 209H472Q495 209 495 186V132Q495 108 472 108H93Q70 108 70 132V186Q70 209 93 209Z" />
<glyph unicode="&#xb4;" glyph-name="acute" horiz-adv-x="298" d="M132 703H231Q241 703 244 697T241 683L159 587Q148 574 131 574H68Q47 574 57 595L102 684Q112 703 132 703Z" />
<glyph unicode="&#xb6;" glyph-name="paragraph" horiz-adv-x="546" d="M257 0H197Q176 0 176 21V318Q124 318 87 349T50 443V517Q50 583 92 613T196 643H451Q472 643 472 623V21Q472 0 451 0H391Q370 0 370 21V538Q370 549 358 549H290Q278 549 278 538V21Q278 0 257 0Z" />
<glyph unicode="&#xb7;" glyph-name="middot" horiz-adv-x="207" d="M167 380V257Q167 236 148 236H59Q39 236 39 257V379Q39 399 59 399H148Q167 399 167 380Z" />
<glyph unicode="&#xb8;" glyph-name="cedilla" horiz-adv-x="266" d="M138 -37Q212 -37 212 -112V-130Q212 -200 118 -200H73Q62 -200 59 -197T55 -182V-162Q55 -151 58 -147T73 -143H106Q133 -143 142 -139T151 -120V-118Q151 -103 142 -99T106 -94H81Q63 -94
56 -75T62 -39L113 20H191L138 -33V-37Z" />
<glyph unicode="&#xbb;" glyph-name="guillemotright" horiz-adv-x="454" d="M219 363V418Q219 429 224 432T239 428L389 313Q409 299 409 278V237Q409 222 405 216T389 200L239 85Q230 78 225 81T219 95V150Q219 167 238 180L341 257L238 334Q219 346 219 363ZM45
363V418Q45 429 50 432T65 428L215 313Q235 299 235 278V237Q235 222 231 216T215 200L65 85Q56 78 51 81T45 95V150Q45 167 64 180L167 257L64 334Q45 346 45 363Z" />
<glyph unicode="&#xbf;" glyph-name="questiondown" horiz-adv-x="466" d="M177 498V621Q177 642 197 642H286Q305 642 305 620V499Q305 479 286 479H197Q177 479 177 498ZM177 367V393Q177 414 198 414H277Q298 414 298 393V366Q298 334 287 313T250 271L194
225Q162 201 162 170V164Q162 133 176 120T223 106H241Q273 106 286 119T300 164V185Q300 207 321 207H406Q427 207 427 185V162Q427 84 384 42T262 0H203Q124 0 81 42T38 162V176Q38 225 83 264L151 319Q177 344 177 367Z" />
<glyph unicode="&#xc0;" glyph-name="Agrave" horiz-adv-x="556" d="M309 707H243Q227 707 217 720L136 816Q129 824 132 830T146 836H244Q264 836 274 817L319 728Q329 707 309 707ZM132 0H36Q18 0 24 21L182 622Q189 643 212 643H345Q370 643 375 622L533 21Q539
0 521 0H425Q414 0 410 4T404 21L376 131H181L153 21Q151 9 147 5T132 0ZM277 522L205 233H353L281 522H277Z" />
<glyph unicode="&#xc1;" glyph-name="Aacute" horiz-adv-x="556" d="M307 836H406Q417 836 420 830T416 816L335 720Q324 707 309 707H243Q223 707 233 728L278 817Q288 836 307 836ZM132 0H36Q18 0 24 21L182 622Q189 643 212 643H345Q370 643 375 622L533 21Q539
0 521 0H425Q414 0 410 4T404 21L376 131H181L153 21Q151 9 147 5T132 0ZM277 522L205 233H353L281 522H277Z" />
<glyph unicode="&#xc2;" glyph-name="Acircumflex" horiz-adv-x="556" d="M389 707H329Q316 707 311 719L279 785L246 719Q242 707 229 707H170Q155 707 162 720L224 825Q232 836 246 836H311Q325 836 333 825L396 720Q403 707 389 707ZM132 0H36Q18 0 24 21L182
622Q189 643 212 643H345Q370 643 375 622L533 21Q539 0 521 0H425Q414 0 410 4T404 21L376 131H181L153 21Q151 9 147 5T132 0ZM277 522L205 233H353L281 522H277Z" />
<glyph unicode="&#xc3;" glyph-name="Atilde" horiz-adv-x="556" d="M231 702Q159 702 159 778V817Q159 824 161 826T170 828H209Q220 828 220 817V805Q220 783 223 776T233 769T245 774T272 806T327 833Q399 833 399 756V719Q399 706 389 706H349Q339 706 339
719V729Q339 751 336 758T324 765Q312 765 294 738Q268 702 231 702ZM132 0H36Q18 0 24 21L182 622Q189 643 212 643H345Q370 643 375 622L533 21Q539 0 521 0H425Q414 0 410 4T404 21L376 131H181L153 21Q151 9 147 5T132 0ZM277 522L205 233H353L281 522H277Z"
/>
<glyph unicode="&#xc4;" glyph-name="Adieresis" horiz-adv-x="556" d="M124 728V816Q124 836 143 836H223Q242 836 242 817V728Q242 707 223 707H143Q124 707 124 728ZM314 728V816Q314 836 333 836H413Q432 836 432 817V728Q432 707 413 707H333Q314 707 314
728ZM132 0H36Q18 0 24 21L182 622Q189 643 212 643H345Q370 643 375 622L533 21Q539 0 521 0H425Q414 0 410 4T404 21L376 131H181L153 21Q151 9 147 5T132 0ZM277 522L205 233H353L281 522H277Z" />
<glyph unicode="&#xc5;" glyph-name="Aring" horiz-adv-x="556" d="M306 704H249Q195 704 195 758V822Q195 874 249 874H306Q331 874 346 860T361 822V758Q361 732 346 718T306 704ZM269 750H285Q298 750 303 755T308 775V801Q308 816 304 821T286 827H270Q257
827 252 822T246 801V775Q246 761 251 756T269 750ZM132 0H36Q18 0 24 21L182 622Q189 643 212 643H345Q370 643 375 622L533 21Q539 0 521 0H425Q414 0 410 4T404 21L376 131H181L153 21Q151 9 147 5T132 0ZM277 522L205 233H353L281 522H277Z" />
<glyph unicode="&#xc6;" glyph-name="AE" horiz-adv-x="781" d="M112 0H20Q-2 0 7 22L284 622Q294 643 317 643H716Q736 643 736 622V554Q736 533 716 533H507Q495 533 495 522V392Q495 381 507 381H678Q699 381 699 360V292Q699 271 678 271H507Q495 271 495
260V121Q495 110 507 110H716Q736 110 736 89V21Q736 0 716 0H389Q368 0 368 21V132H190L139 21Q131 0 112 0ZM368 243V522H364L237 243H368Z" />
<glyph unicode="&#xc7;" glyph-name="Ccedilla" horiz-adv-x="538" d="M472 411H388Q367 411 367 433V474Q367 506 354 519T308 533H240Q209 533 196 520T182 474V169Q182 137 195 124T240 110H308Q340 110 353 123T367 169V210Q367 232 388 232H472Q494 232 494
210V163Q494 85 451 43T329 0H328L288 -41V-45Q362 -45 362 -120V-138Q362 -174 337 -191T268 -209H222Q211 -209 208 -205T204 -190V-171Q204 -159 207 -155T222 -151H256Q283 -151 292 -147T301 -129V-126Q301 -111 292 -107T256 -102H230Q212 -102 205 -83T212
-47L252 0H220Q141 0 98 42T55 163V480Q55 559 98 601T220 643H329Q407 643 450 601T494 480V433Q494 411 472 411Z" />
<glyph unicode="&#xc8;" glyph-name="Egrave" horiz-adv-x="479" d="M280 707H214Q198 707 188 720L107 816Q100 824 103 830T117 836H215Q236 836 245 817L290 728Q300 707 280 707ZM413 0H86Q65 0 65 21V622Q65 643 86 643H413Q433 643 433 622V554Q433 533
413 533H204Q192 533 192 522V392Q192 381 204 381H375Q396 381 396 360V292Q396 271 375 271H204Q192 271 192 260V121Q192 110 204 110H413Q433 110 433 89V21Q433 0 413 0Z" />
<glyph unicode="&#xc9;" glyph-name="Eacute" horiz-adv-x="479" d="M268 836H367Q378 836 381 830T377 816L296 720Q285 707 269 707H204Q184 707 194 728L238 817Q249 836 268 836ZM413 0H86Q65 0 65 21V622Q65 643 86 643H413Q433 643 433 622V554Q433 533
413 533H204Q192 533 192 522V392Q192 381 204 381H375Q396 381 396 360V292Q396 271 375 271H204Q192 271 192 260V121Q192 110 204 110H413Q433 110 433 89V21Q433 0 413 0Z" />
<glyph unicode="&#xca;" glyph-name="Ecircumflex" horiz-adv-x="479" d="M358 707H298Q285 707 281 719L248 785L216 719Q211 707 198 707H139Q124 707 131 720L194 825Q202 836 216 836H281Q295 836 303 825L365 720Q372 707 358 707ZM413 0H86Q65 0 65 21V622Q65
643 86 643H413Q433 643 433 622V554Q433 533 413 533H204Q192 533 192 522V392Q192 381 204 381H375Q396 381 396 360V292Q396 271 375 271H204Q192 271 192 260V121Q192 110 204 110H413Q433 110 433 89V21Q433 0 413 0Z" />
<glyph unicode="&#xcb;" glyph-name="Edieresis" horiz-adv-x="479" d="M95 728V816Q95 836 114 836H194Q214 836 214 817V728Q214 707 194 707H114Q95 707 95 728ZM285 728V816Q285 836 304 836H384Q404 836 404 817V728Q404 707 384 707H304Q285 707 285 728ZM413
0H86Q65 0 65 21V622Q65 643 86 643H413Q433 643 433 622V554Q433 533 413 533H204Q192 533 192 522V392Q192 381 204 381H375Q396 381 396 360V292Q396 271 375 271H204Q192 271 192 260V121Q192 110 204 110H413Q433 110 433 89V21Q433 0 413 0Z" />
<glyph unicode="&#xcc;" glyph-name="Igrave" horiz-adv-x="267" d="M166 707H101Q85 707 75 720L-6 816Q-13 824 -10 830T3 836H102Q122 836 132 817L177 728Q187 707 166 707ZM197 622V21Q197 0 176 0H91Q70 0 70 21V622Q70 643 91 643H176Q197 643 197 622Z" />
<glyph unicode="&#xcd;" glyph-name="Iacute" horiz-adv-x="267" d="M164 836H263Q274 836 277 830T273 816L192 720Q181 707 165 707H100Q80 707 90 728L134 817Q145 836 164 836ZM197 622V21Q197 0 176 0H91Q70 0 70 21V622Q70 643 91 643H176Q197 643 197 622Z" />
<glyph unicode="&#xce;" glyph-name="Icircumflex" horiz-adv-x="265" d="M242 707H182Q170 707 165 719L132 785L100 719Q95 707 82 707H24Q8 707 15 720L78 825Q86 836 100 836H165Q179 836 187 825L249 720Q256 707 242 707ZM197 622V21Q197 0 176 0H91Q70
0 70 21V622Q70 643 91 643H176Q197 643 197 622Z" />
<glyph unicode="&#xcf;" glyph-name="Idieresis" horiz-adv-x="266" d="M-21 728V816Q-21 836 -2 836H78Q98 836 98 817V728Q98 707 78 707H-2Q-21 707 -21 728ZM169 728V816Q169 836 188 836H268Q288 836 288 817V728Q288 707 268 707H188Q169 707 169 728ZM197
622V21Q197 0 176 0H91Q70 0 70 21V622Q70 643 91 643H176Q197 643 197 622Z" />
<glyph unicode="&#xd0;" glyph-name="Eth" horiz-adv-x="566" d="M217 110H326Q358 110 371 123T385 169V474Q385 506 372 519T326 533H217Q206 533 206 522V380Q206 369 217 369H293Q314 369 314 348V296Q314 275 293 275H217Q206 275 206 264V121Q206 110 217
110ZM347 0H100Q79 0 79 21V264Q79 275 68 275H42Q30 275 26 279T21 296V348Q21 369 42 369H68Q79 369 79 380V622Q79 643 100 643H347Q426 643 469 601T512 480V163Q512 84 469 42T347 0Z" />
<glyph unicode="&#xd1;" glyph-name="Ntilde" horiz-adv-x="585" d="M245 702Q174 702 174 778V817Q174 828 184 828H223Q230 828 232 826T234 817V805Q234 783 237 776T248 769T282 801Q306 833 342 833Q414 833 414 756V719Q414 706 403 706H364Q353 706 353
719V729Q353 751 350 758T339 765T308 738Q283 702 245 702ZM169 0H86Q65 0 65 21V622Q65 643 86 643H161Q182 643 189 629L391 250H395V622Q395 643 416 643H499Q520 643 520 622V21Q520 0 499 0H426Q404 0 394 20L194 392H190V21Q190 0 169 0Z" />
<glyph unicode="&#xd2;" glyph-name="Ograve" horiz-adv-x="552" d="M308 707H242Q226 707 216 720L135 816Q128 824 131 830T144 836H243Q264 836 273 817L318 728Q328 707 308 707ZM240 110H311Q343 110 356 123T370 169V474Q370 506 357 519T311 533H240Q208
533 195 520T182 474V169Q182 137 195 124T240 110ZM332 0H220Q141 0 98 42T55 163V480Q55 559 98 601T220 643H332Q411 643 454 601T497 480V163Q497 84 454 42T332 0Z" />
<glyph unicode="&#xd3;" glyph-name="Oacute" horiz-adv-x="552" d="M298 836H397Q407 836 410 830T406 816L325 720Q315 707 299 707H233Q213 707 223 728L268 817Q278 836 298 836ZM240 110H311Q343 110 356 123T370 169V474Q370 506 357 519T311 533H240Q208
533 195 520T182 474V169Q182 137 195 124T240 110ZM332 0H220Q141 0 98 42T55 163V480Q55 559 98 601T220 643H332Q411 643 454 601T497 480V163Q497 84 454 42T332 0Z" />
<glyph unicode="&#xd4;" glyph-name="Ocircumflex" horiz-adv-x="552" d="M389 707H329Q316 707 312 719L279 785L247 719Q242 707 229 707H170Q155 707 162 720L225 825Q233 836 247 836H312Q326 836 334 825L396 720Q403 707 389 707ZM240 110H311Q343 110 356
123T370 169V474Q370 506 357 519T311 533H240Q208 533 195 520T182 474V169Q182 137 195 124T240 110ZM332 0H220Q141 0 98 42T55 163V480Q55 559 98 601T220 643H332Q411 643 454 601T497 480V163Q497 84 454 42T332 0Z" />
<glyph unicode="&#xd5;" glyph-name="Otilde" horiz-adv-x="552" d="M228 702Q156 702 156 778V817Q156 828 167 828H206Q213 828 215 826T217 817V805Q217 783 220 776T231 769T265 801Q289 833 325 833Q396 833 396 756V719Q396 706 386 706H347Q336 706 336
719V729Q336 751 333 758T322 765T291 738Q266 702 228 702ZM240 110H311Q343 110 356 123T370 169V474Q370 506 357 519T311 533H240Q208 533 195 520T182 474V169Q182 137 195 124T240 110ZM332 0H220Q141 0 98 42T55 163V480Q55 559 98 601T220 643H332Q411
643 454 601T497 480V163Q497 84 454 42T332 0Z" />
<glyph unicode="&#xd6;" glyph-name="Odieresis" horiz-adv-x="552" d="M122 728V816Q122 836 141 836H221Q240 836 240 817V728Q240 707 221 707H141Q122 707 122 728ZM312 728V816Q312 836 331 836H411Q430 836 430 817V728Q430 707 411 707H331Q312 707 312
728ZM240 110H311Q343 110 356 123T370 169V474Q370 506 357 519T311 533H240Q208 533 195 520T182 474V169Q182 137 195 124T240 110ZM332 0H220Q141 0 98 42T55 163V480Q55 559 98 601T220 643H332Q411 643 454 601T497 480V163Q497 84 454 42T332 0Z" />
<glyph unicode="&#xd7;" glyph-name="multiply" horiz-adv-x="521" d="M336 322L436 221Q453 205 436 188L393 146Q377 129 360 145L260 246L159 145Q143 129 127 146L84 188Q67 205 83 221L184 322L84 421Q68 438 85 454L127 497Q144 514 160 497L260 398L359
497Q376 514 393 497L435 454Q452 438 435 421L336 322Z" />
<glyph unicode="&#xd8;" glyph-name="Oslash" horiz-adv-x="580" d="M515 480V163Q515 85 472 43T351 0H230Q167 0 125 28L108 4Q96 -12 77 -1L56 15Q39 27 51 45L79 85Q65 119 65 163V480Q65 559 108 601T230 643H351Q415 643 456 614L473 638Q486 655 504 643L525
628Q542 616 531 598L501 556Q515 523 515 480ZM192 474V243L382 510Q370 533 330 533H250Q218 533 205 520T192 474ZM388 169V397L199 132Q211 110 250 110H330Q362 110 375 123T388 169Z" />
<glyph unicode="&#xd9;" glyph-name="Ugrave" horiz-adv-x="560" d="M312 707H247Q231 707 220 720L139 816Q133 824 136 830T149 836H248Q267 836 278 817L322 728Q333 707 312 707ZM394 643H478Q500 643 500 623V163Q500 85 457 43T335 0H225Q146 0 103 42T60
163V622Q60 643 81 643H166Q187 643 187 622V169Q187 137 200 124T245 110H314Q346 110 359 123T373 169V622Q373 643 394 643Z" />
<glyph unicode="&#xda;" glyph-name="Uacute" horiz-adv-x="560" d="M309 836H408Q418 836 421 830T418 816L336 720Q326 707 310 707H245Q224 707 234 728L279 817Q288 836 309 836ZM394 643H478Q500 643 500 623V163Q500 85 457 43T335 0H225Q146 0 103 42T60
163V622Q60 643 81 643H166Q187 643 187 622V169Q187 137 200 124T245 110H314Q346 110 359 123T373 169V622Q373 643 394 643Z" />
<glyph unicode="&#xdb;" glyph-name="Ucircumflex" horiz-adv-x="560" d="M392 707H333Q320 707 315 719L282 785L250 719Q245 707 232 707H174Q158 707 165 720L228 825Q236 836 250 836H315Q329 836 337 825L400 720Q407 707 392 707ZM394 643H478Q500 643 500
623V163Q500 85 457 43T335 0H225Q146 0 103 42T60 163V622Q60 643 81 643H166Q187 643 187 622V169Q187 137 200 124T245 110H314Q346 110 359 123T373 169V622Q373 643 394 643Z" />
<glyph unicode="&#xdc;" glyph-name="Udieresis" horiz-adv-x="560" d="M126 728V816Q126 836 145 836H225Q244 836 244 817V728Q244 707 225 707H145Q126 707 126 728ZM316 728V816Q316 836 335 836H415Q434 836 434 817V728Q434 707 415 707H335Q316 707 316
728ZM394 643H478Q500 643 500 623V163Q500 85 457 43T335 0H225Q146 0 103 42T60 163V622Q60 643 81 643H166Q187 643 187 622V169Q187 137 200 124T245 110H314Q346 110 359 123T373 169V622Q373 643 394 643Z" />
<glyph unicode="&#xdd;" glyph-name="Yacute" horiz-adv-x="517" d="M284 836H383Q393 836 396 830T393 816L312 720Q301 707 285 707H220Q199 707 210 728L254 817Q265 836 284 836ZM301 0H216Q195 0 195 21V235L12 621Q8 630 12 636T26 643H132Q148 643 156
622L256 379H263L361 622Q368 643 385 643H491Q501 643 505 637T505 621L322 235V21Q322 0 301 0Z" />
<glyph unicode="&#xde;" glyph-name="Thorn" horiz-adv-x="504" d="M217 242H280Q312 242 325 255T338 300V341Q338 373 325 386T280 400H217Q206 400 206 389V253Q206 242 217 242ZM185 0H100Q79 0 79 21V622Q79 643 100 643H185Q206 643 206 622V521Q206 510
218 510H301Q379 510 422 468T466 347V294Q466 216 423 174T301 131H218Q206 131 206 120V21Q206 0 185 0Z" />
<glyph unicode="&#xdf;" glyph-name="germandbls" horiz-adv-x="543" d="M281 372H296Q329 372 344 386T359 431V479Q359 510 345 523T298 536H241Q210 536 197 523T183 479V21Q183 0 162 0H77Q56 0 56 21V480Q56 559 99 601T221 643H318Q397 643 440 600T483
478V425Q483 343 412 320Q453 314 473 282T493 203V154Q493 0 328 0H268Q256 0 252 4T247 20V85Q247 106 268 106H308Q340 106 354 119T369 164V206Q369 265 305 265H281Q269 265 265 269T261 285V351Q261 372 281 372Z" />
<glyph unicode="&#xe0;" glyph-name="agrave" horiz-adv-x="518" d="M319 574H254Q238 574 227 587L146 683Q140 691 143 697T156 703H255Q276 703 285 684L330 595Q340 574 319 574ZM234 0H210Q131 0 88 42T45 163V347Q45 426 88 468T210 510H441Q463 510 463
489V21Q463 0 441 0H357Q336 0 336 21V54H332Q321 27 293 14T234 0ZM336 186V389Q336 400 324 400H230Q198 400 185 387T172 341V169Q172 137 185 124T230 110H267Q336 110 336 186Z" />
<glyph unicode="&#xe1;" glyph-name="aacute" horiz-adv-x="518" d="M301 703H400Q410 703 413 697T409 683L328 587Q317 574 300 574H236Q216 574 226 595L271 684Q280 703 301 703ZM234 0H210Q131 0 88 42T45 163V347Q45 426 88 468T210 510H441Q463 510 463
489V21Q463 0 441 0H357Q336 0 336 21V54H332Q321 27 293 14T234 0ZM336 186V389Q336 400 324 400H230Q198 400 185 387T172 341V169Q172 137 185 124T230 110H267Q336 110 336 186Z" />
<glyph unicode="&#xe2;" glyph-name="acircumflex" horiz-adv-x="518" d="M379 574H319Q306 574 302 586L269 652L237 586Q232 574 219 574H160Q145 574 152 587L215 692Q223 703 237 703H302Q316 703 324 692L386 587Q393 574 379 574ZM234 0H210Q131 0 88 42T45
163V347Q45 426 88 468T210 510H441Q463 510 463 489V21Q463 0 441 0H357Q336 0 336 21V54H332Q321 27 293 14T234 0ZM336 186V389Q336 400 324 400H230Q198 400 185 387T172 341V169Q172 137 185 124T230 110H267Q336 110 336 186Z" />
<glyph unicode="&#xe3;" glyph-name="atilde" horiz-adv-x="518" d="M153 650V688Q153 695 155 697T164 700H203Q213 700 213 688V677Q213 656 216 649T227 641T239 646T265 678T321 704Q393 704 393 628V591Q393 578 383 578H343Q333 578 333 591V600Q333 623
330 630T319 637T307 633T288 609Q262 574 225 574Q153 574 153 650ZM234 0H210Q131 0 88 42T45 163V347Q45 426 88 468T210 510H441Q463 510 463 489V21Q463 0 441 0H357Q336 0 336 21V54H332Q321 27 293 14T234 0ZM336 186V389Q336 400 324 400H230Q198 400 185
387T172 341V169Q172 137 185 124T230 110H267Q336 110 336 186Z" />
<glyph unicode="&#xe4;" glyph-name="adieresis" horiz-adv-x="518" d="M121 595V683Q121 703 140 703H220Q239 703 239 684V595Q239 574 220 574H140Q121 574 121 595ZM311 595V683Q311 703 330 703H410Q429 703 429 684V595Q429 574 410 574H330Q311 574 311
595ZM234 0H210Q131 0 88 42T45 163V347Q45 426 88 468T210 510H441Q463 510 463 489V21Q463 0 441 0H357Q336 0 336 21V54H332Q321 27 293 14T234 0ZM336 186V389Q336 400 324 400H230Q198 400 185 387T172 341V169Q172 137 185 124T230 110H267Q336 110 336 186Z"
/>
<glyph unicode="&#xe5;" glyph-name="aring" horiz-adv-x="518" d="M336 186V389Q336 400 324 400H230Q198 400 185 387T172 341V169Q172 137 185 124T230 110H267Q336 110 336 186ZM234 0H210Q131 0 88 42T45 163V347Q45 426 88 468T210 510H441Q463 510 463
489V21Q463 0 441 0H357Q336 0 336 21V54H332Q321 27 293 14T234 0ZM234 654V624Q234 608 240 603T261 597H277Q292 597 298 602T304 624V654Q304 671 299 676T278 682H261Q246 682 240 677T234 654ZM191 607V675Q191 721 240 721H298Q348 721 348 675V607Q348
559 298 559H240Q191 559 191 607Z" />
<glyph unicode="&#xe6;" glyph-name="ae" horiz-adv-x="755" d="M450 183V169Q450 137 463 124T509 110H693Q714 110 714 89V20Q714 9 710 5T693 0H488Q404 0 363 57Q330 0 222 0H206Q129 0 85 40T41 156V167Q41 322 206 322H316Q323 322 323 330V343Q323 374
309 387T265 400H102Q82 400 82 421V489Q82 510 102 510H261Q356 510 387 455Q418 510 506 510H550Q628 510 671 468T714 347V215Q714 194 693 194H462Q450 194 450 183ZM604 291V341Q604 373 591 386T545 400H510Q478 400 464 387T450 342V291Q450 280 461 280H592Q604
280 604 291ZM324 178V221Q324 232 312 232H227Q189 232 175 219T160 173V164Q160 130 175 116T227 102H255Q293 102 308 120T324 178Z" />
<glyph unicode="&#xe7;" glyph-name="ccedilla" horiz-adv-x="411" d="M359 400H230Q199 400 186 387T172 341V169Q172 137 185 124T230 110H359Q380 110 380 89V20Q380 9 376 5T359 0H300L267 -33V-37Q341 -37 341 -112V-130Q341 -200 247 -200H202Q190 -200
187 -197T183 -182V-162Q183 -151 187 -147T202 -143H235Q262 -143 271 -139T280 -120V-118Q280 -103 271 -99T235 -94H209Q191 -94 185 -75T191 -39L224 0H210Q131 0 88 42T45 163V347Q45 426 88 468T210 510H359Q380 510 380 489V420Q380 409 376 405T359 400Z"
/>
<glyph unicode="&#xe8;" glyph-name="egrave" horiz-adv-x="494" d="M290 574H225Q209 574 199 587L117 683Q111 691 114 697T127 703H226Q246 703 256 684L301 595Q311 574 290 574ZM431 0H210Q131 0 88 42T45 163V347Q45 426 88 468T210 510H289Q368 510 411
468T454 347V220Q454 199 433 199H182Q170 199 170 188V166Q170 135 183 122T229 108H431Q452 108 452 86V20Q452 9 448 5T431 0ZM182 284H318Q329 284 329 295V343Q329 375 316 388T271 401H229Q197 401 184 388T171 343V295Q171 284 182 284Z" />
<glyph unicode="&#xe9;" glyph-name="eacute" horiz-adv-x="494" d="M282 703H380Q391 703 394 697T390 683L309 587Q298 574 281 574H217Q197 574 207 595L252 684Q262 703 282 703ZM431 0H210Q131 0 88 42T45 163V347Q45 426 88 468T210 510H289Q368 510 411
468T454 347V220Q454 199 433 199H182Q170 199 170 188V166Q170 135 183 122T229 108H431Q452 108 452 86V20Q452 9 448 5T431 0ZM182 284H318Q329 284 329 295V343Q329 375 316 388T271 401H229Q197 401 184 388T171 343V295Q171 284 182 284Z" />
<glyph unicode="&#xea;" glyph-name="ecircumflex" horiz-adv-x="494" d="M364 574H305Q292 574 287 586L255 652L222 586Q218 574 205 574H146Q131 574 138 587L200 692Q208 703 222 703H287Q301 703 309 692L372 587Q379 574 364 574ZM431 0H210Q131 0 88 42T45
163V347Q45 426 88 468T210 510H289Q368 510 411 468T454 347V220Q454 199 433 199H182Q170 199 170 188V166Q170 135 183 122T229 108H431Q452 108 452 86V20Q452 9 448 5T431 0ZM182 284H318Q329 284 329 295V343Q329 375 316 388T271 401H229Q197 401 184 388T171
343V295Q171 284 182 284Z" />
<glyph unicode="&#xeb;" glyph-name="edieresis" horiz-adv-x="494" d="M100 595V683Q100 703 120 703H199Q219 703 219 684V595Q219 574 199 574H120Q100 574 100 595ZM290 595V683Q290 703 310 703H389Q409 703 409 684V595Q409 574 389 574H310Q290 574 290
595ZM431 0H210Q131 0 88 42T45 163V347Q45 426 88 468T210 510H289Q368 510 411 468T454 347V220Q454 199 433 199H182Q170 199 170 188V166Q170 135 183 122T229 108H431Q452 108 452 86V20Q452 9 448 5T431 0ZM182 284H318Q329 284 329 295V343Q329 375 316
388T271 401H229Q197 401 184 388T171 343V295Q171 284 182 284Z" />
<glyph unicode="&#xec;" glyph-name="igrave" horiz-adv-x="247" d="M155 574H90Q74 574 64 587L-17 683Q-24 691 -21 697T-8 703H91Q112 703 121 684L166 595Q176 574 155 574ZM60 21V489Q60 510 80 510H166Q187 510 187 489V21Q187 8 183 4T167 0H81Q60 0 60 21Z" />
<glyph unicode="&#xed;" glyph-name="iacute" horiz-adv-x="247" d="M157 703H255Q266 703 269 697T265 683L184 587Q173 574 156 574H92Q72 574 82 595L127 684Q136 703 157 703ZM60 21V489Q60 510 80 510H166Q187 510 187 489V21Q187 8 183 4T167 0H81Q60 0 60 21Z" />
<glyph unicode="&#xee;" glyph-name="icircumflex" horiz-adv-x="246" d="M233 574H173Q160 574 156 586L123 652L91 586Q86 574 73 574H14Q-1 574 6 587L69 692Q77 703 91 703H156Q170 703 178 692L240 587Q247 574 233 574ZM60 21V489Q60 510 80 510H166Q187
510 187 489V21Q187 8 183 4T167 0H81Q60 0 60 21Z" />
<glyph unicode="&#xef;" glyph-name="idieresis" horiz-adv-x="246" d="M-31 595V683Q-31 703 -12 703H68Q88 703 88 684V595Q88 574 68 574H-12Q-31 574 -31 595ZM159 595V683Q159 703 178 703H258Q278 703 278 684V595Q278 574 258 574H178Q159 574 159 595ZM60
21V489Q60 510 80 510H166Q187 510 187 489V21Q187 8 183 4T167 0H81Q60 0 60 21Z" />
<glyph unicode="&#xf0;" glyph-name="eth" horiz-adv-x="507" d="M454 309V163Q454 85 411 43T290 0H210Q131 0 88 42T45 163V247Q45 326 88 368T210 410H234Q266 410 298 397T341 356H345Q336 392 311 417L226 512L146 445Q132 434 117 450L87 486Q77 501 90
512L167 577L111 640Q92 660 115 678L157 709Q176 723 194 705L248 645L330 714Q347 728 358 714L389 676Q402 657 387 645L308 579L403 474Q432 441 443 404T454 309ZM327 169V224Q327 262 316 281T267 300H239Q172 300 172 241V169Q172 137 185 124T230 110H269Q301
110 314 123T327 169Z" />
<glyph unicode="&#xf1;" glyph-name="ntilde" horiz-adv-x="523" d="M134 650V688Q134 700 145 700H184Q191 700 193 698T195 688V677Q195 655 198 648T209 641T242 672T303 704Q374 704 374 628V591Q374 578 364 578H325Q314 578 314 591V600Q314 623 311 630T300
637T269 609Q244 574 206 574Q134 574 134 650ZM161 0H76Q55 0 55 21V489Q55 510 76 510H161Q182 510 182 489V456H186Q208 510 284 510H316Q473 510 473 347V21Q473 0 451 0H367Q346 0 346 21V341Q346 373 333 386T287 400H251Q182 400 182 324V21Q182 0 161 0Z"
/>
<glyph unicode="&#xf2;" glyph-name="ograve" horiz-adv-x="509" d="M292 574H227Q211 574 200 587L119 683Q113 691 116 697T129 703H228Q248 703 258 684L302 595Q313 574 292 574ZM299 0H210Q131 0 88 42T45 163V347Q45 426 88 468T210 510H299Q377 510 420
468T464 347V163Q464 85 421 43T299 0ZM229 109H280Q312 109 325 122T339 167V343Q339 375 326 388T280 401H229Q197 401 184 388T171 343V167Q171 135 184 122T229 109Z" />
<glyph unicode="&#xf3;" glyph-name="oacute" horiz-adv-x="509" d="M285 703H384Q395 703 398 697T394 683L313 587Q300 574 285 574H221Q200 574 211 595L255 684Q266 703 285 703ZM299 0H210Q131 0 88 42T45 163V347Q45 426 88 468T210 510H299Q377 510 420
468T464 347V163Q464 85 421 43T299 0ZM229 109H280Q312 109 325 122T339 167V343Q339 375 326 388T280 401H229Q197 401 184 388T171 343V167Q171 135 184 122T229 109Z" />
<glyph unicode="&#xf4;" glyph-name="ocircumflex" horiz-adv-x="509" d="M364 574H304Q291 574 287 586L254 652L222 586Q217 574 204 574H145Q130 574 137 587L200 692Q208 703 222 703H287Q301 703 309 692L371 587Q378 574 364 574ZM299 0H210Q131 0 88 42T45
163V347Q45 426 88 468T210 510H299Q377 510 420 468T464 347V163Q464 85 421 43T299 0ZM229 109H280Q312 109 325 122T339 167V343Q339 375 326 388T280 401H229Q197 401 184 388T171 343V167Q171 135 184 122T229 109Z" />
<glyph unicode="&#xf5;" glyph-name="otilde" horiz-adv-x="509" d="M126 650V688Q126 700 137 700H176Q183 700 185 698T187 688V677Q187 655 190 648T201 641T234 672T295 704Q366 704 366 628V591Q366 578 356 578H317Q306 578 306 591V600Q306 623 303 630T292
637T261 609Q237 574 198 574Q126 574 126 650ZM299 0H210Q131 0 88 42T45 163V347Q45 426 88 468T210 510H299Q377 510 420 468T464 347V163Q464 85 421 43T299 0ZM229 109H280Q312 109 325 122T339 167V343Q339 375 326 388T280 401H229Q197 401 184 388T171
343V167Q171 135 184 122T229 109Z" />
<glyph unicode="&#xf6;" glyph-name="odieresis" horiz-adv-x="509" d="M100 595V683Q100 703 120 703H199Q219 703 219 684V595Q219 574 199 574H120Q100 574 100 595ZM290 595V683Q290 703 310 703H389Q409 703 409 684V595Q409 574 389 574H310Q290 574 290
595ZM299 0H210Q131 0 88 42T45 163V347Q45 426 88 468T210 510H299Q377 510 420 468T464 347V163Q464 85 421 43T299 0ZM229 109H280Q312 109 325 122T339 167V343Q339 375 326 388T280 401H229Q197 401 184 388T171 343V167Q171 135 184 122T229 109Z" />
<glyph unicode="&#xf7;" glyph-name="divide" horiz-adv-x="464" d="M190 160V209Q190 229 211 229H254Q276 229 276 209V160Q276 139 254 139H211Q190 139 190 160ZM373 278H92Q71 278 71 299V342Q71 363 92 363H373Q393 363 393 342V299Q393 278 373 278ZM190
432V481Q190 502 211 502H254Q276 502 276 481V432Q276 412 254 412H211Q190 412 190 432Z" />
<glyph unicode="&#xf8;" glyph-name="oslash" horiz-adv-x="520" d="M470 347V163Q470 85 427 43T305 0H216Q138 0 94 42L67 15Q49 0 37 15L22 30Q6 44 21 61L60 100Q51 127 51 163V347Q51 426 94 468T216 510H305Q384 510 427 467L454 494Q469 510 484 495L500
480Q516 464 500 449L461 410Q470 382 470 347ZM178 341V218L336 376Q325 400 284 400H236Q204 400 191 387T178 341ZM342 169V291L185 133Q196 110 236 110H284Q316 110 329 123T342 169Z" />
<glyph unicode="&#xf9;" glyph-name="ugrave" horiz-adv-x="523" d="M295 574H229Q213 574 203 587L122 683Q115 691 118 697T131 703H230Q250 703 260 684L305 595Q315 574 295 574ZM239 0H206Q129 0 90 42T50 163V489Q50 510 71 510H156Q177 510 177 489V169Q177
137 190 124T235 110H272Q341 110 341 186V489Q341 510 362 510H446Q468 510 468 489V21Q468 0 446 0H362Q341 0 341 21V54H337Q326 27 298 14T239 0Z" />
<glyph unicode="&#xfa;" glyph-name="uacute" horiz-adv-x="523" d="M285 703H384Q394 703 397 697T394 683L312 587Q301 574 284 574H221Q200 574 210 595L255 684Q264 703 285 703ZM239 0H206Q129 0 90 42T50 163V489Q50 510 71 510H156Q177 510 177 489V169Q177
137 190 124T235 110H272Q341 110 341 186V489Q341 510 362 510H446Q468 510 468 489V21Q468 0 446 0H362Q341 0 341 21V54H337Q326 27 298 14T239 0Z" />
<glyph unicode="&#xfb;" glyph-name="ucircumflex" horiz-adv-x="523" d="M369 574H309Q296 574 291 586L259 652L227 586Q222 574 209 574H150Q135 574 142 587L204 692Q212 703 227 703H291Q306 703 314 692L376 587Q383 574 369 574ZM239 0H206Q129 0 90 42T50
163V489Q50 510 71 510H156Q177 510 177 489V169Q177 137 190 124T235 110H272Q341 110 341 186V489Q341 510 362 510H446Q468 510 468 489V21Q468 0 446 0H362Q341 0 341 21V54H337Q326 27 298 14T239 0Z" />
<glyph unicode="&#xfc;" glyph-name="udieresis" horiz-adv-x="523" d="M105 595V683Q105 703 124 703H204Q223 703 223 684V595Q223 574 204 574H124Q105 574 105 595ZM295 595V683Q295 703 314 703H394Q413 703 413 684V595Q413 574 394 574H314Q295 574 295
595ZM239 0H206Q129 0 90 42T50 163V489Q50 510 71 510H156Q177 510 177 489V169Q177 137 190 124T235 110H272Q341 110 341 186V489Q341 510 362 510H446Q468 510 468 489V21Q468 0 446 0H362Q341 0 341 21V54H337Q326 27 298 14T239 0Z" />
<glyph unicode="&#xfd;" glyph-name="yacute" horiz-adv-x="472" d="M264 703H362Q373 703 376 697T372 683L291 587Q280 574 263 574H199Q179 574 189 595L234 684Q244 703 264 703ZM138 -169H74Q54 -169 54 -147V-80Q54 -58 74 -58H95Q158 -58 180 -41T215 27H162Q143
27 137 48L20 489Q14 510 35 510H124Q144 510 149 489L235 120H239L324 489Q328 510 349 510H433Q458 510 453 488L331 0Q309 -83 263 -126T138 -169Z" />
<glyph unicode="&#xfe;" glyph-name="thorn" horiz-adv-x="527" d="M252 110H296Q328 110 341 123T355 169V341Q355 373 342 386T296 400H252Q183 400 183 324V186Q183 110 252 110ZM183 54V-112Q183 -133 162 -133H77Q56 -133 56 -112V682Q56 703 77 703H162Q183
703 183 682V456H187Q198 483 226 496T285 510H317Q396 510 439 468T482 347V163Q482 84 439 42T317 0H285Q254 0 226 13T187 54H183Z" />
<glyph unicode="&#xff;" glyph-name="ydieresis" horiz-adv-x="472" d="M83 595V683Q83 703 102 703H182Q202 703 202 684V595Q202 574 182 574H102Q83 574 83 595ZM273 595V683Q273 703 292 703H372Q392 703 392 684V595Q392 574 372 574H292Q273 574 273 595ZM138
-169H74Q54 -169 54 -147V-80Q54 -58 74 -58H95Q158 -58 180 -41T215 27H162Q143 27 137 48L20 489Q14 510 35 510H124Q144 510 149 489L235 120H239L324 489Q328 510 349 510H433Q458 510 453 488L331 0Q309 -83 263 -126T138 -169Z" />
<glyph unicode="&#x2013;" glyph-name="endash" horiz-adv-x="395" d="M335 284H61Q40 284 40 306V348Q40 370 61 370H335Q355 370 355 348V306Q355 284 335 284Z" />
<glyph unicode="&#x2014;" glyph-name="emdash" horiz-adv-x="633" d="M40 306V348Q40 370 61 370H573Q593 370 593 348V306Q593 284 573 284H61Q40 284 40 306Z" />
<glyph unicode="&#x2018;" glyph-name="quoteleft" horiz-adv-x="185" d="M37 423V453Q37 488 60 532L113 633Q120 643 131 643Q149 643 149 623V424Q149 404 129 404H57Q37 404 37 423Z" />
<glyph unicode="&#x2019;" glyph-name="quoteright" horiz-adv-x="185" d="M149 624V594Q149 563 126 515L73 414Q66 404 54 404Q37 404 37 424V623Q37 643 57 643H129Q149 643 149 624Z" />
<glyph unicode="&#x201a;" glyph-name="quotesinglbase" horiz-adv-x="187" d="M150 108V78Q150 45 127 -1L74 -102Q67 -112 55 -112Q38 -112 38 -92V107Q38 127 58 127H130Q150 127 150 108Z" />
<glyph unicode="&#x201c;" glyph-name="quotedblleft" horiz-adv-x="347" d="M199 423V453Q199 488 222 532L275 633Q282 643 293 643Q311 643 311 623V424Q311 404 291 404H219Q199 404 199 423ZM37 423V453Q37 488 60 532L113 633Q120 643 131 643Q149 643 149
623V424Q149 404 129 404H57Q37 404 37 423Z" />
<glyph unicode="&#x201d;" glyph-name="quotedblright" horiz-adv-x="347" d="M149 624V594Q149 563 126 515L73 414Q66 404 54 404Q37 404 37 424V623Q37 643 57 643H129Q149 643 149 624ZM311 624V594Q311 563 288 515L235 414Q228 404 216 404Q199 404 199
424V623Q199 643 219 643H291Q311 643 311 624Z" />
<glyph unicode="&#x201e;" glyph-name="quotedblbase" horiz-adv-x="349" d="M150 107V77Q150 46 127 -2L74 -103Q67 -113 55 -113Q38 -113 38 -93V106Q38 126 58 126H130Q150 126 150 107ZM312 107V77Q312 46 289 -2L236 -103Q229 -113 217 -113Q200 -113 200
-93V106Q200 126 220 126H292Q312 126 312 107Z" />
<glyph unicode="&#x2022;" glyph-name="bullet" horiz-adv-x="294" d="M235 351V290Q235 256 216 238T163 220H130Q95 220 77 238T58 290V351Q58 384 77 402T130 421H163Q197 421 216 403T235 351Z" />
<glyph unicode="&#x2039;" glyph-name="guilsinglleft" horiz-adv-x="280" d="M235 158V95Q235 84 229 81T214 85L65 200Q53 209 49 215T45 237V278Q45 299 65 313L214 428Q223 435 229 432T235 418V355Q235 338 215 325L124 257L215 188Q235 175 235 158Z" />
<glyph unicode="&#x203a;" glyph-name="guilsinglright" horiz-adv-x="280" d="M45 355V418Q45 429 50 432T65 428L215 313Q235 299 235 278V237Q235 222 231 216T215 200L65 85Q56 78 51 81T45 95V158Q45 175 64 188L156 257L64 325Q45 338 45 355Z" />
</font>
</defs>
</svg>
