<?xml version="1.0" standalone="no"?>
<!DOCTYPE svg PUBLIC "-//W3C//DTD SVG 1.1//EN" "http://www.w3.org/Graphics/SVG/1.1/DTD/svg11.dtd">
<svg xmlns="http://www.w3.org/2000/svg">
<defs >
<font id="Sintony" horiz-adv-x="554" ><font-face
    font-family="Sintony"
    units-per-em="1000"
    panose-1="2 0 5 3 5 0 0 2 0 4"
    ascent="995"
    descent="-308"
    alphabetic="0" />
<glyph unicode=" " glyph-name="space" horiz-adv-x="290" />
<glyph unicode="!" glyph-name="exclam" horiz-adv-x="312" d="M205 12T192 2T156 -8T120 2T105 23T102 50T103 75T110 94Q118 115 154 115T200 99T210 59T208 24ZM107 730H203V566L181 191H129L107 566V730Z" />
<glyph unicode="&quot;" glyph-name="quotedbl" horiz-adv-x="404" d="M240 730H332V676L312 485H260L240 676V730ZM72 730H164V676L144 485H92L72 676V730Z" />
<glyph unicode="#" glyph-name="numbersign" horiz-adv-x="800" d="M432 -76L477 174H254L209 -76H122L167 174H56L68 244H180L224 485H111L123 555H236L282 805H369L323 555H546L592 805H679L633 555H744L732 485H621L577 244H689L677 174H564L519 -76H432ZM311
485L267 244H490L534 485H311Z" />
<glyph unicode="$" glyph-name="dollar" horiz-adv-x="630" d="M173 348T132 395T90 533T134 677T286 735V843H347V735Q453 728 499 677T546 530L470 525Q470 597 436 631T320 665T207 631T176 528Q176 423 272 410L369 397Q468 383 512 335T557 200Q557 5 347
-6V-113H286V-6Q174 0 127 52T79 201L155 206Q155 134 192 99T316 64T438 97T472 200Q472 298 363 318L266 333Q173 348 132 395Z" />
<glyph unicode="%" glyph-name="percent" horiz-adv-x="980" d="M341 -66L555 735H616L401 -66H341ZM828 8Q798 -8 746 -8T659 21T613 94T601 202T612 310T659 383T746 413T828 397T875 351Q904 297 904 203Q904 48 828 8ZM710 52T753 52T811 88T827 202T812 316T753
353T694 317T678 203T694 89ZM278 334Q247 318 195 318T108 347T62 420T50 528T61 636T108 709T195 739T277 723T324 677Q353 623 353 529Q353 374 278 334ZM159 378T202 378T260 414T276 528T261 642T202 679T143 643T127 529T143 415Z" />
<glyph unicode="&amp;" glyph-name="ampersand" horiz-adv-x="634" d="M286 673Q215 673 186 639T157 543T190 441T280 401H295V339Q210 339 174 303T137 195T173 90T292 57T409 91T444 191V339H386V401H636V339H520V237Q520 171 513 130T482 52Q437 -15 290 -15Q51
-15 51 191Q51 263 89 309T191 375Q137 397 104 443T71 547Q71 744 283 744Q453 744 480 602L406 580Q392 673 286 673Z" />
<glyph unicode="&apos;" glyph-name="quotesingle" horiz-adv-x="236" d="M72 730H164V676L144 485H92L72 676V730Z" />
<glyph unicode="(" glyph-name="parenleft" horiz-adv-x="300" d="M294 4V-66Q189 -66 139 -6Q86 56 72 142Q58 226 58 308T61 435T72 527T97 611T139 676Q189 735 294 735V665Q257 665 230 646T188 598T164 522Q151 449 151 363T153 235T164 147T188 71T230 23T294 4Z" />
<glyph unicode=")" glyph-name="parenright" horiz-adv-x="300" d="M6 665V735Q111 735 161 676Q214 613 228 528Q242 443 242 361T239 234T228 142T203 58T161 -6Q111 -66 6 -66V4Q43 4 70 23T112 71T136 146Q149 220 149 306T147 434T136 522T112 598T70 646T6 665Z" />
<glyph unicode="*" glyph-name="asterisk" horiz-adv-x="553" d="M231 779H323V696L291 577H263L231 696V779ZM26 566L54 649L133 624L237 558L228 532L105 540L26 566ZM167 303L94 356L143 425L238 502L260 485L216 371L167 303ZM459 356L386 303L337 371L292
485L315 501L410 425L459 356ZM499 649L527 566L448 540L325 531L317 558L419 624L499 649Z" />
<glyph unicode="+" glyph-name="plus" horiz-adv-x="580" d="M92 284V352H256V516H324V352H488V284H324V120H256V284H92Z" />
<glyph unicode="," glyph-name="comma" horiz-adv-x="226" d="M74 -5T67 18T60 57T62 84T77 105T112 115T148 105T163 85T166 48T153 -11T117 -68Q84 -105 59 -124L33 -94Q47 -81 54 -73Q74 -50 74 -15Q74 -5 67 18Z" />
<glyph unicode="-" glyph-name="hyphen" horiz-adv-x="488" d="M68 284V352H420V284H68Z" />
<glyph unicode="." glyph-name="period" horiz-adv-x="228" d="M163 12T150 2T114 -8T78 2T63 23T60 50T61 75T68 94Q76 115 112 115T158 99T168 59T166 24Z" />
<glyph unicode="/" glyph-name="slash" horiz-adv-x="320" d="M-2 -106L235 775H322L85 -106H-2Z" />
<glyph unicode="0" glyph-name="zero" horiz-adv-x="634" d="M377 -14T316 -14T210 6T136 59T90 143T67 246T60 365T66 484T90 587T135 670T209 724T316 744T423 724T497 671T543 587T566 484T573 365T567 246T543 143T498 60T423 6ZM316 56Q413 56 450 135T488
365Q488 595 400 651Q366 673 316 673T232 651T180 586Q146 508 146 365Q146 134 232 78Q266 56 316 56Z" />
<glyph unicode="1" glyph-name="one" horiz-adv-x="634" d="M146 621V675Q255 687 316 730H381V71H533V0H142V71H293V621H146Z" />
<glyph unicode="2" glyph-name="two" horiz-adv-x="634" d="M103 646T159 695T322 744T487 692T545 548Q545 485 512 429T418 308L197 71H553V0H80V67L362 372Q412 425 435 464T459 555T424 640T317 673Q179 673 171 545L95 557Q103 646 159 695Z" />
<glyph unicode="3" glyph-name="three" horiz-adv-x="634" d="M147 174Q162 57 310 57Q386 57 428 90T470 187T434 289T320 328H229V394H321Q388 394 424 432T460 535T422 636T311 673T201 639T159 544L84 554Q91 644 148 694T314 744T485 688T546 532Q546 475
516 431T434 364Q490 344 522 298T555 183Q555 90 489 38T307 -14Q90 -14 71 165L147 174Z" />
<glyph unicode="4" glyph-name="four" horiz-adv-x="634" d="M480 0H394V163H32V233L354 730H480V234H569V163H480V0ZM394 234V648L129 234H394Z" />
<glyph unicode="5" glyph-name="five" horiz-adv-x="634" d="M327 56Q407 56 446 99T486 216T429 328T232 367H112L135 730H531V659H208L193 439H240Q410 439 491 383T573 221T510 50T333 -14T162 39T98 191L174 198Q182 56 327 56Z" />
<glyph unicode="6" glyph-name="six" horiz-adv-x="634" d="M332 673Q239 673 202 592Q171 525 167 394Q255 420 336 420Q581 420 581 219Q580 109 519 48T339 -14Q202 -14 142 77T81 339Q81 639 210 715Q260 744 330 744Q552 744 564 544L489 536Q482 673 332
673ZM495 279T456 316T333 353T167 328Q171 184 210 120T335 56Q495 56 495 219Q495 279 456 316Z" />
<glyph unicode="7" glyph-name="seven" horiz-adv-x="634" d="M81 659V730H554V664L268 0H174L460 659H81Z" />
<glyph unicode="8" glyph-name="eight" horiz-adv-x="634" d="M70 186Q70 314 191 364Q80 411 80 534Q80 626 141 685T317 744T494 685T555 534Q555 420 443 370Q565 324 565 186Q565 97 499 42T318 -14T137 41T70 186ZM221 329T189 289T156 189T197 93T316 57T437
93T480 188T453 281T363 326L284 339Q221 329 189 289ZM241 673T203 634T165 536T191 445T283 403L344 393Q406 404 438 441T470 536T433 633T318 673Z" />
<glyph unicode="9" glyph-name="nine" horiz-adv-x="634" d="M142 192Q148 56 304 56Q383 56 422 118T467 325Q384 301 309 301T184 318T108 367Q58 426 58 519T125 678T318 744T498 651T553 373Q553 198 502 98Q446 -14 298 -14Q189 -14 131 37T67 183L142 192ZM144
456T183 413T306 370T468 390Q466 542 431 607T313 673T187 629T144 521Z" />
<glyph unicode=":" glyph-name="colon" horiz-adv-x="228" d="M163 12T150 2T114 -8T78 2T63 23T60 50T61 75T68 94Q76 115 112 115T158 99T168 59T166 24ZM163 427T150 417T114 407T78 417T63 438T60 465T61 490T68 510Q76 530 112 530T158 514T168 474T166 439Z" />
<glyph unicode=";" glyph-name="semicolon" horiz-adv-x="226" d="M74 -5T67 18T60 57T62 84T77 105T112 115T148 105T163 85T166 48T153 -11T117 -68Q84 -105 59 -124L33 -94Q47 -81 54 -73Q74 -50 74 -15Q74 -5 67 18ZM162 427T149 417T113 407T77 417T62 438T59
465T60 490T66 510Q75 530 111 530T157 514T167 474T165 439Z" />
<glyph unicode="&lt;" glyph-name="less" horiz-adv-x="580" d="M89 274V360L491 529V454L155 317L491 180V105L89 274Z" />
<glyph unicode="=" glyph-name="equal" horiz-adv-x="580" d="M92 386V454H488V386H92ZM92 182V250H488V182H92Z" />
<glyph unicode="&gt;" glyph-name="greater" horiz-adv-x="580" d="M491 360V274L89 105V180L425 317L89 454V529L491 360Z" />
<glyph unicode="?" glyph-name="question" horiz-adv-x="480" d="M269 12T256 2T220 -8T184 2T169 23T166 50T167 75T174 94Q182 115 217 115T263 98T274 58T272 24ZM48 662T99 703T245 744T397 683T454 535Q454 381 258 313L247 191H192L184 343Q281 375 325
420T370 528T336 634T236 677Q129 677 110 581L36 591Q48 662 99 703Z" />
<glyph unicode="@" glyph-name="at" horiz-adv-x="1024" d="M514 -95Q344 -95 252 -41Q157 14 121 106Q86 196 86 328Q86 527 189 639T509 751T831 645T938 365Q938 125 710 125H630L607 186Q532 115 447 115Q294 115 294 340T479 565Q552 565 624 529L649 565H681V185H708Q792
185 825 230T859 354T841 490T784 591Q702 686 516 686T250 593T170 328Q170 259 178 208T208 110T268 34Q350 -30 514 -30H681V-95H514ZM473 176Q542 176 603 240V479Q549 504 494 504Q372 504 372 340T473 176Z" />
<glyph unicode="A" glyph-name="A" horiz-adv-x="628" d="M255 730H372L611 0H524L453 220H175L104 0H17L255 730ZM314 652L197 290H430L314 652Z" />
<glyph unicode="B" glyph-name="B" horiz-adv-x="613" d="M344 0H106V730H306Q529 730 529 543Q529 417 424 378Q567 347 567 195Q567 0 344 0ZM194 70H343Q413 70 446 106T479 203T446 301T343 338H194V70ZM194 409H305Q375 409 408 442T441 534T408 626T305
660H194V409Z" />
<glyph unicode="C" glyph-name="C" horiz-adv-x="638" d="M355 672Q262 672 216 620Q175 575 166 472Q162 429 162 366T166 259T182 174T216 110Q262 58 355 58Q509 58 514 222L586 218Q579 107 526 47T355 -14Q190 -14 130 88Q99 139 87 205T74 365T86 526T130
643Q190 744 355 744Q464 744 517 695T582 553L511 540Q490 672 355 672Z" />
<glyph unicode="D" glyph-name="D" horiz-adv-x="698" d="M106 730H328Q500 730 561 622Q591 570 602 509T614 374T608 248T582 149T532 69Q461 0 328 0H106V730ZM324 660H194V70H324Q422 70 470 126Q526 194 526 365T470 604Q422 660 324 660Z" />
<glyph unicode="E" glyph-name="E" horiz-adv-x="560" d="M106 730H494V660H194V406H473V336H194V70H514V0H106V730Z" />
<glyph unicode="F" glyph-name="F" horiz-adv-x="518" d="M106 730H474V660H194V406H451V336H194V0H106V730Z" />
<glyph unicode="G" glyph-name="G" horiz-adv-x="693" d="M406 308V367H597V0H549L534 87Q472 -14 345 -14Q216 -14 152 52Q96 109 80 236Q74 291 74 375T86 526T130 643Q190 744 355 744Q464 744 517 695T582 553L511 540Q490 672 355 672Q262 672 216 620Q175
573 166 472Q162 428 162 365T166 256T182 172T214 108Q259 58 342 58T469 98T519 208V308H406Z" />
<glyph unicode="H" glyph-name="H" horiz-adv-x="726" d="M532 730H620V0H532V330H194V0H106V730H194V400H532V730Z" />
<glyph unicode="I" glyph-name="I" horiz-adv-x="300" d="M106 730H194V0H106V730Z" />
<glyph unicode="J" glyph-name="J" horiz-adv-x="467" d="M376 730V183Q376 136 371 106T347 45Q312 -14 189 -14Q86 -14 50 32Q26 65 21 95Q16 133 16 189H92Q92 115 113 87T191 58T268 84T288 183V730H376Z" />
<glyph unicode="K" glyph-name="K" horiz-adv-x="598" d="M194 335V0H106V730H194V405H273L478 730H570L339 368L584 0H489L267 335H194Z" />
<glyph unicode="L" glyph-name="L" horiz-adv-x="482" d="M106 0V730H194V70H466V0H106Z" />
<glyph unicode="M" glyph-name="M" horiz-adv-x="877" d="M642 730H762L781 0H695L680 615L471 62H391L197 609L182 0H96L116 730H235L432 171L642 730Z" />
<glyph unicode="N" glyph-name="N" horiz-adv-x="744" d="M550 730H638V0H542L194 582V0H106V730H202L550 147V730Z" />
<glyph unicode="O" glyph-name="O" horiz-adv-x="721" d="M560 43T502 15T360 -14T218 14T130 96T87 215T74 355T81 485T107 589T158 672Q227 744 360 744Q528 744 591 632Q622 578 634 514T647 365T635 215T591 97ZM366 58Q418 58 458 81T520 148T550 244T559
365T550 485T520 582Q476 672 360 672Q267 672 220 613Q162 540 162 365T220 117Q267 58 366 58Z" />
<glyph unicode="P" glyph-name="P" horiz-adv-x="589" d="M321 271H194V0H106V730H321Q547 730 547 501T321 271ZM194 341H316Q459 341 459 500T316 660H194V341Z" />
<glyph unicode="Q" glyph-name="Q" horiz-adv-x="711" d="M74 365Q74 598 158 678Q225 744 355 744Q521 744 582 642Q612 590 624 525T637 365Q637 207 598 117T459 -1L618 -72L582 -139L327 -13Q182 -5 128 87T74 365ZM162 210T203 134T354 58T507 134T549 365T507
595T355 672T203 596T162 365Z" />
<glyph unicode="R" glyph-name="R" horiz-adv-x="640" d="M106 730H327Q392 730 438 711T508 659Q551 597 551 515Q551 358 425 315Q452 295 473 249L581 0H487L386 237Q370 273 346 286T279 301H194V0H106V730ZM194 371H323Q396 371 429 412T463 515T430 618T323
660H194V371Z" />
<glyph unicode="S" glyph-name="S" horiz-adv-x="598" d="M455 366T498 323T542 191T480 44T299 -14T125 35T56 176L128 189Q147 57 291 57Q454 57 454 186Q454 242 424 269T324 315L258 334Q155 362 113 405T71 538T131 686T305 744T472 695T538 554L466 541Q447
673 314 673Q159 673 159 544Q159 488 186 461T280 415L349 396Q455 366 498 323Z" />
<glyph unicode="T" glyph-name="T" horiz-adv-x="494" d="M7 660V730H487V660H291V0H203V660H7Z" />
<glyph unicode="U" glyph-name="U" horiz-adv-x="697" d="M518 730H606V241Q606 174 590 126T551 52T490 10T422 -10T348 -14T275 -10T207 9T147 51T107 126T91 241V730H179V244Q179 128 234 90Q261 72 287 66T348 60T410 66T463 90Q518 127 518 244V730Z" />
<glyph unicode="V" glyph-name="V" horiz-adv-x="612" d="M365 0H248L25 730H115L306 83L498 730H587L365 0Z" />
<glyph unicode="W" glyph-name="W" horiz-adv-x="871" d="M315 0H187L28 730H118L253 82L392 730H479L617 82L753 730H843L684 0H556L435 556L315 0Z" />
<glyph unicode="X" glyph-name="X" horiz-adv-x="629" d="M40 730H140L321 447L493 730H589L368 374L608 0H508L310 308L124 0H27L263 382L40 730Z" />
<glyph unicode="Y" glyph-name="Y" horiz-adv-x="550" d="M319 0H231V254L6 730H96L275 340L454 730H544L319 254V0Z" />
<glyph unicode="Z" glyph-name="Z" horiz-adv-x="549" d="M511 730V674L135 70H521V0H28V56L404 660H47L48 730H511Z" />
<glyph unicode="[" glyph-name="bracketleft" horiz-adv-x="295" d="M78 -66V735H289V672H167V-3H289V-66H78Z" />
<glyph unicode="\" glyph-name="backslash" horiz-adv-x="320" d="M85 775L322 -106H235L-2 775H85Z" />
<glyph unicode="]" glyph-name="bracketright" horiz-adv-x="295" d="M217 735V-66H6V-3H128V672H6V735H217Z" />
<glyph unicode="^" glyph-name="asciicircum" horiz-adv-x="580" d="M247 618H333L482 316H407L290 561L173 316H98L247 618Z" />
<glyph unicode="_" glyph-name="underscore" horiz-adv-x="576" d="M68 -68V0H508V-68H68Z" />
<glyph unicode="`" glyph-name="grave" horiz-adv-x="310" d="M264 671L225 625L42 763L96 827L264 671Z" />
<glyph unicode="a" glyph-name="a" horiz-adv-x="586" d="M430 548Q490 505 490 386V0H433L411 89Q315 -14 200 -14Q124 -14 89 26T53 134T95 244T255 305L404 329V386Q404 460 373 488T286 516Q176 516 155 409L85 430Q101 504 152 545T290 586T430 548ZM224
52Q314 52 404 149V269L263 245Q192 232 165 205T138 138T159 75T224 52Z" />
<glyph unicode="b" glyph-name="b" horiz-adv-x="627" d="M357 -14Q263 -14 176 47L157 0H106V758L192 768V539Q278 586 357 586Q573 586 573 286T357 -14ZM341 516Q264 516 192 473V103Q261 56 333 56Q487 56 487 286Q487 349 475 398T428 481T341 516Z" />
<glyph unicode="c" glyph-name="c" horiz-adv-x="550" d="M140 286Q140 237 146 199T168 127Q201 56 293 56Q368 56 400 85T436 173L506 170Q499 81 450 34T290 -14Q133 -14 82 114Q54 184 54 267T64 399T99 494Q151 586 290 586Q401 586 450 541T505 409L436
399Q433 457 401 486T293 516Q201 516 168 445Q140 386 140 286Z" />
<glyph unicode="d" glyph-name="d" horiz-adv-x="627" d="M238 -14Q54 -14 54 286T277 586Q354 586 435 547V758L521 768V0H464L439 87Q348 -14 238 -14ZM266 56Q356 56 435 152V479Q363 518 294 518Q210 518 175 457T140 286Q140 56 266 56Z" />
<glyph unicode="e" glyph-name="e" horiz-adv-x="578" d="M297 -14Q166 -14 110 60T54 286Q54 586 293 586Q529 586 529 298V277H139Q140 159 175 108T297 56Q439 56 449 171L520 167Q501 -14 297 -14ZM438 425T405 470T294 516T182 470T141 341H443Q438 425 405 470Z" />
<glyph unicode="f" glyph-name="f" horiz-adv-x="338" d="M286 707Q208 707 208 616V572H340V513H208V0H122V513H56V572H122V616Q122 775 280 775Q339 775 386 758L364 693Q330 707 286 707Z" />
<glyph unicode="g" glyph-name="g" horiz-adv-x="572" d="M434 216T391 198T287 180T181 198L136 154Q113 132 113 104Q113 67 159 67H383Q456 67 497 29T539 -66T517 -156T454 -206Q383 -233 270 -233T96 -204T34 -105T94 8Q37 30 37 94Q37 142 79 184L127 232Q74
284 74 383Q74 463 115 520Q137 550 180 568T281 586T379 572H530V515H459Q497 463 497 383Q497 303 456 246Q434 216 391 198ZM157 524T157 383T285 242T414 383T286 524ZM115 -132T156 -148T283 -164T410 -147T451 -73Q451 -34 423 -17T356 0H156Q115 -33 115
-82Z" />
<glyph unicode="h" glyph-name="h" horiz-adv-x="654" d="M192 519Q287 586 382 586T518 542T558 406V0H472V404Q472 464 449 490T372 516Q279 516 192 449V0H106V758L192 768V519Z" />
<glyph unicode="i" glyph-name="i" horiz-adv-x="298" d="M106 572H192V0H106V572ZM149 668Q98 668 98 723T149 779Q202 779 202 724T149 668Z" />
<glyph unicode="j" glyph-name="j" horiz-adv-x="298" d="M28 -158Q106 -158 106 -67V572H192V-67Q192 -226 34 -226Q-25 -226 -71 -208L-49 -143Q-14 -158 28 -158ZM149 668Q98 668 98 723T149 779Q202 779 202 724T149 668Z" />
<glyph unicode="k" glyph-name="k" horiz-adv-x="543" d="M192 0H106V758L192 768V341H271L432 572H527L336 302L545 0H450L259 277H192V0Z" />
<glyph unicode="l" glyph-name="l" horiz-adv-x="298" d="M192 0H106V758L192 770V0Z" />
<glyph unicode="m" glyph-name="m" horiz-adv-x="986" d="M365 586Q481 586 521 507Q558 540 609 563T716 586Q890 586 890 407V0H804V402Q804 458 780 487T702 516Q613 516 538 448Q541 428 541 407V0H455V402Q455 458 431 487T352 516Q265 516 192 453V0H106V572H159L181
515Q265 586 365 586Z" />
<glyph unicode="n" glyph-name="n" horiz-adv-x="654" d="M181 512Q282 586 380 586T518 542T558 406V0H472V404Q472 464 449 490T372 516Q279 516 192 449V0H106V572H157L181 512Z" />
<glyph unicode="o" glyph-name="o" horiz-adv-x="604" d="M252 56T302 56T385 74T435 127T457 199T464 286T458 372T435 444T386 497T302 516T219 498T169 445T146 373T140 286T146 199T168 128T218 75ZM550 -14T302 -14T54 286T302 586T550 286Z" />
<glyph unicode="p" glyph-name="p" horiz-adv-x="627" d="M357 586Q573 586 573 286T349 -14Q276 -14 192 17V-222L106 -234V572H157L177 522Q264 586 357 586ZM487 385T453 450T340 516T192 465V82Q254 56 333 56Q487 56 487 286Q487 385 453 450Z" />
<glyph unicode="q" glyph-name="q" horiz-adv-x="627" d="M277 586Q375 586 452 530L469 572H521V-222L435 -234V23Q352 -14 277 -14Q54 -14 54 286T277 586ZM294 56Q368 56 435 89V473Q376 516 294 516Q140 516 140 286T294 56Z" />
<glyph unicode="r" glyph-name="r" horiz-adv-x="401" d="M192 0H106V572H157L188 470Q258 581 393 586V507Q258 502 192 393V0Z" />
<glyph unicode="s" glyph-name="s" horiz-adv-x="532" d="M403 297T441 261T480 152T426 34T266 -11T113 29T52 147L122 158Q137 57 259 57Q394 57 394 148Q394 188 370 207T282 242L225 256Q138 278 102 314T65 423T117 541T270 586T417 546T476 428L405 417Q392
518 277 518Q151 518 151 427Q151 387 174 368T255 333L313 319Q403 297 441 261Z" />
<glyph unicode="t" glyph-name="t" horiz-adv-x="345" d="M21 513V572H119V676L205 710V572H326V513H205V134Q205 89 217 71T254 52T313 60L323 2Q269 -14 232 -14T170 -2T136 34Q119 70 119 131V513H21Z" />
<glyph unicode="u" glyph-name="u" horiz-adv-x="660" d="M265 -14Q176 -14 136 30T96 164V572H182V170Q182 111 207 84T287 56Q384 56 468 155V572H554V0H497L470 85Q377 -14 265 -14Z" />
<glyph unicode="v" glyph-name="v" horiz-adv-x="532" d="M313 0H219L16 572H103L266 100L429 572H516L313 0Z" />
<glyph unicode="w" glyph-name="w" horiz-adv-x="745" d="M256 0H167L21 572H108L218 110L335 522H409L527 110L637 572H724L578 0H490L372 400L256 0Z" />
<glyph unicode="x" glyph-name="x" horiz-adv-x="505" d="M99 0H8L204 294L18 572H114L256 359L396 572H487L302 291L497 0H401L249 227L99 0Z" />
<glyph unicode="y" glyph-name="y" horiz-adv-x="543" d="M222 -245L144 -231L232 -4L16 572H105L274 109L438 572H526L222 -245Z" />
<glyph unicode="z" glyph-name="z" horiz-adv-x="520" d="M54 506V572H465V514L147 66H478V0H42V58L362 506H54Z" />
<glyph unicode="{" glyph-name="braceleft" horiz-adv-x="303" d="M174 522L182 404Q182 375 168 357T133 339V333Q153 333 167 316T182 269L174 149Q174 80 201 42T297 4V-66Q84 -66 84 137L92 258Q92 284 69 295T19 306V364Q46 364 69 375T92 412Q92 412 84
533Q84 736 297 736V666Q229 666 202 629T174 522Z" />
<glyph unicode="|" glyph-name="bar" horiz-adv-x="325" d="M114 -106V775H211V-106H114Z" />
<glyph unicode="}" glyph-name="braceright" horiz-adv-x="303" d="M129 150L121 270Q121 299 135 317T170 335V341Q150 341 136 358T121 406L129 526Q129 593 102 629T6 666V736Q219 736 219 533L211 412Q211 386 234 375T284 364V306Q257 306 234 295T211 258Q211
258 219 137Q219 -66 6 -66V4Q74 4 101 42T129 150Z" />
<glyph unicode="~" glyph-name="asciitilde" horiz-adv-x="580" d="M92 352Q126 328 169 328T289 349T408 371T488 352V284Q450 305 408 305T290 284T171 262T92 284V352Z" />
<glyph unicode="&#xa0;" glyph-name="nbspace" horiz-adv-x="290" />
<glyph unicode="&#xa1;" glyph-name="exclamdown" horiz-adv-x="312" d="M107 566T120 576T161 586T200 570T210 530T208 496T193 474T151 463T112 479T102 519T104 554ZM205 -152H108V12L130 387H183L205 12V-152Z" />
<glyph unicode="&#xa2;" glyph-name="cent" horiz-adv-x="631" d="M373 -81H313V39Q256 42 215 62T149 111T110 184Q87 254 87 365Q87 474 105 529T147 614T213 664T313 690V810H373V691Q471 686 514 631T565 483L496 479Q489 621 355 621Q306 621 271 607T218
571T189 513T176 445T173 366T176 286T189 218T216 160Q257 109 343 109T465 141T504 236L573 232Q566 144 522 95T373 39V-81Z" />
<glyph unicode="&#xa3;" glyph-name="sterling" horiz-adv-x="630" d="M68 314V375H139V530Q139 636 187 690T349 744T513 692T563 530L487 525Q487 602 455 637T352 673T254 638T227 530V375H479V314H227V194Q227 146 217 120T178 71H580V0H85V65Q139 111 139
182V314H68Z" />
<glyph unicode="&#xa4;" glyph-name="currency" horiz-adv-x="630" d="M188 534Q242 575 320 575T447 540L532 624L574 582L489 497Q525 444 525 366T488 234L574 148L532 106L445 191Q393 155 315 155T186 194L98 106L56 148L146 239Q115 290 115 365T147 490L56
582L98 624L188 534ZM192 307T220 268T317 228T416 267T448 365T419 462T322 502T223 463T192 365Z" />
<glyph unicode="&#xa5;" glyph-name="yen" horiz-adv-x="630" d="M81 387V447H196L49 730H141L315 382L490 730H581L434 447H551V387H403L359 302H551V241H358V0H272V241H81V302H271L227 387H81Z" />
<glyph unicode="&#xa6;" glyph-name="brokenbar" horiz-adv-x="325" d="M114 439V775H211V439H114ZM114 -106V230H211V-106H114Z" />
<glyph unicode="&#xa7;" glyph-name="section" horiz-adv-x="491" d="M455 204Q455 81 325 32Q383 -42 383 -110T329 -229T190 -301L172 -235Q222 -222 259 -194T296 -128T284 -67T242 -6L109 153Q36 239 36 312Q36 435 166 485Q108 561 108 628T161 746T301 818L319
751Q269 738 232 710T195 645T206 584T247 525L382 364Q455 278 455 204ZM368 187Q368 222 357 247T314 308L212 430Q123 397 123 330Q123 294 134 270T175 211L279 87Q368 119 368 187Z" />
<glyph unicode="&#xa8;" glyph-name="dieresis" horiz-adv-x="324" d="M102 686T90 677T56 667T22 676T8 696T6 723T8 750T21 770T60 780T97 765T106 728T104 696ZM314 686T302 677T268 667T234 676T220 696T218 723T220 750T233 770T272 780T309 765T318 728T316 696Z" />
<glyph unicode="&#xa9;" glyph-name="copyright" horiz-adv-x="729" d="M362 723Q309 723 287 683T264 560T285 439T363 399Q403 399 423 423T446 488L494 486Q486 352 362 352Q275 352 241 404T206 560T241 717T361 769Q482 769 493 652L444 649Q436 723 362
723ZM65 414T65 560T142 783T364 860T587 783T664 561T587 338T364 261T142 337ZM119 811T119 561T364 310T610 560T365 811Z" />
<glyph unicode="&#xaa;" glyph-name="ordfeminine" horiz-adv-x="433" d="M214 760Q282 760 321 730T361 620V350H310L289 405Q226 340 150 340Q96 340 70 369T44 447T75 526T190 569L283 584V620Q283 699 212 699T129 631L68 650Q92 760 214 760ZM121 449Q121
398 174 398T283 455V533L201 519Q154 511 138 493T121 449ZM36 228V279H372V228H36Z" />
<glyph unicode="&#xab;" glyph-name="guillemotleft" horiz-adv-x="524" d="M251 470L129 315L251 160L199 109L28 297V333L199 521L251 470ZM470 470L348 315L470 160L418 109L247 297V333L418 521L470 470Z" />
<glyph unicode="&#xac;" glyph-name="logicalnot" horiz-adv-x="580" d="M92 284V352H488V146H424V284H92Z" />
<glyph unicode="&#xae;" glyph-name="registered" horiz-adv-x="729" d="M65 414T65 560T142 783T364 860T587 783T664 561T587 338T364 261T142 337ZM119 811T119 561T364 310T610 560T365 811ZM245 762H370Q450 762 476 720Q496 688 496 643Q496 550 429 531Q443
518 453 496L513 360H451L395 490Q382 523 345 523H303V360H245V762ZM303 568H369Q438 568 438 642T369 716H303V568Z" />
<glyph unicode="&#xaf;" glyph-name="overscore" horiz-adv-x="354" d="M48 688V761H306V688H48Z" />
<glyph unicode="&#xb0;" glyph-name="degree" horiz-adv-x="421" d="M178 401T210 401T261 410T289 439T300 476T302 525T300 573T290 611T262 640T210 649T159 640T131 611T120 574T118 525T120 477T130 439T158 410ZM254 340T210 340T135 350T86 377T58 419Q42
461 42 514T47 595T69 652Q101 710 210 710Q320 710 352 652Q368 624 373 596T379 530T376 469T363 419T336 377T286 351Z" />
<glyph unicode="&#xb1;" glyph-name="plusminus" horiz-adv-x="580" d="M92 334V402H256V566H324V402H488V334H324V170H256V334H92ZM92 0V68H488V0H92Z" />
<glyph unicode="&#xb2;" glyph-name="twosuperior" horiz-adv-x="391" d="M196 754Q260 754 293 723T327 639T262 514L157 401H334V340H53V387L200 546Q251 602 251 639Q251 663 236 678T190 693Q131 693 125 637L58 644Q69 754 196 754Z" />
<glyph unicode="&#xb3;" glyph-name="threesuperior" horiz-adv-x="391" d="M119 451Q124 390 193 390T263 449Q263 479 244 498T185 517H163V564H186Q222 564 240 583T259 632Q259 694 195 694Q167 694 149 679T128 636L61 645Q68 754 197 754Q264 754 299 721T335
629T269 542Q340 518 340 445Q340 395 301 364T196 332Q63 332 53 442L119 451Z" />
<glyph unicode="&#xb4;" glyph-name="acute" horiz-adv-x="310" d="M85 625L46 671L214 827L268 763L85 625Z" />
<glyph unicode="&#xb5;" glyph-name="mu" horiz-adv-x="637" d="M200 -227H114V572H200V130Q287 56 384 56Q444 56 468 82T492 170V572H578V164Q578 73 540 30T401 -14T200 59V-227Z" />
<glyph unicode="&#xb6;" glyph-name="paragraph" horiz-adv-x="495" d="M369 0H281V281H224Q124 281 75 336T26 475T75 614T224 670H369V0Z" />
<glyph unicode="&#xb7;" glyph-name="middot" horiz-adv-x="228" d="M163 277T150 267T114 257T78 267T63 288T60 315T61 340T68 360Q76 380 112 380T158 364T168 324T166 289Z" />
<glyph unicode="&#xb8;" glyph-name="cedilla" horiz-adv-x="295" d="M44 -142H110Q110 -157 112 -165Q117 -185 146 -185T182 -175T189 -142T180 -110T145 -95L91 -85L98 -50H140Q196 -50 223 -69T251 -139T229 -216T148 -241T67 -216T44 -142Z" />
<glyph unicode="&#xb9;" glyph-name="onesuperior" horiz-adv-x="391" d="M86 669V715Q152 721 185 745H247V340H168V669H86Z" />
<glyph unicode="&#xba;" glyph-name="ordmasculine" horiz-adv-x="421" d="M42 228V279H378V228H42ZM111 479T131 441T210 402T289 440T310 550T290 660T211 699T132 660T111 550ZM389 760T389 550T211 340T32 550T210 760Z" />
<glyph unicode="&#xbb;" glyph-name="guillemotright" horiz-adv-x="524" d="M249 160L371 315L249 470L301 521L472 333V297L301 109L249 160ZM30 160L152 315L30 470L82 521L253 333V297L82 109L30 160Z" />
<glyph unicode="&#xbc;" glyph-name="onequarter" horiz-adv-x="980" d="M854 0H782V79H584V135L739 405H854V139H897V79H854V0ZM782 139V354L660 139H782ZM93 655V701Q159 707 192 731H254V326H175V655H93ZM341 -36L555 765H616L401 -36H341Z" />
<glyph unicode="&#xbd;" glyph-name="onehalf" horiz-adv-x="980" d="M333 -36L547 765H608L393 -36H333ZM754 414Q818 414 851 383T885 299T820 174L715 61H892V0H611V47L758 206Q809 262 809 299Q809 323 794 338T748 353Q689 353 683 297L616 304Q627 414 754
414ZM93 655V701Q159 707 192 731H254V326H175V655H93Z" />
<glyph unicode="&#xbe;" glyph-name="threequarters" horiz-adv-x="980" d="M854 0H782V79H584V135L739 405H854V139H897V79H854V0ZM782 139V354L660 139H782ZM126 437Q131 376 200 376T270 435Q270 465 251 484T192 503H170V550H193Q229 550 247 569T266 618Q266
680 202 680Q174 680 156 665T135 622L68 631Q75 740 204 740Q271 740 306 707T342 615T276 528Q347 504 347 431Q347 381 308 350T203 318Q70 318 60 428L126 437ZM361 -36L575 765H636L421 -36H361Z" />
<glyph unicode="&#xbf;" glyph-name="questiondown" horiz-adv-x="480" d="M221 566T234 576T270 586T306 576T321 555T324 528T323 503T316 484Q308 463 273 463T227 480T216 520T218 554ZM442 -84T391 -125T245 -166T93 -105T36 43Q36 197 232 265L243 387H298L306
235Q209 203 165 158T120 50T154 -56T254 -99Q361 -99 380 -3L454 -13Q442 -84 391 -125Z" />
<glyph unicode="&#xc0;" glyph-name="Agrave" horiz-adv-x="628" d="M255 730H372L611 0H524L453 220H175L104 0H17L255 730ZM314 652L197 290H430L314 652ZM425 829L386 783L203 921L257 985L425 829Z" />
<glyph unicode="&#xc1;" glyph-name="Aacute" horiz-adv-x="628" d="M255 730H372L611 0H524L453 220H175L104 0H17L255 730ZM314 652L197 290H430L314 652ZM246 783L207 829L375 985L429 921L246 783Z" />
<glyph unicode="&#xc2;" glyph-name="Acircumflex" horiz-adv-x="628" d="M255 730H372L611 0H524L453 220H175L104 0H17L255 730ZM314 652L197 290H430L314 652ZM200 790L164 826L298 979H335L469 826L433 790L316 886L200 790Z" />
<glyph unicode="&#xc3;" glyph-name="Atilde" horiz-adv-x="628" d="M255 730H372L611 0H524L453 220H175L104 0H17L255 730ZM314 652L197 290H430L314 652ZM481 930Q454 831 392 831Q364 831 316 849T252 867T226 857T208 823L151 841Q166 895 188 917T239 940T317
922T381 904T407 914T425 948L481 930Z" />
<glyph unicode="&#xc4;" glyph-name="Adieresis" horiz-adv-x="628" d="M255 730H372L611 0H524L453 220H175L104 0H17L255 730ZM314 652L197 290H430L314 652ZM256 844T244 835T210 825T176 834T162 854T160 881T162 908T175 928T214 938T251 923T260 886T258
854ZM468 844T456 835T422 825T388 834T374 854T372 881T374 908T387 928T426 938T463 923T472 886T470 854Z" />
<glyph unicode="&#xc5;" glyph-name="Aring" horiz-adv-x="628" d="M255 730H372L611 0H524L453 220H175L104 0H17L255 730ZM314 652L197 290H430L314 652ZM315 826Q362 826 362 883T315 940Q271 940 271 883T315 826ZM315 779Q213 779 213 883Q213 909 220 930T251
970T315 988Q419 988 419 884T315 779Z" />
<glyph unicode="&#xc6;" glyph-name="AE" horiz-adv-x="911" d="M845 730V660H545V386H824V316H545V70H865V0H457V316H249L116 0H29L340 730H845ZM457 659H394L279 386H457V659Z" />
<glyph unicode="&#xc7;" glyph-name="Ccedilla" horiz-adv-x="638" d="M355 672Q262 672 216 620Q175 575 166 472Q162 429 162 366T166 259T182 174T216 110Q262 58 355 58Q509 58 514 222L586 218Q579 107 526 47T355 -14Q190 -14 130 88Q99 139 87 205T74 365T86
526T130 643Q190 744 355 744Q464 744 517 695T582 553L511 540Q490 672 355 672ZM218 -142H284Q284 -157 286 -165Q291 -185 320 -185T356 -175T363 -142T354 -110T319 -95L265 -85L272 -50H314Q370 -50 397 -69T425 -139T403 -216T322 -241T241 -216T218 -142Z"
/>
<glyph unicode="&#xc8;" glyph-name="Egrave" horiz-adv-x="560" d="M106 730H494V660H194V406H473V336H194V70H514V0H106V730ZM399 829L360 783L177 921L231 985L399 829Z" />
<glyph unicode="&#xc9;" glyph-name="Eacute" horiz-adv-x="560" d="M106 730H494V660H194V406H473V336H194V70H514V0H106V730ZM252 783L213 829L381 985L435 921L252 783Z" />
<glyph unicode="&#xca;" glyph-name="Ecircumflex" horiz-adv-x="560" d="M106 730H494V660H194V406H473V336H194V70H514V0H106V730ZM174 790L138 826L272 979H309L443 826L407 790L290 886L174 790Z" />
<glyph unicode="&#xcb;" glyph-name="Edieresis" horiz-adv-x="560" d="M106 730H494V660H194V406H473V336H194V70H514V0H106V730ZM230 844T218 835T184 825T150 834T136 854T134 881T136 908T149 928T188 938T225 923T234 886T232 854ZM442 844T430 835T396 825T362
834T348 854T346 881T348 908T361 928T400 938T437 923T446 886T444 854Z" />
<glyph unicode="&#xcc;" glyph-name="Igrave" horiz-adv-x="300" d="M106 730H194V0H106V730ZM259 829L220 783L37 921L91 985L259 829Z" />
<glyph unicode="&#xcd;" glyph-name="Iacute" horiz-adv-x="300" d="M106 730H194V0H106V730ZM100 783L61 829L229 985L283 921L100 783Z" />
<glyph unicode="&#xce;" glyph-name="Icircumflex" horiz-adv-x="300" d="M106 730H194V0H106V730ZM34 790L-2 826L132 979H169L303 826L267 790L150 886L34 790Z" />
<glyph unicode="&#xcf;" glyph-name="Idieresis" horiz-adv-x="300" d="M106 730H194V0H106V730ZM90 844T78 835T44 825T10 834T-4 854T-6 881T-4 908T9 928T48 938T85 923T94 886T92 854ZM302 844T290 835T256 825T222 834T208 854T206 881T208 908T221 928T260
938T297 923T306 886T304 854Z" />
<glyph unicode="&#xd0;" glyph-name="Eth" horiz-adv-x="698" d="M58 330V398H106V730H328Q500 730 561 622Q591 570 602 509T614 374T608 248T582 149T532 69Q461 0 328 0H106V330H58ZM324 660H194V398H410V330H194V70H324Q422 70 470 126Q526 194 526 365T470
604Q422 660 324 660Z" />
<glyph unicode="&#xd1;" glyph-name="Ntilde" horiz-adv-x="744" d="M550 730H638V0H542L194 582V0H106V730H202L550 147V730ZM543 930Q516 831 454 831Q426 831 378 849T314 867T288 857T270 823L213 841Q228 895 250 917T301 940T379 922T443 904T469 914T487
948L543 930Z" />
<glyph unicode="&#xd2;" glyph-name="Ograve" horiz-adv-x="721" d="M560 43T502 15T360 -14T218 14T130 96T87 215T74 355T81 485T107 589T158 672Q227 744 360 744Q528 744 591 632Q622 578 634 514T647 365T635 215T591 97ZM366 58Q418 58 458 81T520 148T550
244T559 365T550 485T520 582Q476 672 360 672Q267 672 220 613Q162 540 162 365T220 117Q267 58 366 58ZM469 829L430 783L247 921L301 985L469 829Z" />
<glyph unicode="&#xd3;" glyph-name="Oacute" horiz-adv-x="721" d="M560 43T502 15T360 -14T218 14T130 96T87 215T74 355T81 485T107 589T158 672Q227 744 360 744Q528 744 591 632Q622 578 634 514T647 365T635 215T591 97ZM366 58Q418 58 458 81T520 148T550
244T559 365T550 485T520 582Q476 672 360 672Q267 672 220 613Q162 540 162 365T220 117Q267 58 366 58ZM290 783L251 829L419 985L473 921L290 783Z" />
<glyph unicode="&#xd4;" glyph-name="Ocircumflex" horiz-adv-x="721" d="M560 43T502 15T360 -14T218 14T130 96T87 215T74 355T81 485T107 589T158 672Q227 744 360 744Q528 744 591 632Q622 578 634 514T647 365T635 215T591 97ZM366 58Q418 58 458 81T520
148T550 244T559 365T550 485T520 582Q476 672 360 672Q267 672 220 613Q162 540 162 365T220 117Q267 58 366 58ZM244 790L208 826L342 979H379L513 826L477 790L360 886L244 790Z" />
<glyph unicode="&#xd5;" glyph-name="Otilde" horiz-adv-x="721" d="M560 43T502 15T360 -14T218 14T130 96T87 215T74 355T81 485T107 589T158 672Q227 744 360 744Q528 744 591 632Q622 578 634 514T647 365T635 215T591 97ZM366 58Q418 58 458 81T520 148T550
244T559 365T550 485T520 582Q476 672 360 672Q267 672 220 613Q162 540 162 365T220 117Q267 58 366 58ZM525 930Q498 831 436 831Q408 831 360 849T296 867T270 857T252 823L195 841Q210 895 232 917T283 940T361 922T425 904T451 914T469 948L525 930Z" />
<glyph unicode="&#xd6;" glyph-name="Odieresis" horiz-adv-x="721" d="M560 43T502 15T360 -14T218 14T130 96T87 215T74 355T81 485T107 589T158 672Q227 744 360 744Q528 744 591 632Q622 578 634 514T647 365T635 215T591 97ZM366 58Q418 58 458 81T520 148T550
244T559 365T550 485T520 582Q476 672 360 672Q267 672 220 613Q162 540 162 365T220 117Q267 58 366 58ZM300 844T288 835T254 825T220 834T206 854T204 881T206 908T219 928T258 938T295 923T304 886T302 854ZM512 844T500 835T466 825T432 834T418 854T416 881T418
908T431 928T470 938T507 923T516 886T514 854Z" />
<glyph unicode="&#xd7;" glyph-name="multiply" horiz-adv-x="580" d="M156 137L109 184L242 318L109 452L156 499L290 366L424 499L471 452L338 318L471 184L424 137L290 270L156 137Z" />
<glyph unicode="&#xd8;" glyph-name="Oslash" horiz-adv-x="721" d="M74 365Q74 583 158 672Q227 744 360 744Q382 744 416 740L437 827H498L474 726Q572 693 612 590Q647 500 647 365Q647 279 635 215T591 97Q527 -14 360 -14Q338 -14 302 -10L283 -94H223L245
3Q150 37 112 129T74 365ZM360 58Q476 58 520 148Q559 229 559 365Q559 590 456 649L319 61Q337 58 360 58ZM162 365Q162 138 263 80L400 668Q374 672 360 672Q267 672 220 613Q162 540 162 365Z" />
<glyph unicode="&#xd9;" glyph-name="Ugrave" horiz-adv-x="697" d="M518 730H606V241Q606 174 590 126T551 52T490 10T422 -10T348 -14T275 -10T207 9T147 51T107 126T91 241V730H179V244Q179 128 234 90Q261 72 287 66T348 60T410 66T463 90Q518 127 518 244V730ZM434
829L395 783L212 921L266 985L434 829Z" />
<glyph unicode="&#xda;" glyph-name="Uacute" horiz-adv-x="697" d="M518 730H606V241Q606 174 590 126T551 52T490 10T422 -10T348 -14T275 -10T207 9T147 51T107 126T91 241V730H179V244Q179 128 234 90Q261 72 287 66T348 60T410 66T463 90Q518 127 518 244V730ZM335
783L296 829L464 985L518 921L335 783Z" />
<glyph unicode="&#xdb;" glyph-name="Ucircumflex" horiz-adv-x="697" d="M518 730H606V241Q606 174 590 126T551 52T490 10T422 -10T348 -14T275 -10T207 9T147 51T107 126T91 241V730H179V244Q179 128 234 90Q261 72 287 66T348 60T410 66T463 90Q518 127 518
244V730ZM238 790L202 826L336 979H373L507 826L471 790L354 886L238 790Z" />
<glyph unicode="&#xdc;" glyph-name="Udieresis" horiz-adv-x="697" d="M518 730H606V241Q606 174 590 126T551 52T490 10T422 -10T348 -14T275 -10T207 9T147 51T107 126T91 241V730H179V244Q179 128 234 90Q261 72 287 66T348 60T410 66T463 90Q518 127 518
244V730ZM295 844T283 835T249 825T215 834T201 854T199 881T201 908T214 928T253 938T290 923T299 886T297 854ZM507 844T495 835T461 825T427 834T413 854T411 881T413 908T426 928T465 938T502 923T511 886T509 854Z" />
<glyph unicode="&#xdd;" glyph-name="Yacute" horiz-adv-x="550" d="M319 0H231V254L6 730H96L275 340L454 730H544L319 254V0ZM224 783L185 829L353 985L407 921L224 783Z" />
<glyph unicode="&#xde;" glyph-name="Thorn" horiz-adv-x="581" d="M318 137H194V0H106V730H194V592H318Q539 592 539 365T318 137ZM194 213H313Q367 213 399 235T441 288T451 376T422 475T313 516H194V213Z" />
<glyph unicode="&#xdf;" glyph-name="germandbls" horiz-adv-x="642" d="M538 380T577 329T616 191T570 45T430 -14T295 35T254 183H326Q326 119 348 88T425 57T505 97T530 203T503 307T408 346H297V411H361Q414 411 442 453T471 555T437 648T337 682T236 648T202
553V0H116V553Q116 647 174 700T339 753T501 701T557 557Q557 507 534 464T471 393Q538 380 577 329Z" />
<glyph unicode="&#xe0;" glyph-name="agrave" horiz-adv-x="586" d="M430 548Q490 505 490 386V0H433L411 89Q315 -14 200 -14Q124 -14 89 26T53 134T95 244T255 305L404 329V386Q404 460 373 488T286 516Q176 516 155 409L85 430Q101 504 152 545T290 586T430
548ZM224 52Q314 52 404 149V269L263 245Q192 232 165 205T138 138T159 75T224 52ZM393 671L354 625L171 763L225 827L393 671Z" />
<glyph unicode="&#xe1;" glyph-name="aacute" horiz-adv-x="586" d="M430 548Q490 505 490 386V0H433L411 89Q315 -14 200 -14Q124 -14 89 26T53 134T95 244T255 305L404 329V386Q404 460 373 488T286 516Q176 516 155 409L85 430Q101 504 152 545T290 586T430
548ZM224 52Q314 52 404 149V269L263 245Q192 232 165 205T138 138T159 75T224 52ZM260 625L221 671L389 827L443 763L260 625Z" />
<glyph unicode="&#xe2;" glyph-name="acircumflex" horiz-adv-x="586" d="M430 548Q490 505 490 386V0H433L411 89Q315 -14 200 -14Q124 -14 89 26T53 134T95 244T255 305L404 329V386Q404 460 373 488T286 516Q176 516 155 409L85 430Q101 504 152 545T290 586T430
548ZM224 52Q314 52 404 149V269L263 245Q192 232 165 205T138 138T159 75T224 52ZM168 632L132 668L266 821H303L437 668L401 632L284 728L168 632Z" />
<glyph unicode="&#xe3;" glyph-name="atilde" horiz-adv-x="586" d="M430 548Q490 505 490 386V0H433L411 89Q315 -14 200 -14Q124 -14 89 26T53 134T95 244T255 305L404 329V386Q404 460 373 488T286 516Q176 516 155 409L85 430Q101 504 152 545T290 586T430
548ZM224 52Q314 52 404 149V269L263 245Q192 232 165 205T138 138T159 75T224 52ZM449 772Q422 673 360 673Q332 673 284 691T220 709T194 699T176 665L119 683Q134 737 156 759T207 782T285 764T349 746T375 756T393 790L449 772Z" />
<glyph unicode="&#xe4;" glyph-name="adieresis" horiz-adv-x="586" d="M430 548Q490 505 490 386V0H433L411 89Q315 -14 200 -14Q124 -14 89 26T53 134T95 244T255 305L404 329V386Q404 460 373 488T286 516Q176 516 155 409L85 430Q101 504 152 545T290 586T430
548ZM224 52Q314 52 404 149V269L263 245Q192 232 165 205T138 138T159 75T224 52ZM241 686T229 677T195 667T161 676T147 696T145 723T147 750T160 770T199 780T236 765T245 728T243 696ZM453 686T441 677T407 667T373 676T359 696T357 723T359 750T372 770T411
780T448 765T457 728T455 696Z" />
<glyph unicode="&#xe5;" glyph-name="aring" horiz-adv-x="586" d="M430 548Q490 505 490 386V0H433L411 89Q315 -14 200 -14Q124 -14 89 26T53 134T95 244T255 305L404 329V386Q404 460 373 488T286 516Q176 516 155 409L85 430Q101 504 152 545T290 586T430
548ZM224 52Q314 52 404 149V269L263 245Q192 232 165 205T138 138T159 75T224 52ZM303 668Q350 668 350 725T303 782Q259 782 259 725T303 668ZM303 621Q201 621 201 725Q201 751 208 772T239 812T303 830Q407 830 407 726T303 621Z" />
<glyph unicode="&#xe6;" glyph-name="ae" horiz-adv-x="928" d="M647 -14Q484 -14 432 108Q326 -14 202 -14Q125 -14 89 26T52 134T94 245T253 308L402 334V386Q402 460 371 488T286 516T197 488T153 409L84 429Q118 586 286 586Q416 586 461 508Q521 586 643
586Q879 586 879 298V277H489Q490 159 525 108T647 56Q789 56 799 171L870 167Q851 -14 647 -14ZM224 52Q325 52 415 159Q404 223 404 269L262 243Q190 230 163 203T136 137T157 75T224 52ZM788 425T755 470T644 516T532 470T491 341H793Q788 425 755 470Z" />
<glyph unicode="&#xe7;" glyph-name="ccedilla" horiz-adv-x="550" d="M140 286Q140 237 146 199T168 127Q201 56 293 56Q368 56 400 85T436 173L506 170Q499 81 450 34T290 -14Q133 -14 82 114Q54 184 54 267T64 399T99 494Q151 586 290 586Q401 586 450 541T505
409L436 399Q433 457 401 486T293 516Q201 516 168 445Q140 386 140 286ZM173 -142H239Q239 -157 241 -165Q246 -185 275 -185T311 -175T318 -142T309 -110T274 -95L220 -85L227 -50H269Q325 -50 352 -69T380 -139T358 -216T277 -241T196 -216T173 -142Z" />
<glyph unicode="&#xe8;" glyph-name="egrave" horiz-adv-x="578" d="M297 -14Q166 -14 110 60T54 286Q54 586 293 586Q529 586 529 298V277H139Q140 159 175 108T297 56Q439 56 449 171L520 167Q501 -14 297 -14ZM438 425T405 470T294 516T182 470T141 341H443Q438
425 405 470ZM406 671L367 625L184 763L238 827L406 671Z" />
<glyph unicode="&#xe9;" glyph-name="eacute" horiz-adv-x="578" d="M297 -14Q166 -14 110 60T54 286Q54 586 293 586Q529 586 529 298V277H139Q140 159 175 108T297 56Q439 56 449 171L520 167Q501 -14 297 -14ZM438 425T405 470T294 516T182 470T141 341H443Q438
425 405 470ZM265 625L226 671L394 827L448 763L265 625Z" />
<glyph unicode="&#xea;" glyph-name="ecircumflex" horiz-adv-x="578" d="M297 -14Q166 -14 110 60T54 286Q54 586 293 586Q529 586 529 298V277H139Q140 159 175 108T297 56Q439 56 449 171L520 167Q501 -14 297 -14ZM438 425T405 470T294 516T182 470T141 341H443Q438
425 405 470ZM181 632L145 668L279 821H316L450 668L414 632L297 728L181 632Z" />
<glyph unicode="&#xeb;" glyph-name="edieresis" horiz-adv-x="570" d="M289 -14Q158 -14 102 60T46 286Q46 586 285 586Q521 586 521 298V277H131Q132 159 167 108T289 56Q431 56 441 171L512 167Q493 -14 289 -14ZM430 425T397 470T286 516T174 470T133 341H435Q430
425 397 470ZM229 686T217 677T183 667T149 676T135 696T133 723T135 750T148 770T187 780T224 765T233 728T231 696ZM441 686T429 677T395 667T361 676T347 696T345 723T347 750T360 770T399 780T436 765T445 728T443 696Z" />
<glyph unicode="&#xec;" glyph-name="igrave" horiz-adv-x="298" d="M106 572H192V0H106V572ZM248 671L209 625L26 763L80 827L248 671Z" />
<glyph unicode="&#xed;" glyph-name="iacute" horiz-adv-x="298" d="M106 572H192V0H106V572ZM94 625L55 671L223 827L277 763L94 625Z" />
<glyph unicode="&#xee;" glyph-name="icircumflex" horiz-adv-x="298" d="M106 572H192V0H106V572ZM23 632L-13 668L121 821H158L292 668L256 632L139 728L23 632Z" />
<glyph unicode="&#xef;" glyph-name="idieresis" horiz-adv-x="298" d="M106 572H192V0H106V572ZM89 686T77 677T43 667T9 676T-5 696T-7 723T-5 750T8 770T47 780T84 765T93 728T91 696ZM301 686T289 677T255 667T221 676T207 696T205 723T207 750T220 770T259
780T296 765T305 728T303 696Z" />
<glyph unicode="&#xf0;" glyph-name="eth" horiz-adv-x="604" d="M550 267V246Q550 52 404 2Q360 -14 302 -14T200 1T128 42T84 102Q54 164 54 246Q54 348 102 420Q128 460 179 483T309 506T447 450Q423 541 375 614L270 572V635L339 662Q319 686 289 714L331
764Q371 729 405 689L528 739V676L441 641Q550 481 550 267ZM140 55T302 55T464 246T302 437T140 246Z" />
<glyph unicode="&#xf1;" glyph-name="ntilde" horiz-adv-x="654" d="M181 512Q282 586 380 586T518 542T558 406V0H472V404Q472 464 449 490T372 516Q279 516 192 449V0H106V572H157L181 512ZM507 772Q480 673 418 673Q390 673 342 691T278 709T252 699T234 665L177
683Q192 737 214 759T265 782T343 764T407 746T433 756T451 790L507 772Z" />
<glyph unicode="&#xf2;" glyph-name="ograve" horiz-adv-x="604" d="M252 56T302 56T385 74T435 127T457 199T464 286T458 372T435 444T386 497T302 516T219 498T169 445T146 373T140 286T146 199T168 128T218 75ZM550 -14T302 -14T54 286T302 586T550 286ZM411
671L372 625L189 763L243 827L411 671Z" />
<glyph unicode="&#xf3;" glyph-name="oacute" horiz-adv-x="604" d="M252 56T302 56T385 74T435 127T457 199T464 286T458 372T435 444T386 497T302 516T219 498T169 445T146 373T140 286T146 199T168 128T218 75ZM550 -14T302 -14T54 286T302 586T550 286ZM269
625L230 671L398 827L452 763L269 625Z" />
<glyph unicode="&#xf4;" glyph-name="ocircumflex" horiz-adv-x="604" d="M252 56T302 56T385 74T435 127T457 199T464 286T458 372T435 444T386 497T302 516T219 498T169 445T146 373T140 286T146 199T168 128T218 75ZM550 -14T302 -14T54 286T302 586T550 286ZM185
632L149 668L283 821H320L454 668L418 632L301 728L185 632Z" />
<glyph unicode="&#xf5;" glyph-name="otilde" horiz-adv-x="604" d="M252 56T302 56T385 74T435 127T457 199T464 286T458 372T435 444T386 497T302 516T219 498T169 445T146 373T140 286T146 199T168 128T218 75ZM550 -14T302 -14T54 286T302 586T550 286ZM467
772Q440 673 378 673Q350 673 302 691T238 709T212 699T194 665L137 683Q152 737 174 759T225 782T303 764T367 746T393 756T411 790L467 772Z" />
<glyph unicode="&#xf6;" glyph-name="odieresis" horiz-adv-x="604" d="M252 56T302 56T385 74T435 127T457 199T464 286T458 372T435 444T386 497T302 516T219 498T169 445T146 373T140 286T146 199T168 128T218 75ZM550 -14T302 -14T54 286T302 586T550 286ZM242
686T230 677T196 667T162 676T148 696T146 723T148 750T161 770T200 780T237 765T246 728T244 696ZM454 686T442 677T408 667T374 676T360 696T358 723T360 750T373 770T412 780T449 765T458 728T456 696Z" />
<glyph unicode="&#xf7;" glyph-name="divide" horiz-adv-x="580" d="M92 284V352H488V284H92ZM330 93T319 88T290 83T261 88T246 104Q238 121 238 140T239 168T246 188Q254 208 289 208Q326 208 334 188Q342 170 342 151T341 123T335 104ZM330 428T319 423T290
418T261 423T246 438Q238 456 238 475T239 503T246 522Q254 543 289 543Q326 543 334 522Q342 505 342 486T341 458T335 439Z" />
<glyph unicode="&#xf8;" glyph-name="oslash" horiz-adv-x="604" d="M54 286Q54 586 302 586Q321 586 351 582L379 686H440L408 568Q550 513 550 286Q550 -14 302 -14Q276 -14 253 -11L225 -115H165L196 3Q54 57 54 286ZM140 286Q140 121 216 76L333 513Q318 516
302 516Q203 516 168 444Q140 385 140 286ZM302 56Q402 56 435 128Q464 190 464 286Q464 449 388 495L271 58Q281 56 302 56Z" />
<glyph unicode="&#xf9;" glyph-name="ugrave" horiz-adv-x="660" d="M265 -14Q176 -14 136 30T96 164V572H182V170Q182 111 207 84T287 56Q384 56 468 155V572H554V0H497L470 85Q377 -14 265 -14ZM414 671L375 625L192 763L246 827L414 671Z" />
<glyph unicode="&#xfa;" glyph-name="uacute" horiz-adv-x="660" d="M265 -14Q176 -14 136 30T96 164V572H182V170Q182 111 207 84T287 56Q384 56 468 155V572H554V0H497L470 85Q377 -14 265 -14ZM306 625L267 671L435 827L489 763L306 625Z" />
<glyph unicode="&#xfb;" glyph-name="ucircumflex" horiz-adv-x="660" d="M265 -14Q176 -14 136 30T96 164V572H182V170Q182 111 207 84T287 56Q384 56 468 155V572H554V0H497L470 85Q377 -14 265 -14ZM219 632L183 668L317 821H354L488 668L452 632L335 728L219 632Z" />
<glyph unicode="&#xfc;" glyph-name="udieresis" horiz-adv-x="660" d="M265 -14Q176 -14 136 30T96 164V572H182V170Q182 111 207 84T287 56Q384 56 468 155V572H554V0H497L470 85Q377 -14 265 -14ZM275 686T263 677T229 667T195 676T181 696T179 723T181 750T194
770T233 780T270 765T279 728T277 696ZM487 686T475 677T441 667T407 676T393 696T391 723T393 750T406 770T445 780T482 765T491 728T489 696Z" />
<glyph unicode="&#xfd;" glyph-name="yacute" horiz-adv-x="542" d="M222 -245L144 -231L232 -4L16 572H105L274 109L438 572H526L222 -245ZM230 625L191 671L359 827L413 763L230 625Z" />
<glyph unicode="&#xfe;" glyph-name="thorn" horiz-adv-x="629" d="M353 586Q575 586 575 286T353 -14Q273 -14 192 20V-222H106V730L192 748V525Q270 586 353 586ZM344 512Q261 512 192 450V89Q259 60 344 60Q489 60 489 286T344 512Z" />
<glyph unicode="&#xff;" glyph-name="ydieresis" horiz-adv-x="542" d="M222 -245L144 -231L232 -4L16 572H105L274 109L438 572H526L222 -245ZM228 686T216 677T182 667T148 676T134 696T132 723T134 750T147 770T186 780T223 765T232 728T230 696ZM440 686T428
677T394 667T360 676T346 696T344 723T346 750T359 770T398 780T435 765T444 728T442 696Z" />
<glyph unicode="&#x2013;" glyph-name="endash" horiz-adv-x="576" d="M68 284V352H508V284H68Z" />
<glyph unicode="&#x2014;" glyph-name="emdash" horiz-adv-x="909" d="M68 284V352H841V284H68Z" />
<glyph unicode="&#x2018;" glyph-name="quoteleft" horiz-adv-x="281" d="M167 664T173 641T180 603T179 578T172 558Q164 538 130 538T85 555T74 604T87 669T123 728Q156 764 181 783L207 753Q167 718 167 674Q167 664 173 641Z" />
<glyph unicode="&#x2019;" glyph-name="quoteright" horiz-adv-x="275" d="M114 657T108 680T101 719T102 743T108 762Q117 783 151 783T196 766T207 712T181 630T136 568T100 538L74 569Q114 604 114 648Q114 657 108 680Z" />
<glyph unicode="&#x201a;" glyph-name="quotesinglbase" horiz-adv-x="226" d="M74 -5T67 18T60 57T62 84T77 105T112 115T148 105T163 85T166 48T153 -11T117 -68Q84 -105 59 -124L33 -94Q47 -81 54 -73Q74 -50 74 -15Q74 -5 67 18Z" />
<glyph unicode="&#x201c;" glyph-name="quotedblleft" horiz-adv-x="444" d="M167 664T173 641T180 600T178 571T163 549T122 538T84 555T74 604T87 669T123 728Q156 764 181 783L208 753Q167 717 167 674Q167 664 173 641ZM330 664T336 641T343 603T342 578T336
558Q327 538 293 538T248 555T237 604T250 669T286 728Q319 764 344 783L370 753Q330 718 330 674Q330 664 336 641Z" />
<glyph unicode="&#x201d;" glyph-name="quotedblright" horiz-adv-x="444" d="M277 657T271 680T264 721T266 750T281 772T322 783T360 766T370 712T344 630T299 568T263 538L236 569Q257 587 267 604T277 639ZM114 657T108 680T101 719T102 743T108 762Q117 783
151 783T196 766T207 712T181 630T136 568T100 538L74 569Q114 604 114 648Q114 657 108 680Z" />
<glyph unicode="&#x201e;" glyph-name="quotedblbase" horiz-adv-x="389" d="M236 -6T230 17T223 58T225 87T240 109T281 120T319 103T329 49T303 -33T258 -95T222 -125L195 -94Q216 -76 226 -59T236 -24ZM73 -6T67 17T60 56T61 80T68 100Q76 120 110 120T155
103T166 49T140 -33T95 -95T59 -125L33 -94Q73 -59 73 -15Q73 -6 67 17Z" />
<glyph unicode="&#x2022;" glyph-name="bullet" horiz-adv-x="266" d="M194 253T177 246T128 238T77 253T55 285T51 329T54 374T77 407T127 423T176 415T202 392Q213 368 213 339T211 296T202 268Z" />
<glyph unicode="&#x2039;" glyph-name="guilsinglleft" horiz-adv-x="305" d="M251 470L129 315L251 160L199 109L28 297V333L199 521L251 470Z" />
<glyph unicode="&#x203a;" glyph-name="guilsinglright" horiz-adv-x="305" d="M54 160L176 315L54 470L106 521L277 333V297L106 109L54 160Z" />
</font>
</defs>
</svg>
