<?xml version="1.0" standalone="no"?>
<!DOCTYPE svg PUBLIC "-//W3C//DTD SVG 1.1//EN" "http://www.w3.org/Graphics/SVG/1.1/DTD/svg11.dtd">
<svg xmlns="http://www.w3.org/2000/svg">
<defs >
<font id="Sora" horiz-adv-x="590" ><font-face
    font-family="Sora Thin"
    units-per-em="1000"
    panose-1="0 0 0 0 0 0 0 0 0 0"
    ascent="970"
    descent="-290"
    alphabetic="0" />
<glyph unicode=" " horiz-adv-x="244" />
<glyph unicode="!" horiz-adv-x="256" d="M112 170V730H144V170H112ZM104 0V54H152V0H104Z" />
<glyph unicode="&quot;" horiz-adv-x="376" d="M114 484V730H144V484H114ZM232 484V730H262V484H232Z" />
<glyph unicode="#" horiz-adv-x="658" d="M141 0L256 730H286L171 0H141ZM372 0L487 730H517L402 0H372ZM40 227V255H584V227H40ZM74 475V503H618V475H74Z" />
<glyph unicode="$" horiz-adv-x="660" d="M333 2Q242 2 184 30T98 107T70 218H102Q102 161 126 120T202 55T333 32Q443 32 497 75T552 193Q552 259 506 305T363 361L297 367Q210 375 160 419T110 542Q110 593 133 635T205 703T328 728Q406 728 456 700T531 625T556
522H524Q524 570 504 610T440 674T328 698Q262 698 221 677T161 621T142 542Q142 475 184 440T302 397L368 391Q473 381 528 326T584 193Q584 138 557 95T474 27T333 2ZM317 -129V17H347V-129H317ZM313 708V827H343V708H313Z" />
<glyph unicode="%" horiz-adv-x="808" d="M242 0L537 730H566L271 0H242ZM200 350Q151 350 118 374T69 441T52 537V549Q52 603 68 645T118 711T200 736Q249 736 282 712T331 645T348 549V537Q348 484 332 442T282 375T200 350ZM200 376Q260 376 290 420T320 543Q320
621 290 665T200 710Q140 710 110 666T80 543Q80 465 110 421T200 376ZM608 -6Q559 -6 526 18T477 85T460 181V193Q460 247 476 289T526 355T608 380Q657 380 690 356T739 289T756 193V181Q756 128 740 86T690 19T608 -6ZM608 20Q668 20 698 64T728 187Q728 265
698 309T608 354Q548 354 518 310T488 187Q488 109 518 65T608 20Z" />
<glyph unicode="&amp;" horiz-adv-x="648" d="M548 0L225 341Q186 383 161 416T124 483T112 557Q112 612 134 651T203 712T324 734Q362 734 401 732T481 724V694Q453 698 426 700T372 703T319 704Q229 704 187 666T144 557Q144 502 168 460T246 361L588 0H548ZM273
-16Q213 -16 161 9T76 80T44 188V196Q44 267 84 323T184 410L199 384Q142 355 109 305T76 192Q76 134 104 95T178 35T273 14Q358 14 412 62T492 200T518 412H548Q548 316 532 237T482 102T396 15T273 -16ZM378 406V434H614V406H378Z" />
<glyph unicode="&apos;" horiz-adv-x="258" d="M114 484V730H144V484H114Z" />
<glyph unicode="(" horiz-adv-x="356" d="M290 -182Q235 -120 193 -49T126 108T102 300Q102 405 126 490T192 645T290 776H326Q266 707 223 636T157 483T134 300Q134 198 157 116T223 -39T326 -182H290Z" />
<glyph unicode=")" horiz-adv-x="356" d="M66 -182Q121 -120 163 -49T230 108T254 300Q254 405 230 490T164 645T66 776H30Q90 707 133 636T199 483T222 300Q222 198 199 116T133 -39T30 -182H66Z" />
<glyph unicode="*" horiz-adv-x="564" d="M483 393L322 492V570L483 669L500 639L352 555V507L500 423L483 393ZM300 776L295 588L227 549L61 638L78 668L225 582L267 606L265 776H300ZM61 424L227 514L295 475L300 286H266L267 456L225 480L79 394L61 424Z" />
<glyph unicode="+" horiz-adv-x="584" d="M276 120V570H308V120H276ZM86 331V359H498V331H86Z" />
<glyph unicode="," horiz-adv-x="250" d="M81 -146L54 -136L129 70L158 60L81 -146Z" />
<glyph unicode="-" horiz-adv-x="496" d="M94 264V292H402V264H94Z" />
<glyph unicode="." horiz-adv-x="250" d="M101 0V54H149V0H101Z" />
<glyph unicode="/" horiz-adv-x="282" d="M24 -60L228 780H258L54 -60H24Z" />
<glyph unicode="0" horiz-adv-x="718" d="M359 -16Q293 -16 243 9T158 81T107 195T90 347V381Q90 499 121 580T212 705T359 748Q446 748 506 705T597 581T628 381V347Q628 262 611 195T560 81T476 9T359 -16ZM359 14Q477 14 536 101T596 365Q596 547 535 632T359
718Q244 718 183 633T122 365Q122 188 181 101T359 14Z" />
<glyph unicode="1" horiz-adv-x="408" d="M228 0V710L238 700H54V730H260V0H228Z" />
<glyph unicode="2" horiz-adv-x="606" d="M92 0V94Q92 133 103 161T141 213T218 260L374 334Q429 360 464 404T500 521Q500 613 448 665T309 718Q224 718 171 666T118 521H86Q86 589 114 640T192 719T309 748Q377 748 426 720T503 642T530 527V515Q530 439 488
389T383 308L226 233Q165 204 145 174T124 98V14L111 30H548V0H92Z" />
<glyph unicode="3" horiz-adv-x="600" d="M292 -16Q218 -16 165 14T84 96T56 213H88Q88 123 142 69T292 14Q354 14 400 38T471 107T496 208Q496 298 443 352T294 406Q260 406 236 399T191 378L166 418L481 688L475 700H84V730H507V672L195 404L188 407Q208 421
235 428T296 436Q368 436 420 406T500 326T528 214V202Q528 143 500 94T419 14T292 -16Z" />
<glyph unicode="4" horiz-adv-x="610" d="M58 200V246L382 736L404 718L86 238L93 228H576V200H58ZM440 0V508H472V0H440Z" />
<glyph unicode="5" horiz-adv-x="604" d="M307 -16Q227 -16 174 16T95 101T68 216H100Q100 160 122 114T191 41T307 14Q377 14 423 41T491 114T514 216Q514 272 492 318T423 391T307 418Q261 418 220 402T147 355H117L155 730H479V700H167L182 711L148 377L131
375Q166 410 209 429T307 448Q387 448 440 416T519 333T546 222V210Q546 151 520 100T440 16T307 -16Z" />
<glyph unicode="6" horiz-adv-x="644" d="M338 -16Q279 -16 233 4T154 65T105 170T88 321V351Q88 539 165 636T409 734Q434 734 461 732T518 725V695Q489 700 459 702T406 704Q306 704 242 663T147 543T116 349V226H104Q105 295 131 350T210 437T340 470Q418 470
471 437T552 350T580 230Q580 165 553 109T472 19T338 -16ZM338 14Q408 14 454 44T524 123T548 230Q548 288 525 335T456 411T338 440Q269 440 222 412T151 336T127 228Q127 176 150 127T221 46T338 14Z" />
<glyph unicode="7" horiz-adv-x="548" d="M166 0L472 688L465 700H64V730H502V683L199 0H166ZM64 564V730H94V564H64Z" />
<glyph unicode="8" horiz-adv-x="614" d="M307 -16Q228 -16 173 13T89 91T60 195Q60 249 83 290T143 356T217 387V397Q186 407 156 427T107 481T87 564Q87 618 114 659T190 724T307 748Q375 748 424 725T500 660T527 564Q527 515 508 482T459 428T397 397V387Q436
381 472 356T531 290T554 195Q554 139 526 91T442 14T307 -16ZM307 14Q377 14 424 38T497 104T522 195Q522 246 497 287T424 353T307 378Q238 378 190 354T117 288T92 195Q92 146 117 105T190 39T307 14ZM307 406Q391 406 443 448T495 563Q495 634 445 676T307
718Q220 718 170 676T119 563Q119 490 171 448T307 406Z" />
<glyph unicode="9" horiz-adv-x="644" d="M306 746Q365 746 411 726T490 665T539 560T556 409V379Q556 191 479 94T235 -4Q210 -4 183 -2T126 5V35Q155 30 185 28T238 26Q338 26 402 67T497 187T528 381V504H540Q539 435 513 380T434 293T304 260Q226 260 173
293T92 380T64 500Q64 565 91 621T172 711T306 746ZM306 716Q236 716 190 686T120 607T96 500Q96 442 119 395T188 319T306 290Q375 290 422 318T493 394T517 502Q517 554 494 603T423 684T306 716Z" />
<glyph unicode=":" horiz-adv-x="250" d="M101 0V54H149V0H101ZM101 390V444H149V390H101Z" />
<glyph unicode=";" horiz-adv-x="250" d="M85 -146L58 -136L133 70L162 60L85 -146ZM105 390V444H153V390H105Z" />
<glyph unicode="&lt;" horiz-adv-x="580" d="M496 512V481L84 330V360L496 512ZM84 329L496 178V148L84 300V329ZM106 344V316H84V344H106Z" />
<glyph unicode="=" horiz-adv-x="584" d="M86 399V427H498V399H86ZM86 242V270H498V242H86Z" />
<glyph unicode="&gt;" horiz-adv-x="580" d="M84 148V179L496 330V300L84 148ZM496 331L84 482V512L496 360V331ZM474 316V344H496V316H474Z" />
<glyph unicode="?" horiz-adv-x="540" d="M222 170V354H258Q343 354 390 405T438 536Q438 590 416 631T355 695T262 718Q209 718 168 694T103 626T80 522H50Q50 588 76 639T151 719T262 748Q325 748 372 720T444 644T470 541V531Q470 477 446 430T373 353T250
324L254 344V170H222ZM214 0V54H262V0H214Z" />
<glyph unicode="@" horiz-adv-x="1116" d="M563 -236Q455 -236 367 -201T217 -101T120 54T86 255Q86 365 121 455T220 611T373 712T568 748Q669 748 755 718T905 630T1004 490T1040 303Q1040 215 1016 151T951 53T856 18Q825 18 796 32T747 81T728 175V236H744Q740
163 713 116T641 45T542 22Q482 22 435 52T361 133T334 249V259Q334 324 361 373T435 451T542 479Q597 479 641 456T712 388T744 279H728V472H754V175Q754 124 769 97T809 59T856 48Q901 48 935 78T989 166T1008 303Q1008 401 975 478T882 608T742 690T569 718Q470
718 387 685T244 591T151 444T118 254Q118 115 173 12T329 -149T563 -206Q593 -206 618 -203T668 -195V-225Q643 -230 619 -233T563 -236ZM542 52Q591 52 632 73T697 139T722 248V260Q722 323 697 365T630 428T542 449Q492 449 452 426T389 359T366 254Q366 193
389 148T452 77T542 52Z" />
<glyph unicode="A" horiz-adv-x="734" d="M42 0L323 730H401L692 0H659L374 715L400 700H322L348 715L74 0H42ZM160 260L171 290H557L569 260H160Z" />
<glyph unicode="B" horiz-adv-x="660" d="M146 -2V28H379Q456 28 500 74T544 192Q544 263 501 309T379 356H146V380H373Q433 380 478 358T550 295T576 196V188Q576 137 554 94T486 24T373 -2H146ZM130 -2V732H162V-2H130ZM146 362V386H352Q435 386 474 430T514
544Q514 613 475 657T352 702H146V732H346Q447 732 496 680T546 548V540Q546 485 522 445T454 384T346 362H146Z" />
<glyph unicode="C" horiz-adv-x="792" d="M429 -16Q336 -16 268 18T156 107T91 229T70 360V372Q70 441 91 508T157 629T267 716T421 748Q506 748 572 717T679 628T729 495H697Q688 566 650 616T553 692T421 718Q343 718 284 690T184 612T123 499T102 366Q102 302
122 239T182 126T284 45T429 14Q541 14 617 72T712 237H744Q732 161 690 104T582 16T429 -16Z" />
<glyph unicode="D" horiz-adv-x="804" d="M143 -3V27H376Q465 27 528 55T632 132T692 241T712 366Q712 432 692 492T631 600T526 675T376 702H143V732H372Q468 732 538 702T654 621T722 506T744 373V360Q744 294 723 230T657 113T542 29T372 -3H143ZM130 -3V732H162V-3H130Z"
/>
<glyph unicode="E" horiz-adv-x="608" d="M130 0V730H162V0H130ZM147 0V30H534V0H147ZM147 356V386H495V356H147ZM147 700V730H521V700H147Z" />
<glyph unicode="F" horiz-adv-x="560" d="M130 0V730H162V0H130ZM143 360V391L486 392V362L143 360ZM143 701V730L508 731V701H143Z" />
<glyph unicode="G" horiz-adv-x="831" d="M435 -16Q335 -16 265 18T152 107T90 229T70 360V372Q70 441 91 508T156 629T265 716T419 748Q504 748 569 717T675 628T725 495H693Q684 566 647 616T550 692T419 718Q341 718 282 690T183 612T123 499T102 366Q102 302
120 239T179 126T282 45T435 14Q523 14 591 45T699 132L682 87V302H714V102Q671 49 601 17T435 -16ZM407 292V320H785V292H407Z" />
<glyph unicode="H" horiz-adv-x="810" d="M648 0V730H680V0H648ZM130 0V730H162V0H130ZM150 345V375H660V345H150Z" />
<glyph unicode="I" horiz-adv-x="296" d="M132 0V730H164V0H132Z" />
<glyph unicode="J" horiz-adv-x="634" d="M281 -16Q207 -16 154 13T74 96T46 221V249H78V217Q78 123 130 69T281 14Q379 14 431 68T484 217V718H516V221Q516 149 489 96T409 14T281 -16ZM145 700V730H516V700H145Z" />
<glyph unicode="K" horiz-adv-x="617" d="M586 0L226 352H158L510 730H549L217 374L216 403L629 0H586ZM130 0V730H162V0H130Z" />
<glyph unicode="L" horiz-adv-x="530" d="M130 0V730H162V0H130ZM143 0V30H504V0H143Z" />
<glyph unicode="M" horiz-adv-x="874" d="M130 0V730H166L424 189H446L704 730H744V0H712V690H717L464 160H406L153 690H160V0H130Z" />
<glyph unicode="N" horiz-adv-x="822" d="M130 0V730H191L648 30H680L660 18V730H692V0H631L174 700H142L162 712V0H130Z" />
<glyph unicode="O" horiz-adv-x="872" d="M437 -16Q348 -16 280 16T165 103T94 225T70 361V373Q70 444 95 510T167 631T283 716T437 748Q523 748 590 717T705 631T777 511T802 373V360Q802 291 779 225T709 104T594 17T437 -16ZM437 14Q518 14 580 43T684 123T748
237T770 366Q770 435 748 498T682 610T577 689T437 718Q359 718 297 689T192 611T125 498T102 366Q102 300 124 237T188 124T293 44T437 14Z" />
<glyph unicode="P" horiz-adv-x="610" d="M143 292V322H326Q399 322 442 348T504 417T524 512Q524 564 505 607T442 676T326 702H143V732H324Q407 732 458 702T532 623T556 517V507Q556 451 533 402T458 322T324 292H143ZM130 0V732H162V0H130Z" />
<glyph unicode="Q" horiz-adv-x="872" d="M569 -204Q522 -204 490 -188T442 -141T425 -62V2H457V-66Q457 -120 484 -147T565 -174H691V-204H569ZM437 -16Q348 -16 280 16T165 103T94 225T70 361V373Q70 444 95 510T167 631T283 716T437 748Q523 748 590 717T705
631T777 511T802 373V360Q802 291 779 225T709 104T594 17T437 -16ZM437 14Q518 14 580 43T684 123T748 237T770 366Q770 435 748 498T682 610T577 689T437 718Q359 718 297 689T192 611T125 498T102 366Q102 300 124 237T188 124T293 44T437 14Z" />
<glyph unicode="R" horiz-adv-x="662" d="M130 0V732H162V0H130ZM588 0L323 318H362L628 0H588ZM143 302V332H339Q410 332 451 357T511 424T530 517Q530 568 512 610T452 677T339 702H143V732H337Q418 732 467 703T539 626T562 522V512Q562 456 540 408T468 331T337
302H143Z" />
<glyph unicode="S" horiz-adv-x="712" d="M357 -16Q263 -16 202 13T112 93T82 208H114Q114 149 140 106T221 38T357 14Q433 14 485 35T565 96T592 188Q592 255 546 302T401 359L311 367Q223 375 173 423T122 551Q122 605 146 649T222 721T354 748Q437 748 490
718T570 639T596 532H564Q564 582 543 624T475 692T354 718Q283 718 239 696T175 635T154 551Q154 482 196 443T316 397L406 389Q478 383 526 355T599 283T624 188Q624 130 594 84T504 11T357 -16Z" />
<glyph unicode="T" horiz-adv-x="576" d="M272 0V716H304V0H272ZM32 700V730H544V700H32Z" />
<glyph unicode="U" horiz-adv-x="806" d="M403 -16Q303 -16 240 22T146 126T116 275V730H148V271Q148 194 175 136T258 46T403 14Q492 14 548 46T631 136T658 271V730H690V275Q690 192 660 126T567 22T403 -16Z" />
<glyph unicode="V" horiz-adv-x="680" d="M304 0L28 730H61L331 14L304 30H383L354 14L611 730H644L381 0H304Z" />
<glyph unicode="W" horiz-adv-x="1011" d="M251 0L40 730H72L277 19L266 30H319L310 19L480 695H511L336 0H251ZM690 0L500 695H531L716 19L704 30H761L749 19L939 730H971L775 0H690Z" />
<glyph unicode="X" horiz-adv-x="662" d="M24 1L313 391L311 369L55 730H90L326 396H336L577 730H613L346 361L348 383L624 0H589L333 356H323L60 0L24 1Z" />
<glyph unicode="Y" horiz-adv-x="644" d="M271 289L32 730H66L296 304L277 319H373L355 304L575 730H608L379 289H271ZM309 0V301H341V0H309Z" />
<glyph unicode="Z" horiz-adv-x="662" d="M84 0V52L567 702L559 673L543 720L557 700H89V730H586V678L103 28L111 57L127 10L113 30H604V0H84Z" />
<glyph unicode="[" horiz-adv-x="356" d="M136 -182V776H168V-182H136ZM136 -182V-154H286V-182H136ZM136 748V776H286V748H136Z" />
<glyph unicode="\" horiz-adv-x="282" d="M234 -60L18 780H48L264 -60H234Z" />
<glyph unicode="]" horiz-adv-x="356" d="M220 -182V776H188V-182H220ZM220 -182V-154H70V-182H220ZM220 748V776H70V748H220Z" />
<glyph unicode="^" horiz-adv-x="546" d="M86 339L246 723H300L460 339H429L282 698H264L116 339H86Z" />
<glyph unicode="_" horiz-adv-x="558" d="M0 -100V-72H558V-100H0Z" />
<glyph unicode="`" horiz-adv-x="300" d="M96 612L0 796H34L128 612H96Z" />
<glyph unicode="a" horiz-adv-x="556" d="M428 0V156H422V352Q422 419 387 457T265 495Q239 495 214 494T166 490T124 485V515Q144 518 165 520T207 524T249 525Q327 525 371 504T435 443T454 344V0H428ZM241 -14Q192 -14 151 4T85 59T60 147Q60 194 82 229T147
283T249 302H424V274H243Q170 274 131 239T92 146Q92 84 135 49T243 14Q285 14 325 30T392 84T422 188L438 172Q436 109 408 68T337 6T241 -14Z" />
<glyph unicode="b" horiz-adv-x="674" d="M361 -16Q285 -16 231 19T147 111T118 231H134V0H108V730H140V346L120 289Q120 357 149 413T232 502T361 536Q421 536 468 513T547 451T595 364T612 263V257Q612 208 596 160T549 72T470 8T361 -16ZM359 14Q431 14 480
49T555 141T580 260Q580 326 554 382T479 472T359 506Q293 506 244 477T166 399T138 287V233Q138 175 165 125T241 45T359 14Z" />
<glyph unicode="c" horiz-adv-x="600" d="M317 -16Q254 -16 207 7T127 71T78 160T62 260V266Q62 317 78 365T126 452T206 513T317 536Q379 536 426 514T505 452T546 356H514Q503 421 453 463T317 506Q242 506 193 473T119 384T94 263Q94 199 119 142T193 50T317
14Q374 14 418 35T489 91T522 168H554Q546 113 513 72T430 8T317 -16Z" />
<glyph unicode="d" horiz-adv-x="674" d="M313 -16Q253 -16 206 7T127 69T79 156T62 257V263Q62 312 78 360T125 448T204 512T313 536Q390 536 443 501T525 409T554 289L534 346V730H566V0H540V231H556Q556 164 527 108T443 18T313 -16ZM315 14Q381 14 431 43T508
121T536 233V287Q536 345 509 395T433 475T315 506Q243 506 194 471T120 379T94 260Q94 194 120 138T195 48T315 14Z" />
<glyph unicode="e" horiz-adv-x="602" d="M316 -16Q251 -16 203 7T124 69T78 158T62 260V266Q62 317 77 365T124 452T202 513T310 536Q386 536 439 501T521 411T550 293V261H79V291H533L520 281Q520 344 495 395T423 476T310 506Q238 506 190 472T117 383T92 263Q92
197 116 141T190 49T316 14Q398 14 448 52T510 146H542Q532 99 502 63T426 5T316 -16Z" />
<glyph unicode="f" horiz-adv-x="368" d="M124 0V588Q124 660 159 695T270 730H340V700H260Q209 700 183 674T156 600V0H124ZM40 490V518H352V490H40Z" />
<glyph unicode="g" horiz-adv-x="664" d="M308 -204Q273 -204 235 -201T162 -191V-161Q198 -167 237 -170T312 -174Q395 -174 442 -153T510 -84T530 48V160L550 231Q550 164 522 108T440 18T311 -16Q251 -16 205 7T127 69T79 157T62 257V263Q62 311 78 359T125
448T203 512T311 536Q387 536 441 501T523 409T552 289L536 330V520H562V47Q562 -46 538 -101T457 -180T308 -204ZM313 14Q379 14 428 43T504 122T532 233V287Q532 345 506 394T430 475T313 506Q241 506 193 470T119 378T94 260Q94 195 120 139T195 48T313 14Z"
/>
<glyph unicode="h" horiz-adv-x="626" d="M108 0V730H140V363L123 312Q123 376 145 426T212 505T323 534H325Q423 534 473 473T524 312V0H492V320Q492 402 449 453T322 504Q238 504 189 453T140 318V0H108Z" />
<glyph unicode="i" horiz-adv-x="280" d="M138 0V520H170V0H138ZM48 490V520H170V490H48ZM132 642Q116 642 107 651T98 675Q98 689 107 698T133 708Q149 708 157 699T166 675Q166 660 158 651T132 642Z" />
<glyph unicode="j" horiz-adv-x="288" d="M-6 -202V-172H63Q104 -172 125 -147T146 -70V520H178V-56Q178 -108 165 -140T125 -187T51 -202H-6ZM54 490V520H178V490H54ZM140 652Q124 652 115 661T106 685Q106 699 115 708T141 718Q157 718 165 709T174 685Q174
670 166 661T140 652Z" />
<glyph unicode="k" horiz-adv-x="502" d="M451 0L215 246H133L395 520H434L203 279L202 302L492 0H451ZM108 0V730H140V0H108Z" />
<glyph unicode="l" horiz-adv-x="250" d="M110 0V730H142V0H110ZM28 700V730H142V700H28Z" />
<glyph unicode="m" horiz-adv-x="950" d="M108 0V521H134V312H122Q122 375 142 425T204 504T308 534H310Q372 534 412 506T472 427T492 312H476Q476 375 496 425T557 504T662 534H664Q726 534 767 506T828 427T848 312V0H816V320Q816 400 778 452T661 504Q582
504 538 451T494 316V0H462V320Q462 400 424 452T307 504Q228 504 184 451T140 316V0H108Z" />
<glyph unicode="n" horiz-adv-x="626" d="M108 0V520H134V312H122Q122 376 145 426T212 505T323 534H325Q423 534 473 473T524 312V0H492V320Q492 402 449 453T322 504Q238 504 189 452T140 316V0H108Z" />
<glyph unicode="o" horiz-adv-x="654" d="M327 -16Q263 -16 214 7T131 70T80 157T62 257V263Q62 315 80 364T132 451T215 513T327 536Q390 536 439 513T522 452T574 364T592 263V257Q592 206 575 158T524 70T441 8T327 -16ZM327 14Q403 14 454 49T533 140T560
260Q560 326 533 382T453 472T327 506Q254 506 202 472T122 382T94 260Q94 196 121 140T200 49T327 14Z" />
<glyph unicode="p" horiz-adv-x="674" d="M108 -200V520H134V300L118 289Q118 357 147 413T231 502T361 536Q421 536 468 513T547 451T595 364T612 263V257Q612 208 596 160T549 72T470 8T361 -16Q285 -16 231 19T149 111T120 231L140 166V-200H108ZM359 14Q431
14 480 49T555 141T580 260Q580 326 554 382T479 472T359 506Q293 506 244 477T166 399T138 287V233Q138 175 165 125T241 45T359 14Z" />
<glyph unicode="q" horiz-adv-x="674" d="M534 -200V160L554 231Q554 164 525 108T442 18T313 -16Q253 -16 206 7T127 69T79 156T62 257V263Q62 312 78 360T125 448T204 512T313 536Q390 536 444 501T527 409T556 289L540 309V520H566V-200H534ZM315 14Q381 14
431 43T508 121T536 233V287Q536 345 509 395T433 475T315 506Q243 506 194 471T120 379T94 260Q94 194 120 138T195 48T315 14Z" />
<glyph unicode="r" horiz-adv-x="390" d="M108 0V520H134V297H124Q124 410 174 467T345 524H362V494H337Q238 494 189 445T140 297V0H108Z" />
<glyph unicode="s" horiz-adv-x="516" d="M257 -14Q162 -14 112 30T62 142H94Q94 90 132 53T257 16Q343 16 381 53T420 142Q420 193 382 220T287 253L223 260Q158 268 121 302T84 392Q84 431 104 463T163 516T257 536Q334 536 382 496T430 392H398Q399 441 362
473T257 506Q184 506 150 471T116 390Q116 352 144 324T226 289L290 282Q358 275 405 241T452 140Q452 98 430 63T364 7T257 -14Z" />
<glyph unicode="t" horiz-adv-x="412" d="M267 -5Q223 -5 190 8T138 54T119 139V696H151V131Q151 80 179 53T257 25H356V-5H267ZM16 492V520H356V492H16Z" />
<glyph unicode="u" horiz-adv-x="604" d="M285 -14Q190 -14 142 46T94 204V520H126V196Q126 117 167 67T288 16Q370 16 416 67T462 200V520H494V0H468V204H480Q480 142 459 93T395 15T287 -14H285Z" />
<glyph unicode="v" horiz-adv-x="524" d="M233 0L38 520H71L265 0H233ZM245 0V30H297V0H245ZM276 0L450 520H482L307 0H276Z" />
<glyph unicode="w" horiz-adv-x="784" d="M238 0L363 503H418L558 0H526L386 499H394L269 0H238ZM208 0V30H260V0H208ZM199 0L40 520H73L231 0H199ZM538 0V30H583V0H538ZM565 0L706 520H738L596 0H565Z" />
<glyph unicode="x" horiz-adv-x="522" d="M40 0L246 275L253 254L57 520H92L255 298H267L423 520H457L276 265L268 286L487 0H452L267 242H255L74 0H40Z" />
<glyph unicode="y" horiz-adv-x="508" d="M38 -202V-172H89Q125 -172 152 -164T201 -132T237 -64L434 520H466L263 -77Q247 -124 222 -151T162 -190T87 -202H38ZM229 14V44H282V14H229ZM220 14L28 520H61L252 14H220Z" />
<glyph unicode="z" horiz-adv-x="478" d="M63 0V48L404 497L395 479L385 496L392 492H62V520H421V472L80 23L89 41L99 24L92 28H436V0H63Z" />
<glyph unicode="{" horiz-adv-x="356" d="M284 -182Q215 -182 174 -142T133 -10V197Q133 237 114 254T72 271V323Q95 323 114 340T133 397V604Q133 696 174 736T284 776H298V748H284Q226 748 196 716T165 608V409Q165 363 146 336T94 301V293Q127 286 146 259T165
185V-14Q165 -90 195 -122T284 -154H298V-182H284Z" />
<glyph unicode="|" horiz-adv-x="370" d="M170 -200V730L200 729V-201L170 -200Z" />
<glyph unicode="}" horiz-adv-x="356" d="M72 -182Q141 -182 182 -142T223 -10V197Q223 237 242 254T284 271V323Q261 323 242 340T223 397V604Q223 696 182 736T72 776H58V748H72Q130 748 160 716T191 608V409Q191 363 210 336T262 301V293Q229 286 210 259T191
185V-14Q191 -90 161 -122T72 -154H58V-182H72Z" />
<glyph unicode="~" horiz-adv-x="441" d="M308 262Q277 262 255 275T215 305T177 336T131 349Q107 349 86 334T53 281H24Q30 314 46 336T84 369T133 381Q164 381 186 368T226 338T265 307T310 294Q334 294 355 309T388 362H417Q411 330 395 308T356 274T308 262Z" />
<glyph unicode="&#xa0;" horiz-adv-x="244" />
<glyph unicode="&#xa1;" horiz-adv-x="256" d="M112 350V-210H144V350H112ZM104 520V466H152V520H104Z" />
<glyph unicode="&#xa2;" horiz-adv-x="616" d="M325 108Q264 108 217 129T138 186T89 267T72 361V373Q72 422 88 466T137 546T215 601T323 622Q382 622 428 603T505 547T550 462H518Q503 518 453 555T323 592Q251 592 203 562T129 480T104 367Q104 305 129 253T204
170T325 138Q406 138 460 178T528 279H560Q549 228 516 190T434 130T325 108ZM310 0V118H340V0H310ZM310 612V730H340V612H310Z" />
<glyph unicode="&#xa3;" horiz-adv-x="608" d="M140 0V493Q140 620 198 678T367 736Q391 736 417 734T470 729T518 721V691Q496 695 470 698T416 704T363 706Q307 706 264 688T196 623T172 493V0H140ZM48 0V28H566V0H48ZM54 332V360H432V332H54ZM534 0V150H566V0H534Z" />
<glyph unicode="&#xa4;" horiz-adv-x="640" d="M320 159Q258 159 211 188T138 264T112 366V376Q112 433 138 480T211 555T320 583Q382 583 429 555T502 480T528 376V366Q528 311 502 264T429 188T320 159ZM91 125L72 144L169 238L188 219L91 125ZM169 504L72 598L91
617L188 523L169 504ZM320 187Q374 187 414 212T476 279T498 371Q498 423 476 464T414 530T320 555Q267 555 227 531T164 465T142 371Q142 321 164 279T226 212T320 187ZM549 125L452 219L471 238L568 144L549 125ZM471 504L452 523L549 617L568 598L471 504Z"
/>
<glyph unicode="&#xa5;" horiz-adv-x="572" d="M261 319L28 730H62L286 333L265 340H321L299 333L513 730H546L323 319H261ZM276 0V326H306V0H276ZM58 174V202H524V174H58ZM58 312V340H524V312H58Z" />
<glyph unicode="&#xa6;" horiz-adv-x="370" d="M170 373V730H200V373H170ZM170 -200V139H200V-200H170Z" />
<glyph unicode="&#xa7;" horiz-adv-x="584" d="M286 -59Q195 -59 147 -20T98 77H130Q130 34 167 3T286 -29Q365 -29 400 7T436 91Q436 125 414 145T355 179T277 205Q243 215 209 226T147 254T103 296T86 358Q86 403 107 433T163 483T235 510L266 495Q227 488 194
472T139 428T118 358Q118 318 142 295T205 259T286 233Q320 224 352 214T411 188T452 150T468 91Q468 29 422 -15T286 -59ZM338 195L320 217Q386 228 426 265T466 347Q466 389 442 413T380 452T300 478Q267 488 235 499T177 526T136 566T120 628Q120 668 139 699T194
749T283 768Q360 768 407 733T454 634H422Q423 683 387 710T283 738Q215 738 184 706T152 631Q152 592 175 569T236 531T315 504Q349 495 381 484T440 457T482 415T498 352Q498 318 480 285T426 228T338 195Z" />
<glyph unicode="&#xa8;" horiz-adv-x="300" d="M36 654Q18 654 9 663T0 688Q0 702 9 712T36 722Q54 722 63 712T72 688Q72 673 63 664T36 654ZM226 654Q208 654 199 663T190 688Q190 702 199 712T226 722Q244 722 253 712T262 688Q262 673 253 664T226 654Z" />
<glyph unicode="&#xa9;" horiz-adv-x="732" d="M366 132Q296 132 240 155T144 220T83 317T62 435V445Q62 508 83 563T143 659T239 724T366 748Q437 748 493 725T588 660T649 563T670 445V435Q670 372 649 317T589 221T493 156T366 132ZM366 160Q454 160 515 197T608
299T640 440Q640 518 608 581T515 682T366 720Q278 720 217 683T124 582T92 440Q92 363 124 299T217 198T366 160ZM371 264Q322 264 288 289T236 354T218 438V448Q218 495 236 533T288 593T371 616Q426 616 463 584T506 496H476Q472 537 446 562T371 587Q310 587
279 548T248 443Q248 402 261 368T302 313T371 292Q417 292 445 316T478 378H508Q502 327 463 296T371 264Z" />
<glyph unicode="&#xaa;" horiz-adv-x="380" d="M286 360V467H281V598Q281 642 259 667T183 692Q166 692 149 691T116 688T85 683L84 709Q96 712 110 714T139 717T170 719Q226 719 256 704T298 660T310 593V360H286ZM164 350Q113 350 78 379T43 462Q43 495 58 519T102
556T172 569H283V545H168Q122 545 98 522T73 461Q73 421 99 399T168 376Q195 376 220 386T262 422T281 489L293 475Q290 415 255 383T164 350Z" />
<glyph unicode="&#xab;" horiz-adv-x="442" d="M188 39L64 244V274L187 483H218L91 268V252L220 39H188ZM352 39L228 244V274L351 483H382L255 268V252L384 39H352Z" />
<glyph unicode="&#xac;" horiz-adv-x="599" d="M86 301V329H513V140H484V315L498 301H86Z" />
<glyph unicode="&#xad;" horiz-adv-x="440" d="M90 264V292H350V264H90Z" />
<glyph unicode="&#xae;" horiz-adv-x="678" d="M339 184Q272 184 219 206T129 268T73 356T54 461V471Q54 526 73 575T129 664T219 725T339 748Q407 748 459 726T549 664T605 576T624 471V461Q624 406 605 357T549 268T460 207T339 184ZM339 212Q423 212 480 248T565
342T594 466Q594 533 566 590T480 684T339 720Q255 720 199 684T113 591T84 466Q84 400 113 342T198 248T339 212ZM246 320V621H276V320H246ZM429 320L322 452H358L465 320H429ZM261 439V467H343Q382 467 398 483T415 530Q415 563 399 578T343 593H261V621H343Q393
621 419 598T445 530Q445 488 419 464T343 439H261Z" />
<glyph unicode="&#xaf;" horiz-adv-x="300" d="M0 680V708H226V680H0Z" />
<glyph unicode="&#xb0;" horiz-adv-x="312" d="M156 486Q122 486 95 501T51 544T34 608Q34 645 50 672T94 714T156 730Q190 730 217 715T261 672T278 608Q278 572 262 545T218 502T156 486ZM156 513Q197 513 223 539T249 608Q249 650 223 676T156 703Q116 703
90 677T63 608Q63 566 89 540T156 513Z" />
<glyph unicode="&#xb1;" horiz-adv-x="584" d="M86 53V81H498V53H86ZM277 160V590H307V160H277ZM86 361V389H498V361H86Z" />
<glyph unicode="&#xb2;" horiz-adv-x="364" d="M58 420V475Q58 507 73 527T132 567L221 607Q253 621 272 645T291 706Q291 754 262 781T185 809Q138 809 109 782T79 706H54Q54 761 89 796T185 832Q247 832 282 797T317 710V703Q317 661 292 632T229 586L139 546Q106
531 95 516T84 477V431L75 442H325V420H58Z" />
<glyph unicode="&#xb3;" horiz-adv-x="361" d="M176 411Q111 411 74 447T37 537H62Q62 490 93 462T176 434Q228 434 259 462T290 535Q290 582 260 610T177 638Q156 638 143 634T118 623L102 651L281 792L277 799H53V822H300V779L131 646H119Q130 653 144 656T178
660Q242 660 278 625T314 539V532Q314 484 278 448T176 411Z" />
<glyph unicode="&#xb4;" horiz-adv-x="300" d="M0 612L84 796H118L32 612H0Z" />
<glyph unicode="&#xb5;" horiz-adv-x="625" d="M94 -200V520H126V196Q126 117 167 67T288 16Q343 16 381 41T441 109T462 204V520H494V86Q494 55 505 43T544 30H590V0H543Q518 0 500 8T474 35T465 82L472 194H478Q476 135 455 88T393 13T287 -14H285Q242 -14 205
1T144 46T112 115L123 116Q123 90 123 64T125 11T126 -43V-200H94Z" />
<glyph unicode="&#xb6;" horiz-adv-x="581" d="M203 430Q116 430 66 470T16 577V587Q16 655 66 694T203 734H317V430H203ZM307 0V734H339V0H307ZM419 0V734H451V0H419Z" />
<glyph unicode="&#xb7;" horiz-adv-x="250" d="M101 234V288H149V234H101Z" />
<glyph unicode="&#xb8;" horiz-adv-x="300" d="M128 -222Q109 -222 92 -220T61 -214V-186Q76 -190 94 -192T128 -194Q163 -194 180 -182T198 -142Q198 -120 183 -106T132 -92H106V10H132V-85L121 -66H132Q179 -66 203 -88T228 -142Q228 -179 202 -200T128 -222Z" />
<glyph unicode="&#xb9;" horiz-adv-x="250" d="M136 420V808L146 800H36V822H160V420H136Z" />
<glyph unicode="&#xba;" horiz-adv-x="434" d="M217 349Q162 349 123 376T64 447T44 535V541Q44 588 64 630T124 700T217 727Q271 727 310 700T369 631T390 541V535Q390 490 370 447T312 377T217 349ZM217 377Q263 377 295 399T344 459T361 538Q361 582 344 618T294
677T217 699Q172 699 140 677T90 619T73 538Q73 496 89 459T138 400T217 377Z" />
<glyph unicode="&#xbb;" horiz-adv-x="442" d="M254 483L378 278V248L255 39H224L351 254V270L222 483H254ZM90 483L214 278V248L91 39H60L187 254V270L58 483H90Z" />
<glyph unicode="&#xbc;" horiz-adv-x="750" d="M136 255V643L146 635H36V657H160V255H136ZM144 -22L527 680H554L171 -22H144ZM420 107V141L606 406L625 392L444 134L448 128H725V107H420ZM641 0V280H666V0H641Z" />
<glyph unicode="&#xbd;" horiz-adv-x="795" d="M136 255V643L146 635H36V657H160V255H136ZM144 -22L527 680H554L171 -22H144ZM489 0V55Q489 87 504 107T563 147L652 187Q684 201 703 225T722 286Q722 334 693 361T616 389Q569 389 540 362T510 286H485Q485 341
520 376T616 412Q678 412 713 377T748 290V283Q748 241 723 212T660 166L570 126Q537 111 526 96T515 57V11L506 22H756V0H489Z" />
<glyph unicode="&#xbe;" horiz-adv-x="857" d="M176 246Q111 246 74 282T37 372H62Q62 325 93 297T176 269Q228 269 259 297T290 370Q290 417 260 445T177 473Q156 473 143 469T118 458L102 486L281 627L277 634H53V657H300V614L131 481H119Q130 488 144 491T178
495Q242 495 278 460T314 374V367Q314 319 278 283T176 246ZM251 -22L634 680H661L278 -22H251ZM527 107V141L713 406L732 392L551 134L555 128H832V107H527ZM748 0V280H773V0H748Z" />
<glyph unicode="&#xbf;" horiz-adv-x="540" d="M318 351V167H282Q197 167 150 116T102 -15Q102 -69 124 -110T185 -174T278 -197Q331 -197 372 -173T437 -105T460 -1H490Q490 -67 464 -118T389 -198T278 -227Q215 -227 168 -199T96 -123T70 -20V-10Q70 44 94 91T167
168T290 197L286 177V351H318ZM326 521V467H278V521H326Z" />
<glyph unicode="&#xc0;" horiz-adv-x="734" d="M42 0L323 730H401L692 0H659L374 715L400 700H322L348 715L74 0H42ZM160 260L171 290H557L569 260H160ZM354 802L240 940H278L390 802H354Z" />
<glyph unicode="&#xc1;" horiz-adv-x="734" d="M42 0L323 730H401L692 0H659L374 715L400 700H322L348 715L74 0H42ZM160 260L171 290H557L569 260H160ZM337 802L449 940H486L372 802H337Z" />
<glyph unicode="&#xc2;" horiz-adv-x="734" d="M42 0L323 730H401L692 0H659L374 715L400 700H322L348 715L74 0H42ZM160 260L171 290H557L569 260H160ZM225 802L336 940H387L498 802H464L371 918H351L258 802H225Z" />
<glyph unicode="&#xc3;" horiz-adv-x="734" d="M42 0L323 730H401L692 0H659L374 715L400 700H322L348 715L74 0H42ZM160 260L171 290H557L569 260H160ZM425 830Q404 830 389 837T360 854T332 871T299 879Q279 879 261 869T231 835L208 849Q221 875 245 891T300
907Q321 907 336 900T365 883T393 866T426 858Q446 858 464 869T493 902L516 888Q502 862 478 846T425 830Z" />
<glyph unicode="&#xc4;" horiz-adv-x="734" d="M42 0L323 730H401L692 0H659L374 715L400 700H322L348 715L74 0H42ZM160 260L171 290H557L569 260H160ZM259 832Q243 832 233 841T223 867Q223 883 233 892T259 902Q276 902 285 893T295 867Q295 851 286 842T259
832ZM465 832Q449 832 439 841T429 867Q429 883 439 892T465 902Q482 902 491 893T501 867Q501 851 492 842T465 832Z" />
<glyph unicode="&#xc5;" horiz-adv-x="734" d="M42 0L323 730H401L692 0H659L374 715L400 700H322L348 715L74 0H42ZM160 260L171 290H557L569 260H160ZM362 780Q311 780 284 811T257 880Q257 919 284 949T362 980Q413 980 440 950T467 880Q467 842 440 811T362
780ZM362 806Q401 806 420 828T439 880Q439 910 420 932T362 954Q323 954 304 932T285 880Q285 851 304 829T362 806Z" />
<glyph unicode="&#xc6;" horiz-adv-x="962" d="M26 0L323 730H502V700H324L346 715L58 0H26ZM171 313L180 343H502V313H171ZM489 0V730H521V0H489ZM506 0V30H888V0H506ZM506 352V382H849V352H506ZM506 700V730H875V700H506Z" />
<glyph unicode="&#xc7;" horiz-adv-x="792" d="M429 -16Q336 -16 268 18T156 107T91 229T70 360V372Q70 441 91 508T157 629T267 716T421 748Q506 748 572 717T679 628T729 495H697Q688 566 650 616T553 692T421 718Q343 718 284 690T184 612T123 499T102 366Q102
302 122 239T182 126T284 45T429 14Q541 14 617 72T712 237H744Q732 161 690 104T582 16T429 -16ZM432 -232Q410 -232 392 -229T359 -222V-194Q374 -198 393 -201T432 -204Q468 -204 488 -191T508 -149Q508 -125 490 -111T438 -96H412V10H438V-89L427 -70H438Q484
-70 511 -92T538 -149Q538 -189 510 -210T432 -232Z" />
<glyph unicode="&#xc8;" horiz-adv-x="608" d="M130 0V730H162V0H130ZM147 0V30H534V0H147ZM147 356V386H495V356H147ZM147 700V730H521V700H147ZM316 802L202 940H240L352 802H316Z" />
<glyph unicode="&#xc9;" horiz-adv-x="608" d="M130 0V730H162V0H130ZM147 0V30H534V0H147ZM147 356V386H495V356H147ZM147 700V730H521V700H147ZM299 802L411 940H448L334 802H299Z" />
<glyph unicode="&#xca;" horiz-adv-x="608" d="M130 0V730H162V0H130ZM147 0V30H534V0H147ZM147 356V386H495V356H147ZM147 700V730H521V700H147ZM187 802L298 940H349L460 802H426L333 918H313L220 802H187Z" />
<glyph unicode="&#xcb;" horiz-adv-x="608" d="M130 0V730H162V0H130ZM147 0V30H534V0H147ZM147 356V386H495V356H147ZM147 700V730H521V700H147ZM221 832Q205 832 195 841T185 867Q185 883 195 892T221 902Q238 902 247 893T257 867Q257 851 248 842T221 832ZM427
832Q411 832 401 841T391 867Q391 883 401 892T427 902Q444 902 453 893T463 867Q463 851 454 842T427 832Z" />
<glyph unicode="&#xcc;" horiz-adv-x="296" d="M132 0V730H164V0H132ZM140 802L26 940H64L176 802H140Z" />
<glyph unicode="&#xcd;" horiz-adv-x="296" d="M132 0V730H164V0H132ZM123 802L235 940H272L158 802H123Z" />
<glyph unicode="&#xce;" horiz-adv-x="296" d="M132 0V730H164V0H132ZM11 802L122 940H173L284 802H250L157 918H137L44 802H11Z" />
<glyph unicode="&#xcf;" horiz-adv-x="296" d="M132 0V730H164V0H132ZM45 832Q29 832 19 841T9 867Q9 883 19 892T45 902Q62 902 71 893T81 867Q81 851 72 842T45 832ZM251 832Q235 832 225 841T215 867Q215 883 225 892T251 902Q268 902 277 893T287 867Q287
851 278 842T251 832Z" />
<glyph unicode="&#xd0;" horiz-adv-x="804" d="M143 -3V27H376Q465 27 528 55T632 132T692 241T712 366Q712 432 692 492T631 600T526 675T376 702H143V732H372Q468 732 538 702T654 621T722 506T744 373V360Q744 294 723 230T657 113T542 29T372 -3H143ZM130
-3V732H162V-3H130ZM32 350V380H380V350H32Z" />
<glyph unicode="&#xd1;" horiz-adv-x="822" d="M130 0V730H191L648 30H680L660 18V730H692V0H631L174 700H142L162 712V0H130ZM491 830Q470 830 455 837T426 854T398 871T365 879Q345 879 327 869T297 835L274 849Q287 875 311 891T366 907Q387 907 402 900T431
883T459 866T492 858Q512 858 530 869T559 902L582 888Q568 862 544 846T491 830Z" />
<glyph unicode="&#xd2;" horiz-adv-x="872" d="M437 -16Q348 -16 280 16T165 103T94 225T70 361V373Q70 444 95 510T167 631T283 716T437 748Q523 748 590 717T705 631T777 511T802 373V360Q802 291 779 225T709 104T594 17T437 -16ZM437 14Q518 14 580 43T684
123T748 237T770 366Q770 435 748 498T682 610T577 689T437 718Q359 718 297 689T192 611T125 498T102 366Q102 300 124 237T188 124T293 44T437 14ZM429 802L315 940H353L465 802H429Z" />
<glyph unicode="&#xd3;" horiz-adv-x="872" d="M437 -16Q348 -16 280 16T165 103T94 225T70 361V373Q70 444 95 510T167 631T283 716T437 748Q523 748 590 717T705 631T777 511T802 373V360Q802 291 779 225T709 104T594 17T437 -16ZM437 14Q518 14 580 43T684
123T748 237T770 366Q770 435 748 498T682 610T577 689T437 718Q359 718 297 689T192 611T125 498T102 366Q102 300 124 237T188 124T293 44T437 14ZM412 802L524 940H561L447 802H412Z" />
<glyph unicode="&#xd4;" horiz-adv-x="872" d="M437 -16Q348 -16 280 16T165 103T94 225T70 361V373Q70 444 95 510T167 631T283 716T437 748Q523 748 590 717T705 631T777 511T802 373V360Q802 291 779 225T709 104T594 17T437 -16ZM437 14Q518 14 580 43T684
123T748 237T770 366Q770 435 748 498T682 610T577 689T437 718Q359 718 297 689T192 611T125 498T102 366Q102 300 124 237T188 124T293 44T437 14ZM300 802L411 940H462L573 802H539L446 918H426L333 802H300Z" />
<glyph unicode="&#xd5;" horiz-adv-x="872" d="M437 -16Q348 -16 280 16T165 103T94 225T70 361V373Q70 444 95 510T167 631T283 716T437 748Q523 748 590 717T705 631T777 511T802 373V360Q802 291 779 225T709 104T594 17T437 -16ZM437 14Q518 14 580 43T684
123T748 237T770 366Q770 435 748 498T682 610T577 689T437 718Q359 718 297 689T192 611T125 498T102 366Q102 300 124 237T188 124T293 44T437 14ZM500 830Q479 830 464 837T435 854T407 871T374 879Q354 879 336 869T306 835L283 849Q296 875 320 891T375 907Q396
907 411 900T440 883T468 866T501 858Q521 858 539 869T568 902L591 888Q577 862 553 846T500 830Z" />
<glyph unicode="&#xd6;" horiz-adv-x="872" d="M437 -16Q348 -16 280 16T165 103T94 225T70 361V373Q70 444 95 510T167 631T283 716T437 748Q523 748 590 717T705 631T777 511T802 373V360Q802 291 779 225T709 104T594 17T437 -16ZM437 14Q518 14 580 43T684
123T748 237T770 366Q770 435 748 498T682 610T577 689T437 718Q359 718 297 689T192 611T125 498T102 366Q102 300 124 237T188 124T293 44T437 14ZM334 832Q318 832 308 841T298 867Q298 883 308 892T334 902Q351 902 360 893T370 867Q370 851 361 842T334 832ZM540
832Q524 832 514 841T504 867Q504 883 514 892T540 902Q557 902 566 893T576 867Q576 851 567 842T540 832Z" />
<glyph unicode="&#xd7;" horiz-adv-x="584" d="M475 145L494 164L109 547L90 528L475 145ZM109 146L494 527L475 546L90 165L109 146Z" />
<glyph unicode="&#xd8;" horiz-adv-x="872" d="M137 -32L699 764H735L173 -32H137ZM437 -16Q348 -16 280 16T165 103T94 225T70 361V373Q70 444 95 510T167 631T283 716T437 748Q523 748 590 717T705 631T777 511T802 373V360Q802 291 779 225T709 104T594 17T437
-16ZM437 14Q518 14 580 43T684 123T748 237T770 366Q770 435 748 498T682 610T577 689T437 718Q359 718 297 689T192 611T125 498T102 366Q102 300 124 237T188 124T293 44T437 14Z" />
<glyph unicode="&#xd9;" horiz-adv-x="806" d="M403 -16Q303 -16 240 22T146 126T116 275V730H148V271Q148 194 175 136T258 46T403 14Q492 14 548 46T631 136T658 271V730H690V275Q690 192 660 126T567 22T403 -16ZM395 802L281 940H319L431 802H395Z" />
<glyph unicode="&#xda;" horiz-adv-x="806" d="M403 -16Q303 -16 240 22T146 126T116 275V730H148V271Q148 194 175 136T258 46T403 14Q492 14 548 46T631 136T658 271V730H690V275Q690 192 660 126T567 22T403 -16ZM378 802L490 940H527L413 802H378Z" />
<glyph unicode="&#xdb;" horiz-adv-x="806" d="M403 -16Q303 -16 240 22T146 126T116 275V730H148V271Q148 194 175 136T258 46T403 14Q492 14 548 46T631 136T658 271V730H690V275Q690 192 660 126T567 22T403 -16ZM266 802L377 940H428L539 802H505L412 918H392L299
802H266Z" />
<glyph unicode="&#xdc;" horiz-adv-x="806" d="M403 -16Q303 -16 240 22T146 126T116 275V730H148V271Q148 194 175 136T258 46T403 14Q492 14 548 46T631 136T658 271V730H690V275Q690 192 660 126T567 22T403 -16ZM300 832Q284 832 274 841T264 867Q264 883
274 892T300 902Q317 902 326 893T336 867Q336 851 327 842T300 832ZM506 832Q490 832 480 841T470 867Q470 883 480 892T506 902Q523 902 532 893T542 867Q542 851 533 842T506 832Z" />
<glyph unicode="&#xdd;" horiz-adv-x="644" d="M271 289L32 730H66L296 304L277 319H373L355 304L575 730H608L379 289H271ZM309 0V301H341V0H309ZM295 802L407 940H444L330 802H295Z" />
<glyph unicode="&#xde;" horiz-adv-x="592" d="M143 156V186H310Q381 186 424 211T486 278T506 372Q506 424 487 466T424 533T310 558H143V588H308Q390 588 440 559T514 481T538 377V367Q538 312 515 264T441 186T308 156H143ZM130 0V732H162V0H130Z" />
<glyph unicode="&#xdf;" horiz-adv-x="584" d="M312 -11Q287 -11 260 -8T212 0V30Q234 26 261 23T312 19Q407 19 452 68T498 190Q498 252 470 295T393 362T285 385H244V415H283Q331 415 362 437T408 493T424 563Q424 599 410 633T365 688T287 710Q238 710 206
685T158 618T142 523V0H110V517Q110 621 156 680T285 740H289Q343 740 380 716T436 651T456 563Q456 513 434 474T374 413T283 391V409Q354 409 410 384T498 309T530 188Q530 132 506 87T433 16T312 -11ZM50 484V514H130V484H50Z" />
<glyph unicode="&#xe0;" horiz-adv-x="556" d="M428 0V156H422V352Q422 419 387 457T265 495Q239 495 214 494T166 490T124 485V515Q144 518 165 520T207 524T249 525Q327 525 371 504T435 443T454 344V0H428ZM241 -14Q192 -14 151 4T85 59T60 147Q60 194 82 229T147
283T249 302H424V274H243Q170 274 131 239T92 146Q92 84 135 49T243 14Q285 14 325 30T392 84T422 188L438 172Q436 109 408 68T337 6T241 -14ZM263 613L167 797H201L295 613H263Z" />
<glyph unicode="&#xe1;" horiz-adv-x="556" d="M428 0V156H422V352Q422 419 387 457T265 495Q239 495 214 494T166 490T124 485V515Q144 518 165 520T207 524T249 525Q327 525 371 504T435 443T454 344V0H428ZM241 -14Q192 -14 151 4T85 59T60 147Q60 194 82 229T147
283T249 302H424V274H243Q170 274 131 239T92 146Q92 84 135 49T243 14Q285 14 325 30T392 84T422 188L438 172Q436 109 408 68T337 6T241 -14ZM248 613L332 797H366L280 613H248Z" />
<glyph unicode="&#xe2;" horiz-adv-x="556" d="M428 0V156H422V352Q422 419 387 457T265 495Q239 495 214 494T166 490T124 485V515Q144 518 165 520T207 524T249 525Q327 525 371 504T435 443T454 344V0H428ZM241 -14Q192 -14 151 4T85 59T60 147Q60 194 82 229T147
283T249 302H424V274H243Q170 274 131 239T92 146Q92 84 135 49T243 14Q285 14 325 30T392 84T422 188L438 172Q436 109 408 68T337 6T241 -14ZM142 613L248 797H297L404 613H373L277 775H269L174 613H142Z" />
<glyph unicode="&#xe3;" horiz-adv-x="556" d="M428 0V156H422V352Q422 419 387 457T265 495Q239 495 214 494T166 490T124 485V515Q144 518 165 520T207 524T249 525Q327 525 371 504T435 443T454 344V0H428ZM241 -14Q192 -14 151 4T85 59T60 147Q60 194 82 229T147
283T249 302H424V274H243Q170 274 131 239T92 146Q92 84 135 49T243 14Q285 14 325 30T392 84T422 188L438 172Q436 109 408 68T337 6T241 -14ZM336 655Q314 655 299 663T271 681T245 699T213 707Q194 707 179 696T150 663L129 680Q145 708 167 721T214 735Q236
735 252 727T280 709T306 691T337 683Q356 683 371 694T400 727L421 710Q405 682 384 669T336 655Z" />
<glyph unicode="&#xe4;" horiz-adv-x="556" d="M428 0V156H422V352Q422 419 387 457T265 495Q239 495 214 494T166 490T124 485V515Q144 518 165 520T207 524T249 525Q327 525 371 504T435 443T454 344V0H428ZM241 -14Q192 -14 151 4T85 59T60 147Q60 194 82 229T147
283T249 302H424V274H243Q170 274 131 239T92 146Q92 84 135 49T243 14Q285 14 325 30T392 84T422 188L438 172Q436 109 408 68T337 6T241 -14ZM178 655Q160 655 151 664T142 689Q142 703 151 713T178 723Q196 723 205 713T214 689Q214 674 205 665T178 655ZM368
655Q350 655 341 664T332 689Q332 703 341 713T368 723Q386 723 395 713T404 689Q404 674 395 665T368 655Z" />
<glyph unicode="&#xe5;" horiz-adv-x="556" d="M428 0V156H422V352Q422 419 387 457T265 495Q239 495 214 494T166 490T124 485V515Q144 518 165 520T207 524T249 525Q327 525 371 504T435 443T454 344V0H428ZM241 -14Q192 -14 151 4T85 59T60 147Q60 194 82 229T147
283T249 302H424V274H243Q170 274 131 239T92 146Q92 84 135 49T243 14Q285 14 325 30T392 84T422 188L438 172Q436 109 408 68T337 6T241 -14ZM273 603Q227 603 198 633T169 705Q169 747 198 777T273 807Q320 807 348 777T377 705Q377 663 349 633T273 603ZM274
629Q309 629 329 650T349 705Q349 738 329 759T274 781Q238 781 218 760T197 705Q197 672 217 651T274 629Z" />
<glyph unicode="&#xe6;" horiz-adv-x="954" d="M670 -16Q611 -16 569 2T499 50T454 114T429 182H442Q440 113 411 70T337 6T239 -14Q190 -14 149 4T84 59T60 147Q60 194 82 228T145 281T247 300H420V272H241Q168 272 130 238T92 146Q92 84 134 49T241 14Q283 14
322 30T389 84T418 188V352Q418 419 384 457T267 495Q239 495 214 494T166 490T124 485V515Q144 518 164 520T206 524T247 525Q325 525 369 504T430 443T448 344H431Q443 397 473 440T551 510T664 536Q740 536 793 501T874 411T902 293V261H435V291H885L872 281Q872
344 848 395T777 476T664 506Q593 506 545 472T473 383T448 263Q448 197 472 141T545 49T670 14Q751 14 800 52T862 146H894Q884 99 855 63T779 5T670 -16Z" />
<glyph unicode="&#xe7;" horiz-adv-x="600" d="M317 -16Q254 -16 207 7T127 71T78 160T62 260V266Q62 317 78 365T126 452T206 513T317 536Q379 536 426 514T505 452T546 356H514Q503 421 453 463T317 506Q242 506 193 473T119 384T94 263Q94 199 119 142T193
50T317 14Q374 14 418 35T489 91T522 168H554Q546 113 513 72T430 8T317 -16ZM322 -222Q303 -222 286 -220T255 -214V-186Q270 -190 288 -192T322 -194Q357 -194 374 -182T392 -142Q392 -120 377 -106T326 -92H300V10H326V-85L315 -66H326Q373 -66 397 -88T422
-142Q422 -179 396 -200T322 -222Z" />
<glyph unicode="&#xe8;" horiz-adv-x="602" d="M316 -16Q251 -16 203 7T124 69T78 158T62 260V266Q62 317 77 365T124 452T202 513T310 536Q386 536 439 501T521 411T550 293V261H79V291H533L520 281Q520 344 495 395T423 476T310 506Q238 506 190 472T117 383T92
263Q92 197 116 141T190 49T316 14Q398 14 448 52T510 146H542Q532 99 502 63T426 5T316 -16ZM300 612L204 796H238L332 612H300Z" />
<glyph unicode="&#xe9;" horiz-adv-x="602" d="M316 -16Q251 -16 203 7T124 69T78 158T62 260V266Q62 317 77 365T124 452T202 513T310 536Q386 536 439 501T521 411T550 293V261H79V291H533L520 281Q520 344 495 395T423 476T310 506Q238 506 190 472T117 383T92
263Q92 197 116 141T190 49T316 14Q398 14 448 52T510 146H542Q532 99 502 63T426 5T316 -16ZM285 612L369 796H403L317 612H285Z" />
<glyph unicode="&#xea;" horiz-adv-x="602" d="M316 -16Q251 -16 203 7T124 69T78 158T62 260V266Q62 317 77 365T124 452T202 513T310 536Q386 536 439 501T521 411T550 293V261H79V291H533L520 281Q520 344 495 395T423 476T310 506Q238 506 190 472T117 383T92
263Q92 197 116 141T190 49T316 14Q398 14 448 52T510 146H542Q532 99 502 63T426 5T316 -16ZM179 612L285 796H334L441 612H410L314 774H306L211 612H179Z" />
<glyph unicode="&#xeb;" horiz-adv-x="602" d="M316 -16Q251 -16 203 7T124 69T78 158T62 260V266Q62 317 77 365T124 452T202 513T310 536Q386 536 439 501T521 411T550 293V261H79V291H533L520 281Q520 344 495 395T423 476T310 506Q238 506 190 472T117 383T92
263Q92 197 116 141T190 49T316 14Q398 14 448 52T510 146H542Q532 99 502 63T426 5T316 -16ZM215 654Q197 654 188 663T179 688Q179 702 188 712T215 722Q233 722 242 712T251 688Q251 673 242 664T215 654ZM405 654Q387 654 378 663T369 688Q369 702 378 712T405
722Q423 722 432 712T441 688Q441 673 432 664T405 654Z" />
<glyph unicode="&#xec;" horiz-adv-x="280" d="M138 0V520H170V0H138ZM48 490V520H170V490H48ZM103 612L7 796H41L135 612H103Z" />
<glyph unicode="&#xed;" horiz-adv-x="280" d="M138 0V520H170V0H138ZM48 490V520H170V490H48ZM88 612L172 796H206L120 612H88Z" />
<glyph unicode="&#xee;" horiz-adv-x="280" d="M138 0V520H170V0H138ZM48 490V520H170V490H48ZM238 612L344 796H393L500 612H469L373 774H365L270 612H238Z" />
<glyph unicode="&#xef;" horiz-adv-x="280" d="M138 0V520H170V0H138ZM48 490V520H170V490H48ZM274 654Q256 654 247 663T238 688Q238 702 247 712T274 722Q292 722 301 712T310 688Q310 673 301 664T274 654ZM464 654Q446 654 437 663T428 688Q428 702 437 712T464
722Q482 722 491 712T500 688Q500 673 491 664T464 654Z" />
<glyph unicode="&#xf0;" horiz-adv-x="620" d="M309 -16Q249 -16 203 5T125 62T78 143T62 238V261Q62 329 90 387T173 480T309 516Q382 516 429 489T502 420T531 331H523Q522 447 500 531T433 650Q408 669 375 679T289 690Q267 690 243 688T195 682V712Q215 716
240 718T289 720Q383 720 441 680T526 545T553 285V273Q553 184 525 119T442 19T309 -16ZM309 14Q383 14 430 45T500 130T523 250Q523 319 499 372T428 455T309 486Q236 486 188 455T117 370T94 250Q94 186 117 132T189 46T309 14ZM339 553L323 573L531 738L547
718L339 553Z" />
<glyph unicode="&#xf1;" horiz-adv-x="626" d="M108 0V520H134V312H122Q122 376 145 426T212 505T323 534H325Q423 534 473 473T524 312V0H492V320Q492 402 449 453T322 504Q238 504 189 452T140 316V0H108ZM384 654Q362 654 347 662T319 680T293 698T261 706Q242
706 227 695T198 662L177 679Q193 707 215 720T262 734Q284 734 300 726T328 708T354 690T385 682Q404 682 419 693T448 726L469 709Q453 681 432 668T384 654Z" />
<glyph unicode="&#xf2;" horiz-adv-x="654" d="M327 -16Q263 -16 214 7T131 70T80 157T62 257V263Q62 315 80 364T132 451T215 513T327 536Q390 536 439 513T522 452T574 364T592 263V257Q592 206 575 158T524 70T441 8T327 -16ZM327 14Q403 14 454 49T533 140T560
260Q560 326 533 382T453 472T327 506Q254 506 202 472T122 382T94 260Q94 196 121 140T200 49T327 14ZM317 612L221 796H255L349 612H317Z" />
<glyph unicode="&#xf3;" horiz-adv-x="654" d="M327 -16Q263 -16 214 7T131 70T80 157T62 257V263Q62 315 80 364T132 451T215 513T327 536Q390 536 439 513T522 452T574 364T592 263V257Q592 206 575 158T524 70T441 8T327 -16ZM327 14Q403 14 454 49T533 140T560
260Q560 326 533 382T453 472T327 506Q254 506 202 472T122 382T94 260Q94 196 121 140T200 49T327 14ZM302 612L386 796H420L334 612H302Z" />
<glyph unicode="&#xf4;" horiz-adv-x="654" d="M327 -16Q263 -16 214 7T131 70T80 157T62 257V263Q62 315 80 364T132 451T215 513T327 536Q390 536 439 513T522 452T574 364T592 263V257Q592 206 575 158T524 70T441 8T327 -16ZM327 14Q403 14 454 49T533 140T560
260Q560 326 533 382T453 472T327 506Q254 506 202 472T122 382T94 260Q94 196 121 140T200 49T327 14ZM196 612L302 796H351L458 612H427L331 774H323L228 612H196Z" />
<glyph unicode="&#xf5;" horiz-adv-x="654" d="M327 -16Q263 -16 214 7T131 70T80 157T62 257V263Q62 315 80 364T132 451T215 513T327 536Q390 536 439 513T522 452T574 364T592 263V257Q592 206 575 158T524 70T441 8T327 -16ZM327 14Q403 14 454 49T533 140T560
260Q560 326 533 382T453 472T327 506Q254 506 202 472T122 382T94 260Q94 196 121 140T200 49T327 14ZM390 654Q368 654 353 662T325 680T299 698T267 706Q248 706 233 695T204 662L183 679Q199 707 221 720T268 734Q290 734 306 726T334 708T360 690T391 682Q410
682 425 693T454 726L475 709Q459 681 438 668T390 654Z" />
<glyph unicode="&#xf6;" horiz-adv-x="654" d="M327 -16Q263 -16 214 7T131 70T80 157T62 257V263Q62 315 80 364T132 451T215 513T327 536Q390 536 439 513T522 452T574 364T592 263V257Q592 206 575 158T524 70T441 8T327 -16ZM327 14Q403 14 454 49T533 140T560
260Q560 326 533 382T453 472T327 506Q254 506 202 472T122 382T94 260Q94 196 121 140T200 49T327 14ZM232 654Q214 654 205 663T196 688Q196 702 205 712T232 722Q250 722 259 712T268 688Q268 673 259 664T232 654ZM422 654Q404 654 395 663T386 688Q386 702
395 712T422 722Q440 722 449 712T458 688Q458 673 449 664T422 654Z" />
<glyph unicode="&#xf7;" horiz-adv-x="584" d="M86 331V359H498V331H86ZM266 127V185H318V127H266ZM266 505V563H318V505H266Z" />
<glyph unicode="&#xf8;" horiz-adv-x="654" d="M100 -36L530 572H564L134 -36H100ZM327 -16Q263 -16 214 7T131 70T80 157T62 257V263Q62 315 80 364T132 451T215 513T327 536Q390 536 439 513T522 452T574 364T592 263V257Q592 206 575 158T524 70T441 8T327
-16ZM327 14Q403 14 454 49T533 140T560 260Q560 326 533 382T453 472T327 506Q254 506 202 472T122 382T94 260Q94 196 121 140T200 49T327 14Z" />
<glyph unicode="&#xf9;" horiz-adv-x="604" d="M285 -14Q190 -14 142 46T94 204V520H126V196Q126 117 167 67T288 16Q370 16 416 67T462 200V520H494V0H468V204H480Q480 142 459 93T395 15T287 -14H285ZM284 612L188 796H222L316 612H284Z" />
<glyph unicode="&#xfa;" horiz-adv-x="604" d="M285 -14Q190 -14 142 46T94 204V520H126V196Q126 117 167 67T288 16Q370 16 416 67T462 200V520H494V0H468V204H480Q480 142 459 93T395 15T287 -14H285ZM269 612L353 796H387L301 612H269Z" />
<glyph unicode="&#xfb;" horiz-adv-x="604" d="M285 -14Q190 -14 142 46T94 204V520H126V196Q126 117 167 67T288 16Q370 16 416 67T462 200V520H494V0H468V204H480Q480 142 459 93T395 15T287 -14H285ZM163 612L269 796H318L425 612H394L298 774H290L195 612H163Z" />
<glyph unicode="&#xfc;" horiz-adv-x="604" d="M285 -14Q190 -14 142 46T94 204V520H126V196Q126 117 167 67T288 16Q370 16 416 67T462 200V520H494V0H468V204H480Q480 142 459 93T395 15T287 -14H285ZM199 654Q181 654 172 663T163 688Q163 702 172 712T199
722Q217 722 226 712T235 688Q235 673 226 664T199 654ZM389 654Q371 654 362 663T353 688Q353 702 362 712T389 722Q407 722 416 712T425 688Q425 673 416 664T389 654Z" />
<glyph unicode="&#xfd;" horiz-adv-x="508" d="M38 -202V-172H89Q125 -172 152 -164T201 -132T237 -64L434 520H466L263 -77Q247 -124 222 -151T162 -190T87 -202H38ZM229 14V44H282V14H229ZM220 14L28 520H61L252 14H220ZM222 612L306 796H340L254 612H222Z" />
<glyph unicode="&#xfe;" horiz-adv-x="674" d="M108 -200V730H140V360L118 293Q118 360 148 415T233 503T361 536Q421 536 468 513T547 451T595 364T612 263V257Q612 208 596 160T549 72T470 8T361 -16Q285 -16 231 19T149 111T120 231L140 166V-200H108ZM359
14Q431 14 480 49T555 141T580 260Q580 326 554 382T479 472T359 506Q294 506 244 477T166 399T138 287V233Q138 175 165 125T241 45T359 14Z" />
<glyph unicode="&#xff;" horiz-adv-x="508" d="M38 -202V-172H89Q125 -172 152 -164T201 -132T237 -64L434 520H466L263 -77Q247 -124 222 -151T162 -190T87 -202H38ZM229 14V44H282V14H229ZM220 14L28 520H61L252 14H220ZM152 654Q134 654 125 663T116 688Q116
702 125 712T152 722Q170 722 179 712T188 688Q188 673 179 664T152 654ZM342 654Q324 654 315 663T306 688Q306 702 315 712T342 722Q360 722 369 712T378 688Q378 673 369 664T342 654Z" />
<glyph unicode="&#x2013;" horiz-adv-x="494" d="M18 264V292H476V264H18Z" />
<glyph unicode="&#x2014;" horiz-adv-x="882" d="M18 264V292H864V264H18Z" />
<glyph unicode="&#x2018;" horiz-adv-x="226" d="M170 732V704H162Q134 704 116 694T89 656T80 576V527L73 538Q77 542 84 545T103 548Q121 548 131 538T142 509Q142 492 133 482T104 472Q88 472 77 480T59 505T52 553V570Q52 637 65 672T102 719T160 732H170Z" />
<glyph unicode="&#x2019;" horiz-adv-x="226" d="M56 474V502H64Q92 502 110 512T137 550T146 630V679L153 668Q149 664 142 661T123 658Q105 658 95 668T84 697Q84 714 93 724T122 734Q138 734 149 726T167 701T174 653V636Q174 569 161 534T124 487T66 474H56Z" />
<glyph unicode="&#x201a;" horiz-adv-x="226" d="M56 -184V-156H64Q92 -156 110 -146T137 -108T146 -28V21L153 10Q149 6 142 3T123 0Q105 0 95 10T84 39Q84 56 93 66T122 76Q138 76 149 68T167 43T174 -5V-22Q174 -89 161 -124T124 -171T66 -184H56Z" />
<glyph unicode="&#x201c;" horiz-adv-x="390" d="M334 732V704H326Q298 704 280 694T253 656T244 576V527L237 538Q241 542 248 545T267 548Q285 548 295 538T306 509Q306 492 297 482T268 472Q252 472 241 480T223 505T216 553V570Q216 637 229 672T266 719T324
732H334ZM170 732V704H162Q134 704 116 694T89 656T80 576V527L73 538Q77 542 84 545T103 548Q121 548 131 538T142 509Q142 492 133 482T104 472Q88 472 77 480T59 505T52 553V570Q52 637 65 672T102 719T160 732H170Z" />
<glyph unicode="&#x201d;" horiz-adv-x="390" d="M56 474V502H64Q92 502 110 512T137 550T146 630V679L153 668Q149 664 142 661T123 658Q105 658 95 668T84 697Q84 714 93 724T122 734Q138 734 149 726T167 701T174 653V636Q174 569 161 534T124 487T66 474H56ZM220
474V502H228Q256 502 274 512T301 550T310 630V679L317 668Q313 664 306 661T287 658Q269 658 259 668T248 697Q248 714 257 724T286 734Q302 734 313 726T331 701T338 653V636Q338 569 325 534T288 487T230 474H220Z" />
<glyph unicode="&#x201e;" horiz-adv-x="390" d="M56 -184V-156H64Q92 -156 110 -146T137 -108T146 -28V21L153 10Q149 6 142 3T123 0Q105 0 95 10T84 39Q84 56 93 66T122 76Q138 76 149 68T167 43T174 -5V-22Q174 -89 161 -124T124 -171T66 -184H56ZM220 -184V-156H228Q256
-156 274 -146T301 -108T310 -28V21L317 10Q313 6 306 3T287 0Q269 0 259 10T248 39Q248 56 257 66T286 76Q302 76 313 68T331 43T338 -5V-22Q338 -89 325 -124T288 -171T230 -184H220Z" />
<glyph unicode="&#x2022;" horiz-adv-x="430" d="M112 179V395H318V179H112Z" />
<glyph unicode="&#x2039;" horiz-adv-x="278" d="M188 39L64 244V274L187 483H218L91 268V252L220 39H188Z" />
<glyph unicode="&#x203a;" horiz-adv-x="278" d="M90 483L214 278V248L91 39H60L187 254V270L58 483H90Z" />
</font>
</defs>
</svg>
