<?xml version="1.0" standalone="no"?>
<!DOCTYPE svg PUBLIC "-//W3C//DTD SVG 1.1//EN" "http://www.w3.org/Graphics/SVG/1.1/DTD/svg11.dtd">
<svg xmlns="http://www.w3.org/2000/svg">
<defs >
<font id="Sora" horiz-adv-x="590" ><font-face
    font-family="Sora Medium"
    units-per-em="1000"
    panose-1="0 0 0 0 0 0 0 0 0 0"
    ascent="970"
    descent="-290"
    alphabetic="0" />
<glyph unicode=" " horiz-adv-x="222" />
<glyph unicode="!" horiz-adv-x="303" d="M92 228V730H212V228H92ZM82 0V135H222V0H82Z" />
<glyph unicode="&quot;" horiz-adv-x="452" d="M81 447V730H184V447H81ZM269 447V730H372V447H269Z" />
<glyph unicode="#" horiz-adv-x="702" d="M125 0L238 730H338L225 0H125ZM366 0L479 730H578L465 0H366ZM35 201V283H630V201H35ZM72 447V529H667V447H72Z" />
<glyph unicode="$" horiz-adv-x="652" d="M326 -1Q236 -1 175 27T81 108T49 232H158Q158 200 174 169T227 117T326 96Q409 96 450 129T491 208Q491 252 455 281T346 317L285 322Q186 331 127 382T68 527Q68 592 98 637T185 706T319 730Q398 730 454 704T540 626T570
504H461Q461 537 446 566T400 614T319 633Q274 633 243 620T195 582T178 527Q178 488 206 459T295 424L356 418Q468 408 535 355T602 208Q602 144 569 97T474 25T326 -1ZM274 -129V17H375V-129H274ZM270 681V827H371V681H270Z" />
<glyph unicode="%" horiz-adv-x="864" d="M250 0L522 730H618L345 0H250ZM197 335Q139 335 103 361T49 430T31 526V552Q31 607 49 650T104 717T197 742Q254 742 290 718T345 650T363 552V526Q363 474 346 431T292 361T197 335ZM197 415Q238 415 258 444T278 538Q278
605 258 634T197 663Q157 663 137 634T116 539Q116 475 136 445T197 415ZM667 -12Q609 -12 572 14T518 83T500 178V204Q500 259 518 302T573 370T667 395Q723 395 760 370T815 302T833 204V178Q833 127 816 84T762 14T667 -12ZM667 67Q708 67 727 97T747 190Q747
257 727 286T667 315Q627 315 607 286T586 191Q586 128 606 98T667 67Z" />
<glyph unicode="&amp;" horiz-adv-x="702" d="M535 0L242 314Q196 364 170 400T133 470T122 542Q122 606 147 649T226 716T367 739Q401 739 441 736T512 728V628Q492 630 461 633T400 637T351 639Q284 639 258 613T232 538Q232 497 251 462T313 382L670 0H535ZM290
-19Q212 -19 153 11T62 92T29 207V221Q29 294 69 350T172 438L227 365Q189 345 165 306T140 217Q140 174 159 143T214 96T293 80Q359 80 409 116T488 227T516 414H620Q620 312 597 232T531 96T426 11T290 -19ZM407 398V488H677V398H407Z" />
<glyph unicode="&apos;" horiz-adv-x="264" d="M81 447V730H184V447H81Z" />
<glyph unicode="(" horiz-adv-x="382" d="M235 -182Q184 -121 145 -50T85 108T64 302Q64 409 86 494T147 649T236 776H369Q310 710 268 638T203 483T180 302Q180 203 200 120T263 -38T369 -182H235Z" />
<glyph unicode=")" horiz-adv-x="382" d="M147 -182Q198 -121 237 -50T297 108T318 302Q318 409 296 494T235 649T146 776H13Q72 710 114 638T179 483T202 302Q202 203 182 120T119 -38T13 -182H147Z" />
<glyph unicode="*" horiz-adv-x="568" d="M473 371L321 480V582L473 691L523 604L395 549V513L523 459L473 371ZM322 781L304 594L215 543L45 621L95 707L207 624L238 642L222 779L322 781ZM45 442L215 520L304 469L322 282L222 283L238 420L207 438L96 355L45 442Z" />
<glyph unicode="+" horiz-adv-x="592" d="M245 102V587H347V102H245ZM61 297V391H532V297H61Z" />
<glyph unicode="," horiz-adv-x="266" d="M112 -162L20 -126L117 148L215 111L112 -162Z" />
<glyph unicode="-" horiz-adv-x="506" d="M59 229V331H447V229H59Z" />
<glyph unicode="." horiz-adv-x="266" d="M65 0V141H201V0H65Z" />
<glyph unicode="/" horiz-adv-x="365" d="M23 -60L228 780H342L137 -60H23Z" />
<glyph unicode="0" horiz-adv-x="750" d="M375 -18Q292 -18 233 10T138 88T84 201T67 338V393Q67 493 99 574T200 703T375 751Q482 751 549 703T650 574T683 393V338Q683 266 666 202T613 88T518 11T375 -18ZM375 91Q472 91 517 156T563 364Q563 513 517 577T375
642Q280 642 234 578T187 366Q187 223 233 157T375 91Z" />
<glyph unicode="1" horiz-adv-x="423" d="M195 0V662L239 628H39V730H313V0H195Z" />
<glyph unicode="2" horiz-adv-x="623" d="M71 0V130Q71 175 84 207T130 266T216 316L346 375Q395 397 421 430T448 517Q448 578 413 613T313 649Q249 649 214 614T178 515H62Q62 580 89 633T173 719T313 751Q397 751 452 720T535 637T563 524V510Q563 430 518
376T389 284L258 225Q218 207 203 188T188 138V60L158 102H570V0H71Z" />
<glyph unicode="3" horiz-adv-x="620" d="M303 -18Q220 -18 161 13T72 98T41 216H156Q156 155 195 119T303 83Q348 83 380 99T431 146T449 218Q449 279 410 317T303 356Q273 356 251 348T211 328L154 427L414 611L404 629H70V730H531V591L292 425L218 430Q236
436 257 440T306 444Q388 444 445 415T534 335T565 223V210Q565 149 534 97T445 14T303 -18Z" />
<glyph unicode="4" horiz-adv-x="652" d="M43 162V298L337 749L424 686L157 275L167 256H628V162H43ZM425 0V520H535V0H425Z" />
<glyph unicode="5" horiz-adv-x="630" d="M319 -18Q234 -18 175 16T84 106T53 228H168Q168 186 187 154T240 102T320 83Q366 83 400 102T454 155T473 232Q473 275 455 309T402 363T320 384Q284 384 249 371T194 334H84L121 730H524V629H180L217 665L191 397L161
406Q190 438 232 457T332 477Q415 477 471 443T558 355T588 238V225Q588 163 557 108T466 17T319 -18Z" />
<glyph unicode="6" horiz-adv-x="668" d="M352 -20Q272 -20 217 7T129 83T81 195T66 328V374Q66 550 154 643T412 736Q450 736 480 734T543 728V628Q510 631 479 633T407 636Q320 636 269 605T197 513T175 367V311L147 244Q148 322 177 373T258 450T378 476Q455
476 510 445T593 359T621 232Q621 158 590 101T499 12T352 -20ZM351 81Q402 81 437 100T489 153T507 231Q507 276 490 309T440 362T357 381Q310 381 272 364T213 314T191 230Q191 189 208 155T260 101T351 81Z" />
<glyph unicode="7" horiz-adv-x="585" d="M144 0L435 620L427 631H43V730H554V618L268 0H144ZM43 514V730H141V514H43Z" />
<glyph unicode="8" horiz-adv-x="647" d="M323 -19Q242 -19 180 8T82 86T47 204Q47 248 63 283T109 345T176 385V396Q146 408 122 429T84 481T70 550Q70 615 104 659T196 726T323 749Q394 749 451 726T542 659T576 550Q576 511 563 481T525 430T470 396V385Q509
371 538 345T583 284T600 204Q600 136 565 86T468 9T323 -19ZM323 81Q373 81 409 96T465 142T485 213Q485 254 466 283T410 328T323 344Q273 344 237 328T182 283T163 213Q163 172 182 142T237 97T323 81ZM323 435Q386 435 423 461T460 543Q460 598 423 624T323
650Q261 650 224 624T186 543Q186 488 223 462T323 435Z" />
<glyph unicode="9" horiz-adv-x="668" d="M316 750Q396 750 451 723T539 647T587 535T602 402V356Q602 180 514 87T256 -6Q218 -6 188 -4T125 2V102Q158 99 189 97T261 94Q348 94 399 125T471 217T493 363V419L521 486Q520 408 491 357T410 280T290 254Q213 254
158 285T75 371T47 498Q47 572 78 629T169 718T316 750ZM317 649Q266 649 231 630T179 577T161 499Q161 454 178 421T228 368T311 349Q358 349 396 366T455 416T477 500Q477 541 460 575T408 629T317 649Z" />
<glyph unicode=":" horiz-adv-x="266" d="M65 0V141H201V0H65ZM65 358V499H201V358H65Z" />
<glyph unicode=";" horiz-adv-x="266" d="M115 -162L23 -126L120 148L218 111L115 -162ZM71 358V499H207V358H71Z" />
<glyph unicode="&lt;" horiz-adv-x="592" d="M518 551V453L74 310V405L518 551ZM74 347L518 205V107L74 253V347ZM159 369V287H129V369H159Z" />
<glyph unicode="=" d="M61 378V472H530V378H61ZM61 188V282H530V188H61Z" />
<glyph unicode="&gt;" horiz-adv-x="592" d="M74 107V205L518 348V253L74 107ZM518 311L74 453V551L518 405V311ZM433 289V371H463V289H433Z" />
<glyph unicode="?" horiz-adv-x="556" d="M195 227V409H272Q337 409 368 444T400 529Q400 566 385 593T343 634T279 649Q238 649 209 632T164 587T148 522H36Q36 583 63 635T145 719T280 751Q352 751 404 723T484 646T513 537V525Q513 467 485 420T401 345T267
316L314 365L312 227H195ZM184 0V135H322V0H184Z" />
<glyph unicode="@" horiz-adv-x="1124" d="M566 -244Q457 -244 365 -209T204 -108T99 48T61 250Q61 358 97 449T200 608T361 713T571 750Q671 750 759 722T916 637T1024 498T1063 308Q1063 220 1036 152T961 44T846 4Q797 4 762 24T708 80T689 165V225H719Q716
154 689 106T619 35T523 11Q461 11 412 41T335 124T307 245V261Q307 329 335 380T413 460T524 489Q580 489 624 465T695 395T725 284H694V474H784V170Q784 144 792 128T815 103T847 95Q880 95 906 120T948 192T964 304Q964 394 933 460T847 570T722 636T572 658Q477
658 401 628T270 542T188 413T160 250Q160 129 211 40T354 -99T566 -149Q598 -149 630 -146T691 -135V-231Q662 -237 630 -240T566 -244ZM544 101Q581 101 611 117T660 166T679 246V270Q679 313 660 341T611 385T544 400Q504 400 474 382T427 330T411 253Q411 208
427 174T473 120T544 101Z" />
<glyph unicode="A" horiz-adv-x="765" d="M23 0L279 730H478L742 0H618L387 650L436 627H315L367 650L143 0H23ZM189 206L227 310H533L572 206H189Z" />
<glyph unicode="B" horiz-adv-x="684" d="M197 -4V96H390Q444 96 473 126T503 208Q503 261 474 290T390 320H197V396H378Q450 396 505 379T592 321T624 212V198Q624 134 597 89T515 20T378 -4H197ZM98 -4V735H217V-4H98ZM197 341V416H363Q420 416 446 446T473
525Q473 574 447 604T363 635H197V735H348Q470 735 532 684T594 536V522Q594 454 563 414T476 358T348 341H197Z" />
<glyph unicode="C" horiz-adv-x="797" d="M421 -18Q321 -18 251 16T137 107T73 229T52 356V378Q52 445 73 511T137 631T250 718T415 751Q514 751 586 716T700 619T751 471H630Q622 527 593 564T518 621T415 640Q356 640 311 619T235 561T190 475T174 366Q174 310
189 261T236 173T313 114T421 93Q509 93 569 136T642 261H764Q754 184 712 121T597 20T421 -18Z" />
<glyph unicode="D" horiz-adv-x="788" d="M198 -4V107H365Q426 107 474 126T556 181T607 263T625 366Q625 425 608 472T556 553T474 605T365 624H198V735H355Q454 735 527 705T650 624T723 509T747 377V355Q747 291 723 227T650 111T528 28T355 -4H198ZM98 -4V735H218V-4H98Z"
/>
<glyph unicode="E" horiz-adv-x="598" d="M98 0V730H217V0H98ZM197 0V104H539V0H197ZM197 319V423H511V319H197ZM197 626V730H530V626H197Z" />
<glyph unicode="F" horiz-adv-x="560" d="M98 0V730H218V0H98ZM198 315V419H501V315H198ZM198 626V730H516V626H198Z" />
<glyph unicode="G" horiz-adv-x="832" d="M431 -18Q341 -18 271 11T152 93T78 214T52 360V382Q52 451 76 517T146 636T260 720T415 751Q508 751 581 716T698 618T749 473H627Q621 527 591 564T515 620T415 640Q361 640 317 621T240 566T191 481T174 370Q174 302
192 250T245 163T326 109T431 90Q510 90 569 122T659 207L628 90V293H740V125Q691 57 613 20T431 -18ZM406 269V363H801V269H406Z" />
<glyph unicode="H" horiz-adv-x="803" d="M585 0V730H705V0H585ZM98 0V730H218V0H98ZM195 311V418H608V311H195Z" />
<glyph unicode="I" horiz-adv-x="320" d="M100 0V730H220V0H100Z" />
<glyph unicode="J" horiz-adv-x="641" d="M296 -18Q221 -18 162 12T70 102T37 249V278H156V234Q156 168 195 131T296 93Q357 93 396 130T435 234V644H555V249Q555 161 522 102T431 13T296 -18ZM129 624V730H555V624H129Z" />
<glyph unicode="K" horiz-adv-x="703" d="M565 0L283 341H178L506 730H643L346 379L339 449L712 0H565ZM98 0V730H218V0H98Z" />
<glyph unicode="L" horiz-adv-x="549" d="M98 0V730H218V0H98ZM198 0V107H523V0H198Z" />
<glyph unicode="M" horiz-adv-x="937" d="M98 0V730H260L460 269H477L675 730H839V0H720V623L732 621L530 150H398L194 621L208 623V0H98Z" />
<glyph unicode="N" horiz-adv-x="858" d="M98 0V730H294L633 103H666L646 85V730H760V0H562L223 627H190L210 645V0H98Z" />
<glyph unicode="O" horiz-adv-x="865" d="M433 -18Q334 -18 263 16T144 108T75 230T52 356V378Q52 444 75 510T146 630T265 718T433 751Q529 751 600 718T719 631T790 510T814 378V356Q814 296 791 231T722 108T603 17T433 -18ZM433 93Q493 93 541 115T623 175T674
262T692 366Q692 424 674 473T623 560T541 619T433 640Q373 640 325 619T243 561T192 474T174 366Q174 311 191 262T243 175T325 115T433 93Z" />
<glyph unicode="P" horiz-adv-x="649" d="M198 239V344H350Q398 344 429 362T478 413T495 487Q495 529 478 561T430 612T350 630H198V735H336Q427 735 489 706T584 623T617 495V479Q617 406 585 352T490 269T336 239H198ZM98 0V735H218V0H98Z" />
<glyph unicode="Q" horiz-adv-x="865" d="M570 -213Q512 -213 469 -198T402 -143T378 -33V63H489V-46Q489 -77 507 -95T557 -113H676V-213H570ZM433 -18Q334 -18 263 16T144 108T75 230T52 356V378Q52 444 75 510T146 630T265 718T433 751Q529 751 600 718T719
631T790 510T814 378V356Q814 296 791 231T722 108T603 17T433 -18ZM433 93Q493 93 541 115T623 175T674 262T692 366Q692 424 674 473T623 560T541 619T433 640Q373 640 325 619T243 561T192 474T174 366Q174 311 191 262T243 175T325 115T433 93Z" />
<glyph unicode="R" horiz-adv-x="710" d="M98 0V735H218V0H98ZM546 0L314 321H450L689 0H546ZM179 254V355H369Q412 355 443 372T490 421T507 493Q507 533 491 564T443 613T369 631H179V735H353Q437 735 499 710T595 633T629 502V486Q629 406 595 355T499 279T353
254H179Z" />
<glyph unicode="S" horiz-adv-x="682" d="M341 -18Q247 -18 182 12T82 96T48 218H166Q166 187 183 157T238 108T341 88Q400 88 438 105T495 150T514 212Q514 254 478 280T370 313L297 320Q196 328 136 382T76 526Q76 594 108 644T200 722T337 751Q417 751 476
723T567 643T600 520H482Q482 552 467 580T419 627T337 645Q289 645 258 628T210 584T194 526Q194 489 222 461T308 427L380 421Q457 415 513 389T601 318T633 212Q633 144 597 92T495 11T341 -18Z" />
<glyph unicode="T" horiz-adv-x="602" d="M241 0V644H361V0H241ZM25 624V730H578V624H25Z" />
<glyph unicode="U" horiz-adv-x="785" d="M393 -18Q292 -18 224 20T120 129T84 292V730H204V282Q204 226 226 183T290 117T393 93Q454 93 495 116T559 182T581 282V730H701V292Q701 199 666 129T563 21T393 -18Z" />
<glyph unicode="V" horiz-adv-x="719" d="M264 0L22 730H145L355 81L311 103H425L377 81L571 730H691L465 0H264Z" />
<glyph unicode="W" horiz-adv-x="1052" d="M218 0L27 730H151L312 79L269 103H378L331 79L460 701H566L413 0H218ZM656 0L488 701H599L746 79L700 103H809L764 79L907 730H1025L853 0H656Z" />
<glyph unicode="X" horiz-adv-x="705" d="M14 0L278 390L279 372L37 730H171L345 467H364L540 730H669L422 369L420 386L690 0H555L355 291H336L143 0H14Z" />
<glyph unicode="Y" horiz-adv-x="654" d="M239 282L13 730H137L319 362L284 373H390L353 362L522 730H639L428 282H239ZM275 0V303H392V0H275Z" />
<glyph unicode="Z" horiz-adv-x="652" d="M54 0V121L481 628V606L453 644L472 631H64V730H601V609L173 102L171 128L204 83L179 100H609V0H54Z" />
<glyph unicode="[" horiz-adv-x="382" d="M102 -182V776H215V-182H102ZM167 -182V-87H332V-182H167ZM167 681V776H332V681H167Z" />
<glyph unicode="\" horiz-adv-x="365" d="M237 -60L15 780H128L350 -60H237Z" />
<glyph unicode="]" horiz-adv-x="382" d="M280 -182V776H167V-182H280ZM215 -182V-87H50V-182H215ZM215 681V776H50V681H215Z" />
<glyph unicode="^" horiz-adv-x="587" d="M61 310L225 727H363L527 310H430L307 642H283L159 310H61Z" />
<glyph unicode="_" horiz-adv-x="581" d="M0 -145V-57H581V-145H0Z" />
<glyph unicode="`" horiz-adv-x="300" d="M111 612L0 814H126L214 612H111Z" />
<glyph unicode="a" horiz-adv-x="581" d="M411 0V161H392V343Q392 393 366 419T289 445Q261 445 227 444T161 442T103 438V539Q125 541 151 542T206 545T261 546Q343 546 397 525T477 459T504 337V0H411ZM236 -14Q177 -14 133 6T65 66T41 161Q41 219 68 257T147
314T269 333H404V256H266Q213 256 185 231T157 164Q157 123 185 99T266 74Q297 74 325 85T371 124T392 200L422 161Q417 104 395 66T333 7T236 -14Z" />
<glyph unicode="b" horiz-adv-x="694" d="M386 -18Q320 -18 269 11T188 95T155 228H179V0H86V730H203V370L168 305Q171 391 201 446T282 529T394 556Q451 556 497 535T577 477T628 389T646 281V261Q646 203 628 153T576 65T493 4T386 -18ZM365 83Q414 83 451 107T508
173T529 271Q529 327 508 368T451 433T365 456Q321 456 283 436T222 379T199 288V245Q199 194 222 158T284 102T365 83Z" />
<glyph unicode="c" horiz-adv-x="608" d="M320 -18Q251 -18 200 5T115 69T65 159T48 260V278Q48 331 65 380T116 470T200 533T319 557Q388 557 442 531T530 458T567 347H454Q448 392 414 423T319 454Q267 454 233 430T182 365T165 269Q165 217 181 175T232 109T320
85Q361 85 390 99T438 138T459 195H573Q570 130 536 83T446 9T320 -18Z" />
<glyph unicode="d" horiz-adv-x="694" d="M310 -18Q252 -18 205 3T122 62T67 150T48 259V278Q48 336 66 386T119 475T200 534T306 556Q368 556 417 530T497 449T531 310L491 365V730H608V0H515V234H541Q538 147 506 91T422 9T310 -18ZM332 83Q377 83 413 103T472
161T495 252V295Q495 346 472 382T412 437T331 456Q282 456 245 433T186 367T165 269Q165 212 186 170T246 106T332 83Z" />
<glyph unicode="e" horiz-adv-x="616" d="M321 -18Q251 -18 199 6T114 69T65 158T48 260V279Q48 332 64 381T114 470T197 533T315 557Q402 557 460 519T547 421T576 290V243H98V322H497L465 282Q465 336 448 375T398 436T315 458Q263 458 228 434T176 368T159
269Q159 215 176 173T229 106T321 81Q377 81 413 105T457 163H566Q555 108 522 67T437 4T321 -18Z" />
<glyph unicode="f" horiz-adv-x="380" d="M99 0V558Q99 649 148 692T293 736H361V643H280Q247 643 229 624T210 572V0H99ZM28 444V531H370V444H28Z" />
<glyph unicode="g" horiz-adv-x="679" d="M292 -211Q254 -211 215 -208T142 -200V-101Q178 -106 218 -109T294 -113Q364 -113 406 -95T468 -40T488 58V162L519 234Q516 156 487 103T409 23T298 -4Q242 -4 196 17T117 76T66 163T48 269V288Q48 345 66 394T119 479T200
536T305 556Q371 556 421 528T501 444T532 310L506 307V539H599V64Q599 -34 568 -94T469 -183T292 -211ZM327 100Q371 100 407 119T465 175T487 263V304Q487 354 465 388T406 441T328 459Q280 459 243 437T186 374T165 279Q165 224 186 184T243 122T327 100Z" />
<glyph unicode="h" horiz-adv-x="644" d="M86 0V730H203V299H179Q179 379 199 436T262 524T370 555H375Q470 555 518 491T567 307V0H450V324Q450 382 417 415T330 449Q273 449 238 411T203 311V0H86Z" />
<glyph unicode="i" horiz-adv-x="317" d="M112 0V539H229V0H112ZM33 449V539H229V449H33ZM150 614Q114 614 97 633T79 682Q79 711 96 730T150 750Q187 750 204 731T222 682Q222 652 205 633T150 614Z" />
<glyph unicode="j" horiz-adv-x="324" d="M0 -204V-102H49Q87 -102 107 -82T127 -24V539H240V-13Q240 -84 220 -126T155 -186T38 -204H0ZM45 449V539H240V449H45ZM161 620Q125 620 108 639T90 688Q90 717 107 736T161 756Q198 756 215 737T232 688Q232 658 215
639T161 620Z" />
<glyph unicode="k" horiz-adv-x="595" d="M460 0L268 251H184L421 539H545L327 277L332 337L594 0H460ZM86 0V730H203V0H86Z" />
<glyph unicode="l" horiz-adv-x="296" d="M92 0V730H210V0H92ZM21 640V730H210V640H21Z" />
<glyph unicode="m" horiz-adv-x="973" d="M86 0V539H179V307H168Q168 387 188 442T250 526T354 555H359Q422 555 463 526T525 442T546 307H514Q514 387 535 442T598 526T702 555H707Q770 555 812 526T875 442T896 307V0H779V324Q779 383 750 416T668 449Q614 449
582 415T550 319V0H432V324Q432 383 403 416T322 449Q268 449 236 415T203 319V0H86Z" />
<glyph unicode="n" horiz-adv-x="644" d="M86 0V539H179V308H168Q168 388 189 443T255 526T364 555H369Q469 555 518 492T567 308V0H450V324Q450 380 418 414T330 449Q273 449 238 414T203 319V0H86Z" />
<glyph unicode="o" horiz-adv-x="678" d="M339 -18Q268 -18 214 5T123 68T67 156T48 259V279Q48 332 67 382T124 471T216 534T339 557Q408 557 461 534T553 472T610 382T630 279V259Q630 206 611 157T555 68T464 6T339 -18ZM339 84Q394 84 433 108T492 175T513
269Q513 322 492 364T432 430T339 455Q285 455 246 431T186 364T165 269Q165 217 185 175T245 109T339 84Z" />
<glyph unicode="p" horiz-adv-x="694" d="M86 -200V539H179V306L161 307Q166 392 197 447T279 529T391 556Q449 556 496 535T577 475T628 387T646 279V260Q646 203 628 153T576 64T495 4T390 -18Q331 -18 280 7T196 87T159 230L203 156V-200H86ZM365 83Q414 83
451 106T508 172T529 270Q529 325 509 367T452 432T365 456Q321 456 283 436T222 379T199 288V245Q199 194 222 158T284 102T365 83Z" />
<glyph unicode="q" horiz-adv-x="694" d="M491 -200V160L530 230Q528 147 498 92T417 10T305 -18Q248 -18 201 4T119 64T67 153T48 262V281Q48 339 66 388T120 476T203 535T309 556Q377 556 428 527T508 443T540 308H515V539H608V-200H491ZM332 86Q377 86 413
106T472 164T495 255V298Q495 349 472 385T412 440T332 459Q282 459 245 436T186 370T165 271Q165 216 186 174T245 109T332 86Z" />
<glyph unicode="r" horiz-adv-x="414" d="M86 0V539H179V314H175Q175 430 226 487T377 545H396V442H360Q284 442 244 402T203 286V0H86Z" />
<glyph unicode="s" horiz-adv-x="543" d="M272 -16Q163 -16 103 30T39 157H147Q149 127 178 102T273 77Q329 77 361 99T393 154Q393 184 370 201T290 225L237 230Q154 239 106 279T57 387Q57 441 84 478T158 535T268 555Q364 555 423 513T484 388H377Q375 419
348 440T268 461Q218 461 192 441T165 390Q165 362 185 346T250 325L303 320Q394 310 447 270T501 157Q501 105 472 66T392 6T272 -16Z" />
<glyph unicode="t" horiz-adv-x="429" d="M307 -6Q240 -6 194 12T125 74T101 193V696H212V183Q212 141 234 119T298 96H388V-6H307ZM12 452V539H388V452H12Z" />
<glyph unicode="u" horiz-adv-x="634" d="M271 -16Q176 -16 125 45T74 227V539H191V211Q191 155 222 123T306 90Q360 90 394 124T429 219V539H546V0H453V230H465Q465 149 444 95T381 12T276 -16H271Z" />
<glyph unicode="v" horiz-adv-x="572" d="M197 0L21 539H143L313 0H197ZM230 0V95H361V0H230ZM280 0L428 539H542L389 0H280Z" />
<glyph unicode="w" horiz-adv-x="873" d="M257 0L362 521H507L630 0H534L410 518H455L347 0H257ZM211 0V95H322V0H211ZM173 0L23 539H137L280 0H173ZM561 0V95H672V0H561ZM606 0L732 539H839L707 0H606Z" />
<glyph unicode="x" horiz-adv-x="574" d="M23 0L207 285L203 264L31 539H159L278 343H293L405 539H525L362 268L365 287L558 0H430L290 211H276L143 0H23Z" />
<glyph unicode="y" horiz-adv-x="555" d="M60 -211V-108H149Q180 -108 202 -101T238 -75T261 -25L418 539H531L361 -53Q345 -109 317 -144T245 -195T140 -211H60ZM226 12V107H342V12H226ZM197 12L14 539H133L308 12H197Z" />
<glyph unicode="z" horiz-adv-x="493" d="M51 0V109L331 444V428L312 454L327 447H49V539H446V430L166 95V109L186 82L171 92H459V0H51Z" />
<glyph unicode="{" horiz-adv-x="382" d="M316 -182Q229 -182 176 -134T122 9V182Q122 213 103 229T52 245V353Q84 353 103 369T122 416V586Q122 680 175 728T316 776H339V681H316Q276 681 255 658T234 588V421Q234 366 210 338T137 304V294Q185 289 209 261T234
178V6Q234 -39 255 -63T316 -87H339V-182H316Z" />
<glyph unicode="|" horiz-adv-x="375" d="M136 -200V730H239V-200H136Z" />
<glyph unicode="}" horiz-adv-x="382" d="M66 -182Q153 -182 206 -134T260 9V182Q260 213 279 229T330 245V353Q298 353 279 369T260 416V586Q260 680 207 728T66 776H43V681H66Q106 681 127 658T148 588V421Q148 366 172 338T245 304V294Q197 289 173 261T148
178V6Q148 -39 127 -63T66 -87H43V-182H66Z" />
<glyph unicode="~" horiz-adv-x="511" d="M354 231Q318 231 291 244T241 275T198 307T155 321Q133 321 118 306T95 254L20 253Q24 306 44 341T95 394T157 412Q193 412 220 398T270 367T313 335T357 321Q378 321 394 336T416 388H491Q488 336 468 301T417 249T354 231Z" />
<glyph unicode="&#xa0;" horiz-adv-x="222" />
<glyph unicode="&#xa1;" horiz-adv-x="303" d="M92 311V-191H212V311H92ZM82 539V404H222V539H82Z" />
<glyph unicode="&#xa2;" horiz-adv-x="612" d="M319 100Q250 100 200 122T115 180T65 263T48 357V377Q48 428 65 474T116 556T200 614T319 635Q387 635 440 612T527 546T568 438H456Q449 481 413 508T319 536Q270 536 235 515T181 457T162 367Q162 318 180 280T232
221T319 199Q378 199 416 228T461 301H573Q568 239 533 194T443 124T319 100ZM269 0V146H370V0H269ZM269 582V728H370V582H269Z" />
<glyph unicode="&#xa3;" horiz-adv-x="628" d="M119 0V491Q119 610 188 674T386 739Q409 739 440 738T500 734T548 729V631Q529 634 499 636T438 639T384 641Q332 641 297 625T243 574T225 484V0H119ZM43 0V92H535V0H43ZM49 315V395H473V315H49ZM499 0V184H594V0H499Z" />
<glyph unicode="&#xa4;" horiz-adv-x="672" d="M336 142Q261 142 209 174T129 256T102 359V375Q102 429 129 479T208 561T336 593Q411 593 463 561T542 479T569 375V359Q569 306 542 256T463 174T336 142ZM108 84L39 153L144 259L213 189L108 84ZM144 475L39 580L108
650L213 544L144 475ZM336 236Q378 236 407 252T451 299T466 367Q466 407 451 436T406 482T336 499Q295 499 266 483T221 437T205 367Q205 329 220 299T265 253T336 236ZM564 84L459 189L528 259L633 153L564 84ZM528 475L459 544L564 650L633 580L528 475Z" />
<glyph unicode="&#xa5;" horiz-adv-x="638" d="M238 305L19 730H143L317 381L281 389H380L341 381L503 730H619L415 305H238ZM272 0V326H382V0H272ZM59 153V224H593V153H59ZM59 305V376H593V305H59Z" />
<glyph unicode="&#xa6;" horiz-adv-x="375" d="M136 342V730H239V342H136ZM136 -200V180H239V-200H136Z" />
<glyph unicode="&#xa7;" horiz-adv-x="589" d="M286 -89Q178 -89 118 -43T54 89H162Q164 56 193 30T287 4Q336 4 364 24T392 80Q392 105 373 121T323 149T256 172Q220 183 184 196T118 229T69 277T50 348Q50 394 71 429T126 486T203 518L297 470Q261 469 229 454T178
416T158 365Q158 334 179 315T233 283T305 259Q340 248 374 236T436 205T482 160T499 94Q499 12 444 -38T286 -89ZM362 173L304 233Q369 247 400 278T431 347Q431 376 412 394T359 424T288 449Q252 460 216 473T150 507T102 556T84 629Q84 677 109 714T180 773T283
795Q378 795 434 752T492 632H386Q385 663 360 682T285 702Q237 702 215 682T192 631Q192 603 211 586T263 557T333 534Q369 523 405 511T472 479T521 430T539 355Q539 309 518 274T458 213T362 173Z" />
<glyph unicode="&#xa8;" horiz-adv-x="300" d="M70 640Q34 640 17 659T0 707Q0 736 17 755T70 774Q106 774 122 755T139 707Q139 678 123 659T70 640ZM275 640Q239 640 222 659T205 707Q205 736 222 755T275 774Q311 774 327 755T344 707Q344 678 328 659T275 640Z" />
<glyph unicode="&#xa9;" horiz-adv-x="719" d="M360 114Q278 114 219 142T123 216T67 316T48 423V441Q48 495 67 549T124 649T221 721T360 748Q440 748 498 721T595 649T652 550T672 441V423Q672 371 654 317T597 216T500 142T360 114ZM360 168Q437 168 493 204T581
301T612 431Q612 504 581 563T494 658T360 694Q282 694 226 659T139 564T108 431Q108 361 138 301T225 205T360 168ZM364 246Q304 246 267 272T212 340T194 423V436Q194 481 212 521T269 587T364 613Q430 613 474 577T522 478H445Q441 507 422 525T365 543Q318
543 298 512T277 430Q277 398 285 372T313 331T365 316Q402 316 423 335T448 385H525Q522 321 476 284T364 246Z" />
<glyph unicode="&#xaa;" horiz-adv-x="418" d="M280 353V462H263V582Q263 611 250 626T206 641Q192 641 169 640T120 638T72 635V725Q89 727 110 728T153 729T192 730Q254 730 291 712T347 661T365 582V353H280ZM163 343Q107 343 70 374T32 462Q32 503 53 529T111
567T197 580H274V521H196Q168 521 153 507T138 468Q138 445 153 431T196 417Q214 417 228 423T252 446T263 490L288 464Q284 406 252 375T163 343Z" />
<glyph unicode="&#xab;" horiz-adv-x="578" d="M164 39L33 236V280L170 483H289L151 273V250L289 39H164ZM407 39L276 236V280L413 483H532L394 273V250L532 39H407Z" />
<glyph unicode="&#xac;" horiz-adv-x="616" d="M61 270V364H556V87L463 86V322L516 270H61Z" />
<glyph unicode="&#xad;" horiz-adv-x="432" d="M53 229V331H379V229H53Z" />
<glyph unicode="&#xae;" horiz-adv-x="678" d="M339 180Q269 180 216 204T126 269T72 359T54 457V473Q54 524 72 572T127 661T217 724T339 748Q408 748 461 725T550 661T605 573T624 473V457Q624 408 606 359T552 270T463 205T339 180ZM339 232Q408 232 459 263T539
347T568 464Q568 530 540 582T460 665T339 696Q270 696 219 666T139 583T110 464Q110 400 138 348T218 264T339 232ZM227 315V625H292V315H227ZM410 315L322 434H393L485 315H410ZM258 413V469H343Q371 469 385 481T400 518Q400 544 386 556T343 568H258V625H336Q396
625 430 598T465 519Q465 468 431 441T336 413H258Z" />
<glyph unicode="&#xaf;" horiz-adv-x="300" d="M0 660V743H299V660H0Z" />
<glyph unicode="&#xb0;" horiz-adv-x="388" d="M194 401Q145 401 107 423T47 483T26 566Q26 611 47 648T106 707T194 730Q245 730 282 708T341 648T363 566Q363 521 342 484T282 424T194 401ZM194 480Q233 480 255 505T277 566Q277 600 255 625T194 651Q155 651
133 626T111 566Q111 531 133 506T194 480Z" />
<glyph unicode="&#xb1;" horiz-adv-x="610" d="M72 53V144H538V53H72ZM257 203V648L353 649V204L257 203ZM72 381V472H538V381H72Z" />
<glyph unicode="&#xb2;" horiz-adv-x="380" d="M44 420V499Q44 537 64 562T133 607L201 636Q226 646 240 661T254 701Q254 725 237 741T189 758Q160 758 143 742T126 698H38Q38 758 77 795T189 833Q261 833 301 797T341 706V699Q341 655 317 624T234 569L166 541Q148
535 139 527T130 506V485L109 497H342V420H44Z" />
<glyph unicode="&#xb3;" horiz-adv-x="380" d="M186 410Q114 410 72 447T29 541H117Q117 516 135 501T186 485Q219 485 237 502T256 545Q256 571 238 588T187 605Q170 605 157 600T134 587L92 655L219 735L214 743H47V822H330V744L172 644L132 661Q146 665 160
667T188 669Q259 669 302 636T345 545V539Q345 483 303 447T186 410Z" />
<glyph unicode="&#xb4;" horiz-adv-x="300" d="M0 612L89 814H211L99 612H0Z" />
<glyph unicode="&#xb5;" horiz-adv-x="672" d="M74 -200V539H191V211Q191 155 222 123T306 90Q342 90 369 106T413 151T429 219V539H546V139Q546 121 556 111T584 101H638V0H584Q536 0 504 15T455 64T438 150L453 230H465Q465 149 444 95T382 12T280 -16H276Q243
-16 210 -3T155 40T129 113L163 118Q163 86 169 54T180 -11T186 -79V-200H74Z" />
<glyph unicode="&#xb6;" horiz-adv-x="636" d="M201 391Q105 391 58 436T10 557V568Q10 644 57 689T201 734H299V391H201ZM259 0V734H363V0H259ZM437 0V734H539V0H437Z" />
<glyph unicode="&#xb7;" horiz-adv-x="266" d="M65 206V347H201V206H65Z" />
<glyph unicode="&#xb8;" horiz-adv-x="300" d="M120 -251Q99 -251 80 -248T48 -241V-166Q62 -170 80 -173T118 -176Q148 -176 163 -167T178 -142Q178 -128 167 -120T128 -111H85V11H156V-85L110 -46H125Q186 -46 222 -70T258 -142Q258 -188 222 -219T120 -251Z" />
<glyph unicode="&#xb9;" horiz-adv-x="263" d="M111 420V758L132 742H29V822H202V420H111Z" />
<glyph unicode="&#xba;" horiz-adv-x="463" d="M232 339Q170 339 127 365T60 436T36 530V545Q36 598 60 641T128 711T232 738Q292 738 336 712T403 642T427 545V530Q427 480 405 436T338 366T232 339ZM232 429Q261 429 281 443T311 482T321 537Q321 569 311 594T280
633T232 647Q204 647 184 633T154 594T143 537Q143 506 153 482T183 444T232 429Z" />
<glyph unicode="&#xbb;" horiz-adv-x="578" d="M414 483L545 286V242L408 39H289L427 249V272L289 483H414ZM171 483L302 286V242L165 39H46L184 249V272L46 483H171Z" />
<glyph unicode="&#xbc;" horiz-adv-x="833" d="M111 255V593L132 577H29V657H202V255H111ZM141 -22L525 680H617L233 -22H141ZM459 76V168L620 416L692 372L552 160L560 149H811V76H459ZM679 0V289H763V0H679Z" />
<glyph unicode="&#xbd;" horiz-adv-x="862" d="M111 255V593L132 577H29V657H202V255H111ZM141 -22L525 680H617L233 -22H141ZM526 0V79Q526 117 546 142T615 187L683 216Q708 226 722 241T736 281Q736 305 719 321T671 338Q642 338 625 322T608 278H520Q520 338
559 375T671 413Q743 413 783 377T823 286V279Q823 235 799 204T716 149L648 121Q630 115 621 107T612 86V65L591 77H824V0H526Z" />
<glyph unicode="&#xbe;" horiz-adv-x="934" d="M186 245Q114 245 72 282T29 376H117Q117 351 135 336T186 320Q219 320 237 337T256 380Q256 406 238 423T187 440Q170 440 157 435T134 422L92 490L219 570L214 578H47V657H330V579L172 479L132 496Q146 500 160
502T188 504Q259 504 302 471T345 380V374Q345 318 303 282T186 245ZM242 -22L626 680H718L334 -22H242ZM561 76V168L722 416L794 372L654 160L662 149H913V76H561ZM781 0V289H865V0H781Z" />
<glyph unicode="&#xbf;" horiz-adv-x="556" d="M361 312V130H284Q219 130 188 95T156 10Q156 -27 171 -54T213 -95T277 -110Q318 -110 347 -93T392 -48T408 17H520Q520 -44 493 -96T411 -180T276 -212Q204 -212 152 -184T72 -107T43 2V14Q43 72 71 119T155 194T289
223L242 174L244 312H361ZM372 539V404H234V539H372Z" />
<glyph unicode="&#xc0;" horiz-adv-x="765" d="M23 0L279 730H478L742 0H618L387 650L436 627H315L367 650L143 0H23ZM189 206L227 310H533L572 206H189ZM323 787L182 956H316L435 787H323Z" />
<glyph unicode="&#xc1;" horiz-adv-x="765" d="M23 0L279 730H478L742 0H618L387 650L436 627H315L367 650L143 0H23ZM189 206L227 310H533L572 206H189ZM311 787L437 956H569L421 787H311Z" />
<glyph unicode="&#xc2;" horiz-adv-x="765" d="M23 0L279 730H478L742 0H618L387 650L436 627H315L367 650L143 0H23ZM189 206L227 310H533L572 206H189ZM181 787L310 956H450L581 787H472L387 899H370L287 787H181Z" />
<glyph unicode="&#xc3;" horiz-adv-x="765" d="M23 0L279 730H478L742 0H618L387 650L436 627H315L367 650L143 0H23ZM189 206L227 310H533L572 206H189ZM465 803Q437 803 417 810T380 827T346 844T304 852Q278 852 255 841T218 812L198 889Q213 909 240 923T306
938Q334 938 354 931T391 914T426 897T467 889Q493 889 516 900T553 930L573 852Q557 832 530 818T465 803Z" />
<glyph unicode="&#xc4;" horiz-adv-x="765" d="M23 0L279 730H478L742 0H618L387 650L436 627H315L367 650L143 0H23ZM189 206L227 310H533L572 206H189ZM271 807Q235 807 217 826T198 875Q198 905 216 924T271 943Q307 943 325 924T344 875Q344 845 326 826T271
807ZM487 807Q451 807 433 826T414 875Q414 905 432 924T487 943Q523 943 541 924T560 875Q560 845 542 826T487 807Z" />
<glyph unicode="&#xc5;" horiz-adv-x="765" d="M23 0L279 730H478L742 0H618L387 650L436 627H315L367 650L143 0H23ZM189 206L227 310H533L572 206H189ZM379 766Q323 766 290 798T256 876Q256 922 289 953T379 985Q435 985 468 954T502 876Q502 830 469 798T379
766ZM379 825Q406 825 421 839T436 876Q436 897 421 911T379 926Q352 926 337 912T322 876Q322 854 337 840T379 825Z" />
<glyph unicode="&#xc6;" horiz-adv-x="976" d="M7 0L296 730H498V627H332L383 650L127 0H7ZM188 230L229 335H498V230H188ZM477 0V730H595V0H477ZM574 0V104H917V0H574ZM574 319V423H889V319H574ZM574 626V730H908V626H574Z" />
<glyph unicode="&#xc7;" horiz-adv-x="797" d="M421 -18Q321 -18 251 16T137 107T73 229T52 356V378Q52 445 73 511T137 631T250 718T415 751Q514 751 586 716T700 619T751 471H630Q622 527 593 564T518 621T415 640Q356 640 311 619T235 561T190 475T174 366Q174
310 189 261T236 173T313 114T421 93Q509 93 569 136T642 261H764Q754 184 712 121T597 20T421 -18ZM416 -257Q395 -257 374 -254T339 -247V-167Q354 -171 374 -174T413 -178Q446 -178 462 -169T479 -144Q479 -130 465 -122T424 -114H380V11H457V-85L407 -46H422Q485
-46 523 -71T561 -144Q561 -191 523 -224T416 -257Z" />
<glyph unicode="&#xc8;" horiz-adv-x="598" d="M98 0V730H217V0H98ZM197 0V104H539V0H197ZM197 319V423H511V319H197ZM197 626V730H530V626H197ZM263 787L122 956H256L375 787H263Z" />
<glyph unicode="&#xc9;" horiz-adv-x="598" d="M98 0V730H217V0H98ZM197 0V104H539V0H197ZM197 319V423H511V319H197ZM197 626V730H530V626H197ZM251 787L377 956H509L361 787H251Z" />
<glyph unicode="&#xca;" horiz-adv-x="598" d="M98 0V730H217V0H98ZM197 0V104H539V0H197ZM197 319V423H511V319H197ZM197 626V730H530V626H197ZM121 787L250 956H390L521 787H412L327 899H310L227 787H121Z" />
<glyph unicode="&#xcb;" horiz-adv-x="598" d="M98 0V730H217V0H98ZM197 0V104H539V0H197ZM197 319V423H511V319H197ZM197 626V730H530V626H197ZM211 807Q175 807 157 826T138 875Q138 905 156 924T211 943Q247 943 265 924T284 875Q284 845 266 826T211 807ZM427
807Q391 807 373 826T354 875Q354 905 372 924T427 943Q463 943 481 924T500 875Q500 845 482 826T427 807Z" />
<glyph unicode="&#xcc;" horiz-adv-x="320" d="M100 0V730H220V0H100ZM361 787L220 956H354L473 787H361Z" />
<glyph unicode="&#xcd;" horiz-adv-x="320" d="M100 0V730H220V0H100ZM93 787L219 956H351L203 787H93Z" />
<glyph unicode="&#xce;" horiz-adv-x="320" d="M100 0V730H220V0H100ZM219 787L348 956H488L619 787H510L425 899H408L325 787H219Z" />
<glyph unicode="&#xcf;" horiz-adv-x="320" d="M100 0V730H220V0H100ZM308 807Q272 807 254 826T235 875Q235 905 253 924T308 943Q344 943 362 924T381 875Q381 845 363 826T308 807ZM524 807Q488 807 470 826T451 875Q451 905 469 924T524 943Q560 943 578 924T597
875Q597 845 579 826T524 807Z" />
<glyph unicode="&#xd0;" horiz-adv-x="788" d="M198 -4V107H365Q426 107 474 126T556 181T607 263T625 366Q625 425 608 472T556 553T474 605T365 624H198V735H355Q454 735 527 705T650 624T723 509T747 377V355Q747 291 723 227T650 111T528 28T355 -4H198ZM98
-4V735H218V-4H98ZM20 316V414H393V316H20Z" />
<glyph unicode="&#xd1;" horiz-adv-x="858" d="M98 0V730H294L633 103H666L646 85V730H760V0H562L223 627H190L210 645V0H98ZM532 803Q504 803 484 810T447 827T413 844T371 852Q345 852 322 841T285 812L265 889Q280 909 307 923T373 938Q401 938 421 931T458
914T493 897T534 889Q560 889 583 900T620 930L640 852Q624 832 597 818T532 803Z" />
<glyph unicode="&#xd2;" horiz-adv-x="865" d="M433 -18Q334 -18 263 16T144 108T75 230T52 356V378Q52 444 75 510T146 630T265 718T433 751Q529 751 600 718T719 631T790 510T814 378V356Q814 296 791 231T722 108T603 17T433 -18ZM433 93Q493 93 541 115T623
175T674 262T692 366Q692 424 674 473T623 560T541 619T433 640Q373 640 325 619T243 561T192 474T174 366Q174 311 191 262T243 175T325 115T433 93ZM378 787L237 956H371L490 787H378Z" />
<glyph unicode="&#xd3;" horiz-adv-x="865" d="M433 -18Q334 -18 263 16T144 108T75 230T52 356V378Q52 444 75 510T146 630T265 718T433 751Q529 751 600 718T719 631T790 510T814 378V356Q814 296 791 231T722 108T603 17T433 -18ZM433 93Q493 93 541 115T623
175T674 262T692 366Q692 424 674 473T623 560T541 619T433 640Q373 640 325 619T243 561T192 474T174 366Q174 311 191 262T243 175T325 115T433 93ZM366 787L492 956H624L476 787H366Z" />
<glyph unicode="&#xd4;" horiz-adv-x="865" d="M433 -18Q334 -18 263 16T144 108T75 230T52 356V378Q52 444 75 510T146 630T265 718T433 751Q529 751 600 718T719 631T790 510T814 378V356Q814 296 791 231T722 108T603 17T433 -18ZM433 93Q493 93 541 115T623
175T674 262T692 366Q692 424 674 473T623 560T541 619T433 640Q373 640 325 619T243 561T192 474T174 366Q174 311 191 262T243 175T325 115T433 93ZM235 787L364 956H504L635 787H526L441 899H424L341 787H235Z" />
<glyph unicode="&#xd5;" horiz-adv-x="865" d="M433 -18Q334 -18 263 16T144 108T75 230T52 356V378Q52 444 75 510T146 630T265 718T433 751Q529 751 600 718T719 631T790 510T814 378V356Q814 296 791 231T722 108T603 17T433 -18ZM433 93Q493 93 541 115T623
175T674 262T692 366Q692 424 674 473T623 560T541 619T433 640Q373 640 325 619T243 561T192 474T174 366Q174 311 191 262T243 175T325 115T433 93ZM519 803Q491 803 471 810T434 827T400 844T358 852Q332 852 309 841T272 812L252 889Q267 909 294 923T360 938Q388
938 408 931T445 914T480 897T521 889Q547 889 570 900T607 930L627 852Q611 832 584 818T519 803Z" />
<glyph unicode="&#xd6;" horiz-adv-x="865" d="M433 -18Q334 -18 263 16T144 108T75 230T52 356V378Q52 444 75 510T146 630T265 718T433 751Q529 751 600 718T719 631T790 510T814 378V356Q814 296 791 231T722 108T603 17T433 -18ZM433 93Q493 93 541 115T623
175T674 262T692 366Q692 424 674 473T623 560T541 619T433 640Q373 640 325 619T243 561T192 474T174 366Q174 311 191 262T243 175T325 115T433 93ZM325 807Q289 807 271 826T252 875Q252 905 270 924T325 943Q361 943 379 924T398 875Q398 845 380 826T325 807ZM541
807Q505 807 487 826T468 875Q468 905 486 924T541 943Q577 943 595 924T614 875Q614 845 596 826T541 807Z" />
<glyph unicode="&#xd7;" horiz-adv-x="592" d="M463 110L532 179L130 580L61 511L463 110ZM126 110L532 515L467 580L61 175L126 110Z" />
<glyph unicode="&#xd8;" horiz-adv-x="865" d="M93 -56L666 777H772L199 -56H93ZM433 -18Q334 -18 263 16T144 108T75 230T52 356V378Q52 444 75 510T146 630T265 718T433 751Q529 751 600 718T719 631T790 510T814 378V356Q814 296 791 231T722 108T603 17T433
-18ZM433 93Q493 93 541 115T623 175T674 262T692 366Q692 424 674 473T623 560T541 619T433 640Q373 640 325 619T243 561T192 474T174 366Q174 311 191 262T243 175T325 115T433 93Z" />
<glyph unicode="&#xd9;" horiz-adv-x="785" d="M393 -18Q292 -18 224 20T120 129T84 292V730H204V282Q204 226 226 183T290 117T393 93Q454 93 495 116T559 182T581 282V730H701V292Q701 199 666 129T563 21T393 -18ZM338 787L197 956H331L450 787H338Z" />
<glyph unicode="&#xda;" horiz-adv-x="785" d="M393 -18Q292 -18 224 20T120 129T84 292V730H204V282Q204 226 226 183T290 117T393 93Q454 93 495 116T559 182T581 282V730H701V292Q701 199 666 129T563 21T393 -18ZM326 787L452 956H584L436 787H326Z" />
<glyph unicode="&#xdb;" horiz-adv-x="785" d="M393 -18Q292 -18 224 20T120 129T84 292V730H204V282Q204 226 226 183T290 117T393 93Q454 93 495 116T559 182T581 282V730H701V292Q701 199 666 129T563 21T393 -18ZM195 787L324 956H464L595 787H486L401 899H384L301
787H195Z" />
<glyph unicode="&#xdc;" horiz-adv-x="785" d="M393 -18Q292 -18 224 20T120 129T84 292V730H204V282Q204 226 226 183T290 117T393 93Q454 93 495 116T559 182T581 282V730H701V292Q701 199 666 129T563 21T393 -18ZM285 807Q249 807 231 826T212 875Q212 905
230 924T285 943Q321 943 339 924T358 875Q358 845 340 826T285 807ZM501 807Q465 807 447 826T428 875Q428 905 446 924T501 943Q537 943 555 924T574 875Q574 845 556 826T501 807Z" />
<glyph unicode="&#xdd;" horiz-adv-x="654" d="M239 282L13 730H137L319 362L284 373H390L353 362L522 730H639L428 282H239ZM275 0V303H392V0H275ZM259 787L385 956H517L369 787H259Z" />
<glyph unicode="&#xde;" horiz-adv-x="632" d="M198 131V237H342Q388 237 418 253T463 300T478 371Q478 412 463 442T418 489T342 507H198V611H330Q417 611 477 582T568 501T600 378V364Q600 295 569 242T477 160T330 131H198ZM98 0V730H218V0H98Z" />
<glyph unicode="&#xdf;" horiz-adv-x="640" d="M362 -12Q337 -12 312 -10T268 -2V96Q287 91 312 89T357 86Q421 86 453 120T486 206Q486 246 469 278T417 328T335 347H295V437H320Q354 437 375 452T407 491T418 541Q418 569 407 593T373 632T317 647Q282 647 258
630T222 582T209 511V0H91V499Q91 614 150 679T315 745H319Q387 745 435 719T509 648T535 548Q535 497 512 458T445 398T337 376L341 411Q427 411 485 385T573 311T603 199Q603 134 573 87T489 14T362 -12ZM31 434V524H121V434H31Z" />
<glyph unicode="&#xe0;" horiz-adv-x="581" d="M411 0V161H392V343Q392 393 366 419T289 445Q261 445 227 444T161 442T103 438V539Q125 541 151 542T206 545T261 546Q343 546 397 525T477 459T504 337V0H411ZM236 -14Q177 -14 133 6T65 66T41 161Q41 219 68 257T147
314T269 333H404V256H266Q213 256 185 231T157 164Q157 123 185 99T266 74Q297 74 325 85T371 124T392 200L422 161Q417 104 395 66T333 7T236 -14ZM241 612L130 814H256L344 612H241Z" />
<glyph unicode="&#xe1;" horiz-adv-x="581" d="M411 0V161H392V343Q392 393 366 419T289 445Q261 445 227 444T161 442T103 438V539Q125 541 151 542T206 545T261 546Q343 546 397 525T477 459T504 337V0H411ZM236 -14Q177 -14 133 6T65 66T41 161Q41 219 68 257T147
314T269 333H404V256H266Q213 256 185 231T157 164Q157 123 185 99T266 74Q297 74 325 85T371 124T392 200L422 161Q417 104 395 66T333 7T236 -14ZM224 612L313 814H435L323 612H224Z" />
<glyph unicode="&#xe2;" horiz-adv-x="581" d="M411 0V161H392V343Q392 393 366 419T289 445Q261 445 227 444T161 442T103 438V539Q125 541 151 542T206 545T261 546Q343 546 397 525T477 459T504 337V0H411ZM236 -14Q177 -14 133 6T65 66T41 161Q41 219 68 257T147
314T269 333H404V256H266Q213 256 185 231T157 164Q157 123 185 99T266 74Q297 74 325 85T371 124T392 200L422 161Q417 104 395 66T333 7T236 -14ZM107 612L215 814H352L459 612H362L288 757H278L203 612H107Z" />
<glyph unicode="&#xe3;" horiz-adv-x="581" d="M411 0V161H392V343Q392 393 366 419T289 445Q261 445 227 444T161 442T103 438V539Q125 541 151 542T206 545T261 546Q343 546 397 525T477 459T504 337V0H411ZM236 -14Q177 -14 133 6T65 66T41 161Q41 219 68 257T147
314T269 333H404V256H266Q213 256 185 231T157 164Q157 123 185 99T266 74Q297 74 325 85T371 124T392 200L422 161Q417 104 395 66T333 7T236 -14ZM355 635Q328 635 310 643T276 661T245 678T208 686Q186 686 168 676T135 648L116 727Q132 746 155 759T211 772Q237
772 256 765T290 747T321 729T357 721Q380 721 398 731T432 759L450 680Q434 662 410 649T355 635Z" />
<glyph unicode="&#xe4;" horiz-adv-x="581" d="M411 0V161H392V343Q392 393 366 419T289 445Q261 445 227 444T161 442T103 438V539Q125 541 151 542T206 545T261 546Q343 546 397 525T477 459T504 337V0H411ZM236 -14Q177 -14 133 6T65 66T41 161Q41 219 68 257T147
314T269 333H404V256H266Q213 256 185 231T157 164Q157 123 185 99T266 74Q297 74 325 85T371 124T392 200L422 161Q417 104 395 66T333 7T236 -14ZM181 640Q145 640 128 659T111 707Q111 736 128 755T181 774Q217 774 233 755T250 707Q250 678 234 659T181 640ZM386
640Q350 640 333 659T316 707Q316 736 333 755T386 774Q422 774 438 755T455 707Q455 678 439 659T386 640Z" />
<glyph unicode="&#xe5;" horiz-adv-x="581" d="M411 0V161H392V343Q392 393 366 419T289 445Q261 445 227 444T161 442T103 438V539Q125 541 151 542T206 545T261 546Q343 546 397 525T477 459T504 337V0H411ZM236 -14Q177 -14 133 6T65 66T41 161Q41 219 68 257T147
314T269 333H404V256H266Q213 256 185 231T157 164Q157 123 185 99T266 74Q297 74 325 85T371 124T392 200L422 161Q417 104 395 66T333 7T236 -14ZM283 602Q231 602 199 634T166 717Q166 767 198 799T283 832Q336 832 368 800T401 717Q401 667 369 635T283 602ZM283
662Q308 662 322 677T337 717Q337 741 323 756T283 772Q259 772 245 757T230 717Q230 693 244 678T283 662Z" />
<glyph unicode="&#xe6;" horiz-adv-x="956" d="M662 -18Q607 -18 566 -4T495 35T445 92T414 161H446Q441 104 414 65T342 6T238 -14Q178 -14 134 6T65 66T41 160Q41 219 68 257T147 314T269 333H404V256H266Q213 256 185 230T157 164Q157 123 185 98T266 73Q297
73 325 85T372 124T392 201V342Q392 393 367 418T290 444Q262 444 228 443T161 441T103 438V539Q125 541 151 542T206 544T260 545Q342 545 392 525T465 459T488 339H411Q421 398 449 447T529 525T656 555Q742 555 799 517T886 419T915 289V244H488V321H837L804
281Q804 335 787 374T737 433T655 454Q604 454 570 431T518 367T500 268Q500 214 517 172T569 107T661 83Q717 83 753 106T797 162H906Q895 107 862 67T777 4T662 -18Z" />
<glyph unicode="&#xe7;" horiz-adv-x="608" d="M320 -18Q251 -18 200 5T115 69T65 159T48 260V278Q48 331 65 380T116 470T200 533T319 557Q388 557 442 531T530 458T567 347H454Q448 392 414 423T319 454Q267 454 233 430T182 365T165 269Q165 217 181 175T232
109T320 85Q361 85 390 99T438 138T459 195H573Q570 130 536 83T446 9T320 -18ZM314 -251Q293 -251 274 -248T242 -241V-166Q256 -170 274 -173T312 -176Q342 -176 357 -167T372 -142Q372 -128 361 -120T322 -111H279V11H350V-85L304 -46H319Q380 -46 416 -70T452
-142Q452 -188 416 -219T314 -251Z" />
<glyph unicode="&#xe8;" horiz-adv-x="616" d="M321 -18Q251 -18 199 6T114 69T65 158T48 260V279Q48 332 64 381T114 470T197 533T315 557Q402 557 460 519T547 421T576 290V243H98V322H497L465 282Q465 336 448 375T398 436T315 458Q263 458 228 434T176 368T159
269Q159 215 176 173T229 106T321 81Q377 81 413 105T457 163H566Q555 108 522 67T437 4T321 -18ZM272 612L161 814H287L375 612H272Z" />
<glyph unicode="&#xe9;" horiz-adv-x="616" d="M321 -18Q251 -18 199 6T114 69T65 158T48 260V279Q48 332 64 381T114 470T197 533T315 557Q402 557 460 519T547 421T576 290V243H98V322H497L465 282Q465 336 448 375T398 436T315 458Q263 458 228 434T176 368T159
269Q159 215 176 173T229 106T321 81Q377 81 413 105T457 163H566Q555 108 522 67T437 4T321 -18ZM256 612L345 814H467L355 612H256Z" />
<glyph unicode="&#xea;" horiz-adv-x="616" d="M321 -18Q251 -18 199 6T114 69T65 158T48 260V279Q48 332 64 381T114 470T197 533T315 557Q402 557 460 519T547 421T576 290V243H98V322H497L465 282Q465 336 448 375T398 436T315 458Q263 458 228 434T176 368T159
269Q159 215 176 173T229 106T321 81Q377 81 413 105T457 163H566Q555 108 522 67T437 4T321 -18ZM139 612L247 814H384L491 612H394L320 757H310L235 612H139Z" />
<glyph unicode="&#xeb;" horiz-adv-x="616" d="M321 -18Q251 -18 199 6T114 69T65 158T48 260V279Q48 332 64 381T114 470T197 533T315 557Q402 557 460 519T547 421T576 290V243H98V322H497L465 282Q465 336 448 375T398 436T315 458Q263 458 228 434T176 368T159
269Q159 215 176 173T229 106T321 81Q377 81 413 105T457 163H566Q555 108 522 67T437 4T321 -18ZM213 640Q177 640 160 659T143 707Q143 736 160 755T213 774Q249 774 265 755T282 707Q282 678 266 659T213 640ZM418 640Q382 640 365 659T348 707Q348 736 365
755T418 774Q454 774 470 755T487 707Q487 678 471 659T418 640Z" />
<glyph unicode="&#xec;" horiz-adv-x="317" d="M112 0V539H229V0H112ZM33 449V539H229V449H33ZM354 612L243 814H369L457 612H354Z" />
<glyph unicode="&#xed;" horiz-adv-x="317" d="M112 0V539H229V0H112ZM33 449V539H229V449H33ZM81 612L170 814H292L180 612H81Z" />
<glyph unicode="&#xee;" horiz-adv-x="317" d="M112 0V539H229V0H112ZM33 449V539H229V449H33ZM220 612L328 814H465L572 612H475L401 757H391L316 612H220Z" />
<glyph unicode="&#xef;" horiz-adv-x="317" d="M112 0V539H229V0H112ZM33 449V539H229V449H33ZM294 640Q258 640 241 659T224 707Q224 736 241 755T294 774Q330 774 346 755T363 707Q363 678 347 659T294 640ZM499 640Q463 640 446 659T429 707Q429 736 446 755T499
774Q535 774 551 755T568 707Q568 678 552 659T499 640Z" />
<glyph unicode="&#xf0;" horiz-adv-x="657" d="M329 -19Q257 -19 204 2T116 61T65 145T48 241V260Q48 329 78 386T167 479T309 514Q369 514 414 494T486 439T519 356H508Q507 459 489 522T431 614Q409 630 378 639T299 648Q268 648 239 646T182 639V730Q210 734
238 736T298 739Q409 739 477 694T576 559T607 331V305Q607 211 578 137T488 22T329 -19ZM330 83Q384 83 420 103T475 162T494 251Q494 302 475 340T418 398T328 419Q276 419 240 399T184 340T165 251Q165 200 183 162T239 104T330 83ZM368 527L327 574L556 775L598
728L368 527Z" />
<glyph unicode="&#xf1;" horiz-adv-x="644" d="M86 0V539H179V308H168Q168 388 189 443T255 526T364 555H369Q469 555 518 492T567 308V0H450V324Q450 380 418 414T330 449Q273 449 238 414T203 319V0H86ZM402 635Q375 635 357 643T323 661T292 678T255 686Q233
686 215 676T182 648L163 727Q179 746 202 759T258 772Q284 772 303 765T337 747T368 729T404 721Q427 721 445 731T479 759L497 680Q481 662 457 649T402 635Z" />
<glyph unicode="&#xf2;" horiz-adv-x="678" d="M339 -18Q268 -18 214 5T123 68T67 156T48 259V279Q48 332 67 382T124 471T216 534T339 557Q408 557 461 534T553 472T610 382T630 279V259Q630 206 611 157T555 68T464 6T339 -18ZM339 84Q394 84 433 108T492 175T513
269Q513 322 492 364T432 430T339 455Q285 455 246 431T186 364T165 269Q165 217 185 175T245 109T339 84ZM297 612L186 814H312L400 612H297Z" />
<glyph unicode="&#xf3;" horiz-adv-x="678" d="M339 -18Q268 -18 214 5T123 68T67 156T48 259V279Q48 332 67 382T124 471T216 534T339 557Q408 557 461 534T553 472T610 382T630 279V259Q630 206 611 157T555 68T464 6T339 -18ZM339 84Q394 84 433 108T492 175T513
269Q513 322 492 364T432 430T339 455Q285 455 246 431T186 364T165 269Q165 217 185 175T245 109T339 84ZM280 612L369 814H491L379 612H280Z" />
<glyph unicode="&#xf4;" horiz-adv-x="678" d="M339 -18Q268 -18 214 5T123 68T67 156T48 259V279Q48 332 67 382T124 471T216 534T339 557Q408 557 461 534T553 472T610 382T630 279V259Q630 206 611 157T555 68T464 6T339 -18ZM339 84Q394 84 433 108T492 175T513
269Q513 322 492 364T432 430T339 455Q285 455 246 431T186 364T165 269Q165 217 185 175T245 109T339 84ZM163 612L271 814H408L515 612H418L344 757H334L259 612H163Z" />
<glyph unicode="&#xf5;" horiz-adv-x="678" d="M339 -18Q268 -18 214 5T123 68T67 156T48 259V279Q48 332 67 382T124 471T216 534T339 557Q408 557 461 534T553 472T610 382T630 279V259Q630 206 611 157T555 68T464 6T339 -18ZM339 84Q394 84 433 108T492 175T513
269Q513 322 492 364T432 430T339 455Q285 455 246 431T186 364T165 269Q165 217 185 175T245 109T339 84ZM411 635Q384 635 366 643T332 661T301 678T264 686Q242 686 224 676T191 648L172 727Q188 746 211 759T267 772Q293 772 312 765T346 747T377 729T413 721Q436
721 454 731T488 759L506 680Q490 662 466 649T411 635Z" />
<glyph unicode="&#xf6;" horiz-adv-x="678" d="M339 -18Q268 -18 214 5T123 68T67 156T48 259V279Q48 332 67 382T124 471T216 534T339 557Q408 557 461 534T553 472T610 382T630 279V259Q630 206 611 157T555 68T464 6T339 -18ZM339 84Q394 84 433 108T492 175T513
269Q513 322 492 364T432 430T339 455Q285 455 246 431T186 364T165 269Q165 217 185 175T245 109T339 84ZM237 640Q201 640 184 659T167 707Q167 736 184 755T237 774Q273 774 289 755T306 707Q306 678 290 659T237 640ZM442 640Q406 640 389 659T372 707Q372
736 389 755T442 774Q478 774 494 755T511 707Q511 678 495 659T442 640Z" />
<glyph unicode="&#xf7;" horiz-adv-x="592" d="M61 297V391H532V297H61ZM237 79V202H356V79H237ZM237 486V610H356V486H237Z" />
<glyph unicode="&#xf8;" horiz-adv-x="678" d="M73 -55L516 590H604L160 -55H73ZM339 -18Q268 -18 214 5T123 68T67 156T48 259V279Q48 332 67 382T124 471T216 534T339 557Q408 557 461 534T553 472T610 382T630 279V259Q630 206 611 157T555 68T464 6T339 -18ZM339
84Q394 84 433 108T492 175T513 269Q513 322 492 364T432 430T339 455Q285 455 246 431T186 364T165 269Q165 217 185 175T245 109T339 84Z" />
<glyph unicode="&#xf9;" horiz-adv-x="634" d="M271 -16Q176 -16 125 45T74 227V539H191V211Q191 155 222 123T306 90Q360 90 394 124T429 219V539H546V0H453V230H465Q465 149 444 95T381 12T276 -16H271ZM268 612L157 814H283L371 612H268Z" />
<glyph unicode="&#xfa;" horiz-adv-x="634" d="M271 -16Q176 -16 125 45T74 227V539H191V211Q191 155 222 123T306 90Q360 90 394 124T429 219V539H546V0H453V230H465Q465 149 444 95T381 12T276 -16H271ZM251 612L340 814H462L350 612H251Z" />
<glyph unicode="&#xfb;" horiz-adv-x="634" d="M271 -16Q176 -16 125 45T74 227V539H191V211Q191 155 222 123T306 90Q360 90 394 124T429 219V539H546V0H453V230H465Q465 149 444 95T381 12T276 -16H271ZM134 612L242 814H379L486 612H389L315 757H305L230 612H134Z" />
<glyph unicode="&#xfc;" horiz-adv-x="634" d="M271 -16Q176 -16 125 45T74 227V539H191V211Q191 155 222 123T306 90Q360 90 394 124T429 219V539H546V0H453V230H465Q465 149 444 95T381 12T276 -16H271ZM208 640Q172 640 155 659T138 707Q138 736 155 755T208
774Q244 774 260 755T277 707Q277 678 261 659T208 640ZM413 640Q377 640 360 659T343 707Q343 736 360 755T413 774Q449 774 465 755T482 707Q482 678 466 659T413 640Z" />
<glyph unicode="&#xfd;" horiz-adv-x="555" d="M60 -211V-108H149Q180 -108 202 -101T238 -75T261 -25L418 539H531L361 -53Q345 -109 317 -144T245 -195T140 -211H60ZM226 12V107H342V12H226ZM197 12L14 539H133L308 12H197ZM218 612L307 814H429L317 612H218Z" />
<glyph unicode="&#xfe;" horiz-adv-x="694" d="M86 -200V730H203V352L172 316Q176 396 206 449T286 530T399 557Q456 557 501 537T579 479T629 391T646 280V259Q646 199 628 149T576 62T495 5T391 -16Q330 -16 279 9T196 88T159 231L203 157V-200H86ZM365 84Q414
84 451 108T508 175T529 272Q529 328 508 369T451 433T365 456Q321 456 283 437T222 380T199 289V246Q199 195 222 159T284 104T365 84Z" />
<glyph unicode="&#xff;" horiz-adv-x="555" d="M60 -211V-108H149Q180 -108 202 -101T238 -75T261 -25L418 539H531L361 -53Q345 -109 317 -144T245 -195T140 -211H60ZM226 12V107H342V12H226ZM197 12L14 539H133L308 12H197ZM175 640Q139 640 122 659T105 707Q105
736 122 755T175 774Q211 774 227 755T244 707Q244 678 228 659T175 640ZM380 640Q344 640 327 659T310 707Q310 736 327 755T380 774Q416 774 432 755T449 707Q449 678 433 659T380 640Z" />
<glyph unicode="&#x2013;" horiz-adv-x="517" d="M18 232V327H499V232H18Z" />
<glyph unicode="&#x2014;" horiz-adv-x="905" d="M18 232V327H887V232H18Z" />
<glyph unicode="&#x2018;" horiz-adv-x="253" d="M208 739V674H192Q161 674 143 664T117 632T108 573V499L82 550Q89 554 101 556T126 559Q156 559 176 541T197 488Q197 456 178 435T124 414Q102 414 83 424T52 460T39 532V551Q39 624 58 665T112 722T196 739H208Z" />
<glyph unicode="&#x2019;" horiz-adv-x="253" d="M45 414V479H61Q92 479 110 489T136 521T145 580V654L171 603Q164 599 152 597T127 594Q97 594 77 612T56 665Q56 697 75 718T129 739Q151 739 170 729T201 693T214 621V602Q214 529 195 488T141 431T57 414H45Z" />
<glyph unicode="&#x201a;" horiz-adv-x="253" d="M45 -186V-121H61Q92 -121 110 -111T136 -79T145 -20V54L171 3Q164 -1 152 -3T127 -6Q97 -6 77 12T56 65Q56 97 75 118T129 139Q151 139 170 129T201 93T214 21V2Q214 -71 195 -112T141 -169T57 -186H45Z" />
<glyph unicode="&#x201c;" horiz-adv-x="460" d="M415 739V674H399Q368 674 350 664T324 632T315 573V499L289 550Q296 554 308 556T333 559Q363 559 383 541T404 488Q404 456 385 435T331 414Q309 414 290 424T259 460T246 532V551Q246 624 265 665T319 722T403
739H415ZM207 739V674H191Q160 674 142 664T116 632T107 573V499L81 550Q88 554 100 556T125 559Q155 559 175 541T196 488Q196 456 177 435T123 414Q101 414 82 424T51 460T38 532V551Q38 624 57 665T111 722T195 739H207Z" />
<glyph unicode="&#x201d;" horiz-adv-x="460" d="M45 414V479H61Q92 479 110 489T136 521T145 580V654L171 603Q164 599 152 597T127 594Q97 594 77 612T56 665Q56 697 75 718T129 739Q151 739 170 729T201 693T214 621V602Q214 529 195 488T141 431T57 414H45ZM253
414V479H269Q300 479 318 489T344 521T353 580V654L379 603Q372 599 360 597T335 594Q305 594 285 612T264 665Q264 697 283 718T337 739Q359 739 378 729T409 693T422 621V602Q422 529 403 488T349 431T265 414H253Z" />
<glyph unicode="&#x201e;" horiz-adv-x="460" d="M45 -186V-121H61Q92 -121 110 -111T136 -79T145 -20V54L171 3Q164 -1 152 -3T127 -6Q97 -6 77 12T56 65Q56 97 75 118T129 139Q151 139 170 129T201 93T214 21V2Q214 -71 195 -112T141 -169T57 -186H45ZM253 -186V-121H269Q300
-121 318 -111T344 -79T353 -20V54L379 3Q372 -1 360 -3T335 -6Q305 -6 285 12T264 65Q264 97 283 118T337 139Q359 139 378 129T409 93T422 21V2Q422 -71 403 -112T349 -169T265 -186H253Z" />
<glyph unicode="&#x2022;" horiz-adv-x="433" d="M92 158V419H342V158H92Z" />
<glyph unicode="&#x2039;" horiz-adv-x="336" d="M164 39L33 236V280L170 483H289L151 273V250L289 39H164Z" />
<glyph unicode="&#x203a;" horiz-adv-x="336" d="M172 483L303 286V242L166 39H47L185 249V272L47 483H172Z" />
</font>
</defs>
</svg>
