<?xml version="1.0" standalone="no"?>
<!DOCTYPE svg PUBLIC "-//W3C//DTD SVG 1.1//EN" "http://www.w3.org/Graphics/SVG/1.1/DTD/svg11.dtd">
<svg xmlns="http://www.w3.org/2000/svg">
<defs >
<font id="Tajawal" horiz-adv-x="481" ><font-face
    font-family="Tajawal Light"
    units-per-em="1000"
    panose-1="0 0 4 0 0 0 0 0 0 0"
    ascent="645"
    descent="-355"
    alphabetic="0" />
<glyph unicode=" " glyph-name="space" horiz-adv-x="220" />
<glyph unicode="!" glyph-name="exclam" horiz-adv-x="195" d="M73 140V633H120V140H73ZM98 -5Q66 -5 66 28Q66 60 98 60Q129 60 129 28Q129 -5 98 -5Z" />
<glyph unicode="&quot;" glyph-name="quotedbl" horiz-adv-x="249" d="M70 502V625L107 645V522L70 502ZM142 502V625L179 645V522L142 502Z" />
<glyph unicode="#" glyph-name="numbersign" horiz-adv-x="497" d="M344 152L313 0H271L302 152H137L106 0H64L96 152H15V192H104L149 414H50V454H157L189 609H231L199 454H364L396 609H438L406 454H482V414H398L353 192H448V152H344ZM191 414L146 192H311L356 414H191Z" />
<glyph unicode="$" glyph-name="dollar" horiz-adv-x="513" d="M279 700V644Q355 640 421 597L396 564Q344 593 279 596V360Q373 322 410 278T448 160Q448 91 402 44T279 -11V-74H248V-12Q150 -10 65 48L88 81Q169 37 243 37H248V315Q152 348 109 389T66 489Q66
556 116 599T248 645V700H279ZM279 39Q331 47 361 80T391 160Q391 213 365 246T279 304V39ZM248 595Q126 588 126 489Q126 418 248 372V595Z" />
<glyph unicode="%" glyph-name="percent" horiz-adv-x="711" d="M182 0L485 589H534L231 0H182ZM284 429Q284 357 253 314T170 271Q107 271 76 324Q52 365 52 428Q52 498 83 538T170 578Q220 578 252 537T284 429ZM242 427Q242 477 221 509T168 542Q135 542 115
510T94 427Q94 373 114 340T168 306Q200 306 221 340T242 427ZM659 162Q659 90 628 47T545 4Q482 4 451 57Q427 98 427 161Q427 231 458 271T545 311Q595 311 627 270T659 162ZM617 160Q617 210 596 242T543 275Q510 275 490 243T469 160Q469 107 489 74T543 40Q575
40 596 73T617 160Z" />
<glyph unicode="&amp;" glyph-name="ampersand" horiz-adv-x="566" d="M431 329H485V289Q485 156 451 103L541 0H477L425 59Q400 28 355 8T262 -12Q175 -12 117 44Q65 94 65 167Q65 280 169 344L155 360Q80 446 80 508Q80 568 123 606T235 645Q302 645 360 605L341
569Q285 596 234 596Q192 596 166 572T140 510Q140 455 219 366L415 144Q431 176 431 276V329ZM199 314Q167 297 146 259T125 180Q125 115 164 76T270 37Q344 37 390 97L199 314Z" />
<glyph unicode="&apos;" glyph-name="quotesingle" horiz-adv-x="177" d="M70 502V625L107 645V522L70 502Z" />
<glyph unicode="(" glyph-name="parenleft" horiz-adv-x="368" d="M272 645Q144 456 144 252Q144 48 272 -141H230Q171 -79 131 33T91 252Q91 358 131 470T230 645H272Z" />
<glyph unicode=")" glyph-name="parenright" horiz-adv-x="368" d="M91 -141Q219 48 219 252Q219 456 91 645H133Q192 583 232 471T272 252Q272 146 232 34T133 -141H91Z" />
<glyph unicode="*" glyph-name="asterisk" horiz-adv-x="335" d="M157 522L169 645L233 626L184 517L298 542L303 483L184 492L244 387L187 367L160 482L80 391L39 441L144 502L32 550L67 602L157 522Z" />
<glyph unicode="+" glyph-name="plus" horiz-adv-x="517" d="M237 207H42V247H237V454H280V247H475V207H280V0H237V207Z" />
<glyph unicode="," glyph-name="comma" horiz-adv-x="196" d="M72 -84Q109 -51 109 -14Q109 -9 107 1Q95 -9 84 -9Q68 -9 57 2T45 31Q45 69 85 69Q106 69 119 50T133 3Q133 -60 77 -97L72 -84Z" />
<glyph unicode="-" glyph-name="hyphen" horiz-adv-x="261" d="M236 220H25V260H236V220Z" />
<glyph unicode="." glyph-name="period" horiz-adv-x="243" d="M122 -8Q87 -6 87 28Q87 63 122 63Q157 63 157 28Q157 -8 122 -8Z" />
<glyph unicode="/" glyph-name="slash" horiz-adv-x="327" d="M343 633L25 -30H-25L294 633H343Z" />
<glyph unicode="0" glyph-name="zero" horiz-adv-x="538" d="M270 645Q376 645 438 537Q490 447 490 315Q490 157 424 68Q365 -12 270 -12Q159 -12 99 91Q48 178 48 315Q48 468 116 561Q176 645 270 645ZM268 596Q194 596 151 522T108 321Q108 183 154 107Q196
37 268 37Q351 37 394 127Q430 202 430 321Q430 456 382 530Q339 596 268 596Z" />
<glyph unicode="1" glyph-name="one" horiz-adv-x="375" d="M251 633V0H196V577L59 501L30 537L196 633H251Z" />
<glyph unicode="2" glyph-name="two" horiz-adv-x="480" d="M50 0V51L244 262Q355 382 355 471Q355 528 319 562T221 596Q150 596 89 556L65 588Q143 645 239 645Q320 645 371 591Q415 543 415 471Q415 415 381 360T248 196L112 49H405V0H50Z" />
<glyph unicode="3" glyph-name="three" horiz-adv-x="496" d="M201 311H127V361H201Q261 361 298 394T336 482Q336 596 205 596Q143 596 78 557L53 588Q121 645 218 645Q297 645 348 597Q396 553 396 484Q396 435 362 394T277 341Q343 330 383 285T423 177Q423
79 348 27Q293 -12 219 -12Q126 -12 47 48L71 80Q138 37 210 37Q278 37 320 76T363 178Q363 311 201 311Z" />
<glyph unicode="4" glyph-name="four" horiz-adv-x="550" d="M35 187L325 633H385V188H505V139H386V0H331V139H35V187ZM95 188H331V552L95 188Z" />
<glyph unicode="5" glyph-name="five" horiz-adv-x="526" d="M409 584H160V389Q196 395 242 395Q341 395 399 338Q453 284 453 191Q453 94 383 35Q326 -12 249 -12Q146 -12 73 46L93 76Q153 37 232 37Q308 37 350 78T393 192Q393 267 347 309T220 351Q185 351
122 340Q114 339 105 337V633H409V584Z" />
<glyph unicode="6" glyph-name="six" horiz-adv-x="534" d="M132 347Q196 411 274 411Q355 411 406 359Q461 304 461 202Q461 109 404 46Q351 -12 274 -12Q172 -12 117 90Q73 172 73 296Q73 461 146 560Q209 645 300 645Q374 645 437 598L417 569Q363 596 304
596Q233 596 186 530Q139 463 132 347ZM130 285Q131 163 176 95Q214 37 274 37Q333 37 367 81T401 202Q401 279 365 323T263 367Q225 367 188 344T130 285Z" />
<glyph unicode="7" glyph-name="seven" horiz-adv-x="414" d="M326 584H42V633H379V578L130 0H72L326 584Z" />
<glyph unicode="8" glyph-name="eight" horiz-adv-x="547" d="M338 342Q397 325 433 279T469 175Q469 90 404 36Q348 -12 269 -12Q180 -12 123 49Q73 101 73 174Q73 234 109 280T206 344Q92 399 92 490Q92 561 145 606Q195 648 272 648Q357 648 408 595Q450 550
450 487Q450 386 338 342ZM271 358Q324 369 357 406T391 489Q391 538 358 567T270 596Q218 596 185 568T152 495Q152 391 271 358ZM266 326Q209 317 171 275T133 177Q133 118 172 78T269 37Q330 37 369 76T409 175Q409 233 369 275T266 326Z" />
<glyph unicode="9" glyph-name="nine" horiz-adv-x="534" d="M402 286Q338 222 260 222Q179 222 128 274Q73 329 73 431Q73 524 130 587Q183 645 260 645Q362 645 417 543Q461 461 461 337Q461 172 388 73Q325 -12 234 -12Q160 -12 97 35L117 64Q171 37 230 37Q301
37 348 103Q395 170 402 286ZM404 348Q403 470 358 538Q320 596 260 596Q201 596 167 552T133 431Q133 354 169 310T271 266Q309 266 346 289T404 348Z" />
<glyph unicode=":" glyph-name="colon" horiz-adv-x="203" d="M122 232Q87 234 87 268Q87 303 122 303Q157 303 157 268Q157 232 122 232ZM122 -8Q87 -6 87 28Q87 63 122 63Q157 63 157 28Q157 -8 122 -8Z" />
<glyph unicode=";" glyph-name="semicolon" horiz-adv-x="175" d="M71 -84Q108 -51 108 -14Q108 -9 106 1Q94 -9 83 -9Q67 -9 56 2T44 31Q44 69 84 69Q105 69 118 50T132 3Q132 -60 76 -97L71 -84ZM42 269Q45 307 81 307Q97 307 108 296T119 269Q119 253 108 242T81
230Q44 230 42 269Z" />
<glyph unicode="&lt;" glyph-name="less" horiz-adv-x="517" d="M456 -12L42 214V268L456 476V429L81 241L456 34V-12Z" />
<glyph unicode="=" glyph-name="equal" horiz-adv-x="499" d="M457 282H42V322H457V282ZM457 132H42V172H457V132Z" />
<glyph unicode="&gt;" glyph-name="greater" horiz-adv-x="517" d="M475 213L61 -13V33L436 240L61 428V475L475 267V213Z" />
<glyph unicode="?" glyph-name="question" horiz-adv-x="368" d="M167 149H118V227Q118 267 128 285T178 336Q273 413 273 487Q273 538 245 567T166 596Q106 596 57 570L42 600Q104 645 178 645Q245 645 285 604T326 496Q326 406 239 331Q228 321 221 316Q186
288 177 271T167 219V149ZM100 30Q100 47 112 59T142 72Q159 72 171 60T184 30Q184 13 172 1T142 -12Q125 -12 113 0T100 30Z" />
<glyph unicode="@" glyph-name="at" horiz-adv-x="692" d="M464 103Q464 22 524 22Q560 22 581 63T602 173Q602 306 513 376Q446 428 357 428Q236 428 161 346Q90 268 90 142Q90 -8 190 -84Q263 -139 362 -139Q382 -139 400 -137V-172Q381 -174 360 -174Q224 -174
135 -86Q48 -1 48 139Q48 299 151 391Q235 466 357 466Q484 466 566 380Q644 299 644 173Q644 100 614 48Q579 -12 516 -12Q488 -12 465 5T434 50Q422 23 392 6T330 -12Q275 -12 242 27T208 130Q208 199 244 242T337 286Q384 286 426 256Q427 258 430 268Q435 281
437 287H464V103ZM426 218Q390 249 342 249Q251 249 251 136Q251 25 338 25Q426 25 426 143V218Z" />
<glyph unicode="A" glyph-name="A" horiz-adv-x="545" d="M240 633H306L530 0H474L419 152H128L74 0H15L240 633ZM272 578L142 199H403L272 578Z" />
<glyph unicode="B" glyph-name="B" horiz-adv-x="523" d="M90 0V633Q165 645 246 645Q452 645 452 477Q452 373 345 338V337Q405 326 439 280T473 164Q473 73 404 27Q345 -12 246 -12Q188 -12 90 0ZM145 594V359H258Q318 359 354 390T391 473Q391 600 243 600Q187
600 145 594ZM145 311V39Q198 33 251 33Q412 33 412 165Q412 234 372 272T261 311H145Z" />
<glyph unicode="C" glyph-name="C" horiz-adv-x="544" d="M494 51Q423 -12 323 -12Q193 -12 117 88Q50 175 50 310Q50 458 128 555Q201 645 314 645Q415 645 486 588L462 557Q397 596 323 596Q223 596 165 514Q110 438 110 310Q110 172 182 97Q241 37 331 37Q412
37 471 84L494 51Z" />
<glyph unicode="D" glyph-name="D" horiz-adv-x="602" d="M90 633Q183 645 234 645Q394 645 479 547Q552 463 552 323Q552 154 461 66Q380 -12 239 -12Q184 -12 90 0V633ZM145 39Q193 33 238 33Q365 33 431 114Q492 188 492 319Q492 462 409 538Q341 600 236 600Q175
600 145 594V39Z" />
<glyph unicode="E" glyph-name="E" horiz-adv-x="526" d="M90 633H448V584H145V354H400V305H145V49H461V0H90V633Z" />
<glyph unicode="F" glyph-name="F" horiz-adv-x="513" d="M90 0V633H448V584H145V354H400V305H145V0H90Z" />
<glyph unicode="G" glyph-name="G" horiz-adv-x="593" d="M513 42Q426 -12 325 -12Q181 -12 107 102Q50 189 50 315Q50 459 126 554Q199 645 315 645Q415 645 486 588L462 557Q395 596 323 596Q223 596 164 514Q110 437 110 311Q110 177 179 101Q238 37 327 37Q400
37 458 65V279H344V329H513V42Z" />
<glyph unicode="H" glyph-name="H" horiz-adv-x="628" d="M145 0H90V633H145V354H483V633H538V0H483V305H145V0Z" />
<glyph unicode="I" glyph-name="I" horiz-adv-x="235" d="M145 633V0H90V633H145Z" />
<glyph unicode="J" glyph-name="J" horiz-adv-x="220" d="M130 633V-41Q130 -101 102 -134T22 -168Q-30 -168 -85 -134L-66 -105Q-32 -123 4 -123Q75 -123 75 -34V633H130Z" />
<glyph unicode="K" glyph-name="K" horiz-adv-x="484" d="M145 633V347L393 633H459L198 334L456 0H387L145 320V0H90V633H145Z" />
<glyph unicode="L" glyph-name="L" horiz-adv-x="463" d="M90 0V633H145V49H398V0H90Z" />
<glyph unicode="M" glyph-name="M" horiz-adv-x="744" d="M372 50Q385 86 417 172Q533 486 592 633H654V0H599V531Q516 293 402 0H342Q228 293 145 531V0H90V633H155Q206 502 312 212L321 188Q357 90 372 50Z" />
<glyph unicode="N" glyph-name="N" horiz-adv-x="600" d="M145 532V0H90V633H143Q169 590 299 364T455 91V633H510V0H456Q394 102 145 532Z" />
<glyph unicode="O" glyph-name="O" horiz-adv-x="634" d="M317 645Q451 645 526 531Q584 442 584 317Q584 171 508 78Q435 -12 317 -12Q183 -12 108 102Q50 192 50 317Q50 462 126 556Q199 645 317 645ZM317 37Q423 37 479 128Q524 203 524 317Q524 449 465 525Q410
596 317 596Q211 596 155 505Q110 431 110 317Q110 185 169 108Q224 37 317 37Z" />
<glyph unicode="P" glyph-name="P" horiz-adv-x="504" d="M90 0V633Q179 645 236 645Q359 645 414 580Q454 532 454 454Q454 366 397 316Q341 267 237 267Q192 267 145 272V0H90ZM145 594V318Q178 312 229 312Q395 312 395 454Q395 600 230 600Q182 600 145 594Z" />
<glyph unicode="Q" glyph-name="Q" horiz-adv-x="634" d="M387 -2Q352 -12 317 -12Q183 -12 108 102Q50 192 50 317Q50 462 126 556Q199 645 317 645Q451 645 526 531Q584 442 584 317Q584 212 541 129Q501 52 433 16L554 -111H490L387 -2ZM317 37Q423 37 479
128Q524 203 524 317Q524 449 465 525Q410 596 317 596Q211 596 155 505Q110 431 110 317Q110 185 169 108Q224 37 317 37Z" />
<glyph unicode="R" glyph-name="R" horiz-adv-x="512" d="M90 0V633Q179 645 236 645Q359 645 414 580Q454 532 454 454Q454 321 334 281L462 0H406L285 269L284 270Q262 267 237 267Q192 267 145 272V0H90ZM145 594V318Q178 312 229 312Q395 312 395 454Q395
600 230 600Q182 600 145 594Z" />
<glyph unicode="S" glyph-name="S" horiz-adv-x="483" d="M381 564Q324 596 251 596Q184 596 148 568T111 489Q111 418 236 371Q348 329 390 284T433 160Q433 78 369 29Q315 -12 239 -12Q141 -12 50 48L73 81Q154 37 228 37Q295 37 335 70T376 160Q376 218 345
253Q312 288 237 314Q139 347 95 388T51 489Q51 561 109 605Q161 645 244 645Q334 645 406 597L381 564Z" />
<glyph unicode="T" glyph-name="T" horiz-adv-x="513" d="M221 584H25V633H488V584H276V0H221V584Z" />
<glyph unicode="U" glyph-name="U" horiz-adv-x="619" d="M529 263Q529 -12 310 -12Q90 -12 90 263V633H145V240Q145 37 310 37Q472 37 472 240V633H529V263Z" />
<glyph unicode="V" glyph-name="V" horiz-adv-x="532" d="M77 633L266 74L453 633H516L289 0H242L15 633H77Z" />
<glyph unicode="W" glyph-name="W" horiz-adv-x="890" d="M476 633L635 74L812 633H875L661 0H606L445 555L284 0H231L15 633H77L256 74L413 633H476Z" />
<glyph unicode="X" glyph-name="X" horiz-adv-x="542" d="M516 633L307 331L527 0H462L278 286L77 0H15L251 328L51 633H113L280 376L453 633H516Z" />
<glyph unicode="Y" glyph-name="Y" horiz-adv-x="509" d="M15 633H72L254 301L436 633H494L281 247V0H227V247L15 633Z" />
<glyph unicode="Z" glyph-name="Z" horiz-adv-x="451" d="M420 633V579L84 49H426V0H25V49L364 584H34V633H420Z" />
<glyph unicode="[" glyph-name="bracketleft" horiz-adv-x="349" d="M262 -140H91V645H262V600H138V-95H262V-140Z" />
<glyph unicode="\" glyph-name="backslash" horiz-adv-x="327" d="M280 -30L-38 633H11L330 -30H280Z" />
<glyph unicode="]" glyph-name="bracketright" horiz-adv-x="349" d="M87 645H258V-140H87V-95H211V600H87V645Z" />
<glyph unicode="^" glyph-name="asciicircum" horiz-adv-x="386" d="M170 609H215L351 323H307L193 573L192 572L79 323H35L170 609Z" />
<glyph unicode="_" glyph-name="underscore" horiz-adv-x="384" d="M379 -70H5V-30H379V-70Z" />
<glyph unicode="`" glyph-name="grave" horiz-adv-x="153" d="M101 553L25 655H80L128 553H101Z" />
<glyph unicode="a" glyph-name="a" horiz-adv-x="478" d="M400 0H366L357 51Q290 -12 198 -12Q131 -12 90 26T48 126Q48 282 268 282H353V290Q353 423 225 423Q160 423 97 378L78 406Q138 466 236 466Q315 466 357 418T400 279V0ZM353 242H276Q182 242 142 217T101
133Q101 85 130 58T212 31Q254 31 295 51T353 101V242Z" />
<glyph unicode="b" glyph-name="b" horiz-adv-x="517" d="M112 0H78V619L125 645V408Q175 466 259 466Q363 466 421 391Q469 329 469 236Q469 111 400 44Q343 -12 258 -12Q174 -12 121 48L112 0ZM125 352V99Q164 31 257 31Q329 31 374 88Q416 141 416 226Q416
324 366 377Q322 423 254 423Q213 423 177 403T125 352Z" />
<glyph unicode="c" glyph-name="c" horiz-adv-x="461" d="M419 33Q363 -12 274 -12Q167 -12 103 62Q48 127 48 225Q48 335 119 405Q181 466 268 466Q355 466 409 423L390 395Q340 423 283 423Q193 423 143 359Q101 306 101 222Q101 132 155 80Q205 31 290 31Q348
31 401 63L419 33Z" />
<glyph unicode="d" glyph-name="d" horiz-adv-x="517" d="M405 0L396 48Q346 -12 253 -12Q157 -12 98 63Q48 128 48 224Q48 340 116 408Q173 466 260 466Q344 466 392 408V619L439 645V0H405ZM392 99V352Q376 384 341 403T264 423Q192 423 145 366Q101 312 101
228Q101 131 153 76Q197 31 263 31Q355 31 392 99Z" />
<glyph unicode="e" glyph-name="e" horiz-adv-x="477" d="M429 210H101Q103 127 159 76Q211 31 290 31Q357 31 407 67L426 36Q366 -12 274 -12Q169 -12 105 60Q48 125 48 225Q48 331 109 402Q165 466 246 466Q343 466 392 381Q429 317 429 224V210ZM102 250H379Q377
333 342 378T245 424Q187 424 147 376T102 250Z" />
<glyph unicode="f" glyph-name="f" horiz-adv-x="312" d="M42 415V454H104V522Q104 577 133 611T210 645Q256 645 297 617L280 589Q243 604 219 604Q151 604 151 522V454H257V415H151V0H104V415H42Z" />
<glyph unicode="g" glyph-name="g" horiz-adv-x="527" d="M402 31V44Q351 -12 263 -12Q167 -12 108 63Q58 128 58 224Q58 340 126 408Q183 466 270 466Q354 466 402 408L412 454H449V31Q449 -191 255 -191Q157 -191 97 -131L116 -103Q179 -148 244 -148Q327 -148
364 -106T402 31ZM402 99V352Q386 384 351 403T274 423Q202 423 155 366Q111 312 111 228Q111 131 163 76Q207 31 273 31Q365 31 402 99Z" />
<glyph unicode="h" glyph-name="h" horiz-adv-x="521" d="M78 620L125 645V407Q192 466 273 466Q359 466 404 415Q448 365 448 272V0H401V267Q401 423 262 423Q224 423 185 403T125 354V0H78V620Z" />
<glyph unicode="i" glyph-name="i" horiz-adv-x="218" d="M132 454V0H85V454H132ZM73 609Q73 624 83 634T109 645Q124 645 134 635T145 609Q145 594 135 584T109 573Q94 573 84 583T73 609Z" />
<glyph unicode="j" glyph-name="j" horiz-adv-x="219" d="M129 454V-68Q129 -123 100 -157T23 -191Q-23 -191 -64 -163L-47 -135Q-13 -150 14 -150Q82 -150 82 -68V454H129ZM69 609Q69 624 79 634T105 645Q120 645 130 635T141 609Q141 594 131 584T105 573Q90
573 80 583T69 609Z" />
<glyph unicode="k" glyph-name="k" horiz-adv-x="436" d="M368 454L173 278L411 0H349L125 264V0H78V619L125 645V287L300 454H368Z" />
<glyph unicode="l" glyph-name="l" horiz-adv-x="203" d="M125 645V0H78V619L125 645Z" />
<glyph unicode="m" glyph-name="m" horiz-adv-x="806" d="M121 405Q198 466 271 466Q353 466 398 400Q474 466 564 466Q645 466 690 412Q733 361 733 272V0H686V267Q686 423 552 423Q482 423 417 363Q432 323 432 272V0H385V267Q385 423 260 423Q180 423 125 352V0H78V454H117L121
405Z" />
<glyph unicode="n" glyph-name="n" horiz-adv-x="521" d="M121 403Q190 466 277 466Q359 466 404 413Q448 363 448 272V0H401V267Q401 423 265 423Q177 423 125 354V0H78V454H117L121 403Z" />
<glyph unicode="o" glyph-name="o" horiz-adv-x="528" d="M264 466Q367 466 429 387Q480 320 480 226Q480 118 414 50Q355 -12 264 -12Q160 -12 99 67Q48 133 48 226Q48 335 114 404Q173 466 264 466ZM264 424Q185 424 139 359Q101 305 101 226Q101 137 151 81Q196
30 264 30Q342 30 388 95Q427 149 427 226Q427 317 378 373Q333 424 264 424Z" />
<glyph unicode="p" glyph-name="p" horiz-adv-x="529" d="M117 454L125 402Q179 466 282 466Q378 466 434 391Q481 328 481 236Q481 114 413 45Q357 -12 277 -12Q181 -12 125 48V-185H78V454H117ZM125 348V100Q144 70 182 51T260 31Q337 31 384 86Q428 138 428
226Q428 326 378 378Q336 423 267 423Q225 423 186 402T125 348Z" />
<glyph unicode="q" glyph-name="q" horiz-adv-x="527" d="M402 -191V48Q342 -12 247 -12Q157 -12 99 62Q48 127 48 221Q48 342 118 410Q175 466 258 466Q351 466 402 408L413 454H449V-191H402ZM402 102V351Q382 384 345 403T265 423Q193 423 147 367Q102 313
102 227Q102 130 154 75Q196 31 258 31Q304 31 344 51T402 102Z" />
<glyph unicode="r" glyph-name="r" horiz-adv-x="376" d="M121 403Q191 466 254 466Q322 466 356 426L317 395Q284 422 243 422Q181 422 125 354V0H78V454H117L121 403Z" />
<glyph unicode="s" glyph-name="s" horiz-adv-x="404" d="M306 399Q258 423 198 423Q153 423 127 404T101 351Q101 315 123 296T212 256Q291 231 323 200T356 117Q356 60 312 24T199 -12Q113 -12 48 33L61 60Q120 31 186 31Q304 31 304 119Q304 152 279 172T188
213Q48 256 48 349Q48 400 88 433T191 466Q262 466 321 427L306 399Z" />
<glyph unicode="t" glyph-name="t" horiz-adv-x="347" d="M159 414V111Q159 29 227 29Q254 29 288 44L305 16Q264 -12 218 -12Q171 -12 142 22T112 111V414H42V454H113V558L159 582V454H302V414H159Z" />
<glyph unicode="u" glyph-name="u" horiz-adv-x="510" d="M389 51Q320 -12 233 -12Q162 -12 118 47Q78 100 78 182V454H125V187Q125 31 245 31Q332 31 385 102V454H432V0H393L389 51Z" />
<glyph unicode="v" glyph-name="v" horiz-adv-x="425" d="M241 0H184L15 454H68L214 54L357 454H410L241 0Z" />
<glyph unicode="w" glyph-name="w" horiz-adv-x="683" d="M222 0H163L15 454H68L192 53L316 454H376L492 53L615 454H668L521 0H462L345 401L222 0Z" />
<glyph unicode="x" glyph-name="x" horiz-adv-x="408" d="M385 454L236 239L393 0H340L206 203L69 0H15L175 236L37 454H90L206 273L332 454H385Z" />
<glyph unicode="y" glyph-name="y" horiz-adv-x="442" d="M427 454L228 -71Q183 -191 106 -191Q58 -191 18 -163L35 -135Q71 -150 97 -150Q129 -150 149 -126T198 -30L210 0H194L15 454H68L226 44L374 454H427Z" />
<glyph unicode="z" glyph-name="z" horiz-adv-x="399" d="M374 0H25V42L312 414H42V454H368V410L81 40H374V0Z" />
<glyph unicode="{" glyph-name="braceleft" horiz-adv-x="363" d="M48 232V279Q99 287 127 328T156 435V479Q156 574 186 609T296 645H306V600H296Q239 600 222 578T204 479V435Q204 307 91 255Q152 227 178 185T204 74V27Q204 -49 221 -72T296 -95H306V-140H296Q208
-140 179 -94Q156 -59 156 27V74Q156 136 127 178T48 232Z" />
<glyph unicode="|" glyph-name="bar" horiz-adv-x="223" d="M133 662V-179H90V662H133Z" />
<glyph unicode="}" glyph-name="braceright" horiz-adv-x="363" d="M315 279V232Q265 221 236 179T207 74V27Q207 -68 177 -104T67 -140H57V-95H67Q124 -95 141 -72T159 27V74Q159 143 185 185T272 255Q159 307 159 435V479Q159 555 142 577T67 600H57V645H67Q155
645 184 600Q207 564 207 479V435Q207 369 235 328T315 279Z" />
<glyph unicode="~" glyph-name="asciitilde" horiz-adv-x="471" d="M429 275Q406 194 349 194Q313 194 250 222Q242 225 236 228Q228 231 223 234Q170 259 134 259Q85 259 54 210L42 219Q71 300 133 300Q168 300 245 265Q311 235 341 235Q394 235 417 282L429 275Z" />
<glyph unicode="&#xa0;" glyph-name="space" horiz-adv-x="220" />
<glyph unicode="&#xa1;" glyph-name="exclamdown" horiz-adv-x="195" d="M73 316H120V-177H73V316ZM98 461Q129 461 129 428Q129 396 98 396Q66 396 66 428Q66 461 98 461Z" />
<glyph unicode="&#xa2;" glyph-name="cent" horiz-adv-x="467" d="M291 -11V-52H260V-12Q158 -6 100 67Q48 130 48 225Q48 332 116 402Q176 463 260 466V512H291V465Q361 460 409 423L390 395Q343 421 291 423V31Q348 31 401 63L419 33Q370 -7 291 -11ZM260 421Q187
414 144 360T101 222Q101 142 143 92T260 33V421Z" />
<glyph unicode="&#xa3;" glyph-name="sterling" horiz-adv-x="465" d="M336 323H171V49H419V0H44V49H115V323H42V367H115V430Q115 645 282 645Q362 645 423 591L399 557Q345 595 290 595Q171 595 171 438V367H336V323Z" />
<glyph unicode="&#xa4;" glyph-name="currency" horiz-adv-x="476" d="M432 101L347 184Q306 152 244 152Q181 152 140 184L59 104Q58 103 56 103Q50 103 39 115T28 134V135L109 215Q76 257 76 315Q76 372 112 418L28 501Q27 503 27 505Q27 511 37 521T55 532Q56
532 57 531L142 447Q186 478 244 478Q301 478 345 447L429 530Q431 532 433 532Q441 532 450 523T460 507Q460 504 458 502L375 420Q411 374 411 315Q411 258 377 214L460 134Q461 133 461 130Q461 122 452 111T436 99Q433 99 432 101ZM245 191Q302 191 333 223T365
315Q365 374 333 407T245 441Q189 441 155 407T121 315Q121 258 154 225T245 191Z" />
<glyph unicode="&#xa5;" glyph-name="yen" horiz-adv-x="439" d="M189 0V187H82V231H189V271H82V316H189L31 632H87L220 374L351 632H407L247 316H357V271H247V231H357V187H247V0H189Z" />
<glyph unicode="&#xa6;" glyph-name="brokenbar" horiz-adv-x="223" d="M90 215H133V-192H90V215ZM133 676V305H90V676H133Z" />
<glyph unicode="&#xa7;" glyph-name="section" horiz-adv-x="435" d="M305 128Q373 90 373 9Q373 -58 329 -99T212 -140Q132 -140 67 -97L80 -73Q133 -96 193 -96Q323 -96 323 0Q323 41 296 67T206 115Q122 143 86 178T50 269Q50 351 139 398Q71 443 71 513Q71
574 110 609T217 645Q293 645 352 606L340 589L336 582Q289 604 230 604Q180 604 151 581T121 519Q121 481 150 454T251 399Q324 372 354 337T385 245Q385 171 305 128ZM161 384Q99 343 99 284Q99 238 127 210T227 157Q238 153 258 146Q267 143 275 140Q299 150
319 179T340 236Q340 312 248 347L240 350Q233 353 230 354Q181 373 161 384Z" />
<glyph unicode="&#xa8;" glyph-name="dieresis" horiz-adv-x="280" d="M34 609Q34 624 44 634T70 645Q85 645 95 635T106 609Q106 594 96 584T70 573Q55 573 45 583T34 609ZM174 609Q174 624 184 634T210 645Q225 645 235 635T246 609Q246 594 236 584T210 573Q195
573 185 583T174 609Z" />
<glyph unicode="&#xa9;" glyph-name="copyright" horiz-adv-x="698" d="M487 167Q430 124 355 124Q274 124 222 187Q179 239 179 311Q179 397 236 453Q286 502 358 502Q426 502 480 459L468 433Q418 461 364 461Q293 461 257 408Q229 367 229 308Q229 247 269
207T371 167Q428 167 471 197L487 167ZM349 617Q482 617 572 517Q650 431 650 315Q650 182 550 92Q464 14 349 14Q216 14 126 114Q48 200 48 315Q48 448 148 539Q234 617 349 617ZM351 53Q468 53 544 139Q608 213 608 315Q608 433 523 510Q449 577 347 577Q229
577 154 491Q90 418 90 315Q90 197 175 120Q249 53 351 53Z" />
<glyph unicode="&#xaa;" glyph-name="ordfeminine" horiz-adv-x="268" d="M226 406H191L185 446Q161 400 109 400Q76 400 55 420T33 473Q33 550 155 550H182V552Q182 612 124 612Q93 612 59 587L41 611Q84 645 133 645Q226 645 226 544V406ZM181 524H157Q76 524
76 476Q76 435 123 435Q168 435 181 480V524Z" />
<glyph unicode="&#xab;" glyph-name="guillemotleft" horiz-adv-x="478" d="M250 24Q195 43 141 101T52 237Q87 316 141 374T250 451V406Q154 356 101 237Q154 119 250 69V24ZM436 24Q382 43 328 101T238 237Q274 316 328 374T436 451V406Q341 356 287 237Q341
119 436 69V24Z" />
<glyph unicode="&#xac;" glyph-name="logicalnot" horiz-adv-x="457" d="M358 0V163H42V217H415V0H358Z" />
<glyph unicode="&#xae;" glyph-name="registered" horiz-adv-x="414" d="M202 470H179V410H153V567H202Q261 567 261 520Q261 486 230 474L266 410H234L202 470ZM203 544H179V495H203Q234 495 234 518Q234 544 203 544ZM207 322Q135 322 87 376Q45 422 45 484Q45
555 99 604Q145 645 207 645Q279 645 327 592Q369 546 369 484Q369 412 315 364Q269 322 207 322ZM207 615Q153 615 115 577T76 484Q76 429 114 391T207 352Q262 352 300 390T338 484Q338 538 300 576T207 615Z" />
<glyph unicode="&#xaf;" glyph-name="overscore" horiz-adv-x="216" d="M200 594H16V633H200V594Z" />
<glyph unicode="&#xb0;" glyph-name="degree" horiz-adv-x="276" d="M25 539Q25 586 58 619T138 652Q185 652 218 619T251 539Q251 492 218 459T138 426Q91 426 58 459T25 539ZM56 540Q56 505 80 481T139 456Q173 456 197 480T221 540Q221 575 197 599T139 623Q104
623 80 599T56 540Z" />
<glyph unicode="&#xb1;" glyph-name="plusminus" horiz-adv-x="499" d="M227 260H42V300H227V454H270V300H457V260H270V106H227V260ZM457 0H42V40H457V0Z" />
<glyph unicode="&#xb2;" glyph-name="twosuperior" horiz-adv-x="331" d="M62 316V360L160 449Q226 509 226 545Q226 602 159 602Q125 602 77 575L59 600Q111 645 164 645Q212 645 241 619T270 548Q270 518 255 493T197 426L127 359H272V316H62Z" />
<glyph unicode="&#xb3;" glyph-name="threesuperior" horiz-adv-x="347" d="M138 469V511H168Q237 511 237 556Q237 602 171 602Q132 602 91 581L73 603Q124 645 180 645Q227 645 254 623T282 563Q282 515 236 490Q288 474 288 411Q288 368 256 341T173 314Q122
314 73 355L92 378Q128 357 167 357Q200 357 221 372T242 410Q242 469 168 469H138Z" />
<glyph unicode="&#xb4;" glyph-name="acute" horiz-adv-x="153" d="M128 655L52 553H25L73 655H128Z" />
<glyph unicode="&#xb5;" glyph-name="mu" horiz-adv-x="536" d="M127 31V-178H78V454H127V170Q127 37 238 37Q324 37 365 115V454H414V97Q414 31 462 31Q482 31 500 39L513 17Q485 -13 446 -13Q373 -13 364 65Q313 -12 229 -12Q160 -12 127 31Z" />
<glyph unicode="&#xb6;" glyph-name="paragraph" horiz-adv-x="414" d="M324 0H300V633H324V0ZM245 0V370H202Q130 370 88 404T46 498Q46 557 89 595T200 633H269V0H245Z" />
<glyph unicode="&#xb7;" glyph-name="middot" horiz-adv-x="162" d="M39 350Q39 367 51 379T81 392Q98 392 110 380T123 350Q123 333 111 321T81 308Q64 308 52 320T39 350Z" />
<glyph unicode="&#xb8;" glyph-name="cedilla" horiz-adv-x="207" d="M52 -56L68 10H107L95 -32Q105 -30 116 -30Q182 -30 182 -86Q182 -118 157 -139T92 -160Q60 -160 25 -145L36 -112Q61 -126 88 -126Q138 -126 138 -89Q138 -53 88 -53Q70 -53 52 -56Z" />
<glyph unicode="&#xb9;" glyph-name="onesuperior" horiz-adv-x="253" d="M153 633V318H113V577L59 533L29 564L112 633H153Z" />
<glyph unicode="&#xba;" glyph-name="ordmasculine" horiz-adv-x="288" d="M145 645Q194 645 224 611T255 522Q255 470 224 435T145 400Q97 400 65 435T33 522Q33 577 64 611T145 645ZM145 616Q115 616 97 591T78 522Q78 482 97 456T146 429Q176 429 193 454T211
522Q211 564 193 590T145 616Z" />
<glyph unicode="&#xbb;" glyph-name="guillemotright" horiz-adv-x="478" d="M42 24V69Q138 119 191 237Q138 356 42 406V451Q97 432 150 374T240 237Q204 159 151 101T42 24ZM228 24V69Q324 119 377 237Q324 356 228 406V451Q283 432 337 374T426 237Q391 159
337 101T228 24Z" />
<glyph unicode="&#xbc;" glyph-name="onequarter" horiz-adv-x="778" d="M197 633V318H157V577L103 533L73 564L156 633H197ZM453 110L624 318H665V110H726V67H665V0H624V67H453V110ZM507 110H624V255L507 110ZM580 633L197 -30H152L536 633H580Z" />
<glyph unicode="&#xbd;" glyph-name="onehalf" horiz-adv-x="800" d="M197 633V318H157V577L103 533L73 564L156 633H197ZM512 0V44L610 133Q676 193 676 229Q676 286 609 286Q575 286 527 259L509 284Q561 329 614 329Q662 329 691 303T720 232Q720 202 705 177T647
110L577 43H722V0H512ZM576 633L193 -30H148L532 633H576Z" />
<glyph unicode="&#xbe;" glyph-name="threequarters" horiz-adv-x="822" d="M138 469V511H168Q237 511 237 556Q237 602 171 602Q132 602 91 581L73 603Q124 645 180 645Q227 645 254 623T282 563Q282 515 236 490Q288 474 288 411Q288 368 256 341T173 314Q122
314 73 355L92 378Q128 357 167 357Q200 357 221 372T242 410Q242 469 168 469H138ZM490 110L661 318H702V110H763V67H702V0H661V67H490V110ZM544 110H661V255L544 110ZM629 633L246 -30H201L585 633H629Z" />
<glyph unicode="&#xbf;" glyph-name="questiondown" horiz-adv-x="380" d="M207 304H256V226Q256 186 246 168T196 117Q101 40 101 -34Q101 -85 129 -114T208 -143Q268 -143 317 -117L332 -147Q270 -192 196 -192Q129 -192 89 -151T48 -43Q48 47 135 122Q146 132
153 137Q188 165 197 182T207 234V304ZM274 423Q274 406 262 394T232 381Q215 381 203 393T190 423Q190 440 202 452T232 465Q249 465 261 453T274 423Z" />
<glyph unicode="&#xc0;" glyph-name="Agrave" horiz-adv-x="576" d="M240 633H306L530 0H474L419 152H128L74 0H15L240 633ZM272 578L142 199H403L272 578ZM237 721L161 823H216L264 721H237Z" />
<glyph unicode="&#xc1;" glyph-name="Aacute" horiz-adv-x="576" d="M240 633H306L530 0H474L419 152H128L74 0H15L240 633ZM272 578L142 199H403L272 578ZM363 823L287 721H260L308 823H363Z" />
<glyph unicode="&#xc2;" glyph-name="Acircumflex" horiz-adv-x="576" d="M240 633H306L530 0H474L419 152H128L74 0H15L240 633ZM272 578L142 199H403L272 578ZM254 823H291L361 721H318L273 788L225 721H183L254 823Z" />
<glyph unicode="&#xc3;" glyph-name="Atilde" horiz-adv-x="576" d="M240 633H306L530 0H474L419 152H128L74 0H15L240 633ZM272 578L142 199H403L272 578ZM414 792Q387 725 339 725Q321 725 288 744Q287 744 286 745Q284 746 283 746Q281 747 276 750L274 751Q242
770 226 770Q209 770 191 757T167 727L146 740Q172 807 226 807Q256 807 292 783Q324 762 343 762Q371 762 393 806L414 792Z" />
<glyph unicode="&#xc4;" glyph-name="Adieresis" horiz-adv-x="576" d="M240 633H306L530 0H474L419 152H128L74 0H15L240 633ZM272 578L142 199H403L272 578ZM169 777Q169 792 179 802T205 813Q220 813 230 803T241 777Q241 762 231 752T205 741Q190 741 180
751T169 777ZM309 777Q309 792 319 802T345 813Q360 813 370 803T381 777Q381 762 371 752T345 741Q330 741 320 751T309 777Z" />
<glyph unicode="&#xc5;" glyph-name="Aring" horiz-adv-x="576" d="M240 633H306L530 0H474L419 152H128L74 0H15L240 633ZM272 578L142 199H403L272 578ZM210 763Q210 789 228 807T273 826Q299 826 317 808T336 763Q336 737 318 719T273 700Q247 700 229 718T210
763ZM236 763Q236 748 246 738T272 727Q287 727 298 737T309 763Q309 778 298 788T272 799Q257 799 247 789T236 763Z" />
<glyph unicode="&#xc6;" glyph-name="AE" horiz-adv-x="757" d="M692 633V584H389V354H644V305H389V49H705V0H334V161H137L73 0H15L293 633H692ZM320 582L158 208H334V582H320Z" />
<glyph unicode="&#xc7;" glyph-name="Ccedilla" horiz-adv-x="566" d="M280 -56L291 -10Q174 1 107 98Q48 184 48 310Q48 458 126 555Q199 645 312 645Q413 645 484 588L460 557Q395 596 321 596Q221 596 163 514Q108 438 108 310Q108 172 180 97Q239 37 329 37Q410
37 469 84L492 51Q424 -9 328 -12L323 -32Q333 -30 344 -30Q410 -30 410 -86Q410 -118 385 -139T320 -160Q288 -160 253 -145L264 -112Q289 -126 316 -126Q366 -126 366 -89Q366 -53 316 -53Q298 -53 280 -56Z" />
<glyph unicode="&#xc8;" glyph-name="Egrave" horiz-adv-x="526" d="M82 633H440V584H137V354H392V305H137V49H453V0H82V633ZM252 722L176 824H231L279 722H252Z" />
<glyph unicode="&#xc9;" glyph-name="Eacute" horiz-adv-x="526" d="M82 633H440V584H137V354H392V305H137V49H453V0H82V633ZM328 819L252 717H225L273 819H328Z" />
<glyph unicode="&#xca;" glyph-name="Ecircumflex" horiz-adv-x="526" d="M82 633H440V584H137V354H392V305H137V49H453V0H82V633ZM242 823H279L349 721H306L261 788L213 721H171L242 823Z" />
<glyph unicode="&#xcb;" glyph-name="Edieresis" horiz-adv-x="526" d="M82 633H440V584H137V354H392V305H137V49H453V0H82V633ZM155 777Q155 792 165 802T191 813Q206 813 216 803T227 777Q227 762 217 752T191 741Q176 741 166 751T155 777ZM295 777Q295 792
305 802T331 813Q346 813 356 803T367 777Q367 762 357 752T331 741Q316 741 306 751T295 777Z" />
<glyph unicode="&#xcc;" glyph-name="Igrave" horiz-adv-x="272" d="M145 633V0H90V633H145ZM103 721L27 823H82L130 721H103Z" />
<glyph unicode="&#xcd;" glyph-name="Iacute" horiz-adv-x="272" d="M145 633V0H90V633H145ZM211 823L135 721H108L156 823H211Z" />
<glyph unicode="&#xce;" glyph-name="Icircumflex" horiz-adv-x="272" d="M145 633V0H90V633H145ZM100 834H137L207 732H164L119 799L71 732H29L100 834Z" />
<glyph unicode="&#xcf;" glyph-name="Idieresis" horiz-adv-x="272" d="M145 633V0H90V633H145ZM11 777Q11 792 21 802T47 813Q62 813 72 803T83 777Q83 762 73 752T47 741Q32 741 22 751T11 777ZM151 777Q151 792 161 802T187 813Q202 813 212 803T223 777Q223
762 213 752T187 741Q172 741 162 751T151 777Z" />
<glyph unicode="&#xd0;" glyph-name="Eth" horiz-adv-x="655" d="M119 306H41V350H119V635Q212 645 264 645Q425 645 510 547Q583 463 583 323Q583 154 492 66Q411 -12 270 -12Q219 -12 119 -2V306ZM175 47Q228 36 270 36Q397 36 462 116Q522 188 522 319Q522
461 440 536Q372 597 267 597Q225 597 175 586V350H329V306H175V47Z" />
<glyph unicode="&#xd1;" glyph-name="Ntilde" horiz-adv-x="675" d="M145 532V0H90V633H143Q169 590 299 364T455 91V633H510V0H456Q418 64 246 359Q166 496 145 532ZM440 783Q413 716 365 716Q347 716 314 735Q313 735 312 736Q310 737 309 737Q307 738 302 741L300
742Q268 761 252 761Q235 761 217 748T193 718L172 731Q198 798 252 798Q282 798 318 774Q350 753 369 753Q397 753 419 797L440 783Z" />
<glyph unicode="&#xd2;" glyph-name="Ograve" horiz-adv-x="654" d="M317 645Q451 645 526 531Q584 442 584 317Q584 171 508 78Q435 -12 317 -12Q183 -12 108 102Q50 192 50 317Q50 462 126 556Q199 645 317 645ZM317 37Q423 37 479 128Q524 203 524 317Q524
449 465 525Q410 596 317 596Q211 596 155 505Q110 431 110 317Q110 185 169 108Q224 37 317 37ZM300 720L224 822H279L327 720H300Z" />
<glyph unicode="&#xd3;" glyph-name="Oacute" horiz-adv-x="654" d="M317 645Q451 645 526 531Q584 442 584 317Q584 171 508 78Q435 -12 317 -12Q183 -12 108 102Q50 192 50 317Q50 462 126 556Q199 645 317 645ZM317 37Q423 37 479 128Q524 203 524 317Q524
449 465 525Q410 596 317 596Q211 596 155 505Q110 431 110 317Q110 185 169 108Q224 37 317 37ZM399 822L323 720H296L344 822H399Z" />
<glyph unicode="&#xd4;" glyph-name="Ocircumflex" horiz-adv-x="654" d="M317 645Q451 645 526 531Q584 442 584 317Q584 171 508 78Q435 -12 317 -12Q183 -12 108 102Q50 192 50 317Q50 462 126 556Q199 645 317 645ZM317 37Q423 37 479 128Q524 203 524 317Q524
449 465 525Q410 596 317 596Q211 596 155 505Q110 431 110 317Q110 185 169 108Q224 37 317 37ZM297 822H334L404 720H361L316 787L268 720H226L297 822Z" />
<glyph unicode="&#xd5;" glyph-name="Otilde" horiz-adv-x="654" d="M317 645Q451 645 526 531Q584 442 584 317Q584 171 508 78Q435 -12 317 -12Q183 -12 108 102Q50 192 50 317Q50 462 126 556Q199 645 317 645ZM317 37Q423 37 479 128Q524 203 524 317Q524
449 465 525Q410 596 317 596Q211 596 155 505Q110 431 110 317Q110 185 169 108Q224 37 317 37ZM454 792Q427 725 379 725Q361 725 328 744Q327 744 326 745Q324 746 323 746Q321 747 316 750L314 751Q282 770 266 770Q249 770 231 757T207 727L186 740Q212 807
266 807Q296 807 332 783Q364 762 383 762Q411 762 433 806L454 792Z" />
<glyph unicode="&#xd6;" glyph-name="Odieresis" horiz-adv-x="654" d="M317 645Q451 645 526 531Q584 442 584 317Q584 171 508 78Q435 -12 317 -12Q183 -12 108 102Q50 192 50 317Q50 462 126 556Q199 645 317 645ZM317 37Q423 37 479 128Q524 203 524 317Q524
449 465 525Q410 596 317 596Q211 596 155 505Q110 431 110 317Q110 185 169 108Q224 37 317 37ZM216 777Q216 792 226 802T252 813Q267 813 277 803T288 777Q288 762 278 752T252 741Q237 741 227 751T216 777ZM356 777Q356 792 366 802T392 813Q407 813 417 803T428
777Q428 762 418 752T392 741Q377 741 367 751T356 777Z" />
<glyph unicode="&#xd7;" glyph-name="multiply" horiz-adv-x="501" d="M256 202L76 10Q66 19 54 32L53 33Q46 40 42 44L227 232Q200 261 136 330Q80 389 55 416Q60 421 67 427Q79 438 85 446L253 261Q280 289 337 351Q397 416 427 447L459 416L283 231Q312 199
360 146Q426 76 456 40L426 10L256 202Z" />
<glyph unicode="&#xd8;" glyph-name="Oslash" horiz-adv-x="634" d="M510 645L480 584Q584 491 584 317Q584 171 508 78Q435 -12 317 -12Q254 -12 202 15L180 -30H130L164 40Q50 132 50 317Q50 462 126 556Q199 645 317 645Q387 645 444 610L461 645H510ZM422
565Q377 596 317 596Q211 596 155 505Q110 431 110 317Q110 162 187 87L422 565ZM224 60Q264 37 317 37Q423 37 479 128Q524 203 524 317Q524 458 456 535L224 60Z" />
<glyph unicode="&#xd9;" glyph-name="Ugrave" horiz-adv-x="644" d="M529 263Q529 -12 310 -12Q90 -12 90 263V633H145V240Q145 37 310 37Q472 37 472 240V633H529V263ZM306 720L230 822H285L333 720H306Z" />
<glyph unicode="&#xda;" glyph-name="Uacute" horiz-adv-x="644" d="M529 263Q529 -12 310 -12Q90 -12 90 263V633H145V240Q145 37 310 37Q472 37 472 240V633H529V263ZM381 822L305 720H278L326 822H381Z" />
<glyph unicode="&#xdb;" glyph-name="Ucircumflex" horiz-adv-x="644" d="M529 263Q529 -12 310 -12Q90 -12 90 263V633H145V240Q145 37 310 37Q472 37 472 240V633H529V263ZM291 822H328L398 720H355L310 787L262 720H220L291 822Z" />
<glyph unicode="&#xdc;" glyph-name="Udieresis" horiz-adv-x="644" d="M529 263Q529 -12 310 -12Q90 -12 90 263V633H145V240Q145 37 310 37Q472 37 472 240V633H529V263ZM206 778Q206 793 216 803T242 814Q257 814 267 804T278 778Q278 763 268 753T242 742Q227
742 217 752T206 778ZM346 778Q346 793 356 803T382 814Q397 814 407 804T418 778Q418 763 408 753T382 742Q367 742 357 752T346 778Z" />
<glyph unicode="&#xdd;" glyph-name="Yacute" horiz-adv-x="509" d="M15 633H72L254 301L436 633H494L281 247V0H227V247L15 633ZM341 818L265 716H238L286 818H341Z" />
<glyph unicode="&#xde;" glyph-name="Thorn" horiz-adv-x="533" d="M90 0V633H144V515Q178 529 236 529Q359 529 414 465Q455 418 455 341Q455 239 388 186Q332 142 245 142Q207 142 145 153V0H90ZM145 468V201Q189 191 245 191Q395 191 395 341Q395 480 237 480Q184
480 145 468Z" />
<glyph unicode="&#xdf;" glyph-name="germandbls" horiz-adv-x="490" d="M298 340Q364 328 402 281T440 164Q440 71 377 22Q332 -12 279 -12Q228 -12 181 8L195 44Q230 31 268 31Q319 31 353 69T387 166Q387 231 347 272T243 314H227V354H240Q290 354 325 392T361
485Q361 538 327 571T239 605Q187 605 157 573T126 485V0H78V471Q78 646 240 646Q324 646 373 593Q414 549 414 486Q414 429 383 389T298 340Z" />
<glyph unicode="&#xe0;" glyph-name="agrave" horiz-adv-x="495" d="M400 0H366L357 51Q290 -12 198 -12Q131 -12 90 26T48 126Q48 282 268 282H353V290Q353 423 225 423Q160 423 97 378L78 406Q138 466 236 466Q315 466 357 418T400 279V0ZM353 242H276Q182 242
142 217T101 133Q101 85 130 58T212 31Q254 31 295 51T353 101V242ZM235 548L159 650H214L262 548H235Z" />
<glyph unicode="&#xe1;" glyph-name="aacute" horiz-adv-x="495" d="M400 0H366L357 51Q290 -12 198 -12Q131 -12 90 26T48 126Q48 282 268 282H353V290Q353 423 225 423Q160 423 97 378L78 406Q138 466 236 466Q315 466 357 418T400 279V0ZM353 242H276Q182 242
142 217T101 133Q101 85 130 58T212 31Q254 31 295 51T353 101V242ZM314 650L238 548H211L259 650H314Z" />
<glyph unicode="&#xe2;" glyph-name="acircumflex" horiz-adv-x="495" d="M400 0H366L357 51Q290 -12 198 -12Q131 -12 90 26T48 126Q48 282 268 282H353V290Q353 423 225 423Q160 423 97 378L78 406Q138 466 236 466Q315 466 357 418T400 279V0ZM353 242H276Q182
242 142 217T101 133Q101 85 130 58T212 31Q254 31 295 51T353 101V242ZM216 655H253L323 553H280L235 620L187 553H145L216 655Z" />
<glyph unicode="&#xe3;" glyph-name="atilde" horiz-adv-x="495" d="M400 0H366L357 51Q290 -12 198 -12Q131 -12 90 26T48 126Q48 282 268 282H353V290Q353 423 225 423Q160 423 97 378L78 406Q138 466 236 466Q315 466 357 418T400 279V0ZM353 242H276Q182 242
142 217T101 133Q101 85 130 58T212 31Q254 31 295 51T353 101V242ZM377 626Q350 559 302 559Q284 559 251 578Q250 578 249 579Q247 580 246 580Q244 581 239 584L237 585Q205 604 189 604Q172 604 154 591T130 561L109 574Q135 641 189 641Q219 641 255 617Q287
596 306 596Q334 596 356 640L377 626Z" />
<glyph unicode="&#xe4;" glyph-name="adieresis" horiz-adv-x="495" d="M400 0H366L357 51Q290 -12 198 -12Q131 -12 90 26T48 126Q48 282 268 282H353V290Q353 423 225 423Q160 423 97 378L78 406Q138 466 236 466Q315 466 357 418T400 279V0ZM353 242H276Q182
242 142 217T101 133Q101 85 130 58T212 31Q254 31 295 51T353 101V242ZM132 609Q132 624 142 634T168 645Q183 645 193 635T204 609Q204 594 194 584T168 573Q153 573 143 583T132 609ZM272 609Q272 624 282 634T308 645Q323 645 333 635T344 609Q344 594 334
584T308 573Q293 573 283 583T272 609Z" />
<glyph unicode="&#xe5;" glyph-name="aring" horiz-adv-x="495" d="M400 0H366L357 51Q290 -12 198 -12Q131 -12 90 26T48 126Q48 282 268 282H353V290Q353 423 225 423Q160 423 97 378L78 406Q138 466 236 466Q315 466 357 418T400 279V0ZM353 242H276Q182 242
142 217T101 133Q101 85 130 58T212 31Q254 31 295 51T353 101V242ZM176 594Q176 620 194 638T239 657Q265 657 283 639T302 594Q302 568 284 550T239 531Q213 531 195 549T176 594ZM202 594Q202 579 212 569T238 558Q253 558 264 568T275 594Q275 609 264 619T238
630Q223 630 213 620T202 594Z" />
<glyph unicode="&#xe6;" glyph-name="ae" horiz-adv-x="795" d="M735 210H407Q409 127 465 76Q517 31 596 31Q663 31 713 67L732 36Q672 -12 580 -12Q454 -12 392 80Q300 -12 198 -12Q131 -12 90 26T48 126Q48 282 268 282H353V290Q353 423 225 423Q160 423 97
378L78 406Q138 466 236 466Q353 466 388 362Q445 466 552 466Q649 466 698 381Q735 317 735 224V210ZM353 242H276Q182 242 142 217T101 133Q101 85 130 58T212 31Q254 31 295 51T353 101V242ZM408 250H685Q683 333 648 378T551 424Q493 424 453 376T408 250Z"
/>
<glyph unicode="&#xe7;" glyph-name="ccedilla" d="M214 -56L226 -7Q139 9 91 78Q48 139 48 225Q48 335 119 405Q181 466 268 466Q355 466 409 423L390 395Q340 423 283 423Q193 423 143 359Q101 306 101 222Q101 132 155 80Q205 31 290 31Q348 31 401 63L419
33Q363 -12 274 -12H262L257 -32Q267 -30 278 -30Q344 -30 344 -86Q344 -118 319 -139T254 -160Q222 -160 187 -145L198 -112Q223 -126 250 -126Q300 -126 300 -89Q300 -53 250 -53Q232 -53 214 -56Z" />
<glyph unicode="&#xe8;" glyph-name="egrave" horiz-adv-x="512" d="M429 210H101Q103 127 159 76Q211 31 290 31Q357 31 407 67L426 36Q366 -12 274 -12Q169 -12 105 60Q48 125 48 225Q48 331 109 402Q165 466 246 466Q343 466 392 381Q429 317 429 224V210ZM102
250H379Q377 333 342 378T245 424Q187 424 147 376T102 250ZM232 553L156 655H211L259 553H232Z" />
<glyph unicode="&#xe9;" glyph-name="eacute" horiz-adv-x="512" d="M429 210H101Q103 127 159 76Q211 31 290 31Q357 31 407 67L426 36Q366 -12 274 -12Q169 -12 105 60Q48 125 48 225Q48 331 109 402Q165 466 246 466Q343 466 392 381Q429 317 429 224V210ZM102
250H379Q377 333 342 378T245 424Q187 424 147 376T102 250ZM339 655L263 553H236L284 655H339Z" />
<glyph unicode="&#xea;" glyph-name="ecircumflex" horiz-adv-x="512" d="M429 210H101Q103 127 159 76Q211 31 290 31Q357 31 407 67L426 36Q366 -12 274 -12Q169 -12 105 60Q48 125 48 225Q48 331 109 402Q165 466 246 466Q343 466 392 381Q429 317 429 224V210ZM102
250H379Q377 333 342 378T245 424Q187 424 147 376T102 250ZM230 655H267L337 553H294L249 620L201 553H159L230 655Z" />
<glyph unicode="&#xeb;" glyph-name="edieresis" horiz-adv-x="512" d="M429 210H101Q103 127 159 76Q211 31 290 31Q357 31 407 67L426 36Q366 -12 274 -12Q169 -12 105 60Q48 125 48 225Q48 331 109 402Q165 466 246 466Q343 466 392 381Q429 317 429 224V210ZM102
250H379Q377 333 342 378T245 424Q187 424 147 376T102 250ZM143 609Q143 624 153 634T179 645Q194 645 204 635T215 609Q215 594 205 584T179 573Q164 573 154 583T143 609ZM283 609Q283 624 293 634T319 645Q334 645 344 635T355 609Q355 594 345 584T319 573Q304
573 294 583T283 609Z" />
<glyph unicode="&#xec;" glyph-name="igrave" horiz-adv-x="281" d="M153 454V0H106V454H153ZM118 553L42 655H97L145 553H118Z" />
<glyph unicode="&#xed;" glyph-name="iacute" horiz-adv-x="273" d="M221 655L145 553H118L166 655H221ZM156 454V0H109V454H156Z" />
<glyph unicode="&#xee;" glyph-name="icircumflex" horiz-adv-x="281" d="M165 454V0H118V454H165ZM123 655H160L230 553H187L142 620L94 553H52L123 655Z" />
<glyph unicode="&#xef;" glyph-name="idieresis" horiz-adv-x="281" d="M151 454V0H104V454H151ZM23 609Q23 624 33 634T59 645Q74 645 84 635T95 609Q95 594 85 584T59 573Q44 573 34 583T23 609ZM163 609Q163 624 173 634T199 645Q214 645 224 635T235 609Q235
594 225 584T199 573Q184 573 174 583T163 609Z" />
<glyph unicode="&#xf0;" glyph-name="eth" horiz-adv-x="503" d="M159 627L186 645Q252 633 311 583L417 640L441 618L336 563Q443 456 443 276Q443 151 391 72Q335 -12 235 -12Q142 -12 88 66Q48 122 48 187Q48 313 120 370Q171 410 246 410Q332 410 384 352Q368
463 294 543L171 480L148 504L271 566Q230 607 159 627ZM385 301Q334 366 251 366Q183 366 144 323T105 202Q105 123 139 77T232 31Q305 31 346 91T387 260Q387 280 385 301Z" />
<glyph unicode="&#xf1;" glyph-name="ntilde" horiz-adv-x="545" d="M121 403Q190 466 277 466Q359 466 404 413Q448 363 448 272V0H401V267Q401 423 265 423Q177 423 125 354V0H78V454H117L121 403ZM412 640Q385 573 337 573Q319 573 286 592Q285 592 284 593Q282
594 281 594Q279 595 274 598L272 599Q240 618 224 618Q207 618 189 605T165 575L144 588Q170 655 224 655Q254 655 290 631Q322 610 341 610Q369 610 391 654L412 640Z" />
<glyph unicode="&#xf2;" glyph-name="ograve" horiz-adv-x="538" d="M264 466Q367 466 429 387Q480 320 480 226Q480 118 414 50Q355 -12 264 -12Q160 -12 99 67Q48 133 48 226Q48 335 114 404Q173 466 264 466ZM264 424Q185 424 139 359Q101 305 101 226Q101
137 151 81Q196 30 264 30Q342 30 388 95Q427 149 427 226Q427 317 378 373Q333 424 264 424ZM254 553L178 655H233L281 553H254Z" />
<glyph unicode="&#xf3;" glyph-name="oacute" horiz-adv-x="538" d="M264 466Q367 466 429 387Q480 320 480 226Q480 118 414 50Q355 -12 264 -12Q160 -12 99 67Q48 133 48 226Q48 335 114 404Q173 466 264 466ZM264 424Q185 424 139 359Q101 305 101 226Q101
137 151 81Q196 30 264 30Q342 30 388 95Q427 149 427 226Q427 317 378 373Q333 424 264 424ZM346 655L270 553H243L291 655H346Z" />
<glyph unicode="&#xf4;" glyph-name="ocircumflex" horiz-adv-x="538" d="M264 466Q367 466 429 387Q480 320 480 226Q480 118 414 50Q355 -12 264 -12Q160 -12 99 67Q48 133 48 226Q48 335 114 404Q173 466 264 466ZM264 424Q185 424 139 359Q101 305 101 226Q101
137 151 81Q196 30 264 30Q342 30 388 95Q427 149 427 226Q427 317 378 373Q333 424 264 424ZM250 655H287L357 553H314L269 620L221 553H179L250 655Z" />
<glyph unicode="&#xf5;" glyph-name="otilde" horiz-adv-x="538" d="M264 466Q367 466 429 387Q480 320 480 226Q480 118 414 50Q355 -12 264 -12Q160 -12 99 67Q48 133 48 226Q48 335 114 404Q173 466 264 466ZM264 424Q185 424 139 359Q101 305 101 226Q101
137 151 81Q196 30 264 30Q342 30 388 95Q427 149 427 226Q427 317 378 373Q333 424 264 424ZM394 640Q367 573 319 573Q301 573 268 592Q267 592 266 593Q264 594 263 594Q261 595 256 598L254 599Q222 618 206 618Q189 618 171 605T147 575L126 588Q152 655 206
655Q236 655 272 631Q304 610 323 610Q351 610 373 654L394 640Z" />
<glyph unicode="&#xf6;" glyph-name="odieresis" horiz-adv-x="538" d="M264 466Q367 466 429 387Q480 320 480 226Q480 118 414 50Q355 -12 264 -12Q160 -12 99 67Q48 133 48 226Q48 335 114 404Q173 466 264 466ZM264 424Q185 424 139 359Q101 305 101 226Q101
137 151 81Q196 30 264 30Q342 30 388 95Q427 149 427 226Q427 317 378 373Q333 424 264 424ZM164 609Q164 624 174 634T200 645Q215 645 225 635T236 609Q236 594 226 584T200 573Q185 573 175 583T164 609ZM304 609Q304 624 314 634T340 645Q355 645 365 635T376
609Q376 594 366 584T340 573Q325 573 315 583T304 609Z" />
<glyph unicode="&#xf7;" glyph-name="divide" horiz-adv-x="389" d="M195 291Q162 291 162 325Q162 358 195 358Q227 358 227 325Q227 291 195 291ZM47 199V243H342V199H47ZM195 73Q162 73 162 107Q162 141 195 141Q227 141 227 107Q227 73 195 73Z" />
<glyph unicode="&#xf8;" glyph-name="oslash" horiz-adv-x="528" d="M148 21Q48 87 48 226Q48 335 114 404Q173 466 264 466Q304 466 342 451L360 490H403L377 434Q480 367 480 226Q480 118 414 50Q355 -12 264 -12Q222 -12 182 3L167 -30H125L148 21ZM200 44Q230
30 264 30Q342 30 388 95Q427 149 427 226Q427 336 358 391L200 44ZM324 412Q297 424 264 424Q185 424 139 359Q101 305 101 226Q101 120 167 65L324 412Z" />
<glyph unicode="&#xf9;" glyph-name="ugrave" horiz-adv-x="534" d="M389 51Q320 -12 233 -12Q162 -12 118 47Q78 100 78 182V454H125V187Q125 31 245 31Q332 31 385 102V454H432V0H393L389 51ZM240 553L164 655H219L267 553H240Z" />
<glyph unicode="&#xfa;" glyph-name="uacute" horiz-adv-x="534" d="M330 655L254 553H227L275 655H330ZM389 51Q320 -12 233 -12Q162 -12 118 47Q78 100 78 182V454H125V187Q125 31 245 31Q332 31 385 102V454H432V0H393L389 51Z" />
<glyph unicode="&#xfb;" glyph-name="ucircumflex" horiz-adv-x="534" d="M389 51Q320 -12 233 -12Q162 -12 118 47Q78 100 78 182V454H125V187Q125 31 245 31Q332 31 385 102V454H432V0H393L389 51ZM238 655H275L345 553H302L257 620L209 553H167L238 655Z" />
<glyph unicode="&#xfc;" glyph-name="udieresis" horiz-adv-x="534" d="M389 51Q320 -12 233 -12Q162 -12 118 47Q78 100 78 182V454H125V187Q125 31 245 31Q332 31 385 102V454H432V0H393L389 51ZM151 609Q151 624 161 634T187 645Q202 645 212 635T223 609Q223
594 213 584T187 573Q172 573 162 583T151 609ZM291 609Q291 624 301 634T327 645Q342 645 352 635T363 609Q363 594 353 584T327 573Q312 573 302 583T291 609Z" />
<glyph unicode="&#xfd;" glyph-name="yacute" horiz-adv-x="442" d="M427 454L228 -71Q183 -191 106 -191Q58 -191 18 -163L35 -135Q71 -150 97 -150Q129 -150 149 -126T198 -30L210 0H194L15 454H68L226 44L374 454H427ZM301 650L225 548H198L246 650H301Z" />
<glyph unicode="&#xfe;" glyph-name="thorn" horiz-adv-x="533" d="M78 618L127 643V386Q183 466 285 466Q382 466 437 392Q483 330 483 236Q483 112 415 44Q360 -12 280 -12Q191 -12 127 52V-191H78V618ZM127 323V122Q139 84 178 58T262 31Q337 31 384 86Q428
139 428 226Q428 325 378 378Q336 423 269 423Q209 423 163 378Q132 347 127 323Z" />
<glyph unicode="&#xff;" glyph-name="ydieresis" horiz-adv-x="442" d="M427 454L228 -71Q183 -191 106 -191Q58 -191 18 -163L35 -135Q71 -150 97 -150Q129 -150 149 -126T198 -30L210 0H194L15 454H68L226 44L374 454H427ZM118 609Q118 624 128 634T154 645Q169
645 179 635T190 609Q190 594 180 584T154 573Q139 573 129 583T118 609ZM258 609Q258 624 268 634T294 645Q309 645 319 635T330 609Q330 594 320 584T294 573Q279 573 269 583T258 609Z" />
<glyph unicode="&#x2013;" glyph-name="endash" horiz-adv-x="397" d="M73 199V243H324V199H73Z" />
<glyph unicode="&#x2014;" glyph-name="emdash" horiz-adv-x="648" d="M73 199V243H575V199H73Z" />
<glyph unicode="&#x2018;" glyph-name="quoteleft" horiz-adv-x="210" d="M111 576Q146 576 146 543Q146 506 111 506Q74 506 74 557V647L103 657V576H111Z" />
<glyph unicode="&#x2019;" glyph-name="quoteright" horiz-adv-x="210" d="M99 594Q64 594 64 627Q64 664 99 664Q136 664 136 613V522L107 513V594H99Z" />
<glyph unicode="&#x201a;" glyph-name="quotesinglbase" horiz-adv-x="210" d="M99 -1Q64 -1 64 32Q64 69 99 69Q136 69 136 18V-73L107 -82V-1H99Z" />
<glyph unicode="&#x201c;" glyph-name="quotedblleft" horiz-adv-x="318" d="M111 576Q146 576 146 543Q146 506 111 506Q74 506 74 557V647L103 657V576H111ZM219 576Q254 576 254 543Q254 506 219 506Q182 506 182 557V647L211 657V576H219Z" />
<glyph unicode="&#x201d;" glyph-name="quotedblright" horiz-adv-x="318" d="M206 592Q171 592 171 625Q171 662 206 662Q243 662 243 611V521L214 512V592H206ZM98 592Q63 592 63 625Q63 662 98 662Q135 662 135 611V521L106 512V592H98Z" />
<glyph unicode="&#x201e;" glyph-name="quotedblbase" horiz-adv-x="318" d="M207 -2Q172 -2 172 31Q172 68 207 68Q244 68 244 17V-73L215 -83V-2H207ZM99 -2Q64 -2 64 31Q64 68 99 68Q136 68 136 17V-73L107 -83V-2H99Z" />
<glyph unicode="&#x2022;" glyph-name="bullet" horiz-adv-x="274" d="M74 328Q74 354 92 372T137 391Q163 391 181 373T200 328Q200 302 182 284T137 265Q111 265 93 283T74 328Z" />
<glyph unicode="&#x2039;" glyph-name="guilsinglleft" horiz-adv-x="292" d="M250 24Q195 43 141 101T52 237Q87 316 141 374T250 451V406Q154 356 101 237Q154 119 250 69V24Z" />
<glyph unicode="&#x203a;" glyph-name="guilsinglright" horiz-adv-x="292" d="M42 24V69Q138 119 191 237Q138 356 42 406V451Q97 432 150 374T240 237Q204 159 151 101T42 24Z" />
</font>
</defs>
</svg>
